  0
SECTION
  2
HEADER
  9
$ACADVER
  1
AC1015
  9
$ACADMAINTVER
 70
     6
  9
$DWGCODEPAGE
  3
ANSI_949
  9
$INSBASE
 10
0.0
 20
0.0
 30
0.0
  9
$EXTMIN
 10
-59.27194392901702
 20
-49.97180738881174
 30
0.0
  9
$EXTMAX
 10
83.98216023538038
 20
51.25757587845354
 30
0.0
  9
$LIMMIN
 10
0.0
 20
0.0
  9
$LIMMAX
 10
420.0
 20
297.0
  9
$ORTHOMODE
 70
     0
  9
$REGENMODE
 70
     1
  9
$FILLMODE
 70
     1
  9
$QTEXTMODE
 70
     0
  9
$MIRRTEXT
 70
     1
  9
$LTSCALE
 40
1.0
  9
$ATTMODE
 70
     1
  9
$TEXTSIZE
 40
3.5
  9
$TRACEWID
 40
1.0
  9
$TEXTSTYLE
  7
Standard
  9
$CLAYER
  8
0
  9
$CELTYPE
  6
ByLayer
  9
$CECOLOR
 62
   256
  9
$CELTSCALE
 40
1.0
  9
$DISPSILH
 70
     0
  9
$DIMSCALE
 40
1.0
  9
$DIMASZ
 40
3.302
  9
$DIMEXO
 40
1.0
  9
$DIMDLI
 40
3.75
  9
$DIMRND
 40
0.0
  9
$DIMDLE
 40
0.0
  9
$DIMEXE
 40
1.0
  9
$DIMTP
 40
0.0
  9
$DIMTM
 40
0.0
  9
$DIMTXT
 40
3.5
  9
$DIMCEN
 40
2.5
  9
$DIMTSZ
 40
0.0
  9
$DIMTOL
 70
     0
  9
$DIMLIM
 70
     0
  9
$DIMTIH
 70
     1
  9
$DIMTOH
 70
     1
  9
$DIMSE1
 70
     0
  9
$DIMSE2
 70
     0
  9
$DIMTAD
 70
     1
  9
$DIMZIN
 70
     0
  9
$DIMBLK
  1

  9
$DIMASO
 70
     1
  9
$DIMSHO
 70
     1
  9
$DIMPOST
  1

  9
$DIMAPOST
  1

  9
$DIMALT
 70
     0
  9
$DIMALTD
 70
     3
  9
$DIMALTF
 40
0.0393700787401575
  9
$DIMLFAC
 40
1.0
  9
$DIMTOFL
 70
     1
  9
$DIMTVP
 40
0.0
  9
$DIMTIX
 70
     0
  9
$DIMSOXD
 70
     0
  9
$DIMSAH
 70
     0
  9
$DIMBLK1
  1

  9
$DIMBLK2
  1

  9
$DIMSTYLE
  2
ISO-25
  9
$DIMCLRD
 70
     0
  9
$DIMCLRE
 70
     0
  9
$DIMCLRT
 70
     0
  9
$DIMTFAC
 40
1.0
  9
$DIMGAP
 40
1.524
  9
$DIMJUST
 70
     0
  9
$DIMSD1
 70
     0
  9
$DIMSD2
 70
     0
  9
$DIMTOLJ
 70
     0
  9
$DIMTZIN
 70
     0
  9
$DIMALTZ
 70
     0
  9
$DIMALTTZ
 70
     0
  9
$DIMUPT
 70
     0
  9
$DIMDEC
 70
     2
  9
$DIMTDEC
 70
     2
  9
$DIMALTU
 70
     2
  9
$DIMALTTD
 70
     3
  9
$DIMTXSTY
  7
Standard
  9
$DIMAUNIT
 70
     0
  9
$DIMADEC
 70
     2
  9
$DIMALTRND
 40
0.0
  9
$DIMAZIN
 70
     0
  9
$DIMDSEP
 70
    44
  9
$DIMATFIT
 70
     3
  9
$DIMFRAC
 70
     0
  9
$DIMLDRBLK
  1

  9
$DIMLUNIT
 70
     2
  9
$DIMLWD
 70
    -2
  9
$DIMLWE
 70
    -2
  9
$DIMTMOVE
 70
     0
  9
$LUNITS
 70
     2
  9
$LUPREC
 70
     2
  9
$SKETCHINC
 40
1.0
  9
$FILLETRAD
 40
10.0
  9
$AUNITS
 70
     0
  9
$AUPREC
 70
     2
  9
$MENU
  1
.
  9
$ELEVATION
 40
0.0
  9
$PELEVATION
 40
0.0
  9
$THICKNESS
 40
0.0
  9
$LIMCHECK
 70
     0
  9
$CHAMFERA
 40
0.0
  9
$CHAMFERB
 40
0.0
  9
$CHAMFERC
 40
0.0
  9
$CHAMFERD
 40
0.0
  9
$SKPOLY
 70
     0
  9
$TDCREATE
 40
2458333.723019722
  9
$TDUCREATE
 40
2458333.348019722
  9
$TDUPDATE
 40
2458340.437670417
  9
$TDUUPDATE
 40
2458340.062670417
  9
$TDINDWG
 40
0.0001134259
  9
$TDUSRTIMER
 40
2458340.061159155
  9
$USRTIMER
 70
     1
  9
$ANGBASE
 50
0.0
  9
$ANGDIR
 70
     0
  9
$PDMODE
 70
     0
  9
$PDSIZE
 40
-1.0
  9
$PLINEWID
 40
0.0
  9
$SPLFRAME
 70
     0
  9
$SPLINETYPE
 70
     6
  9
$SPLINESEGS
 70
     8
  9
$HANDSEED
  5
17C
  9
$SURFTAB1
 70
     6
  9
$SURFTAB2
 70
     6
  9
$SURFTYPE
 70
     6
  9
$SURFU
 70
     6
  9
$SURFV
 70
     6
  9
$UCSBASE
  2

  9
$UCSNAME
  2

  9
$UCSORG
 10
0.0
 20
0.0
 30
0.0
  9
$UCSXDIR
 10
1.0
 20
0.0
 30
0.0
  9
$UCSYDIR
 10
0.0
 20
1.0
 30
0.0
  9
$UCSORTHOREF
  2

  9
$UCSORTHOVIEW
 70
     0
  9
$UCSORGTOP
 10
0.0
 20
0.0
 30
0.0
  9
$UCSORGBOTTOM
 10
0.0
 20
0.0
 30
0.0
  9
$UCSORGLEFT
 10
0.0
 20
0.0
 30
0.0
  9
$UCSORGRIGHT
 10
0.0
 20
0.0
 30
0.0
  9
$UCSORGFRONT
 10
0.0
 20
0.0
 30
0.0
  9
$UCSORGBACK
 10
0.0
 20
0.0
 30
0.0
  9
$PUCSBASE
  2

  9
$PUCSNAME
  2

  9
$PUCSORG
 10
0.0
 20
0.0
 30
0.0
  9
$PUCSXDIR
 10
1.0
 20
0.0
 30
0.0
  9
$PUCSYDIR
 10
0.0
 20
1.0
 30
0.0
  9
$PUCSORTHOREF
  2

  9
$PUCSORTHOVIEW
 70
     0
  9
$PUCSORGTOP
 10
0.0
 20
0.0
 30
0.0
  9
$PUCSORGBOTTOM
 10
0.0
 20
0.0
 30
0.0
  9
$PUCSORGLEFT
 10
0.0
 20
0.0
 30
0.0
  9
$PUCSORGRIGHT
 10
0.0
 20
0.0
 30
0.0
  9
$PUCSORGFRONT
 10
0.0
 20
0.0
 30
0.0
  9
$PUCSORGBACK
 10
0.0
 20
0.0
 30
0.0
  9
$USERI1
 70
     0
  9
$USERI2
 70
     0
  9
$USERI3
 70
     0
  9
$USERI4
 70
     0
  9
$USERI5
 70
     0
  9
$USERR1
 40
0.0
  9
$USERR2
 40
0.0
  9
$USERR3
 40
0.0
  9
$USERR4
 40
0.0
  9
$USERR5
 40
0.0
  9
$WORLDVIEW
 70
     1
  9
$SHADEDGE
 70
     3
  9
$SHADEDIF
 70
    70
  9
$TILEMODE
 70
     1
  9
$MAXACTVP
 70
    64
  9
$PINSBASE
 10
0.0
 20
0.0
 30
0.0
  9
$PLIMCHECK
 70
     0
  9
$PEXTMIN
 10
1.000000000000000E+20
 20
1.000000000000000E+20
 30
1.000000000000000E+20
  9
$PEXTMAX
 10
-1.000000000000000E+20
 20
-1.000000000000000E+20
 30
-1.000000000000000E+20
  9
$PLIMMIN
 10
0.0
 20
0.0
  9
$PLIMMAX
 10
0.0
 20
0.0
  9
$UNITMODE
 70
     0
  9
$VISRETAIN
 70
     1
  9
$PLINEGEN
 70
     0
  9
$PSLTSCALE
 70
     1
  9
$TREEDEPTH
 70
  3020
  9
$CMLSTYLE
  2
Standard
  9
$CMLJUST
 70
     0
  9
$CMLSCALE
 40
20.0
  9
$PROXYGRAPHICS
 70
     1
  9
$MEASUREMENT
 70
     1
  9
$CELWEIGHT
370
    -1
  9
$ENDCAPS
280
     0
  9
$JOINSTYLE
280
     0
  9
$LWDISPLAY
290
     1
  9
$INSUNITS
 70
     4
  9
$HYPERLINKBASE
  1

  9
$STYLESHEET
  1

  9
$XEDIT
290
     1
  9
$CEPSNTYPE
380
     0
  9
$PSTYLEMODE
290
     1
  9
$FINGERPRINTGUID
  2
{19A72BB5-F907-451F-8E2A-8CA30AD0AEEC}
  9
$VERSIONGUID
  2
{FAEB1C32-E019-11D5-929B-00C0DF256EC4}
  9
$EXTNAMES
290
     1
  9
$PSVPSCALE
 40
0.0
  9
$OLESTARTUP
290
     0
  0
ENDSEC
  0
SECTION
  2
CLASSES
  0
CLASS
  1
ACDBDICTIONARYWDFLT
  2
AcDbDictionaryWithDefault
  3
ObjectDBX Classes
 90
        0
280
     0
281
     0
  0
CLASS
  1
VISUALSTYLE
  2
AcDbVisualStyle
  3
ObjectDBX Classes
 90
     4095
280
     0
281
     0
  0
CLASS
  1
MATERIAL
  2
AcDbMaterial
  3
ObjectDBX Classes
 90
     1153
280
     0
281
     0
  0
CLASS
  1
SCALE
  2
AcDbScale
  3
ObjectDBX Classes
 90
     1153
280
     0
281
     0
  0
CLASS
  1
SUN
  2
AcDbSun
  3
SCENEOE
 90
     1153
280
     0
281
     0
  0
CLASS
  1
ACDBPLACEHOLDER
  2
AcDbPlaceHolder
  3
ObjectDBX Classes
 90
        0
280
     0
281
     0
  0
CLASS
  1
LAYOUT
  2
AcDbLayout
  3
ObjectDBX Classes
 90
        0
280
     0
281
     0
  0
CLASS
  1
TABLESTYLE
  2
AcDbTableStyle
  3
ObjectDBX Classes
 90
     4095
280
     0
281
     0
  0
CLASS
  1
MLEADERSTYLE
  2
AcDbMLeaderStyle
  3
ACDB_MLEADERSTYLE_CLASS
 90
     4095
280
     0
281
     0
  0
CLASS
  1
RASTERVARIABLES
  2
AcDbRasterVariables
  3
ISM
 90
        0
280
     0
281
     0
  0
CLASS
  1
DIMASSOC
  2
AcDbDimAssoc
  3
"AcDbDimAssoc|Product Desc:     AcDim ARX App For Dimension|Company:          Autodesk, Inc.|WEB Address:      www.autodesk.com"
 90
        0
280
     0
281
     0
  0
CLASS
  1
DICTIONARYVAR
  2
AcDbDictionaryVar
  3
ObjectDBX Classes
 90
        0
280
     0
281
     0
  0
ENDSEC
  0
SECTION
  2
TABLES
  0
TABLE
  2
VPORT
  5
8
330
0
100
AcDbSymbolTable
 70
     1
  0
VPORT
  5
29
330
8
100
AcDbSymbolTableRecord
100
AcDbViewportTableRecord
  2
*Active
 70
     0
 10
0.0
 20
0.0
 11
1.0
 21
1.0
 12
14.45994199710452
 22
-5.609728023917796
 13
0.0
 23
0.0
 14
10.0
 24
10.0
 15
10.0
 25
10.0
 16
0.0
 26
0.0
 36
1.0
 17
0.0
 27
0.0
 37
0.0
 40
145.3783425992767
 41
1.444267515923567
 42
50.0
 43
0.0
 44
0.0
 50
0.0
 51
0.0
 71
    16
 72
  2000
 73
     1
 74
     3
 75
     0
 76
     0
 77
     0
 78
     0
281
     0
 65
     1
110
0.0
120
0.0
130
0.0
111
1.0
121
0.0
131
0.0
112
0.0
122
1.0
132
0.0
 79
     0
146
0.0
  0
ENDTAB
  0
TABLE
  2
LTYPE
  5
5
330
0
100
AcDbSymbolTable
 70
     6
  0
LTYPE
  5
14
330
5
100
AcDbSymbolTableRecord
100
AcDbLinetypeTableRecord
  2
ByBlock
 70
     0
  3

 72
    65
 73
     0
 40
0.0
  0
LTYPE
  5
15
330
5
100
AcDbSymbolTableRecord
100
AcDbLinetypeTableRecord
  2
ByLayer
 70
     0
  3

 72
    65
 73
     0
 40
0.0
  0
LTYPE
  5
16
330
5
100
AcDbSymbolTableRecord
100
AcDbLinetypeTableRecord
  2
Continuous
 70
     0
  3
Solid line
 72
    65
 73
     0
 40
0.0
  0
LTYPE
  5
6A
330
5
100
AcDbSymbolTableRecord
100
AcDbLinetypeTableRecord
  2
HIDDEN
 70
     0
  3
Hidden __ __ __ __ __ __ __ __ __ __ __ __ __ __
 72
    65
 73
     2
 40
1.905
 49
1.27
 74
     0
 49
-0.635
 74
     0
  0
LTYPE
  5
6B
330
5
100
AcDbSymbolTableRecord
100
AcDbLinetypeTableRecord
  2
PHANTOM
 70
     0
  3
Phantom ______  __  __  ______  __  __  ______
 72
    65
 73
     6
 40
12.7
 49
6.35
 74
     0
 49
-1.27
 74
     0
 49
1.27
 74
     0
 49
-1.27
 74
     0
 49
1.27
 74
     0
 49
-1.27
 74
     0
  0
LTYPE
  5
6C
330
5
100
AcDbSymbolTableRecord
100
AcDbLinetypeTableRecord
  2
CENTER
 70
     0
  3
Center ____ _ ____ _ ____ _ ____ _ ____ _ ____
 72
    65
 73
     4
 40
10.16
 49
6.35
 74
     0
 49
-1.27
 74
     0
 49
1.27
 74
     0
 49
-1.27
 74
     0
  0
LTYPE
  5
6D
330
5
100
AcDbSymbolTableRecord
100
AcDbLinetypeTableRecord
  2
CENTERX2
 70
     0
  3
Center (2x) ________  __  ________  __  _____
 72
    65
 73
     4
 40
20.32
 49
12.7
 74
     0
 49
-2.54
 74
     0
 49
2.54
 74
     0
 49
-2.54
 74
     0
  0
LTYPE
  5
6E
330
5
100
AcDbSymbolTableRecord
100
AcDbLinetypeTableRecord
  2
DOT2
 70
     0
  3
Dot (.5x) ........................................
 72
    65
 73
     2
 40
0.635
 49
0.0
 74
     0
 49
-0.635
 74
     0
  0
ENDTAB
  0
TABLE
  2
LAYER
  5
2
330
0
100
AcDbSymbolTable
 70
    17
  0
LAYER
  5
10
330
2
100
AcDbSymbolTableRecord
100
AcDbLayerTableRecord
  2
0
 70
     0
 62
     7
  6
Continuous
370
    -3
390
F
  0
LAYER
  5
6F
330
2
100
AcDbSymbolTableRecord
100
AcDbLayerTableRecord
  2
FORMAT
 70
     0
 62
     2
  6
Continuous
370
    -3
390
F
  0
LAYER
  5
70
330
2
100
AcDbSymbolTableRecord
100
AcDbLayerTableRecord
  2
외형선
 70
     0
 62
   100
  6
Continuous
370
    30
390
F
  0
LAYER
  5
71
330
2
100
AcDbSymbolTableRecord
100
AcDbLayerTableRecord
  2
숨은선
 70
     0
 62
     2
  6
HIDDEN
370
    15
390
F
  0
LAYER
  5
72
330
2
100
AcDbSymbolTableRecord
100
AcDbLayerTableRecord
  2
중심선
 70
     0
 62
     1
  6
CENTERX2
370
    -3
390
F
  0
LAYER
  5
73
330
2
100
AcDbSymbolTableRecord
100
AcDbLayerTableRecord
  2
파단선
 70
     0
 62
     4
  6
Continuous
370
    -3
390
F
  0
LAYER
  5
74
330
2
100
AcDbSymbolTableRecord
100
AcDbLayerTableRecord
  2
해칭선
 70
     0
 62
     4
  6
Continuous
370
    -3
390
F
  0
LAYER
  5
75
330
2
100
AcDbSymbolTableRecord
100
AcDbLayerTableRecord
  2
가는실선
 70
     0
 62
     4
  6
Continuous
370
    -3
390
F
  0
LAYER
  5
76
330
2
100
AcDbSymbolTableRecord
100
AcDbLayerTableRecord
  2
치수_보조선
 70
     0
 62
     4
  6
Continuous
370
    -3
390
F
  0
LAYER
  5
77
330
2
100
AcDbSymbolTableRecord
100
AcDbLayerTableRecord
  2
치수문자_일반주서
 70
     0
 62
     7
  6
Continuous
370
    15
390
F
  0
LAYER
  5
78
330
2
100
AcDbSymbolTableRecord
100
AcDbLayerTableRecord
  2
개별주서
 70
     0
 62
   100
  6
Continuous
370
    30
390
F
  0
LAYER
  5
79
330
2
100
AcDbSymbolTableRecord
100
AcDbLayerTableRecord
  2
중간선
 70
     0
 62
     2
  6
Continuous
370
    15
390
F
  0
LAYER
  5
7A
330
2
100
AcDbSymbolTableRecord
100
AcDbLayerTableRecord
  2
윤곽선
 70
     0
 62
     3
  6
Continuous
370
    40
390
F
  0
LAYER
  5
7B
330
2
100
AcDbSymbolTableRecord
100
AcDbLayerTableRecord
  2
중심마크
 70
     0
 62
   100
  6
Continuous
370
    30
390
F
  0
LAYER
  5
7C
330
2
100
AcDbSymbolTableRecord
100
AcDbLayerTableRecord
  2
가상선
 70
     0
 62
     4
  6
PHANTOM
370
    -3
390
F
  0
LAYER
  5
7D
330
2
100
AcDbSymbolTableRecord
100
AcDbLayerTableRecord
  2
특수지정선
 70
     0
 62
     5
  6
CENTERX2
370
    60
390
F
  0
LAYER
  5
147
330
2
100
AcDbSymbolTableRecord
100
AcDbLayerTableRecord
  2
Defpoints
 70
     0
 62
     7
  6
Continuous
290
     0
370
    -3
390
F
  0
ENDTAB
  0
TABLE
  2
STYLE
  5
3
330
0
100
AcDbSymbolTable
 70
     2
  0
STYLE
  5
11
330
3
100
AcDbSymbolTableRecord
100
AcDbTextStyleTableRecord
  2
Standard
 70
     0
 40
0.0
 41
1.0
 50
0.0
 71
     0
 42
3.5
  3
txt
  4

  0
STYLE
  5
93
330
3
100
AcDbSymbolTableRecord
100
AcDbTextStyleTableRecord
  2
SLDTEXTSTYLE0
 70
     0
 40
0.0
 41
0.75
 50
0.0
 71
     0
 42
3.5
  3
TXT
  4

  0
ENDTAB
  0
TABLE
  2
VIEW
  5
6
330
0
100
AcDbSymbolTable
 70
     0
  0
ENDTAB
  0
TABLE
  2
UCS
  5
7
330
0
100
AcDbSymbolTable
 70
     0
  0
ENDTAB
  0
TABLE
  2
APPID
  5
9
330
0
100
AcDbSymbolTable
 70
     2
  0
APPID
  5
12
330
9
100
AcDbSymbolTableRecord
100
AcDbRegAppTableRecord
  2
ACAD
 70
     0
  0
APPID
  5
15D
330
9
100
AcDbSymbolTableRecord
100
AcDbRegAppTableRecord
  2
PE_DIMMEASUREMENT
 70
     0
  0
ENDTAB
  0
TABLE
  2
DIMSTYLE
  5
A
330
0
100
AcDbSymbolTable
 70
     3
100
AcDbDimStyleTable
  0
DIMSTYLE
105
27
330
A
100
AcDbSymbolTableRecord
100
AcDbDimStyleTableRecord
  2
ISO-25
 70
     0
 41
2.5
 42
0.625
 43
3.75
 44
1.25
 73
     0
 74
     0
 77
     1
 78
     8
140
2.5
141
2.5
143
0.03937007874016
147
0.625
171
     3
172
     1
178
     0
271
     2
272
     2
274
     3
278
    44
283
     0
284
     8
340
11
  0
DIMSTYLE
105
DF
102
{ACAD_REACTORS
330
DE
330
108
330
14A
330
161
102
}
330
A
100
AcDbSymbolTableRecord
100
AcDbDimStyleTableRecord
  2
SLDDIMSTYLE0
 70
     0
 41
3.302
 44
0.0
 45
0.000000001
 73
     0
 74
     0
 77
     1
 78
     4
 79
     1
140
3.5
143
0.0393700787401575
147
0.875
148
0.000000001
170
     1
172
     1
173
     1
178
     0
271
     2
272
     2
276
     2
284
    12
289
     0
340
93
  0
DIMSTYLE
105
F5
102
{ACAD_REACTORS
330
F4
102
}
330
A
100
AcDbSymbolTableRecord
100
AcDbDimStyleTableRecord
  2
SLDDIMSTYLE1
 70
     0
 41
3.302
 44
0.0
 45
0.000000001
 73
     0
 74
     0
 77
     1
 78
     4
 79
     1
140
3.5
143
0.0393700787401575
147
0.875
148
0.000000001
170
     1
173
     1
178
     0
271
     2
272
     2
276
     2
284
    12
340
93
  0
ENDTAB
  0
TABLE
  2
BLOCK_RECORD
  5
1
330
0
100
AcDbSymbolTable
 70
     8
  0
BLOCK_RECORD
  5
1F
330
1
100
AcDbSymbolTableRecord
100
AcDbBlockTableRecord
  2
*Model_Space
340
22
  0
BLOCK_RECORD
  5
1B
330
1
100
AcDbSymbolTableRecord
100
AcDbBlockTableRecord
  2
*Paper_Space
340
1E
  0
BLOCK_RECORD
  5
23
330
1
100
AcDbSymbolTableRecord
100
AcDbBlockTableRecord
  2
*Paper_Space0
340
26
  0
BLOCK_RECORD
  5
7E
330
1
100
AcDbSymbolTableRecord
100
AcDbBlockTableRecord
  2
블럭10
340
0
102
{BLKREFS
331
D6
102
}
  0
BLOCK_RECORD
  5
E0
330
1
100
AcDbSymbolTableRecord
100
AcDbBlockTableRecord
  2
_D
340
0
  0
BLOCK_RECORD
  5
F6
330
1
100
AcDbSymbolTableRecord
100
AcDbBlockTableRecord
  2
_D_1
340
0
  0
BLOCK_RECORD
  5
109
330
1
100
AcDbSymbolTableRecord
100
AcDbBlockTableRecord
  2
_D_2
340
0
  0
BLOCK_RECORD
  5
11C
330
1
100
AcDbSymbolTableRecord
100
AcDbBlockTableRecord
  2
SW_DOWELSYMBOL_0
340
0
102
{BLKREFS
331
122
102
}
  0
BLOCK_RECORD
  5
14D
330
1
100
AcDbSymbolTableRecord
100
AcDbBlockTableRecord
  2
*D6
340
0
  0
BLOCK_RECORD
  5
164
330
1
100
AcDbSymbolTableRecord
100
AcDbBlockTableRecord
  2
*D7
340
0
  0
ENDTAB
  0
ENDSEC
  0
SECTION
  2
BLOCKS
  0
BLOCK
  5
20
330
1F
100
AcDbEntity
  8
0
100
AcDbBlockBegin
  2
*Model_Space
 70
     0
 10
0.0
 20
0.0
 30
0.0
  3
*Model_Space
  1
*Model_Space
  0
ENDBLK
  5
21
330
1F
100
AcDbEntity
  8
0
100
AcDbBlockEnd
  0
BLOCK
  5
1C
330
1B
100
AcDbEntity
 67
     1
  8
0
100
AcDbBlockBegin
  2
*Paper_Space
 70
     0
 10
0.0
 20
0.0
 30
0.0
  3
*Paper_Space
  1
*Paper_Space
  0
ENDBLK
  5
1D
330
1B
100
AcDbEntity
 67
     1
  8
0
100
AcDbBlockEnd
  0
BLOCK
  5
24
330
23
100
AcDbEntity
  8
0
100
AcDbBlockBegin
  2
*Paper_Space0
 70
     0
 10
0.0
 20
0.0
 30
0.0
  3
*Paper_Space0
  1
*Paper_Space0
  0
ENDBLK
  5
25
330
23
100
AcDbEntity
  8
0
100
AcDbBlockEnd
  0
BLOCK
  5
7F
330
7E
100
AcDbEntity
  8
0
100
AcDbBlockBegin
  2
블럭10
 70
     2
 10
0.0
 20
0.0
 30
0.0
  3
블럭10
  1
블럭10
  0
ELLIPSE
  5
81
330
7E
100
AcDbEntity
  8
중심선
100
AcDbEllipse
 10
20.54032771741204
 20
12.0471743016438
 30
0.0
 11
6.600054785286829
 21
-1.261213355974178E-13
 31
0.0
210
0.0
220
0.0
230
1.0
 40
0.636358354079598
 41
0.9219305317359503
 42
6.513795318482858
  0
ELLIPSE
  5
82
330
7E
100
AcDbEntity
  8
중심선
100
AcDbEllipse
 10
20.54032771746488
 20
12.04717430159265
 30
0.0
 11
3.960054785062283
 21
1.540847449632565E-10
 31
0.0
210
0.0
220
0.0
230
1.0
 40
0.3939339440162632
 41
1.131841032648279
 42
5.62031148352944
  0
LINE
  5
83
330
7E
100
AcDbEntity
  8
중심선
100
AcDbLine
 10
2.268634060543552
 20
16.24717430164393
 30
0.0
 11
5.714909304380834
 21
16.24717430164393
 31
0.0
  0
LINE
  5
84
330
7E
100
AcDbEntity
  8
중심선
100
AcDbLine
 10
5.245725140726316
 20
7.84717430164391
 30
0.0
 11
8.692000384563599
 21
7.84717430164391
 31
0.0
  0
LINE
  5
85
330
7E
100
AcDbEntity
  8
중심선
100
AcDbLine
 10
15.74043728645272
 20
16.24717430164393
 30
0.0
 11
8.692000384563599
 21
7.84717430164391
 31
0.0
  0
LINE
  5
86
330
7E
100
AcDbEntity
  8
중심선
100
AcDbLine
 10
0.1404042013395286
 20
13.71084872107135
 30
0.0
 11
3.58671253028996
 21
13.71088815037384
 31
0.0
  0
LINE
  5
87
330
7E
100
AcDbEntity
  8
중심선
100
AcDbLine
 10
2.750260043222114
 20
10.84717430164391
 30
0.0
 11
6.196535287059397
 21
10.84717430164391
 31
0.0
  0
LINE
  5
88
330
7E
100
AcDbEntity
  8
중심선
100
AcDbLine
 10
12.29416204261559
 20
16.24717430164393
 30
0.0
 11
5.245725140726316
 21
7.84717430164391
 31
0.0
  0
LINE
  5
89
330
7E
100
AcDbEntity
  8
중심선
100
AcDbLine
 10
10.72767329541681
 20
16.24717430164393
 30
0.0
 11
6.196535287059397
 21
10.84717430164391
 31
0.0
  0
LINE
  5
8A
330
7E
100
AcDbEntity
  8
중심선
100
AcDbLine
 10
7.28139805157953
 20
16.24717430164393
 30
0.0
 11
2.750260043222114
 21
10.84717430164391
 31
0.0
  0
LINE
  5
8B
330
7E
100
AcDbEntity
  8
중심선
100
AcDbLine
 10
5.714909304380834
 20
16.24717430164393
 30
0.0
 11
3.58671253028996
 21
13.71088815037384
 31
0.0
  0
LINE
  5
8C
330
7E
100
AcDbEntity
  8
중심선
100
AcDbLine
 10
2.268634060543552
 20
16.24717430164393
 30
0.0
 11
0.1404042013395286
 21
13.71084872107135
 31
0.0
  0
LINE
  5
8D
330
7E
100
AcDbEntity
  8
중심선
100
AcDbLine
 10
7.28139805157953
 20
16.24717430164393
 30
0.0
 11
10.72767329541681
 21
16.24717430164393
 31
0.0
  0
LINE
  5
8E
330
7E
100
AcDbEntity
  8
중심선
100
AcDbLine
 10
12.29416204261559
 20
16.24717430164393
 30
0.0
 11
15.74043728645272
 21
16.24717430164393
 31
0.0
  0
LINE
  5
8F
330
7E
100
AcDbEntity
  8
중심선
100
AcDbLine
 10
19.22036997980202
 20
11.08717430171403
 30
0.0
 11
23.66174974927406
 21
11.08717430171406
 31
0.0
  0
LINE
  5
90
330
7E
100
AcDbEntity
  8
중심선
100
AcDbLine
 10
19.22039502424796
 20
13.00717430171391
 30
0.0
 11
19.22036997980202
 21
11.08717430171403
 31
0.0
  0
LINE
  5
91
330
7E
100
AcDbEntity
  8
중심선
100
AcDbLine
 10
19.22039502424796
 20
13.00717430171391
 30
0.0
 11
26.96566020931264
 21
13.00717430171391
 31
0.0
  0
LINE
  5
92
330
7E
100
AcDbEntity
  8
중심선
100
AcDbLine
 10
22.22332737316547
 20
13.45928029700563
 30
0.0
 11
24.52862924686651
 21
15.39360700705356
 31
0.0
  0
ATTDEF
  5
94
330
7E
100
AcDbEntity
  8
FORMAT
 62
     2
100
AcDbText
 10
-9.18129528874128
 20
2.075366912832191
 30
0.0
 40
4.233333333333333
  1
E5077116 [ 3 FLUTE ]
 41
0.75
  7
SLDTEXTSTYLE0
 11
-9.18129528874128
 21
-0.0412997538344756
 31
0.0
100
AcDbAttributeDefinition
  3

  2
AUTOATTR0
 70
     0
 74
     1
  0
ENDBLK
  5
80
330
7E
100
AcDbEntity
  8
0
100
AcDbBlockEnd
  0
BLOCK
  5
E1
330
E0
100
AcDbEntity
  8
0
100
AcDbBlockBegin
  2
_D
 70
     0
 10
0.0
 20
0.0
 30
0.0
  3
_D
  1
_D
  0
LINE
  5
E3
330
E0
100
AcDbEntity
  8
치수문자_일반주서
 62
     0
370
    -2
100
AcDbLine
 10
60.6749081826537
 20
3.221081718727606
 30
0.0
 11
60.6749081826537
 21
34.28929269787923
 31
0.0
  0
LINE
  5
E4
330
E0
100
AcDbEntity
  8
치수문자_일반주서
 62
     0
370
    -2
100
AcDbLine
 10
9.874908182653712
 20
4.129052450167547
 30
0.0
 11
9.874908182653712
 21
34.28929269787923
 31
0.0
  0
LINE
  5
E5
330
E0
100
AcDbEntity
  8
치수문자_일반주서
 62
     0
370
    -2
100
AcDbLine
 10
57.3729081826537
 20
34.28929269787923
 30
0.0
 11
13.17690818265371
 21
34.28929269787923
 31
0.0
  0
SOLID
  5
E6
330
E0
100
AcDbEntity
  8
치수문자_일반주서
 62
     0
100
AcDbTrace
 10
57.3729081826537
 20
33.73895936454589
 30
0.0
 11
57.3729081826537
 21
34.83962603121256
 31
0.0
 12
60.6749081826537
 22
34.28929269787923
 32
0.0
 13
60.6749081826537
 23
34.28929269787923
 33
0.0
  0
SOLID
  5
E7
330
E0
100
AcDbEntity
  8
치수문자_일반주서
 62
     0
100
AcDbTrace
 10
13.17690818265371
 20
34.83962603121256
 30
0.0
 11
13.17690818265371
 21
33.73895936454589
 31
0.0
 12
9.874908182653712
 22
34.28929269787923
 32
0.0
 13
9.874908182653712
 23
34.28929269787923
 33
0.0
  0
MTEXT
  5
E8
330
E0
100
AcDbEntity
  8
치수문자_일반주서
 62
     0
100
AcDbMText
 10
35.2749081826537
 20
38.66429269787923
 30
0.0
 40
3.5
 41
0.0
 71
     2
 72
     1
  1
\A1;50.80 [2]
  7
SLDTEXTSTYLE0
 73
     1
 44
1.0
  0
POINT
  5
E9
330
E0
100
AcDbEntity
  8
Defpoints
 62
     0
100
AcDbPoint
 10
60.6749081826537
 20
3.158581718727606
 30
0.0
  0
POINT
  5
EA
330
E0
100
AcDbEntity
  8
Defpoints
 62
     0
100
AcDbPoint
 10
9.874908182653712
 20
4.066552450167547
 30
0.0
  0
POINT
  5
EB
330
E0
100
AcDbEntity
  8
Defpoints
 62
     0
100
AcDbPoint
 10
9.874908182653712
 20
34.28929269787923
 30
0.0
  0
ENDBLK
  5
E2
330
E0
100
AcDbEntity
  8
0
100
AcDbBlockEnd
  0
BLOCK
  5
F7
330
F6
100
AcDbEntity
  8
0
100
AcDbBlockBegin
  2
_D_1
 70
     0
 10
0.0
 20
0.0
 30
0.0
  3
_D_1
  1
_D_1
  0
LINE
  5
F9
330
F6
100
AcDbEntity
  8
치수문자_일반주서
 62
     0
370
    -2
100
AcDbLine
 10
60.6749081826537
 20
3.221081718727606
 30
0.0
 11
60.6749081826537
 21
46.88257587845354
 31
0.0
  0
LINE
  5
FA
330
F6
100
AcDbEntity
  8
치수문자_일반주서
 62
     0
370
    -2
100
AcDbLine
 10
-40.9250918173463
 20
5.607335151814106
 30
0.0
 11
-40.9250918173463
 21
46.88257587845354
 31
0.0
  0
LINE
  5
FB
330
F6
100
AcDbEntity
  8
치수문자_일반주서
 62
     0
370
    -2
100
AcDbLine
 10
57.3729081826537
 20
46.88257587845354
 30
0.0
 11
-37.6230918173463
 21
46.88257587845354
 31
0.0
  0
SOLID
  5
FC
330
F6
100
AcDbEntity
  8
치수문자_일반주서
 62
     0
100
AcDbTrace
 10
57.3729081826537
 20
46.3322425451202
 30
0.0
 11
57.3729081826537
 21
47.43290921178687
 31
0.0
 12
60.6749081826537
 22
46.88257587845354
 32
0.0
 13
60.6749081826537
 23
46.88257587845354
 33
0.0
  0
SOLID
  5
FD
330
F6
100
AcDbEntity
  8
치수문자_일반주서
 62
     0
100
AcDbTrace
 10
-37.6230918173463
 20
47.43290921178687
 30
0.0
 11
-37.6230918173463
 21
46.3322425451202
 31
0.0
 12
-40.9250918173463
 22
46.88257587845354
 32
0.0
 13
-40.9250918173463
 23
46.88257587845354
 33
0.0
  0
MTEXT
  5
FE
330
F6
100
AcDbEntity
  8
치수문자_일반주서
 62
     0
100
AcDbMText
 10
14.84655568476197
 20
51.25757587845354
 30
0.0
 40
3.5
 41
0.0
 71
     2
 72
     1
  1
\A1;101.60 [4]
  7
SLDTEXTSTYLE0
 73
     1
 44
1.0
  0
POINT
  5
FF
330
F6
100
AcDbEntity
  8
Defpoints
 62
     0
100
AcDbPoint
 10
60.6749081826537
 20
3.158581718727606
 30
0.0
  0
POINT
  5
100
330
F6
100
AcDbEntity
  8
Defpoints
 62
     0
100
AcDbPoint
 10
-40.9250918173463
 20
5.544835151814106
 30
0.0
  0
POINT
  5
101
330
F6
100
AcDbEntity
  8
Defpoints
 62
     0
100
AcDbPoint
 10
-40.9250918173463
 20
46.88257587845354
 30
0.0
  0
ENDBLK
  5
F8
330
F6
100
AcDbEntity
  8
0
100
AcDbBlockEnd
  0
BLOCK
  5
10A
330
109
100
AcDbEntity
  8
0
100
AcDbBlockBegin
  2
_D_2
 70
     0
 10
0.0
 20
0.0
 30
0.0
  3
_D_2
  1
_D_2
  0
LINE
  5
10C
330
109
100
AcDbEntity
  8
치수문자_일반주서
 62
     0
370
    -2
100
AcDbLine
 10
-40.17759181734632
 20
6.354835151814086
 30
0.0
 11
-54.89694392901691
 21
6.354835151814033
 31
0.0
  0
LINE
  5
10D
330
109
100
AcDbEntity
  8
치수문자_일반주서
 62
     0
370
    -2
100
AcDbLine
 10
-40.17759181734632
 20
-6.345164848185906
 30
0.0
 11
-54.89694392901687
 21
-6.345164848185952
 31
0.0
  0
LINE
  5
10E
330
109
100
AcDbEntity
  8
치수문자_일반주서
 62
     0
370
    -2
100
AcDbLine
 10
-54.89694392901691
 20
6.354835151814033
 30
0.0
 11
-54.89694392901702
 21
39.64633515181403
 31
0.0
  0
LINE
  5
10F
330
109
100
AcDbEntity
  8
치수문자_일반주서
 62
     0
370
    -2
100
AcDbLine
 10
-54.89694392901691
 20
6.354835151814033
 30
0.0
 11
-54.89694392901687
 21
-6.345164848185952
 31
0.0
  0
LINE
  5
110
330
109
100
AcDbEntity
  8
치수문자_일반주서
 62
     0
370
    -2
100
AcDbLine
 10
-54.89694392901693
 20
9.656835151814033
 30
0.0
 11
-54.89694392901694
 21
12.95883515181403
 31
0.0
  0
LINE
  5
111
330
109
100
AcDbEntity
  8
치수문자_일반주서
 62
     0
370
    -2
100
AcDbLine
 10
-54.89694392901686
 20
-9.647164848185952
 30
0.0
 11
-54.89694392901684
 21
-12.94916484818595
 31
0.0
  0
SOLID
  5
112
330
109
100
AcDbEntity
  8
치수문자_일반주서
 62
     0
100
AcDbTrace
 10
-55.44727726235026
 20
9.65683515181403
 30
0.0
 11
-54.34661059568359
 21
9.656835151814034
 31
0.0
 12
-54.89694392901691
 22
6.354835151814033
 32
0.0
 13
-54.89694392901691
 23
6.354835151814033
 33
0.0
  0
SOLID
  5
113
330
109
100
AcDbEntity
  8
치수문자_일반주서
 62
     0
100
AcDbTrace
 10
-54.34661059568352
 20
-9.64716484818595
 30
0.0
 11
-55.44727726235019
 21
-9.647164848185954
 31
0.0
 12
-54.89694392901687
 22
-6.345164848185952
 32
0.0
 13
-54.89694392901687
 23
-6.345164848185952
 33
0.0
  0
MTEXT
  5
114
330
109
100
AcDbEntity
  8
치수문자_일반주서
 62
     0
100
AcDbMText
 10
-59.27194392901698
 20
26.30258515181401
 30
0.0
 40
3.5
 41
0.0
 71
     2
 72
     1
  1
\A1;%%c12.70 [1/2]
  7
SLDTEXTSTYLE0
 11
-3.356894814614648E-15
 21
1.0
 31
0.0
 73
     1
 44
1.0
  0
POINT
  5
15E
330
109
100
AcDbEntity
  8
Defpoints
 62
     0
100
AcDbPoint
 10
-40.11509181734632
 20
6.354835151814086
 30
0.0
  0
POINT
  5
15F
330
109
100
AcDbEntity
  8
Defpoints
 62
     0
100
AcDbPoint
 10
-40.11509181734632
 20
-6.345164848185906
 30
0.0
  0
POINT
  5
160
330
109
100
AcDbEntity
  8
Defpoints
 62
     0
100
AcDbPoint
 10
-54.89694392901687
 20
-6.345164848185957
 30
0.0
  0
ENDBLK
  5
10B
330
109
100
AcDbEntity
  8
0
100
AcDbBlockEnd
  0
BLOCK
  5
11D
330
11C
100
AcDbEntity
  8
0
100
AcDbBlockBegin
  2
SW_DOWELSYMBOL_0
 70
     0
 10
0.0
 20
0.0
 30
0.0
  3
SW_DOWELSYMBOL_0
  1
SW_DOWELSYMBOL_0
  0
CIRCLE
  5
11F
330
11C
100
AcDbEntity
  8
외형선
 62
     0
100
AcDbCircle
 10
0.0
 20
0.0
 30
0.0
 40
3.000000000000004
  0
HATCH
  5
120
330
11C
100
AcDbEntity
  8
0
  6
Continuous
 62
     0
370
    30
100
AcDbHatch
 10
0.0
 20
0.0
 30
0.0
210
0.0
220
0.0
230
1.0
  2
SOLID
 70
     1
 71
     0
 91
        1
 92
        0
 93
        3
 72
     2
 10
-0.0000000000000013
 20
-0.0000000000000039
 40
3.000000000000004
 50
0.0
 51
90.0
 73
     1
 72
     1
 10
-0.0000000000000013
 20
3.0
 11
-0.0000000000000013
 21
-0.000000000000004
 72
     1
 10
-0.0000000000000013
 20
-0.0000000000000039
 11
3.000000000000003
 21
-0.0000000000000039
 97
        0
 75
     0
 76
     1
 98
        1
 10
0.0
 20
0.0
  0
HATCH
  5
121
330
11C
100
AcDbEntity
  8
0
  6
Continuous
 62
     0
370
    30
100
AcDbHatch
 10
0.0
 20
0.0
 30
0.0
210
0.0
220
0.0
230
1.0
  2
SOLID
 70
     1
 71
     0
 91
        1
 92
        0
 93
        3
 72
     2
 10
-0.0000000000000013
 20
-0.0000000000000039
 40
3.000000000000004
 50
180.0
 51
270.0000000000008
 73
     1
 72
     1
 10
-0.0000000000000013
 20
-3.000000000000008
 11
-0.0000000000000013
 21
-0.000000000000004
 72
     1
 10
-0.0000000000000013
 20
-0.0000000000000039
 11
-3.000000000000006
 21
-0.0000000000000039
 97
        0
 75
     0
 76
     1
 98
        1
 10
0.0
 20
0.0
  0
ENDBLK
  5
11E
330
11C
100
AcDbEntity
  8
0
100
AcDbBlockEnd
  0
BLOCK
  5
14E
330
14D
100
AcDbEntity
  8
0
100
AcDbBlockBegin
  2
*D6
 70
     1
 10
0.0
 20
0.0
 30
0.0
  3
*D6
  1
*D6
  0
LINE
  5
150
330
14D
100
AcDbEntity
  8
치수문자_일반주서
 62
     0
370
    -2
100
AcDbLine
 10
60.7374081826537
 20
3.179119311814426
 30
0.0
 11
83.43182690204706
 21
3.179119311814425
 31
0.0
  0
LINE
  5
151
330
14D
100
AcDbEntity
  8
치수문자_일반주서
 62
     0
370
    -2
100
AcDbLine
 10
60.73740818265368
 20
-3.17016484818591
 30
0.0
 11
83.43182690204706
 21
-3.170164848185912
 31
0.0
  0
LINE
  5
152
330
14D
100
AcDbEntity
  8
치수문자_일반주서
 62
     0
370
    -2
100
AcDbLine
 10
83.43182690204706
 20
3.179119311814425
 30
0.0
 11
83.43182690204706
 21
35.15811931181442
 31
0.0
  0
LINE
  5
153
330
14D
100
AcDbEntity
  8
치수문자_일반주서
 62
     0
370
    -2
100
AcDbLine
 10
83.43182690204706
 20
3.179119311814425
 30
0.0
 11
83.43182690204706
 21
-3.170164848185912
 31
0.0
  0
LINE
  5
154
330
14D
100
AcDbEntity
  8
치수문자_일반주서
 62
     0
370
    -2
100
AcDbLine
 10
83.43182690204706
 20
6.481119311814425
 30
0.0
 11
83.43182690204706
 21
9.783119311814424
 31
0.0
  0
LINE
  5
155
330
14D
100
AcDbEntity
  8
치수문자_일반주서
 62
     0
370
    -2
100
AcDbLine
 10
83.43182690204706
 20
-6.472164848185912
 30
0.0
 11
83.43182690204706
 21
-9.774164848185912
 31
0.0
  0
SOLID
  5
156
330
14D
100
AcDbEntity
  8
치수문자_일반주서
 62
     0
100
AcDbTrace
 10
82.88149356871374
 20
6.481119311814425
 30
0.0
 11
83.98216023538039
 21
6.481119311814425
 31
0.0
 12
83.43182690204706
 22
3.179119311814425
 32
0.0
 13
83.43182690204706
 23
3.179119311814425
 33
0.0
  0
SOLID
  5
157
330
14D
100
AcDbEntity
  8
치수문자_일반주서
 62
     0
100
AcDbTrace
 10
83.98216023538039
 20
-6.472164848185912
 30
0.0
 11
82.88149356871374
 21
-6.472164848185912
 31
0.0
 12
83.43182690204706
 22
-3.170164848185912
 32
0.0
 13
83.43182690204706
 23
-3.170164848185912
 33
0.0
  0
MTEXT
  5
158
330
14D
100
AcDbEntity
  8
치수문자_일반주서
 62
     0
100
AcDbMText
 10
80.80682690204706
 20
22.47061931181442
 30
0.0
 40
3.5
 41
0.0
 71
     5
 72
     1
  1
\A1;{%%c6.35 [1/4]}
  7
SLDTEXTSTYLE0
 11
0.0
 21
1.0
 31
0.0
 73
     1
 44
1.0
  0
POINT
  5
159
330
14D
100
AcDbEntity
  8
Defpoints
 62
     0
100
AcDbPoint
 10
60.6749081826537
 20
3.179119311814426
 30
0.0
  0
POINT
  5
15A
330
14D
100
AcDbEntity
  8
Defpoints
 62
     0
100
AcDbPoint
 10
60.67490818265368
 20
-3.17016484818591
 30
0.0
  0
POINT
  5
15C
330
14D
100
AcDbEntity
  8
Defpoints
 62
     0
100
AcDbPoint
 10
83.43182690204706
 20
-3.170164848185911
 30
0.0
  0
ENDBLK
  5
14F
330
14D
100
AcDbEntity
  8
0
100
AcDbBlockEnd
  0
BLOCK
  5
165
330
164
100
AcDbEntity
  8
0
100
AcDbBlockBegin
  2
*D7
 70
     1
 10
0.0
 20
0.0
 30
0.0
  3
*D7
  1
*D7
  0
LINE
  5
167
330
164
100
AcDbEntity
  8
치수문자_일반주서
 62
     0
370
    -2
100
AcDbLine
 10
29.3221636556305
 20
10.3311178800111
 30
0.0
 11
29.53376954942428
 21
14.70099750600902
 31
0.0
  0
LINE
  5
168
330
164
100
AcDbEntity
  8
치수문자_일반주서
 62
     0
370
    -2
100
AcDbLine
 10
20.41103022990362
 20
3.882643755741176
 30
0.0
 11
29.10480827524594
 21
3.730893295488212
 31
0.0
  0
ARC
  5
169
330
164
100
AcDbEntity
  8
치수문자_일반주서
 62
     0
370
    -2
100
AcDbCircle
 10
242.5705363603151
 20
0.0048351518140902
 30
0.0
 40
213.4982449018697
100
AcDbArc
 50
177.227689883736
 51
178.113844941868
  0
ARC
  5
16A
330
164
100
AcDbEntity
  8
치수문자_일반주서
 62
     0
370
    -2
100
AcDbCircle
 10
242.5705363603151
 20
0.0048351518140902
 30
0.0
 40
213.4982449018697
100
AcDbArc
 50
180.886155058132
 51
181.772310116264
  0
ARC
  5
16B
330
164
100
AcDbEntity
  8
치수문자_일반주서
 62
     0
370
    -2
100
AcDbCircle
 10
242.5705363603151
 20
0.0048351518140902
 30
0.0
 40
213.4982449018697
100
AcDbArc
 50
179.0
 51
180.0
  0
SOLID
  5
16C
330
164
100
AcDbEntity
  8
치수문자_일반주서
 62
     0
100
AcDbTrace
 10
28.63780636611529
 20
7.045705506556298
 30
0.0
 11
29.73812394317146
 21
7.017986546757155
 31
0.0
 12
29.10480827524594
 22
3.730893295488212
 32
0.0
 13
29.10480827524594
 23
3.730893295488212
 33
0.0
  0
SOLID
  5
16D
330
164
100
AcDbEntity
  8
치수문자_일반주서
 62
     0
100
AcDbTrace
 10
29.64814298190878
 20
-3.292810341671027
 30
0.0
 11
28.54750922599667
 21
-3.301321890173461
 31
0.0
 12
29.07229145844542
 22
0.0048351518140902
 32
0.0
 13
29.07229145844542
 23
0.0048351518140902
 33
0.0
  0
MTEXT
  5
16E
330
164
100
AcDbEntity
  8
치수문자_일반주서
 62
     0
100
AcDbMText
 10
26.80603882692864
 20
12.64302122928632
 30
0.0
 40
3.5
 41
0.0
 71
     5
 72
     1
  1
\A1;1%%d
  7
SLDTEXTSTYLE0
 11
0.04836706143857659
 21
0.9988296287995251
 31
0.0
 73
     1
 44
1.0
  0
POINT
  5
16F
330
164
100
AcDbEntity
  8
Defpoints
 62
     0
100
AcDbPoint
 10
29.07590451961525
 20
1.24691058541585
 30
0.0
  0
POINT
  5
170
330
164
100
AcDbEntity
  8
Defpoints
 62
     0
100
AcDbPoint
 10
-43.92509181734628
 20
0.0048351518140902
 30
0.0
  0
POINT
  5
171
330
164
100
AcDbEntity
  8
Defpoints
 62
     0
100
AcDbPoint
 10
20.34853974895634
 20
3.883734531143507
 30
0.0
  0
POINT
  5
172
330
164
100
AcDbEntity
  8
Defpoints
 62
     0
100
AcDbPoint
 10
15.53952022152444
 20
3.967676279235897
 30
0.0
  0
POINT
  5
173
330
164
100
AcDbEntity
  8
Defpoints
 62
     0
100
AcDbPoint
 10
63.67490428620231
 20
0.0048351518140902
 30
0.0
  0
ENDBLK
  5
166
330
164
100
AcDbEntity
  8
0
100
AcDbBlockEnd
  0
ENDSEC
  0
SECTION
  2
ENTITIES
  0
LINE
  5
95
330
1F
100
AcDbEntity
  8
0
  6
Continuous
 62
     4
370
    15
100
AcDbLine
 10
6.679551412556828
 20
6.354835151814092
 30
0.0
 11
-40.11509181734632
 21
6.354835151814086
 31
0.0
  0
LINE
  5
96
330
1F
100
AcDbEntity
  8
0
  6
Continuous
 62
     4
370
    15
100
AcDbLine
 10
-40.11509181734632
 20
-6.345164848185906
 30
0.0
 11
6.679551412556828
 21
-6.345164848185901
 31
0.0
  0
LINE
  5
97
330
1F
100
AcDbEntity
  8
0
  6
Continuous
 62
     4
370
    15
100
AcDbLine
 10
-40.11509181734632
 20
6.354835151814085
 30
0.0
 11
-40.9250918173463
 21
5.544835151814105
 31
0.0
  0
LINE
  5
98
330
1F
100
AcDbEntity
  8
0
  6
Continuous
 62
     4
370
    15
100
AcDbLine
 10
-40.9250918173463
 20
-5.535164848185928
 30
0.0
 11
-40.11509181734632
 21
-6.345164848185907
 31
0.0
  0
LINE
  5
99
330
1F
100
AcDbEntity
  8
0
  6
Continuous
 62
     4
370
    15
100
AcDbLine
 10
6.679551412556828
 20
-6.345164848185899
 30
0.0
 11
8.354908182653698
 21
-4.610282126336349
 31
0.0
  0
LINE
  5
9A
330
1F
100
AcDbEntity
  8
0
  6
Continuous
 62
     4
370
    15
100
AcDbLine
 10
8.858908182653703
 20
4.098045151814095
 30
0.0
 11
6.679551412556828
 21
6.354835151814089
 31
0.0
  0
LINE
  5
9B
330
1F
100
AcDbEntity
  8
0
  6
Continuous
 62
     1
370
    15
100
AcDbLine
 10
37.83487084389803
 20
-3.568839182896796
 30
0.0
 11
42.22811979331348
 21
-3.492154737238925
 31
0.0
  0
LINE
  5
9C
330
1F
100
AcDbEntity
  8
0
  6
Continuous
 62
     1
370
    15
100
AcDbLine
 10
11.08609940393856
 20
-4.035740725131341
 30
0.0
 11
15.96748909844873
 21
-3.950535751073734
 31
0.0
  0
LINE
  5
9D
330
1F
100
AcDbEntity
  8
0
  6
Continuous
 62
     1
370
    15
100
AcDbLine
 10
29.10480884232571
 20
3.7308932855898
 30
0.0
 11
24.4529140325025
 21
3.812092411534502
 31
0.0
  0
LINE
  5
9E
330
1F
100
AcDbEntity
  8
0
  6
Continuous
 62
     1
370
    15
100
AcDbLine
 10
55.33944678493682
 20
3.272965976933245
 30
0.0
 11
51.23514873474892
 21
3.344606765884031
 31
0.0
  0
LINE
  5
9F
330
1F
100
AcDbEntity
  8
0
  6
Continuous
 62
     1
370
    15
100
AcDbLine
 10
46.76637462990856
 20
-3.41293920440536
 30
0.0
 11
50.97116400954617
 21
-3.339544332774306
 31
0.0
  0
LINE
  5
A0
330
1F
100
AcDbEntity
  8
0
  6
Continuous
 62
     1
370
    15
100
AcDbLine
 10
19.99548034265217
 20
-3.880226902375871
 30
0.0
 11
24.72765947278151
 21
-3.797626408407507
 31
0.0
  0
LINE
  5
A1
330
1F
100
AcDbEntity
  8
0
  6
Continuous
 62
     1
370
    15
100
AcDbLine
 10
11.58509613948601
 20
4.036701008341583
 30
0.0
 11
9.874908182653714
 21
4.066552450167547
 31
0.0
  0
LINE
  5
A2
330
1F
100
AcDbEntity
  8
0
  6
Continuous
 62
     1
370
    15
100
AcDbLine
 10
37.85473640342101
 20
3.578162731893682
 30
0.0
 11
33.37231659952172
 21
3.656403660606272
 31
0.0
  0
LINE
  5
A3
330
1F
100
AcDbEntity
  8
0
  6
Continuous
 62
     1
370
    15
100
AcDbLine
 10
60.6749081826537
 20
3.179835151814099
 30
0.0
 11
60.18155274415929
 21
3.188446703025708
 31
0.0
  0
LINE
  5
A4
330
1F
100
AcDbEntity
  8
0
  6
Continuous
 62
     1
370
    15
100
AcDbLine
 10
55.70597149839159
 20
-3.256897960633898
 30
0.0
 11
59.14244652040755
 21
-3.196914066000412
 31
0.0
  0
LINE
  5
A5
330
1F
100
AcDbEntity
  8
0
  6
Continuous
 62
     1
370
    15
100
AcDbLine
 10
28.91175473728276
 20
-3.72459275389979
 30
0.0
 11
33.48038695427352
 21
-3.644846981919069
 31
0.0
  0
LINE
  5
A6
102
{ACAD_REACTORS
102
}
330
1F
100
AcDbEntity
  8
0
  6
Continuous
 62
     1
370
    15
100
AcDbLine
 10
20.34853974895634
 20
3.883734531143507
 30
0.0
 11
15.53952022152444
 21
3.967676279235897
 31
0.0
  0
LINE
  5
A7
330
1F
100
AcDbEntity
  8
0
  6
Continuous
 62
     1
370
    15
100
AcDbLine
 10
46.60044904681628
 20
3.425505749859685
 30
0.0
 11
42.29956325730827
 21
3.500577990564395
 31
0.0
  0
LINE
  5
A8
330
1F
100
AcDbEntity
  8
0
  6
Continuous
 62
     4
370
    15
100
AcDbLine
 10
9.874908182653714
 20
4.066552450167547
 30
0.0
 11
8.858908182653703
 21
4.098045151814095
 31
0.0
  0
LINE
  5
A9
330
1F
100
AcDbEntity
  8
0
  6
Continuous
 62
     4
370
    15
100
AcDbLine
 10
6.679551412556828
 20
6.35483515181409
 30
0.0
 11
6.679551412556828
 21
-6.345164848185901
 31
0.0
  0
LINE
  5
AA
330
1F
100
AcDbEntity
  8
0
  6
Continuous
 62
     4
370
    15
100
AcDbLine
 10
-40.11509181734632
 20
6.354835151814086
 30
0.0
 11
-40.11509181734632
 21
-6.345164848185906
 31
0.0
  0
LINE
  5
AB
330
1F
100
AcDbEntity
  8
0
  6
Continuous
 62
     4
370
    15
100
AcDbLine
 10
-40.9250918173463
 20
-5.535164848185927
 30
0.0
 11
-40.9250918173463
 21
5.544835151814105
 31
0.0
  0
SPLINE
  5
AC
330
1F
100
AcDbEntity
  8
0
  6
Continuous
 62
     4
370
    15
100
AcDbSpline
210
0.0
220
0.0
230
1.0
 70
     8
 71
     3
 72
     8
 73
     4
 74
     0
 42
0.000000001
 43
0.00000001
 40
0.0
 40
0.0
 40
0.0
 40
0.0
 40
1.0
 40
1.0
 40
1.0
 40
1.0
 10
8.354908182653698
 20
4.234672604422816
 30
0.0
 10
8.526140852631995
 20
4.010242153131629
 30
0.0
 10
8.694206551908353
 20
3.78245336868152
 30
0.0
 10
8.858908182653702
 20
3.550330111540335
 30
0.0
  0
LINE
  5
AD
330
1F
100
AcDbEntity
  8
0
  6
Continuous
 62
     4
370
    15
100
AcDbLine
 10
8.354908182653698
 20
1.168170830117601
 30
0.0
 11
8.354908182653698
 21
4.234672604422816
 31
0.0
  0
SPLINE
  5
AE
330
1F
100
AcDbEntity
  8
0
  6
Continuous
 62
     4
370
    15
100
AcDbSpline
210
0.0
220
0.0
230
1.0
 70
     8
 71
     3
 72
     8
 73
     4
 74
     0
 42
0.000000001
 43
0.00000001
 40
0.0
 40
0.0
 40
0.0
 40
0.0
 40
1.0
 40
1.0
 40
1.0
 40
1.0
 10
8.858908182653703
 20
0.5257721258503121
 30
0.0
 10
8.679105993947056
 20
0.7127269652820082
 30
0.0
 10
8.513719099112514
 20
0.9293415834846224
 30
0.0
 10
8.354908182653698
 20
1.1681708301176
 30
0.0
  0
LINE
  5
AF
330
1F
100
AcDbEntity
  8
0
  6
Continuous
 62
     4
370
    15
100
AcDbLine
 10
8.858908182653703
 20
0.5257721258503121
 30
0.0
 11
8.858908182653703
 21
-3.539317193118528
 31
0.0
  0
SPLINE
  5
B0
330
1F
100
AcDbEntity
  8
0
  6
Continuous
 62
     4
370
    15
100
AcDbSpline
210
0.0
220
0.0
230
1.0
 70
     8
 71
     3
 72
     8
 73
     4
 74
     0
 42
0.000000001
 43
0.00000001
 40
0.0
 40
0.0
 40
0.0
 40
0.0
 40
1.0
 40
1.0
 40
1.0
 40
1.0
 10
8.3549081826537
 20
-3.70878209569229
 30
0.0
 10
8.526140852631997
 20
-3.658007783290411
 30
0.0
 10
8.694206551908355
 20
-3.602505356440066
 30
0.0
 10
8.858908182653703
 20
-3.53931719311853
 30
0.0
  0
LINE
  5
B1
330
1F
100
AcDbEntity
  8
0
  6
Continuous
 62
     4
370
    15
100
AcDbLine
 10
8.354908182653698
 20
-4.610282126336349
 30
0.0
 11
8.3549081826537
 21
-3.70878209569229
 31
0.0
  0
SPLINE
  5
B2
330
1F
100
AcDbEntity
  8
0
  6
Continuous
 62
     4
370
    15
100
AcDbSpline
210
0.0
220
0.0
230
1.0
 70
     8
 71
     3
 72
     8
 73
     4
 74
     0
 42
0.000000001
 43
0.00000001
 40
0.0
 40
0.0
 40
0.0
 40
0.0
 40
1.0
 40
1.0
 40
1.0
 40
1.0
 10
8.858908182653703
 20
-3.771631711182937
 30
0.0
 10
8.679105993947058
 20
-4.006902201219867
 30
0.0
 10
8.513719099112514
 20
-4.231867963029505
 30
0.0
 10
8.354908182653698
 20
-4.444579860176339
 30
0.0
  0
LINE
  5
B3
330
1F
100
AcDbEntity
  8
0
  6
Continuous
 62
     4
370
    15
100
AcDbLine
 10
8.858908182653703
 20
4.098045151814095
 30
0.0
 11
8.858908182653703
 21
3.550330111540333
 31
0.0
  0
SPLINE
  5
B4
330
1F
100
AcDbEntity
  8
0
  6
Continuous
 62
     4
370
    15
100
AcDbSpline
210
0.0
220
0.0
230
1.0
 70
     8
 71
     3
 72
     8
 73
     4
 74
     0
 42
0.000000001
 43
0.00000001
 40
0.0
 40
0.0
 40
0.0
 40
0.0
 40
1.0
 40
1.0
 40
1.0
 40
1.0
 10
9.874908182653714
 20
-0.4609969473868731
 30
0.0
 10
9.534782499603024
 20
-0.1345889325659828
 30
0.0
 10
9.197748007758271
 20
0.196012103328854
 30
0.0
 10
8.858908182653702
 20
0.5257721258503127
 30
0.0
  0
SPLINE
  5
B5
330
1F
100
AcDbEntity
  8
0
  6
Continuous
 62
     4
370
    15
100
AcDbSpline
210
0.0
220
0.0
230
1.0
 70
     8
 71
     3
 72
     8
 73
     4
 74
     0
 42
0.000000001
 43
0.00000001
 40
0.0
 40
0.0
 40
0.0
 40
0.0
 40
1.0
 40
1.0
 40
1.0
 40
1.0
 10
8.858908182653703
 20
3.550330111540333
 30
0.0
 10
9.197736670664902
 20
3.378079127816541
 30
0.0
 10
9.53483079577554
 20
3.174234421569637
 30
0.0
 10
9.874908182653703
 20
2.941999954898569
 30
0.0
  0
SPLINE
  5
B6
330
1F
100
AcDbEntity
  8
0
  6
Continuous
 62
     1
370
    15
100
AcDbSpline
210
0.0
220
0.0
230
1.0
 70
     8
 71
     3
 72
    18
 73
    14
 74
     0
 42
0.000000001
 43
0.00000001
 40
0.0
 40
0.0
 40
0.0
 40
0.0
 40
0.0657884177814609
 40
0.1323423598235456
 40
0.2346871132787805
 40
0.3399837030696528
 40
0.4425586119320242
 40
0.5481007922172246
 40
0.6507606201260879
 40
0.7563898531131287
 40
0.8591384923456605
 40
0.9648585443186785
 40
1.0
 40
1.0
 40
1.0
 40
1.0
 10
9.874908182653698
 20
2.941999954898573
 30
0.0
 10
10.0944741954228
 20
2.787789097299735
 30
0.0
 10
10.53616112523217
 20
2.47757296058039
 30
0.0
 10
11.32056420495065
 20
1.83763024634719
 30
0.0
 10
12.23964109485926
 20
1.017337363923742
 30
0.0
 10
13.28145045466057
 20
0.0322566744493732
 30
0.0
 10
14.33626274444006
 20
-0.9562612323224009
 30
0.0
 10
15.38467084207798
 20
-1.87269135675093
 30
0.0
 10
16.44547113736211
 20
-2.674689885237552
 30
0.0
 10
17.49936640708214
 20
-3.305237666144964
 30
0.0
 10
18.56591102462893
 20
-3.715806353346684
 30
0.0
 10
19.39461615483773
 20
-3.900453095394618
 30
0.0
 10
19.87513740358775
 20
-3.862953947028393
 30
0.0
 10
19.99501554807217
 20
-3.853598838721356
 30
0.0
  0
SPLINE
  5
B7
330
1F
100
AcDbEntity
  8
0
  6
Continuous
 62
     1
370
    15
100
AcDbSpline
210
0.0
220
0.0
230
1.0
 70
     8
 71
     3
 72
    22
 73
    18
 74
     0
 42
0.000000001
 43
0.00000001
 40
0.0
 40
0.0
 40
0.0
 40
0.0
 40
0.0199969441640355
 40
0.0929221669443448
 40
0.1639223037637753
 40
0.2369715775473187
 40
0.3081093765221091
 40
0.3812996743568025
 40
0.4525837663505864
 40
0.5259241032753008
 40
0.5973642501649358
 40
0.670864092523324
 40
0.7424776967207678
 40
0.8161554335703726
 40
0.887951621018752
 40
0.9618163566295383
 40
1.0
 40
1.0
 40
1.0
 40
1.0
 10
31.22389849565477
 20
3.21429698722257
 30
0.0
 10
31.32577628476488
 20
3.261491853655928
 30
0.0
 10
31.79918386394075
 20
3.480797824691433
 30
0.0
 10
32.63693726594026
 20
3.646075083548713
 30
0.0
 10
33.74745430443692
 20
3.679268467196025
 30
0.0
 10
34.85172888505609
 20
3.451084220511164
 30
0.0
 10
35.96951959833439
 20
2.993721225387383
 30
0.0
 10
37.0810490175021
 20
2.340563231369491
 30
0.0
 10
38.20628908528816
 20
1.527126660215863
 30
0.0
 10
39.3252667665332
 20
0.6223182707276255
 30
0.0
 10
40.45814972308646
 20
-0.3257856738257907
 30
0.0
 10
41.58490290517479
 20
-1.236113026691142
 30
0.0
 10
42.72570628561343
 20
-2.058737783614712
 30
0.0
 10
43.86048135244557
 20
-2.726425292119876
 30
0.0
 10
45.00963349079358
 20
-3.18746758351982
 30
0.0
 10
45.97482434020559
 20
-3.416731204422848
 30
0.0
 10
46.5647978170748
 20
-3.391396775989038
 30
0.0
 10
46.76584790850519
 20
-3.382763355415654
 30
0.0
  0
SPLINE
  5
B8
330
1F
100
AcDbEntity
  8
0
  6
Continuous
 62
     1
370
    15
100
AcDbSpline
210
0.0
220
0.0
230
1.0
 70
     8
 71
     3
 72
    11
 73
     7
 74
     0
 42
0.000000001
 43
0.00000001
 40
0.0
 40
0.0
 40
0.0
 40
0.0
 40
0.060119674166871
 40
0.4610348950269261
 40
0.8734682860118603
 40
0.9999999999999999
 40
0.9999999999999999
 40
0.9999999999999999
 40
0.9999999999999999
 10
57.71726856366838
 20
2.696964361975322
 30
0.0
 10
57.77631842882332
 20
2.724687596614643
 30
0.0
 10
58.22914936578903
 20
2.937286529474287
 30
0.0
 10
59.08957864417003
 20
3.130759451055006
 30
0.0
 10
60.01766866559142
 20
3.214076528072821
 30
0.0
 10
60.54994643944892
 20
3.169133013856257
 30
0.0
 10
60.6749081826537
 20
3.158581718727872
 30
0.0
  0
SPLINE
  5
B9
330
1F
100
AcDbEntity
  8
0
  6
Continuous
 62
     1
370
    15
100
AcDbSpline
210
0.0
220
0.0
230
1.0
 70
     8
 71
     3
 72
    14
 73
    10
 74
     0
 42
0.000000001
 43
0.00000001
 40
0.0
 40
0.0
 40
0.0
 40
0.0
 40
0.0619619075531833
 40
0.2370869653066751
 40
0.4130210332110468
 40
0.568372230297894
 40
0.7170441441496095
 40
0.9261167638232544
 40
1.0
 40
1.0
 40
1.0
 40
1.0
 10
59.13158574747302
 20
1.545671516597912
 30
0.0
 10
59.17723208820313
 20
1.529136336331693
 30
0.0
 10
59.35189024235644
 20
1.465867210752374
 30
0.0
 10
59.68444259284834
 20
1.480305247344605
 30
0.0
 10
60.07221535606662
 20
1.650980541003986
 30
0.0
 10
60.37164548329707
 20
1.968429953611482
 30
0.0
 10
60.58608829965389
 20
2.405425495704321
 30
0.0
 10
60.66678997326203
 20
2.819372524060814
 30
0.0
 10
60.67322731417482
 20
3.088348738084979
 30
0.0
 10
60.6749081826537
 20
3.158581718727663
 30
0.0
  0
SPLINE
  5
BA
330
1F
100
AcDbEntity
  8
0
  6
Continuous
 62
     1
370
    15
100
AcDbSpline
210
0.0
220
0.0
230
1.0
 70
     8
 71
     3
 72
    12
 73
     8
 74
     0
 42
0.000000001
 43
0.00000001
 40
0.0
 40
0.0
 40
0.0
 40
0.0
 40
0.014195410263283
 40
0.3022209986659551
 40
0.5985362031730086
 40
0.8873519037702392
 40
1.0
 40
1.0
 40
1.0
 40
1.0
 10
59.27640036886425
 20
1.879009428442727
 30
0.0
 10
59.25771717222842
 20
1.890786546447294
 30
0.0
 10
58.85995097591376
 20
2.141521981262689
 30
0.0
 10
58.07163892658752
 20
2.59119768340115
 30
0.0
 10
56.92532816430753
 20
3.040630071812581
 30
0.0
 10
56.01077886457445
 20
3.26661296448333
 30
0.0
 10
55.48613443458685
 20
3.248126348570702
 30
0.0
 10
55.33892266430332
 20
3.242939125950014
 30
0.0
  0
SPLINE
  5
BB
330
1F
100
AcDbEntity
  8
0
  6
Continuous
 62
     1
370
    15
100
AcDbSpline
210
0.0
220
0.0
230
1.0
 70
     8
 71
     3
 72
    23
 73
    19
 74
     0
 42
0.000000001
 43
0.00000001
 40
0.0
 40
0.0
 40
0.0
 40
0.0
 40
0.0012926968348531
 40
0.0733337752907811
 40
0.143196108629373
 40
0.215089513709807
 40
0.2848235387552257
 40
0.3565844188547272
 40
0.4261977518613049
 40
0.4978340462243188
 40
0.5673355150380351
 40
0.6388561013322674
 40
0.7082581431805735
 40
0.7796759950470014
 40
0.8489852072255288
 40
0.9203071991987679
 40
0.9895306020866368
 40
1.0
 40
1.0
 40
1.0
 40
1.0
 10
44.50059777885883
 20
-2.950949710080708
 30
0.0
 10
44.49385198704297
 20
-2.954504809277551
 30
0.0
 10
44.11116799815665
 20
-3.15618306717114
 30
0.0
 10
43.36606928496381
 20
-3.368966879930169
 30
0.0
 10
42.25523011170301
 20
-3.536343199175818
 30
0.0
 10
41.15889646266651
 20
-3.435255807737371
 30
0.0
 10
40.05534530745255
 20
-3.099034658498932
 30
0.0
 10
38.96576583339141
 20
-2.548937866495192
 30
0.0
 10
37.86905424861304
 20
-1.814573971088793
 30
0.0
 10
36.78615033073971
 20
-0.9580685477916985
 30
0.0
 10
35.69605412856272
 20
-0.022103721893623
 30
0.0
 10
34.61958336406833
 20
0.9140735085060722
 30
0.0
 10
33.53592092324848
 20
1.805086623554562
 30
0.0
 10
32.46565384217197
 20
2.573970115316966
 30
0.0
 10
31.38816607498433
 20
3.191405283039202
 30
0.0
 10
30.32414778103807
 20
3.576323651050222
 30
0.0
 10
29.55968548575059
 20
3.750341590302457
 30
0.0
 10
29.1573878659243
 20
3.71939862600314
 30
0.0
 10
29.10453724680671
 20
3.715333588727358
 30
0.0
  0
SPLINE
  5
BC
330
1F
100
AcDbEntity
  8
0
  6
Continuous
 62
     1
370
    15
100
AcDbSpline
210
0.0
220
0.0
230
1.0
 70
     8
 71
     3
 72
    16
 73
    12
 74
     0
 42
0.000000001
 43
0.00000001
 40
0.0
 40
0.0
 40
0.0
 40
0.0
 40
0.032819287969937
 40
0.1578100913661399
 40
0.2864261003588601
 40
0.4113512478659181
 40
0.5398990760515061
 40
0.6647736260795042
 40
0.7932687957559559
 40
0.8956502826598844
 40
1.0
 40
1.0
 40
1.0
 40
1.0
 10
17.97104336248766
 20
-3.454019091297662
 30
0.0
 10
17.88165826326885
 20
-3.499980689311208
 30
0.0
 10
17.45185397600298
 20
-3.720984995940151
 30
0.0
 10
16.67410129553316
 20
-3.910914518357254
 30
0.0
 10
15.64752462415679
 20
-3.987568891584475
 30
0.0
 10
14.6138778725964
 20
-3.805906519426495
 30
0.0
 10
13.5922756317527
 20
-3.400323897779358
 30
0.0
 10
12.56343336111091
 20
-2.782339020531783
 30
0.0
 10
11.60676772695799
 20
-2.046139644342874
 30
0.0
 10
10.70765502339474
 20
-1.255175783901766
 30
0.0
 10
10.15424674512382
 20
-0.7273981676410931
 30
0.0
 10
9.874908182653698
 20
-0.4609969473868569
 30
0.0
  0
SPLINE
  5
BD
330
1F
100
AcDbEntity
  8
0
  6
Continuous
 62
     1
370
    15
100
AcDbSpline
210
0.0
220
0.0
230
1.0
 70
     8
 71
     3
 72
     9
 73
     5
 74
     0
 42
0.000000001
 43
0.00000001
 40
0.0
 40
0.0
 40
0.0
 40
0.0
 40
0.5443654838156751
 40
0.9999999999999999
 40
0.9999999999999999
 40
0.9999999999999999
 40
0.9999999999999999
 10
9.8749081826537
 20
-3.893347576623303
 30
0.0
 10
10.09444662932339
 20
-3.941499632640099
 30
0.0
 10
10.49773900034379
 20
-4.029955013167315
 30
0.0
 10
10.90184885195567
 20
-4.029043288410025
 30
0.0
 10
11.08597524868016
 20
-4.028627875141344
 30
0.0
  0
SPLINE
  5
BE
330
1F
100
AcDbEntity
  8
0
  6
Continuous
 62
     1
370
    15
100
AcDbSpline
210
0.0
220
0.0
230
1.0
 70
     8
 71
     3
 72
    22
 73
    18
 74
     0
 42
0.000000001
 43
0.00000001
 40
0.0
 40
0.0
 40
0.0
 40
0.0
 40
0.0296723793419259
 40
0.1012716759361485
 40
0.1709450798609961
 40
0.2426319450536691
 40
0.3123966599186426
 40
0.3841766581206817
 40
0.4540469435969444
 40
0.525934992003995
 40
0.5959185866895933
 40
0.667922902148224
 40
0.7380264418323372
 40
0.8101532417651907
 40
0.8803927051926037
 40
0.9526587483101757
 40
1.0
 40
1.0
 40
1.0
 40
1.0
 10
22.37992328878595
 20
3.376129791724028
 30
0.0
 10
22.53028113311372
 20
3.4434212201942
 30
0.0
 10
23.04345167160522
 20
3.673086514600937
 30
0.0
 10
23.91236205719176
 20
3.823951688659586
 30
0.0
 10
24.99646561709623
 20
3.814146231575188
 30
0.0
 10
26.07399628622224
 20
3.549384760170654
 30
0.0
 10
27.16451216695704
 20
3.058836577582471
 30
0.0
 10
28.24836972179694
 20
2.378348194282977
 30
0.0
 10
29.34536686056303
 20
1.542224794301222
 30
0.0
 10
30.43585455929532
 20
0.6189496565816037
 30
0.0
 10
31.53958903185064
 20
-0.3459227167815224
 30
0.0
 10
32.63681912261527
 20
-1.272744954391056
 30
0.0
 10
33.74749070623839
 20
-2.114365284654084
 30
0.0
 10
34.85170369640163
 20
-2.803895669978363
 30
0.0
 10
35.96958335543977
 20
-3.294655650696019
 30
0.0
 10
36.96053706017626
 20
-3.557644085959455
 30
0.0
 10
37.58660732931232
 20
-3.546730040839732
 30
0.0
 10
37.83440952427387
 20
-3.542410199330075
 30
0.0
  0
SPLINE
  5
BF
330
1F
100
AcDbEntity
  8
0
  6
Continuous
 62
     1
370
    15
100
AcDbSpline
210
0.0
220
0.0
230
1.0
 70
     8
 71
     3
 72
    18
 73
    14
 74
     0
 42
0.000000001
 43
0.00000001
 40
0.0
 40
0.0
 40
0.0
 40
0.0
 40
0.060320208837652
 40
0.1617308959408962
 40
0.2606124884347046
 40
0.3623390331985935
 40
0.4615588727852627
 40
0.5636323566104353
 40
0.6632093924278777
 40
0.7656486126114985
 40
0.865613507770292
 40
0.9684503634061277
 40
1.0
 40
1.0
 40
1.0
 40
1.0
 10
48.91678786031403
 20
2.873687148076237
 30
0.0
 10
49.15038272146574
 20
2.968051616503691
 30
0.0
 10
49.77669862635486
 20
3.221062179925881
 30
0.0
 10
50.78915165621329
 20
3.370483307759306
 30
0.0
 10
51.96461071832582
 20
3.32596575108279
 30
0.0
 10
53.13467294715711
 20
3.025772680899971
 30
0.0
 10
54.31973544845221
 20
2.499727904350573
 30
0.0
 10
55.49945874994881
 20
1.792956392002626
 30
0.0
 10
56.69444078531908
 20
0.9495061829093879
 30
0.0
 10
57.88427470683687
 20
0.0468876528545616
 30
0.0
 10
59.08940685295497
 20
-0.8567884573331238
 30
0.0
 10
60.01767965328826
 20
-1.496326666980894
 30
0.0
 10
60.549948528553
 20
-1.814871287792521
 30
0.0
 10
60.6749081826537
 20
-1.889655344276123
 30
0.0
  0
LINE
  5
C0
330
1F
100
AcDbEntity
  8
0
  6
Continuous
 62
     4
370
    15
100
AcDbLine
 10
9.874908182653714
 20
-0.4609969473868731
 30
0.0
 11
9.874908182653716
 21
-3.893347576623306
 31
0.0
  0
ELLIPSE
  5
C1
330
1F
100
AcDbEntity
  8
0
  6
Continuous
 62
     1
370
    15
100
AcDbEllipse
 10
54.72890491505562
 20
-0.0577774820743355
 30
0.0
 11
4.580455076663846
 21
2.894566541163241
 31
0.0
210
0.0
220
0.0
230
1.0
 40
0.3360391427915322
 41
5.607860990340385
 42
5.83314262817142
  0
LINE
  5
C2
330
1F
100
AcDbEntity
  8
0
  6
Continuous
 62
     1
370
    15
100
AcDbLine
 10
58.91204570538203
 20
1.239204747226769
 30
0.0
 11
60.6749081826537
 21
0.0048351518140984
 31
0.0
  0
LINE
  5
C3
330
1F
100
AcDbEntity
  8
0
  6
Continuous
 62
     1
370
    15
100
AcDbLine
 10
60.6749081826537
 20
0.0048351518140986
 30
0.0
 11
60.6749081826537
 21
-1.889655344275963
 31
0.0
  0
SPLINE
  5
C4
330
1F
100
AcDbEntity
  8
0
  6
Continuous
 62
     1
370
    15
100
AcDbSpline
210
0.0
220
0.0
230
1.0
 70
     8
 71
     3
 72
    22
 73
    18
 74
     0
 42
0.000000001
 43
0.00000001
 40
0.0
 40
0.0
 40
0.0
 40
0.0
 40
0.0622741615039295
 40
0.1337705204534664
 40
0.2073479350666351
 40
0.2786632175260007
 40
0.3520535798542442
 40
0.4232045288357992
 40
0.4964251194232888
 40
0.5674219713389287
 40
0.640483574913979
 40
0.7113355695344483
 40
0.7842474078110032
 40
0.8549692765386885
 40
0.9277467125016158
 40
0.9983461794817772
 40
1.0
 40
1.0
 40
1.0
 40
1.0
 10
53.30794349705389
 20
-2.778541092909602
 30
0.0
 10
52.9822267369197
 20
-2.911929140816842
 30
0.0
 10
52.28255773341464
 20
-3.198458708777343
 30
0.0
 10
51.20139594894854
 20
-3.367936826230694
 30
0.0
 10
50.07513837524522
 20
-3.320041803644438
 30
0.0
 10
48.94189744032722
 20
-3.020969931019857
 30
0.0
 10
47.82354537805123
 20
-2.504747794586521
 30
0.0
 10
46.69810669196065
 20
-1.797276212806881
 30
0.0
 10
45.58727887693518
 20
-0.962189586630493
 30
0.0
 10
44.4693725018135
 20
-0.043668016688896
 30
0.0
 10
43.36589475221592
 20
0.8769242536435254
 30
0.0
 10
42.25527469552868
 20
1.752028075645283
 30
0.0
 10
41.15889672954905
 20
2.502505829491167
 30
0.0
 10
40.0553019448252
 20
3.099481456430652
 30
0.0
 10
38.96594312374712
 20
3.454081044452223
 30
0.0
 10
38.22910873174636
 20
3.610099736474978
 30
0.0
 10
37.86306637140071
 20
3.576163704605309
 30
0.0
 10
37.85468795171852
 20
3.575386935716911
 30
0.0
  0
SPLINE
  5
C5
330
1F
100
AcDbEntity
  8
0
  6
Continuous
 62
     1
370
    15
100
AcDbSpline
210
0.0
220
0.0
230
1.0
 70
     8
 71
     3
 72
    22
 73
    18
 74
     0
 42
0.000000001
 43
0.00000001
 40
0.0
 40
0.0
 40
0.0
 40
0.0
 40
0.0473991543128747
 40
0.1148420560363561
 40
0.1842423780212135
 40
0.2516236907426017
 40
0.320960276973398
 40
0.3882888487906877
 40
0.4575707453193473
 40
0.5248540854654449
 40
0.5940891581627575
 40
0.6613321515465891
 40
0.7305254458271115
 40
0.7977331174240646
 40
0.866889731553421
 40
0.9340701825400795
 40
1.0
 40
1.0
 40
1.0
 40
1.0
 10
26.7982820333792
 20
-3.284484532319831
 30
0.0
 10
26.55412229572135
 20
-3.392626576010926
 30
0.0
 10
25.9625546468802
 20
-3.654640842330557
 30
0.0
 10
25.01630802329813
 20
-3.818552576238957
 30
0.0
 10
23.96913092749819
 20
-3.789879709243
 30
0.0
 10
22.91482884176763
 20
-3.512238841314467
 30
0.0
 10
21.8731432411188
 20
-3.017578961598284
 30
0.0
 10
20.82419294932435
 20
-2.325048337585736
 30
0.0
 10
19.78772696577496
 20
-1.49007830571207
 30
0.0
 10
18.74402172959918
 20
-0.5491422075925837
 30
0.0
 10
17.71260728087609
 20
0.4235872951973677
 30
0.0
 10
16.67398606126739
 20
1.385957582203975
 30
0.0
 10
15.64755743881251
 20
2.262110924403959
 30
0.0
 10
14.61385950125073
 20
3.015969676345543
 30
0.0
 10
13.59231648556715
 20
3.582279182031793
 30
0.0
 10
12.57931011989412
 20
3.955193821795195
 30
0.0
 10
11.91435532606668
 20
4.006084773968039
 30
0.0
 10
11.5850017105435
 20
4.031291177848622
 30
0.0
  0
LINE
  5
C6
102
{ACAD_REACTORS
102
}
330
1F
100
AcDbEntity
  8
0
  6
Continuous
 62
     1
370
    15
100
AcDbLine
 10
60.6749081826537
 20
3.179835151814099
 30
0.0
 11
60.6749081826537
 21
3.179119311814426
 31
0.0
  0
SPLINE
  5
C7
330
1F
100
AcDbEntity
  8
0
  6
Continuous
 62
     1
370
    15
100
AcDbSpline
210
0.0
220
0.0
230
1.0
 70
     8
 71
     3
 72
    22
 73
    18
 74
     0
 42
0.000000001
 43
0.00000001
 40
0.0
 40
0.0
 40
0.0
 40
0.0
 40
0.050125465628483
 40
0.1206685233233233
 40
0.1892850531652107
 40
0.2598862957843326
 40
0.3285621859910766
 40
0.3992241308711361
 40
0.4679668217226947
 40
0.5386967912847853
 40
0.6075183044880962
 40
0.6783289390047336
 40
0.7472348944474657
 40
0.8181321329995469
 40
0.8871283935977232
 40
0.9581177393045021
 40
1.0
 40
1.0
 40
1.0
 40
1.0
 10
13.56945502401289
 20
3.559510241791873
 30
0.0
 10
13.82175901329349
 20
3.658920737513065
 30
0.0
 10
14.42913790610467
 20
3.898234578713566
 30
0.0
 10
15.38472211880124
 20
4.003928466680085
 30
0.0
 10
16.44545057638736
 20
3.90351731156623
 30
0.0
 10
17.49939686226336
 20
3.559214011758881
 30
0.0
 10
18.5658115736293
 20
2.996399081041728
 30
0.0
 10
19.62531567514774
 20
2.257176035670412
 30
0.0
 10
20.69748805321836
 20
1.376094058752252
 30
0.0
 10
21.76281926919875
 20
0.4230313349432614
 30
0.0
 10
22.84089711159064
 20
-0.5579383503397897
 30
0.0
 10
23.91227257139614
 20
-1.488499816695769
 30
0.0
 10
24.99649452963311
 20
-2.324364067645986
 30
0.0
 10
26.0739717053854
 20
-3.001759203041834
 30
0.0
 10
27.16458068768266
 20
-3.475501574332656
 30
0.0
 10
28.10706251690148
 20
-3.720201119233891
 30
0.0
 10
28.69361233874269
 20
-3.702654324663174
 30
0.0
 10
28.91125815182431
 20
-3.696143392037994
 30
0.0
  0
SPLINE
  5
C8
330
1F
100
AcDbEntity
  8
0
  6
Continuous
 62
     1
370
    15
100
AcDbSpline
210
0.0
220
0.0
230
1.0
 70
     8
 71
     3
 72
    22
 73
    18
 74
     0
 42
0.000000001
 43
0.00000001
 40
0.0
 40
0.0
 40
0.0
 40
0.0
 40
0.0239859550382418
 40
0.098432544882464
 40
0.170968600034222
 40
0.2455953758189613
 40
0.3183163660666153
 40
0.3931325493334433
 40
0.4660548950871625
 40
0.5410771923483428
 40
0.6142166819955877
 40
0.6894617979334472
 40
0.7628303659201917
 40
0.8383098432155569
 40
0.9119293851621966
 40
0.9876662857196983
 40
0.9999999999999999
 40
0.9999999999999999
 40
0.9999999999999999
 40
0.9999999999999999
 10
40.07918318532931
 20
3.048511021367184
 30
0.0
 10
40.20206355589973
 20
3.103682553871654
 30
0.0
 10
40.70633480847494
 20
3.330093148772807
 30
0.0
 10
41.58501822538798
 20
3.496324844311317
 30
0.0
 10
42.72566923617272
 20
3.519322045605755
 30
0.0
 10
43.86051213752106
 20
3.280470125788554
 30
0.0
 10
45.00954840399822
 20
2.8119110835972
 30
0.0
 10
46.15265166998708
 20
2.149840182083512
 30
0.0
 10
47.31018878736069
 20
1.332809980096699
 30
0.0
 10
48.46196534857059
 20
0.4329149403143119
 30
0.0
 10
49.62836343813811
 20
-0.4982746488578758
 30
0.0
 10
50.78907702731312
 20
-1.377916392168431
 30
0.0
 10
51.96464159336809
 20
-2.152779813443536
 30
0.0
 10
53.13462474279284
 20
-2.760405099515816
 30
0.0
 10
54.31989485411287
 20
-3.136288888367897
 30
0.0
 10
55.17379867590597
 20
-3.293041656422462
 30
0.0
 10
55.64033902070242
 20
-3.246435503505167
 30
0.0
 10
55.70567494828224
 20
-3.239908616247204
 30
0.0
  0
LINE
  5
C9
330
1F
100
AcDbEntity
  8
0
  6
Continuous
 62
     4
370
    15
100
AcDbLine
 10
9.130498055790495
 20
-3.633954070030567
 30
0.0
 11
8.858908182653702
 21
-3.771631711182936
 31
0.0
  0
SPLINE
  5
CA
330
1F
100
AcDbEntity
  8
0
  6
Continuous
 62
     4
370
    15
100
AcDbSpline
210
0.0
220
0.0
230
1.0
 70
     8
 71
     3
 72
     8
 73
     4
 74
     0
 42
0.000000001
 43
0.00000001
 40
0.0
 40
0.0
 40
0.0
 40
0.0
 40
1.0
 40
1.0
 40
1.0
 40
1.0
 10
8.858908182653703
 20
-3.539317193118528
 30
0.0
 10
9.197736670664904
 20
-3.693562660803746
 30
0.0
 10
9.534830795775541
 20
-3.812119036335984
 30
0.0
 10
9.874908182653703
 20
-3.893347576623304
 30
0.0
  0
SPLINE
  5
CB
330
1F
100
AcDbEntity
  8
0
  6
Continuous
 62
     1
370
    15
100
AcDbSpline
210
0.0
220
0.0
230
1.0
 70
     8
 71
     3
 72
    12
 73
     8
 74
     0
 42
0.000000001
 43
0.00000001
 40
0.0
 40
0.0
 40
0.0
 40
0.0
 40
0.1810569804923362
 40
0.3634113914091992
 40
0.5527116619993747
 40
0.8225172405238016
 40
0.9999999999999999
 40
0.9999999999999999
 40
0.9999999999999999
 40
0.9999999999999999
 10
58.54223507653747
 20
-2.456000785315638
 30
0.0
 10
58.6108460229235
 20
-2.372591614616061
 30
0.0
 10
58.74855957268137
 20
-2.205175574108835
 30
0.0
 10
58.99591442003699
 20
-1.96489856958866
 30
0.0
 10
59.30505301237366
 20
-1.716638932375749
 30
0.0
 10
59.63939979214529
 20
-1.50289659708082
 30
0.0
 10
59.85359006432246
 20
-1.442305148743767
 30
0.0
 10
59.93858016428549
 20
-1.418262631785713
 30
0.0
  0
SPLINE
  5
CC
330
1F
100
AcDbEntity
  8
0
  6
Continuous
 62
     1
370
    15
100
AcDbSpline
210
0.0
220
0.0
230
1.0
 70
     8
 71
     3
 72
     8
 73
     4
 74
     0
 42
0.000000001
 43
0.00000001
 40
0.0
 40
0.0
 40
0.0
 40
0.0
 40
1.0
 40
1.0
 40
1.0
 40
1.0
 10
58.54223507653747
 20
-2.456000785315635
 30
0.0
 10
58.79037514569609
 20
-2.696972634797242
 30
0.0
 10
59.03378068197799
 20
-2.937463281267756
 30
0.0
 10
59.27640036886042
 20
-3.177864678021234
 30
0.0
  0
SPLINE
  5
CD
330
1F
100
AcDbEntity
  8
0
  6
Continuous
 62
     1
370
    15
100
AcDbSpline
210
0.0
220
0.0
230
1.0
 70
     8
 71
     3
 72
    20
 73
    16
 74
     0
 42
0.000000001
 43
0.00000001
 40
0.0
 40
0.0
 40
0.0
 40
0.0
 40
0.0043714191300703
 40
0.0930677332223081
 40
0.1843168010395738
 40
0.2732564269839474
 40
0.3647861659611091
 40
0.4534765965977846
 40
0.5447491631683469
 40
0.6332042739673214
 40
0.7242340614632622
 40
0.8124651448958566
 40
0.9032635117875695
 40
0.991291282265472
 40
1.0
 40
1.0
 40
1.0
 40
1.0
 10
59.27640036885146
 20
-3.177864678014166
 30
0.0
 10
59.25771716071269
 20
-3.176662259043768
 30
0.0
 10
58.85995071941349
 20
-3.151062698665614
 30
0.0
 10
58.07166917406426
 20
-3.010873636354533
 30
0.0
 10
56.92521947893736
 20
-2.576351671509575
 30
0.0
 10
55.76925663705559
 20
-1.935051176278557
 30
0.0
 10
54.62665565671261
 20
-1.146237453422265
 30
0.0
 10
53.47697873007823
 20
-0.2563014226446219
 30
0.0
 10
52.34267751228806
 20
0.6521789468073081
 30
0.0
 10
51.20134971746553
 20
1.528651021854821
 30
0.0
 10
50.07516146115196
 20
2.290452617627098
 30
0.0
 10
48.94185134400148
 20
2.904169374190023
 30
0.0
 10
47.82370993717166
 20
3.281446906263168
 30
0.0
 10
47.03978073443424
 20
3.450208364339945
 30
0.0
 10
46.63655815336159
 20
3.417503584835907
 30
0.0
 10
46.60025797637937
 20
3.414559331860285
 30
0.0
  0
SPLINE
  5
CE
330
1F
100
AcDbEntity
  8
0
  6
Continuous
 62
     1
370
    15
100
AcDbSpline
210
0.0
220
0.0
230
1.0
 70
     8
 71
     3
 72
    22
 73
    18
 74
     0
 42
0.000000001
 43
0.00000001
 40
0.0
 40
0.0
 40
0.0
 40
0.0
 40
0.0672269692906186
 40
0.1357993459654558
 40
0.2063634347021611
 40
0.2748440914374525
 40
0.3453134662359413
 40
0.4137093394858407
 40
0.4840909803049088
 40
0.5524132580896606
 40
0.622718760927715
 40
0.6909739796901482
 40
0.7612101948915839
 40
0.8294030828422664
 40
0.8995747946233978
 40
0.9677143064313731
 40
1.0
 40
1.0
 40
1.0
 40
1.0
 10
35.65334972353949
 20
-3.123886856269479
 30
0.0
 10
35.30512707806807
 20
-3.262402525273031
 30
0.0
 10
34.60171283815261
 20
-3.542205965099894
 30
0.0
 10
33.53595392309769
 20
-3.681285817833268
 30
0.0
 10
32.46563587750832
 20
-3.595630208456846
 30
0.0
 10
31.38820477636292
 20
-3.26542107287943
 30
0.0
 10
30.32400810325688
 20
-2.723475243801171
 30
0.0
 10
29.252596952205
 20
-1.993751826402876
 30
0.0
 10
28.19429143122293
 20
-1.136432834759738
 30
0.0
 10
27.12875021519321
 20
-0.1913688825223585
 30
0.0
 10
26.07609903597366
 20
0.7643409348475265
 30
0.0
 10
25.01625265032338
 20
1.686995426788215
 30
0.0
 10
23.96915079159287
 20
2.50061603851489
 30
0.0
 10
22.91480401064914
 20
3.172673440806753
 30
0.0
 10
21.87322412984708
 20
3.631922788489822
 30
0.0
 10
21.01435840858037
 20
3.868901344597736
 30
0.0
 10
20.51011343125408
 20
3.856888674571277
 30
0.0
 10
20.34800374215337
 20
3.853026721967237
 30
0.0
  0
ELLIPSE
  5
CF
330
1F
100
AcDbEntity
  8
0
  6
Continuous
 62
     1
370
    15
100
AcDbEllipse
 10
54.72890491505562
 20
0.0816409175388375
 30
0.0
 11
4.652955561862804
 21
-3.187485257988358
 31
0.0
210
0.0
220
0.0
230
1.0
 40
0.1650258973008272
 41
6.055120281731937
 42
6.154962616688606
  0
ELLIPSE
  5
D0
330
1F
100
AcDbEntity
  8
0
  6
Continuous
 62
     1
370
    15
100
AcDbEllipse
 10
60.5618032357699
 20
-0.0347633163943184
 30
0.0
 11
4.389252803351496
 21
2.233319683938511
 31
0.0
210
0.0
220
0.0
230
1.0
 40
0.5145483491299386
 41
4.153437689656595
 42
4.481257132704545
  0
LINE
  5
D1
330
1F
100
AcDbEntity
  8
0
  6
Continuous
 62
     1
370
    15
100
AcDbLine
 10
60.6749081826537
 20
0.0048351518141037
 30
0.0
 11
60.6749081826537
 21
3.158581718727606
 31
0.0
  0
LINE
  5
D2
330
1F
100
AcDbEntity
  8
0
  6
Continuous
 62
     1
370
    15
100
AcDbLine
 10
60.6749081826537
 20
-1.889655344276121
 30
0.0
 11
60.6749081826537
 21
-2.744795505201482
 31
0.0
  0
LINE
  5
D3
330
1F
100
AcDbEntity
  8
0
  6
Continuous
 62
     4
370
    15
100
AcDbLine
 10
9.874908182653714
 20
4.066552450167547
 30
0.0
 11
9.874908182653714
 21
2.941999954898562
 31
0.0
  0
LINE
  5
D4
102
{ACAD_REACTORS
102
}
330
1F
100
AcDbEntity
  8
중심선
100
AcDbLine
 10
-43.92509181734628
 20
0.0048351518140902
 30
0.0
 11
63.67490428620231
 21
0.0048351518140902
 31
0.0
  0
CIRCLE
  5
D5
330
1F
100
AcDbEntity
  8
외형선
100
AcDbCircle
 10
-0.0000000000000013
 20
-0.0000000000000039
 30
0.0
 40
3.000000000000004
  0
INSERT
  5
D6
330
1F
100
AcDbEntity
  8
0
  6
Continuous
 62
     7
100
AcDbBlockReference
 66
     1
  2
블럭10
 10
-16.63945112874702
 20
-52.04717430164393
 30
0.0
  0
ATTRIB
  5
D7
330
D6
100
AcDbEntity
  8
FORMAT
 62
     2
100
AcDbText
 10
-25.8207464174883
 20
-49.97180738881174
 30
0.0
 40
4.233333333333333
  1
E5077116 [ 3 FLUTE ]
 41
0.75
  7
SLDTEXTSTYLE0
 11
-25.8207464174883
 21
-52.08847405547841
 31
0.0
100
AcDbAttribute
  2
AUTOATTR0
 70
     0
 74
     1
  0
SEQEND
  5
D8
330
D6
100
AcDbEntity
  8
0
  6
Continuous
 62
     7
  0
HATCH
  5
D9
330
1F
100
AcDbEntity
  8
중심선
100
AcDbHatch
 10
0.0
 20
0.0
 30
0.0
210
0.0
220
0.0
230
1.0
  2
SOLID
 70
     1
 71
     0
 91
        1
 92
        0
 93
        4
 72
     1
 10
-10.92454182436617
 20
-35.8
 11
-14.37081706820345
 21
-35.8
 72
     1
 10
-14.37081706820345
 20
-35.8
 11
-16.49904692740747
 21
-38.33632558057259
 72
     1
 10
-16.49904692740747
 20
-38.33632558057259
 11
-13.05273859845704
 21
-38.3362861512701
 72
     1
 10
-13.05273859845704
 20
-38.3362861512701
 11
-10.92454182436617
 21
-35.8
 97
        0
 75
     0
 76
     1
 98
        1
 10
0.0
 20
0.0
  0
HATCH
  5
DA
330
1F
100
AcDbEntity
  8
중심선
100
AcDbHatch
 10
0.0
 20
0.0
 30
0.0
210
0.0
220
0.0
230
1.0
  2
SOLID
 70
     1
 71
     0
 91
        1
 92
        0
 93
        4
 72
     1
 10
-5.911777833330217
 20
-35.8
 11
-9.358053077167499
 21
-35.8
 72
     1
 10
-9.358053077167499
 20
-35.8
 11
-13.88919108552489
 21
-41.20000000000002
 72
     1
 10
-13.88919108552489
 20
-41.20000000000002
 11
-10.44291584168761
 21
-41.20000000000002
 72
     1
 10
-10.44291584168761
 20
-41.20000000000002
 11
-5.911777833330217
 21
-35.8
 97
        0
 75
     0
 76
     1
 98
        1
 10
0.0
 20
0.0
  0
HATCH
  5
DB
330
1F
100
AcDbEntity
  8
중심선
100
AcDbHatch
 10
0.0
 20
0.0
 30
0.0
210
0.0
220
0.0
230
1.0
  2
SOLID
 70
     1
 71
     0
 91
        1
 92
        0
 93
        4
 72
     1
 10
-0.8990138422943217
 20
-35.80000000000003
 11
-4.345289086131437
 21
-35.8
 72
     1
 10
-4.345289086131437
 20
-35.8
 11
-11.39372598802069
 21
-44.20000000000002
 72
     1
 10
-11.39372598802069
 20
-44.20000000000002
 11
-7.947450744183405
 21
-44.20000000000002
 72
     1
 10
-7.947450744183405
 20
-44.20000000000002
 11
-0.8990138422943215
 21
-35.80000000000003
 97
        0
 75
     0
 76
     1
 98
        1
 10
0.0
 20
0.0
  0
HATCH
  5
DC
330
1F
100
AcDbEntity
  8
중심선
100
AcDbHatch
 10
0.0
 20
0.0
 30
0.0
210
0.0
220
0.0
230
1.0
  2
SOLID
 70
     1
 71
     0
 91
        1
 92
        0
 93
        6
 72
     3
 10
3.900876588717877
 20
-40.00000000005127
 11
3.960054785062284
 21
1.540850780301639E-10
 40
0.3939339440162633
 50
17.09539180608433
 51
320.0019657685079
 73
     0
 72
     1
 10
5.583876244418473
 20
-38.5878940046383
 11
7.889178118119511
 21
-36.65356729459038
 72
     3
 10
3.900876588665031
 20
-40.00000000000015
 11
6.600054785286829
 21
-1.249000902703301E-13
 40
0.6363583540795982
 50
39.99873849337408
 51
368.4976242363725
 73
     1
 72
     1
 10
10.32620908056564
 20
-39.03999999993002
 11
2.580943895500953
 21
-39.03999999992999
 72
     1
 10
2.580943895500953
 20
-39.03999999992999
 11
2.58091885105502
 21
-40.95999999992991
 72
     1
 10
2.58091885105502
 20
-40.95999999992991
 11
7.022298620527057
 21
-40.95999999992988
 97
        0
 75
     0
 76
     1
 98
        1
 10
0.0
 20
0.0
  0
POINT
  5
DD
330
1F
100
AcDbEntity
  8
치수문자_일반주서
100
AcDbPoint
 10
-0.0000000000000013
 20
-0.0000000000000039
 30
0.0
  0
DIMENSION
  5
DE
330
1F
100
AcDbEntity
  8
치수문자_일반주서
100
AcDbDimension
  2
_D
 10
9.874908182653712
 20
34.28929269787923
 30
0.0
 11
35.2749081826537
 21
34.28929269787923
 31
0.0
 70
   160
  1
<>
 71
     2
 42
50.79999999999998
  3
SLDDIMSTYLE0
100
AcDbAlignedDimension
 13
60.6749081826537
 23
3.158581718727606
 33
0.0
 14
9.874908182653712
 24
4.066552450167547
 34
0.0
100
AcDbRotatedDimension
1001
ACAD
1000
DSTYLE
1002
{
1070
   171
1070
     6
1070
   273
1070
     7
1002
}
  0
DIMENSION
  5
F4
330
1F
100
AcDbEntity
  8
치수문자_일반주서
100
AcDbDimension
  2
_D_1
 10
-40.9250918173463
 20
46.88257587845354
 30
0.0
 11
14.84655568476197
 21
46.88257587845354
 31
0.0
 70
   160
  1
<>
 71
     2
 42
101.6
  3
SLDDIMSTYLE1
100
AcDbAlignedDimension
 13
60.6749081826537
 23
3.158581718727606
 33
0.0
 14
-40.9250918173463
 24
5.544835151814106
 34
0.0
 50
0.000000000000004
100
AcDbRotatedDimension
1001
ACAD
1000
DSTYLE
1002
{
1070
   171
1070
     6
1070
   273
1070
     7
1002
}
  0
DIMENSION
  5
108
330
1F
100
AcDbEntity
  8
치수문자_일반주서
100
AcDbDimension
  2
_D_2
 10
-54.89694392901687
 20
-6.345164848185952
 30
0.0
 11
-54.89694392901698
 21
26.30258515181403
 31
0.0
 70
   160
  1
%%c<>
 71
     2
 42
12.69999999999999
  3
SLDDIMSTYLE0
100
AcDbAlignedDimension
 13
-40.11509181734632
 23
6.354835151814086
 33
0.0
 14
-40.11509181734632
 24
-6.345164848185906
 34
0.0
 50
90.0000000000002
100
AcDbRotatedDimension
1001
ACAD
1000
DSTYLE
1002
{
1070
   171
1070
     6
1070
   273
1070
     7
1002
}
  0
INSERT
  5
122
330
1F
100
AcDbEntity
  8
외형선
100
AcDbBlockReference
  2
SW_DOWELSYMBOL_0
 10
-0.0000000000000013
 20
-0.0000000000000039
 30
0.0
  0
DIMENSION
  5
14A
102
{ACAD_REACTORS
102
}
102
{ACAD_XDICTIONARY
360
14B
102
}
330
1F
100
AcDbEntity
  8
치수문자_일반주서
100
AcDbDimension
  2
*D6
 10
83.43182690204706
 20
-3.170164848185912
 30
0.0
 11
83.43182690204706
 21
22.47061931181442
 31
0.0
 70
   160
  1
{%%c<>[]}
 71
     5
 42
6.349284160000336
  3
SLDDIMSTYLE0
100
AcDbAlignedDimension
 13
60.6749081826537
 23
3.179119311814426
 33
0.0
 14
60.67490818265368
 24
-3.17016484818591
 34
0.0
 50
90.0
100
AcDbRotatedDimension
1001
ACAD
1000
DSTYLE
1002
{
1070
   283
1070
     1
1070
   170
1070
     1
1070
   171
1070
     6
1070
   273
1070
     7
1002
}
  0
DIMENSION
  5
161
102
{ACAD_REACTORS
102
}
102
{ACAD_XDICTIONARY
360
162
102
}
330
1F
100
AcDbEntity
  8
치수문자_일반주서
100
AcDbDimension
  2
*D7
 10
63.67490428620231
 20
0.0048351518140902
 30
0.0
 11
26.80603882692864
 21
12.64302122928632
 31
0.0
 70
    34
  1
<>
 71
     5
 42
0.0174532925199433
  3
SLDDIMSTYLE0
100
AcDb2LineAngularDimension
 13
20.34853974895634
 23
3.883734531143507
 33
0.0
 14
15.53952022152444
 24
3.967676279235897
 34
0.0
 15
-43.92509181734628
 25
0.0048351518140902
 35
0.0
 16
29.07590451961525
 26
1.24691058541585
 36
0.0
1001
ACAD
1000
DSTYLE
1002
{
1070
   171
1070
     6
1070
   273
1070
     7
1002
}
  0
ENDSEC
  0
SECTION
  2
OBJECTS
  0
DICTIONARY
  5
C
330
0
100
AcDbDictionary
281
     1
  3
ACAD_DETAILVIEWSTYLE
350
179
  3
ACAD_GROUP
350
D
  3
ACAD_IMAGE_VARS
350
146
  3
ACAD_LAYOUT
350
1A
  3
ACAD_MLINESTYLE
350
17
  3
ACAD_PLOTSETTINGS
350
19
  3
ACAD_PLOTSTYLENAME
350
E
  3
ACAD_SCALELIST
350
47
  3
ACAD_SECTIONVIEWSTYLE
350
17A
  3
AcDbVariableDictionary
350
174
  3
APPDATA
350
144
  3
DWGPROPS
350
17B
  0
DICTIONARY
  5
14B
330
14A
100
AcDbDictionary
280
     1
281
     1
  0
DICTIONARY
  5
162
330
161
100
AcDbDictionary
280
     1
281
     1
  0
DICTIONARY
  5
179
102
{ACAD_REACTORS
330
C
102
}
330
C
100
AcDbDictionary
281
     1
  0
DICTIONARY
  5
D
102
{ACAD_REACTORS
330
C
102
}
330
C
100
AcDbDictionary
281
     1
  0
RASTERVARIABLES
  5
146
102
{ACAD_REACTORS
330
C
102
}
330
C
100
AcDbRasterVariables
 90
        0
 70
     1
 71
     1
 72
     1
  0
DICTIONARY
  5
1A
102
{ACAD_REACTORS
330
C
102
}
330
C
100
AcDbDictionary
281
     1
  3
Layout1
350
1E
  3
Layout2
350
26
  3
Model
350
22
  0
DICTIONARY
  5
17
102
{ACAD_REACTORS
330
C
102
}
330
C
100
AcDbDictionary
281
     1
  3
Standard
350
18
  0
DICTIONARY
  5
19
102
{ACAD_REACTORS
330
C
102
}
330
C
100
AcDbDictionary
281
     1
  0
ACDBDICTIONARYWDFLT
  5
E
102
{ACAD_REACTORS
330
C
102
}
330
C
100
AcDbDictionary
281
     1
  3
Normal
350
F
100
AcDbDictionaryWithDefault
340
F
  0
DICTIONARY
  5
47
102
{ACAD_REACTORS
330
C
102
}
330
C
100
AcDbDictionary
281
     1
  3
A0
350
48
  3
A1
350
49
  3
A2
350
4A
  3
A3
350
4B
  3
A4
350
4C
  3
A5
350
4D
  3
A6
350
4E
  3
A7
350
4F
  3
A8
350
50
  3
A9
350
51
  3
B0
350
52
  3
B1
350
53
  3
B2
350
54
  3
B3
350
55
  3
B4
350
56
  3
B5
350
57
  3
B6
350
58
  3
B7
350
59
  3
B8
350
5A
  3
B9
350
5B
  3
C0
350
5C
  3
C1
350
5D
  3
C2
350
5E
  3
C3
350
5F
  3
C4
350
60
  3
C5
350
61
  3
C6
350
62
  3
C7
350
63
  3
C8
350
64
  3
C9
350
65
  3
D0
350
66
  3
D1
350
67
  3
D2
350
68
  0
DICTIONARY
  5
17A
102
{ACAD_REACTORS
330
C
102
}
330
C
100
AcDbDictionary
281
     1
  0
DICTIONARY
  5
174
102
{ACAD_REACTORS
330
C
102
}
330
C
100
AcDbDictionary
281
     1
  0
DICTIONARY
  5
144
102
{ACAD_REACTORS
330
C
102
}
330
C
100
AcDbDictionary
281
     1
  0
XRECORD
  5
17B
102
{ACAD_REACTORS
330
C
102
}
330
C
100
AcDbXrecord
280
     1
  1
DWGPROPS COOKIE
  2

  3

  4

  6

  7

  8
12015048
  9

300
=
301
=
302
=
303
=
304
=
305
=
306
=
307
=
308
=
309
=
 40
0.0
 41
2458333.348019722
 42
2458340.062670417
  1

 90
        0
  0
LAYOUT
  5
1E
102
{ACAD_REACTORS
330
1A
102
}
330
1A
100
AcDbPlotSettings
  1

  2
none_device
  4

  6

 40
0.0
 41
0.0
 42
0.0
 43
0.0
 44
0.0
 45
0.0
 46
0.0
 47
0.0
 48
0.0
 49
0.0
140
0.0
141
0.0
142
1.0
143
1.0
 70
   688
 72
     1
 73
     0
 74
     5
  7

 75
    16
147
1.0
148
0.0
149
0.0
100
AcDbLayout
  1
Layout1
 70
     1
 71
     1
 10
0.0
 20
0.0
 11
420.0
 21
297.0
 12
0.0
 22
0.0
 32
0.0
 14
1.000000000000000E+20
 24
1.000000000000000E+20
 34
1.000000000000000E+20
 15
-1.000000000000000E+20
 25
-1.000000000000000E+20
 35
-1.000000000000000E+20
146
0.0
 13
0.0
 23
0.0
 33
0.0
 16
1.0
 26
0.0
 36
0.0
 17
0.0
 27
1.0
 37
0.0
 76
     0
330
1B
  0
LAYOUT
  5
26
102
{ACAD_REACTORS
330
1A
102
}
330
1A
100
AcDbPlotSettings
  1

  2
none_device
  4

  6

 40
0.0
 41
0.0
 42
0.0
 43
0.0
 44
0.0
 45
0.0
 46
0.0
 47
0.0
 48
0.0
 49
0.0
140
0.0
141
0.0
142
1.0
143
1.0
 70
   688
 72
     1
 73
     0
 74
     5
  7

 75
    16
147
1.0
148
0.0
149
0.0
100
AcDbLayout
  1
Layout2
 70
     1
 71
     2
 10
0.0
 20
0.0
 11
0.0
 21
0.0
 12
0.0
 22
0.0
 32
0.0
 14
0.0
 24
0.0
 34
0.0
 15
0.0
 25
0.0
 35
0.0
146
0.0
 13
0.0
 23
0.0
 33
0.0
 16
1.0
 26
0.0
 36
0.0
 17
0.0
 27
1.0
 37
0.0
 76
     0
330
23
  0
LAYOUT
  5
22
102
{ACAD_REACTORS
330
1A
102
}
330
1A
100
AcDbPlotSettings
  1

  2
none_device
  4
ANSI_A_(11.00_x_8.50_Inches)
  6

 40
6.35
 41
19.05
 42
6.35000508
 43
19.05000254
 44
279.4
 45
215.9
 46
130.928189324021
 47
101.644118882377
 48
0.0
 49
0.0
140
0.0
141
0.0
142
0.082661012558327
143
1.0
 70
  1696
 72
     0
 73
     0
 74
     0
  7

 75
     0
147
0.0235690232323232
148
0.0
149
0.0
100
AcDbLayout
  1
Model
 70
     1
 71
     0
 10
0.0
 20
0.0
 11
420.0
 21
297.0
 12
0.0
 22
0.0
 32
0.0
 14
-59.27194392901702
 24
-49.97180738881174
 34
0.0
 15
83.98216023538038
 25
51.25757587845354
 35
0.0
146
0.0
 13
0.0
 23
0.0
 33
0.0
 16
1.0
 26
0.0
 36
0.0
 17
0.0
 27
1.0
 37
0.0
 76
     0
330
1F
331
29
  0
MLINESTYLE
  5
18
102
{ACAD_REACTORS
330
17
102
}
330
17
100
AcDbMlineStyle
  2
Standard
 70
     0
  3

 62
   256
 51
90.0
 52
90.0
 71
     2
 49
0.5
 62
   256
  6
BYLAYER
 49
-0.5
 62
   256
  6
BYLAYER
  0
ACDBPLACEHOLDER
  5
F
102
{ACAD_REACTORS
330
E
102
}
330
E
  0
SCALE
  5
48
102
{ACAD_REACTORS
330
47
102
}
330
47
100
AcDbScale
 70
     0
300
1:1
140
1.0
141
1.0
290
     1
  0
SCALE
  5
49
102
{ACAD_REACTORS
330
47
102
}
330
47
100
AcDbScale
 70
     0
300
1:2
140
1.0
141
2.0
290
     0
  0
SCALE
  5
4A
102
{ACAD_REACTORS
330
47
102
}
330
47
100
AcDbScale
 70
     0
300
1:4
140
1.0
141
4.0
290
     0
  0
SCALE
  5
4B
102
{ACAD_REACTORS
330
47
102
}
330
47
100
AcDbScale
 70
     0
300
1:5
140
1.0
141
5.0
290
     0
  0
SCALE
  5
4C
102
{ACAD_REACTORS
330
47
102
}
330
47
100
AcDbScale
 70
     0
300
1:8
140
1.0
141
8.0
290
     0
  0
SCALE
  5
4D
102
{ACAD_REACTORS
330
47
102
}
330
47
100
AcDbScale
 70
     0
300
1:10
140
1.0
141
10.0
290
     0
  0
SCALE
  5
4E
102
{ACAD_REACTORS
330
47
102
}
330
47
100
AcDbScale
 70
     0
300
1:16
140
1.0
141
16.0
290
     0
  0
SCALE
  5
4F
102
{ACAD_REACTORS
330
47
102
}
330
47
100
AcDbScale
 70
     0
300
1:20
140
1.0
141
20.0
290
     0
  0
SCALE
  5
50
102
{ACAD_REACTORS
330
47
102
}
330
47
100
AcDbScale
 70
     0
300
1:30
140
1.0
141
30.0
290
     0
  0
SCALE
  5
51
102
{ACAD_REACTORS
330
47
102
}
330
47
100
AcDbScale
 70
     0
300
1:40
140
1.0
141
40.0
290
     0
  0
SCALE
  5
52
102
{ACAD_REACTORS
330
47
102
}
330
47
100
AcDbScale
 70
     0
300
1:50
140
1.0
141
50.0
290
     0
  0
SCALE
  5
53
102
{ACAD_REACTORS
330
47
102
}
330
47
100
AcDbScale
 70
     0
300
1:100
140
1.0
141
100.0
290
     0
  0
SCALE
  5
54
102
{ACAD_REACTORS
330
47
102
}
330
47
100
AcDbScale
 70
     0
300
2:1
140
2.0
141
1.0
290
     0
  0
SCALE
  5
55
102
{ACAD_REACTORS
330
47
102
}
330
47
100
AcDbScale
 70
     0
300
4:1
140
4.0
141
1.0
290
     0
  0
SCALE
  5
56
102
{ACAD_REACTORS
330
47
102
}
330
47
100
AcDbScale
 70
     0
300
8:1
140
8.0
141
1.0
290
     0
  0
SCALE
  5
57
102
{ACAD_REACTORS
330
47
102
}
330
47
100
AcDbScale
 70
     0
300
10:1
140
10.0
141
1.0
290
     0
  0
SCALE
  5
58
102
{ACAD_REACTORS
330
47
102
}
330
47
100
AcDbScale
 70
     0
300
100:1
140
100.0
141
1.0
290
     0
  0
SCALE
  5
59
102
{ACAD_REACTORS
330
47
102
}
330
47
100
AcDbScale
 70
     0
300
1/128" = 1'-0"
140
0.0078125
141
12.0
290
     0
  0
SCALE
  5
5A
102
{ACAD_REACTORS
330
47
102
}
330
47
100
AcDbScale
 70
     0
300
1/64" = 1'-0"
140
0.015625
141
12.0
290
     0
  0
SCALE
  5
5B
102
{ACAD_REACTORS
330
47
102
}
330
47
100
AcDbScale
 70
     0
300
1/32" = 1'-0"
140
0.03125
141
12.0
290
     0
  0
SCALE
  5
5C
102
{ACAD_REACTORS
330
47
102
}
330
47
100
AcDbScale
 70
     0
300
1/16" = 1'-0"
140
0.0625
141
12.0
290
     0
  0
SCALE
  5
5D
102
{ACAD_REACTORS
330
47
102
}
330
47
100
AcDbScale
 70
     0
300
3/32" = 1'-0"
140
0.09375
141
12.0
290
     0
  0
SCALE
  5
5E
102
{ACAD_REACTORS
330
47
102
}
330
47
100
AcDbScale
 70
     0
300
1/8" = 1'-0"
140
0.125
141
12.0
290
     0
  0
SCALE
  5
5F
102
{ACAD_REACTORS
330
47
102
}
330
47
100
AcDbScale
 70
     0
300
3/16" = 1'-0"
140
0.1875
141
12.0
290
     0
  0
SCALE
  5
60
102
{ACAD_REACTORS
330
47
102
}
330
47
100
AcDbScale
 70
     0
300
1/4" = 1'-0"
140
0.25
141
12.0
290
     0
  0
SCALE
  5
61
102
{ACAD_REACTORS
330
47
102
}
330
47
100
AcDbScale
 70
     0
300
3/8" = 1'-0"
140
0.375
141
12.0
290
     0
  0
SCALE
  5
62
102
{ACAD_REACTORS
330
47
102
}
330
47
100
AcDbScale
 70
     0
300
1/2" = 1'-0"
140
0.5
141
12.0
290
     0
  0
SCALE
  5
63
102
{ACAD_REACTORS
330
47
102
}
330
47
100
AcDbScale
 70
     0
300
3/4" = 1'-0"
140
0.75
141
12.0
290
     0
  0
SCALE
  5
64
102
{ACAD_REACTORS
330
47
102
}
330
47
100
AcDbScale
 70
     0
300
1" = 1'-0"
140
1.0
141
12.0
290
     0
  0
SCALE
  5
65
102
{ACAD_REACTORS
330
47
102
}
330
47
100
AcDbScale
 70
     0
300
1-1/2" = 1'-0"
140
1.5
141
12.0
290
     0
  0
SCALE
  5
66
102
{ACAD_REACTORS
330
47
102
}
330
47
100
AcDbScale
 70
     0
300
3" = 1'-0"
140
3.0
141
12.0
290
     0
  0
SCALE
  5
67
102
{ACAD_REACTORS
330
47
102
}
330
47
100
AcDbScale
 70
     0
300
6" = 1'-0"
140
6.0
141
12.0
290
     0
  0
SCALE
  5
68
102
{ACAD_REACTORS
330
47
102
}
330
47
100
AcDbScale
 70
     0
300
1'-0" = 1'-0"
140
12.0
141
12.0
290
     0
  0
ENDSEC
  0
EOF
