  0
SECTION
  2
HEADER
  9
$ACADVER
  1
AC1015
  9
$ACADMAINTVER
 70
     6
  9
$DWGCODEPAGE
  3
ANSI_949
  9
$INSBASE
 10
0.0
 20
0.0
 30
0.0
  9
$EXTMIN
 10
-54.60061920202548
 20
-49.97180738881174
 30
0.0
  9
$EXTMAX
 10
70.99475381632922
 20
58.16328876542352
 30
0.0
  9
$LIMMIN
 10
0.0
 20
0.0
  9
$LIMMAX
 10
420.0
 20
297.0
  9
$ORTHOMODE
 70
     1
  9
$REGENMODE
 70
     1
  9
$FILLMODE
 70
     1
  9
$QTEXTMODE
 70
     0
  9
$MIRRTEXT
 70
     1
  9
$LTSCALE
 40
1.0
  9
$ATTMODE
 70
     1
  9
$TEXTSIZE
 40
3.5
  9
$TRACEWID
 40
1.0
  9
$TEXTSTYLE
  7
Standard
  9
$CLAYER
  8
0
  9
$CELTYPE
  6
ByLayer
  9
$CECOLOR
 62
   256
  9
$CELTSCALE
 40
1.0
  9
$DISPSILH
 70
     0
  9
$DIMSCALE
 40
1.0
  9
$DIMASZ
 40
3.302
  9
$DIMEXO
 40
1.0
  9
$DIMDLI
 40
3.75
  9
$DIMRND
 40
0.0
  9
$DIMDLE
 40
0.0
  9
$DIMEXE
 40
1.0
  9
$DIMTP
 40
0.0
  9
$DIMTM
 40
0.0
  9
$DIMTXT
 40
3.5
  9
$DIMCEN
 40
2.5
  9
$DIMTSZ
 40
0.0
  9
$DIMTOL
 70
     0
  9
$DIMLIM
 70
     0
  9
$DIMTIH
 70
     1
  9
$DIMTOH
 70
     1
  9
$DIMSE1
 70
     0
  9
$DIMSE2
 70
     0
  9
$DIMTAD
 70
     1
  9
$DIMZIN
 70
     0
  9
$DIMBLK
  1

  9
$DIMASO
 70
     1
  9
$DIMSHO
 70
     1
  9
$DIMPOST
  1

  9
$DIMAPOST
  1

  9
$DIMALT
 70
     0
  9
$DIMALTD
 70
     3
  9
$DIMALTF
 40
0.0393700787401575
  9
$DIMLFAC
 40
1.0
  9
$DIMTOFL
 70
     1
  9
$DIMTVP
 40
0.0
  9
$DIMTIX
 70
     0
  9
$DIMSOXD
 70
     0
  9
$DIMSAH
 70
     0
  9
$DIMBLK1
  1

  9
$DIMBLK2
  1

  9
$DIMSTYLE
  2
ISO-25
  9
$DIMCLRD
 70
     0
  9
$DIMCLRE
 70
     0
  9
$DIMCLRT
 70
     0
  9
$DIMTFAC
 40
1.0
  9
$DIMGAP
 40
1.524
  9
$DIMJUST
 70
     0
  9
$DIMSD1
 70
     0
  9
$DIMSD2
 70
     0
  9
$DIMTOLJ
 70
     0
  9
$DIMTZIN
 70
     0
  9
$DIMALTZ
 70
     0
  9
$DIMALTTZ
 70
     0
  9
$DIMUPT
 70
     0
  9
$DIMDEC
 70
     2
  9
$DIMTDEC
 70
     2
  9
$DIMALTU
 70
     2
  9
$DIMALTTD
 70
     3
  9
$DIMTXSTY
  7
Standard
  9
$DIMAUNIT
 70
     0
  9
$DIMADEC
 70
     2
  9
$DIMALTRND
 40
0.0
  9
$DIMAZIN
 70
     0
  9
$DIMDSEP
 70
    44
  9
$DIMATFIT
 70
     3
  9
$DIMFRAC
 70
     0
  9
$DIMLDRBLK
  1

  9
$DIMLUNIT
 70
     2
  9
$DIMLWD
 70
    -2
  9
$DIMLWE
 70
    -2
  9
$DIMTMOVE
 70
     0
  9
$LUNITS
 70
     2
  9
$LUPREC
 70
     2
  9
$SKETCHINC
 40
1.0
  9
$FILLETRAD
 40
10.0
  9
$AUNITS
 70
     0
  9
$AUPREC
 70
     2
  9
$MENU
  1
.
  9
$ELEVATION
 40
0.0
  9
$PELEVATION
 40
0.0
  9
$THICKNESS
 40
0.0
  9
$LIMCHECK
 70
     0
  9
$CHAMFERA
 40
0.0
  9
$CHAMFERB
 40
0.0
  9
$CHAMFERC
 40
0.0
  9
$CHAMFERD
 40
0.0
  9
$SKPOLY
 70
     0
  9
$TDCREATE
 40
2458333.7231289
  9
$TDUCREATE
 40
2458333.3481289
  9
$TDUPDATE
 40
2458340.438977859
  9
$TDUUPDATE
 40
2458340.063977859
  9
$TDINDWG
 40
0.0012881944
  9
$TDUSRTIMER
 40
2458340.062689745
  9
$USRTIMER
 70
     1
  9
$ANGBASE
 50
0.0
  9
$ANGDIR
 70
     0
  9
$PDMODE
 70
     0
  9
$PDSIZE
 40
-1.0
  9
$PLINEWID
 40
0.0
  9
$SPLFRAME
 70
     0
  9
$SPLINETYPE
 70
     6
  9
$SPLINESEGS
 70
     8
  9
$HANDSEED
  5
163
  9
$SURFTAB1
 70
     6
  9
$SURFTAB2
 70
     6
  9
$SURFTYPE
 70
     6
  9
$SURFU
 70
     6
  9
$SURFV
 70
     6
  9
$UCSBASE
  2

  9
$UCSNAME
  2

  9
$UCSORG
 10
0.0
 20
0.0
 30
0.0
  9
$UCSXDIR
 10
1.0
 20
0.0
 30
0.0
  9
$UCSYDIR
 10
0.0
 20
1.0
 30
0.0
  9
$UCSORTHOREF
  2

  9
$UCSORTHOVIEW
 70
     0
  9
$UCSORGTOP
 10
0.0
 20
0.0
 30
0.0
  9
$UCSORGBOTTOM
 10
0.0
 20
0.0
 30
0.0
  9
$UCSORGLEFT
 10
0.0
 20
0.0
 30
0.0
  9
$UCSORGRIGHT
 10
0.0
 20
0.0
 30
0.0
  9
$UCSORGFRONT
 10
0.0
 20
0.0
 30
0.0
  9
$UCSORGBACK
 10
0.0
 20
0.0
 30
0.0
  9
$PUCSBASE
  2

  9
$PUCSNAME
  2

  9
$PUCSORG
 10
0.0
 20
0.0
 30
0.0
  9
$PUCSXDIR
 10
1.0
 20
0.0
 30
0.0
  9
$PUCSYDIR
 10
0.0
 20
1.0
 30
0.0
  9
$PUCSORTHOREF
  2

  9
$PUCSORTHOVIEW
 70
     0
  9
$PUCSORGTOP
 10
0.0
 20
0.0
 30
0.0
  9
$PUCSORGBOTTOM
 10
0.0
 20
0.0
 30
0.0
  9
$PUCSORGLEFT
 10
0.0
 20
0.0
 30
0.0
  9
$PUCSORGRIGHT
 10
0.0
 20
0.0
 30
0.0
  9
$PUCSORGFRONT
 10
0.0
 20
0.0
 30
0.0
  9
$PUCSORGBACK
 10
0.0
 20
0.0
 30
0.0
  9
$USERI1
 70
     0
  9
$USERI2
 70
     0
  9
$USERI3
 70
     0
  9
$USERI4
 70
     0
  9
$USERI5
 70
     0
  9
$USERR1
 40
0.0
  9
$USERR2
 40
0.0
  9
$USERR3
 40
0.0
  9
$USERR4
 40
0.0
  9
$USERR5
 40
0.0
  9
$WORLDVIEW
 70
     1
  9
$SHADEDGE
 70
     3
  9
$SHADEDIF
 70
    70
  9
$TILEMODE
 70
     1
  9
$MAXACTVP
 70
    64
  9
$PINSBASE
 10
0.0
 20
0.0
 30
0.0
  9
$PLIMCHECK
 70
     0
  9
$PEXTMIN
 10
1.000000000000000E+20
 20
1.000000000000000E+20
 30
1.000000000000000E+20
  9
$PEXTMAX
 10
-1.000000000000000E+20
 20
-1.000000000000000E+20
 30
-1.000000000000000E+20
  9
$PLIMMIN
 10
0.0
 20
0.0
  9
$PLIMMAX
 10
0.0
 20
0.0
  9
$UNITMODE
 70
     0
  9
$VISRETAIN
 70
     1
  9
$PLINEGEN
 70
     0
  9
$PSLTSCALE
 70
     1
  9
$TREEDEPTH
 70
  3020
  9
$CMLSTYLE
  2
Standard
  9
$CMLJUST
 70
     0
  9
$CMLSCALE
 40
20.0
  9
$PROXYGRAPHICS
 70
     1
  9
$MEASUREMENT
 70
     1
  9
$CELWEIGHT
370
    -1
  9
$ENDCAPS
280
     0
  9
$JOINSTYLE
280
     0
  9
$LWDISPLAY
290
     1
  9
$INSUNITS
 70
     4
  9
$HYPERLINKBASE
  1

  9
$STYLESHEET
  1

  9
$XEDIT
290
     1
  9
$CEPSNTYPE
380
     0
  9
$PSTYLEMODE
290
     1
  9
$FINGERPRINTGUID
  2
{A430C616-FBE6-4F23-B5DF-062A10A7FAA4}
  9
$VERSIONGUID
  2
{FAEB1C32-E019-11D5-929B-00C0DF256EC4}
  9
$EXTNAMES
290
     1
  9
$PSVPSCALE
 40
0.0
  9
$OLESTARTUP
290
     0
  0
ENDSEC
  0
SECTION
  2
CLASSES
  0
CLASS
  1
ACDBDICTIONARYWDFLT
  2
AcDbDictionaryWithDefault
  3
ObjectDBX Classes
 90
        0
280
     0
281
     0
  0
CLASS
  1
VISUALSTYLE
  2
AcDbVisualStyle
  3
ObjectDBX Classes
 90
     4095
280
     0
281
     0
  0
CLASS
  1
MATERIAL
  2
AcDbMaterial
  3
ObjectDBX Classes
 90
     1153
280
     0
281
     0
  0
CLASS
  1
SCALE
  2
AcDbScale
  3
ObjectDBX Classes
 90
     1153
280
     0
281
     0
  0
CLASS
  1
SUN
  2
AcDbSun
  3
SCENEOE
 90
     1153
280
     0
281
     0
  0
CLASS
  1
ACDBPLACEHOLDER
  2
AcDbPlaceHolder
  3
ObjectDBX Classes
 90
        0
280
     0
281
     0
  0
CLASS
  1
LAYOUT
  2
AcDbLayout
  3
ObjectDBX Classes
 90
        0
280
     0
281
     0
  0
CLASS
  1
TABLESTYLE
  2
AcDbTableStyle
  3
ObjectDBX Classes
 90
     4095
280
     0
281
     0
  0
CLASS
  1
MLEADERSTYLE
  2
AcDbMLeaderStyle
  3
ACDB_MLEADERSTYLE_CLASS
 90
     4095
280
     0
281
     0
  0
CLASS
  1
RASTERVARIABLES
  2
AcDbRasterVariables
  3
ISM
 90
        0
280
     0
281
     0
  0
CLASS
  1
DIMASSOC
  2
AcDbDimAssoc
  3
"AcDbDimAssoc|Product Desc:     AcDim ARX App For Dimension|Company:          Autodesk, Inc.|WEB Address:      www.autodesk.com"
 90
        0
280
     0
281
     0
  0
ENDSEC
  0
SECTION
  2
TABLES
  0
TABLE
  2
VPORT
  5
8
330
0
100
AcDbSymbolTable
 70
     1
  0
VPORT
  5
29
330
8
100
AcDbSymbolTableRecord
100
AcDbViewportTableRecord
  2
*Active
 70
     0
 10
0.0
 20
0.0
 11
1.0
 21
1.0
 12
0.1466708671478187
 22
-0.1593700051497251
 13
0.0
 23
0.0
 14
10.0
 24
10.0
 15
10.0
 25
10.0
 16
0.0
 26
0.0
 36
1.0
 17
0.0
 27
0.0
 37
0.0
 40
143.2401642814093
 41
1.444267515923567
 42
50.0
 43
0.0
 44
0.0
 50
0.0
 51
0.0
 71
    16
 72
  2000
 73
     1
 74
     3
 75
     0
 76
     0
 77
     0
 78
     0
281
     0
 65
     1
110
0.0
120
0.0
130
0.0
111
1.0
121
0.0
131
0.0
112
0.0
122
1.0
132
0.0
 79
     0
146
0.0
  0
ENDTAB
  0
TABLE
  2
LTYPE
  5
5
330
0
100
AcDbSymbolTable
 70
     6
  0
LTYPE
  5
14
330
5
100
AcDbSymbolTableRecord
100
AcDbLinetypeTableRecord
  2
ByBlock
 70
     0
  3

 72
    65
 73
     0
 40
0.0
  0
LTYPE
  5
15
330
5
100
AcDbSymbolTableRecord
100
AcDbLinetypeTableRecord
  2
ByLayer
 70
     0
  3

 72
    65
 73
     0
 40
0.0
  0
LTYPE
  5
16
330
5
100
AcDbSymbolTableRecord
100
AcDbLinetypeTableRecord
  2
Continuous
 70
     0
  3
Solid line
 72
    65
 73
     0
 40
0.0
  0
LTYPE
  5
6A
330
5
100
AcDbSymbolTableRecord
100
AcDbLinetypeTableRecord
  2
HIDDEN
 70
     0
  3
Hidden __ __ __ __ __ __ __ __ __ __ __ __ __ __
 72
    65
 73
     2
 40
1.905
 49
1.27
 74
     0
 49
-0.635
 74
     0
  0
LTYPE
  5
6B
330
5
100
AcDbSymbolTableRecord
100
AcDbLinetypeTableRecord
  2
PHANTOM
 70
     0
  3
Phantom ______  __  __  ______  __  __  ______
 72
    65
 73
     6
 40
12.7
 49
6.35
 74
     0
 49
-1.27
 74
     0
 49
1.27
 74
     0
 49
-1.27
 74
     0
 49
1.27
 74
     0
 49
-1.27
 74
     0
  0
LTYPE
  5
6C
330
5
100
AcDbSymbolTableRecord
100
AcDbLinetypeTableRecord
  2
CENTER
 70
     0
  3
Center ____ _ ____ _ ____ _ ____ _ ____ _ ____
 72
    65
 73
     4
 40
10.16
 49
6.35
 74
     0
 49
-1.27
 74
     0
 49
1.27
 74
     0
 49
-1.27
 74
     0
  0
LTYPE
  5
6D
330
5
100
AcDbSymbolTableRecord
100
AcDbLinetypeTableRecord
  2
CENTERX2
 70
     0
  3
Center (2x) ________  __  ________  __  _____
 72
    65
 73
     4
 40
20.32
 49
12.7
 74
     0
 49
-2.54
 74
     0
 49
2.54
 74
     0
 49
-2.54
 74
     0
  0
LTYPE
  5
6E
330
5
100
AcDbSymbolTableRecord
100
AcDbLinetypeTableRecord
  2
DOT2
 70
     0
  3
Dot (.5x) ........................................
 72
    65
 73
     2
 40
0.635
 49
0.0
 74
     0
 49
-0.635
 74
     0
  0
ENDTAB
  0
TABLE
  2
LAYER
  5
2
330
0
100
AcDbSymbolTable
 70
    17
  0
LAYER
  5
10
330
2
100
AcDbSymbolTableRecord
100
AcDbLayerTableRecord
  2
0
 70
     0
 62
     7
  6
Continuous
370
    -3
390
F
  0
LAYER
  5
6F
330
2
100
AcDbSymbolTableRecord
100
AcDbLayerTableRecord
  2
FORMAT
 70
     0
 62
     2
  6
Continuous
370
    -3
390
F
  0
LAYER
  5
70
330
2
100
AcDbSymbolTableRecord
100
AcDbLayerTableRecord
  2
외형선
 70
     0
 62
   100
  6
Continuous
370
    30
390
F
  0
LAYER
  5
71
330
2
100
AcDbSymbolTableRecord
100
AcDbLayerTableRecord
  2
숨은선
 70
     0
 62
     2
  6
HIDDEN
370
    15
390
F
  0
LAYER
  5
72
330
2
100
AcDbSymbolTableRecord
100
AcDbLayerTableRecord
  2
중심선
 70
     0
 62
     1
  6
CENTERX2
370
    -3
390
F
  0
LAYER
  5
73
330
2
100
AcDbSymbolTableRecord
100
AcDbLayerTableRecord
  2
파단선
 70
     0
 62
     4
  6
Continuous
370
    -3
390
F
  0
LAYER
  5
74
330
2
100
AcDbSymbolTableRecord
100
AcDbLayerTableRecord
  2
해칭선
 70
     0
 62
     4
  6
Continuous
370
    -3
390
F
  0
LAYER
  5
75
330
2
100
AcDbSymbolTableRecord
100
AcDbLayerTableRecord
  2
가는실선
 70
     0
 62
     4
  6
Continuous
370
    -3
390
F
  0
LAYER
  5
76
330
2
100
AcDbSymbolTableRecord
100
AcDbLayerTableRecord
  2
치수_보조선
 70
     0
 62
     4
  6
Continuous
370
    -3
390
F
  0
LAYER
  5
77
330
2
100
AcDbSymbolTableRecord
100
AcDbLayerTableRecord
  2
치수문자_일반주서
 70
     0
 62
     7
  6
Continuous
370
    15
390
F
  0
LAYER
  5
78
330
2
100
AcDbSymbolTableRecord
100
AcDbLayerTableRecord
  2
개별주서
 70
     0
 62
   100
  6
Continuous
370
    30
390
F
  0
LAYER
  5
79
330
2
100
AcDbSymbolTableRecord
100
AcDbLayerTableRecord
  2
중간선
 70
     0
 62
     2
  6
Continuous
370
    15
390
F
  0
LAYER
  5
7A
330
2
100
AcDbSymbolTableRecord
100
AcDbLayerTableRecord
  2
윤곽선
 70
     0
 62
     3
  6
Continuous
370
    40
390
F
  0
LAYER
  5
7B
330
2
100
AcDbSymbolTableRecord
100
AcDbLayerTableRecord
  2
중심마크
 70
     0
 62
   100
  6
Continuous
370
    30
390
F
  0
LAYER
  5
7C
330
2
100
AcDbSymbolTableRecord
100
AcDbLayerTableRecord
  2
가상선
 70
     0
 62
     4
  6
PHANTOM
370
    -3
390
F
  0
LAYER
  5
7D
330
2
100
AcDbSymbolTableRecord
100
AcDbLayerTableRecord
  2
특수지정선
 70
     0
 62
     5
  6
CENTERX2
370
    60
390
F
  0
LAYER
  5
148
330
2
100
AcDbSymbolTableRecord
100
AcDbLayerTableRecord
  2
Defpoints
 70
     0
 62
     7
  6
Continuous
290
     0
370
    -3
390
F
  0
ENDTAB
  0
TABLE
  2
STYLE
  5
3
330
0
100
AcDbSymbolTable
 70
     2
  0
STYLE
  5
11
330
3
100
AcDbSymbolTableRecord
100
AcDbTextStyleTableRecord
  2
Standard
 70
     0
 40
0.0
 41
1.0
 50
0.0
 71
     0
 42
3.5
  3
txt
  4

  0
STYLE
  5
93
330
3
100
AcDbSymbolTableRecord
100
AcDbTextStyleTableRecord
  2
SLDTEXTSTYLE0
 70
     0
 40
0.0
 41
0.75
 50
0.0
 71
     0
 42
3.5
  3
TXT
  4

  0
ENDTAB
  0
TABLE
  2
VIEW
  5
6
330
0
100
AcDbSymbolTable
 70
     0
  0
ENDTAB
  0
TABLE
  2
UCS
  5
7
330
0
100
AcDbSymbolTable
 70
     0
  0
ENDTAB
  0
TABLE
  2
APPID
  5
9
330
0
100
AcDbSymbolTable
 70
     4
  0
APPID
  5
12
330
9
100
AcDbSymbolTableRecord
100
AcDbRegAppTableRecord
  2
ACAD
 70
     0
  0
APPID
  5
15C
330
9
100
AcDbSymbolTableRecord
100
AcDbRegAppTableRecord
  2
PE_DIMMEASUREMENT
 70
     0
  0
APPID
  5
161
330
9
100
AcDbSymbolTableRecord
100
AcDbRegAppTableRecord
  2
ACAD_DSTYLE_DIMFLIPARROW_SYMBOL
 70
     0
  0
APPID
  5
162
330
9
100
AcDbSymbolTableRecord
100
AcDbRegAppTableRecord
  2
ACAD_DSTYLE_DIMFLIPARROW_WHICH_SYMBOL
 70
     0
  0
ENDTAB
  0
TABLE
  2
DIMSTYLE
  5
A
330
0
100
AcDbSymbolTable
 70
     3
100
AcDbDimStyleTable
  0
DIMSTYLE
105
27
330
A
100
AcDbSymbolTableRecord
100
AcDbDimStyleTableRecord
  2
ISO-25
 70
     0
 41
2.5
 42
0.625
 43
3.75
 44
1.25
 73
     0
 74
     0
 77
     1
 78
     8
140
2.5
141
2.5
143
0.03937007874016
147
0.625
171
     3
172
     1
178
     0
271
     2
272
     2
274
     3
278
    44
283
     0
284
     8
340
11
  0
DIMSTYLE
105
DE
102
{ACAD_REACTORS
330
DD
330
107
330
149
102
}
330
A
100
AcDbSymbolTableRecord
100
AcDbDimStyleTableRecord
  2
SLDDIMSTYLE0
 70
     0
 41
3.302
 44
0.0
 45
0.000000001
 73
     0
 74
     0
 77
     1
 78
    12
 79
     3
140
3.5
143
0.0393700787401575
147
0.875
148
0.000000001
170
     1
172
     1
173
     1
178
     0
271
     2
272
     2
276
     2
284
    12
289
     0
340
93
  0
DIMSTYLE
105
F4
102
{ACAD_REACTORS
330
F3
102
}
330
A
100
AcDbSymbolTableRecord
100
AcDbDimStyleTableRecord
  2
SLDDIMSTYLE1
 70
     0
 41
3.302
 44
0.0
 45
0.000000001
 73
     0
 74
     0
 77
     1
 78
     4
 79
     1
140
3.5
143
0.0393700787401575
147
0.875
148
0.000000001
170
     1
173
     1
178
     0
271
     2
272
     2
276
     2
284
    12
340
93
  0
ENDTAB
  0
TABLE
  2
BLOCK_RECORD
  5
1
330
0
100
AcDbSymbolTable
 70
     7
  0
BLOCK_RECORD
  5
1F
330
1
100
AcDbSymbolTableRecord
100
AcDbBlockTableRecord
  2
*Model_Space
340
22
  0
BLOCK_RECORD
  5
1B
330
1
100
AcDbSymbolTableRecord
100
AcDbBlockTableRecord
  2
*Paper_Space
340
1E
  0
BLOCK_RECORD
  5
23
330
1
100
AcDbSymbolTableRecord
100
AcDbBlockTableRecord
  2
*Paper_Space0
340
26
  0
BLOCK_RECORD
  5
7E
330
1
100
AcDbSymbolTableRecord
100
AcDbBlockTableRecord
  2
블럭10
340
0
102
{BLKREFS
331
D5
102
}
  0
BLOCK_RECORD
  5
DF
330
1
100
AcDbSymbolTableRecord
100
AcDbBlockTableRecord
  2
_D
340
0
  0
BLOCK_RECORD
  5
F5
330
1
100
AcDbSymbolTableRecord
100
AcDbBlockTableRecord
  2
_D_1
340
0
  0
BLOCK_RECORD
  5
108
330
1
100
AcDbSymbolTableRecord
100
AcDbBlockTableRecord
  2
_D_2
340
0
  0
BLOCK_RECORD
  5
11B
330
1
100
AcDbSymbolTableRecord
100
AcDbBlockTableRecord
  2
SW_DOWELSYMBOL_0
340
0
102
{BLKREFS
331
121
102
}
  0
BLOCK_RECORD
  5
14C
330
1
100
AcDbSymbolTableRecord
100
AcDbBlockTableRecord
  2
*D6
340
0
  0
ENDTAB
  0
ENDSEC
  0
SECTION
  2
BLOCKS
  0
BLOCK
  5
20
330
1F
100
AcDbEntity
  8
0
100
AcDbBlockBegin
  2
*Model_Space
 70
     0
 10
0.0
 20
0.0
 30
0.0
  3
*Model_Space
  1
*Model_Space
  0
ENDBLK
  5
21
330
1F
100
AcDbEntity
  8
0
100
AcDbBlockEnd
  0
BLOCK
  5
1C
330
1B
100
AcDbEntity
 67
     1
  8
0
100
AcDbBlockBegin
  2
*Paper_Space
 70
     0
 10
0.0
 20
0.0
 30
0.0
  3
*Paper_Space
  1
*Paper_Space
  0
ENDBLK
  5
1D
330
1B
100
AcDbEntity
 67
     1
  8
0
100
AcDbBlockEnd
  0
BLOCK
  5
24
330
23
100
AcDbEntity
  8
0
100
AcDbBlockBegin
  2
*Paper_Space0
 70
     0
 10
0.0
 20
0.0
 30
0.0
  3
*Paper_Space0
  1
*Paper_Space0
  0
ENDBLK
  5
25
330
23
100
AcDbEntity
  8
0
100
AcDbBlockEnd
  0
BLOCK
  5
7F
330
7E
100
AcDbEntity
  8
0
100
AcDbBlockBegin
  2
블럭10
 70
     2
 10
0.0
 20
0.0
 30
0.0
  3
블럭10
  1
블럭10
  0
ELLIPSE
  5
81
330
7E
100
AcDbEntity
  8
중심선
100
AcDbEllipse
 10
20.54032771741204
 20
12.0471743016438
 30
0.0
 11
6.600054785286829
 21
-1.261213355974178E-13
 31
0.0
210
0.0
220
0.0
230
1.0
 40
0.636358354079598
 41
0.9219305317359503
 42
6.513795318482858
  0
ELLIPSE
  5
82
330
7E
100
AcDbEntity
  8
중심선
100
AcDbEllipse
 10
20.54032771746488
 20
12.04717430159265
 30
0.0
 11
3.960054785062283
 21
1.540847449632565E-10
 31
0.0
210
0.0
220
0.0
230
1.0
 40
0.3939339440162632
 41
1.131841032648279
 42
5.62031148352944
  0
LINE
  5
83
330
7E
100
AcDbEntity
  8
중심선
100
AcDbLine
 10
2.268634060543552
 20
16.24717430164393
 30
0.0
 11
5.714909304380834
 21
16.24717430164393
 31
0.0
  0
LINE
  5
84
330
7E
100
AcDbEntity
  8
중심선
100
AcDbLine
 10
5.245725140726316
 20
7.84717430164391
 30
0.0
 11
8.692000384563599
 21
7.84717430164391
 31
0.0
  0
LINE
  5
85
330
7E
100
AcDbEntity
  8
중심선
100
AcDbLine
 10
15.74043728645272
 20
16.24717430164393
 30
0.0
 11
8.692000384563599
 21
7.84717430164391
 31
0.0
  0
LINE
  5
86
330
7E
100
AcDbEntity
  8
중심선
100
AcDbLine
 10
0.1404042013395286
 20
13.71084872107135
 30
0.0
 11
3.58671253028996
 21
13.71088815037384
 31
0.0
  0
LINE
  5
87
330
7E
100
AcDbEntity
  8
중심선
100
AcDbLine
 10
2.750260043222114
 20
10.84717430164391
 30
0.0
 11
6.196535287059397
 21
10.84717430164391
 31
0.0
  0
LINE
  5
88
330
7E
100
AcDbEntity
  8
중심선
100
AcDbLine
 10
12.29416204261559
 20
16.24717430164393
 30
0.0
 11
5.245725140726316
 21
7.84717430164391
 31
0.0
  0
LINE
  5
89
330
7E
100
AcDbEntity
  8
중심선
100
AcDbLine
 10
10.72767329541681
 20
16.24717430164393
 30
0.0
 11
6.196535287059397
 21
10.84717430164391
 31
0.0
  0
LINE
  5
8A
330
7E
100
AcDbEntity
  8
중심선
100
AcDbLine
 10
7.28139805157953
 20
16.24717430164393
 30
0.0
 11
2.750260043222114
 21
10.84717430164391
 31
0.0
  0
LINE
  5
8B
330
7E
100
AcDbEntity
  8
중심선
100
AcDbLine
 10
5.714909304380834
 20
16.24717430164393
 30
0.0
 11
3.58671253028996
 21
13.71088815037384
 31
0.0
  0
LINE
  5
8C
330
7E
100
AcDbEntity
  8
중심선
100
AcDbLine
 10
2.268634060543552
 20
16.24717430164393
 30
0.0
 11
0.1404042013395286
 21
13.71084872107135
 31
0.0
  0
LINE
  5
8D
330
7E
100
AcDbEntity
  8
중심선
100
AcDbLine
 10
7.28139805157953
 20
16.24717430164393
 30
0.0
 11
10.72767329541681
 21
16.24717430164393
 31
0.0
  0
LINE
  5
8E
330
7E
100
AcDbEntity
  8
중심선
100
AcDbLine
 10
12.29416204261559
 20
16.24717430164393
 30
0.0
 11
15.74043728645272
 21
16.24717430164393
 31
0.0
  0
LINE
  5
8F
330
7E
100
AcDbEntity
  8
중심선
100
AcDbLine
 10
19.22036997980202
 20
11.08717430171403
 30
0.0
 11
23.66174974927406
 21
11.08717430171406
 31
0.0
  0
LINE
  5
90
330
7E
100
AcDbEntity
  8
중심선
100
AcDbLine
 10
19.22039502424796
 20
13.00717430171391
 30
0.0
 11
19.22036997980202
 21
11.08717430171403
 31
0.0
  0
LINE
  5
91
330
7E
100
AcDbEntity
  8
중심선
100
AcDbLine
 10
19.22039502424796
 20
13.00717430171391
 30
0.0
 11
26.96566020931264
 21
13.00717430171391
 31
0.0
  0
LINE
  5
92
330
7E
100
AcDbEntity
  8
중심선
100
AcDbLine
 10
22.22332737316547
 20
13.45928029700563
 30
0.0
 11
24.52862924686651
 21
15.39360700705356
 31
0.0
  0
ATTDEF
  5
94
330
7E
100
AcDbEntity
  8
FORMAT
 62
     2
100
AcDbText
 10
-9.18129528874128
 20
2.075366912832191
 30
0.0
 40
4.233333333333333
  1
E5077152 [ 3 FLUTE ]
 41
0.75
  7
SLDTEXTSTYLE0
 11
-9.18129528874128
 21
-0.0412997538344756
 31
0.0
100
AcDbAttributeDefinition
  3

  2
AUTOATTR0
 70
     0
 74
     1
  0
ENDBLK
  5
80
330
7E
100
AcDbEntity
  8
0
100
AcDbBlockEnd
  0
BLOCK
  5
E0
330
DF
100
AcDbEntity
  8
0
100
AcDbBlockBegin
  2
_D
 70
     0
 10
0.0
 20
0.0
 30
0.0
  3
_D
  1
_D
  0
LINE
  5
E2
330
DF
100
AcDbEntity
  8
치수문자_일반주서
 62
     0
370
    -2
100
AcDbLine
 10
54.3249081826537
 20
2.432645076999228
 30
0.0
 11
54.3249081826537
 21
41.24336991912176
 31
0.0
  0
LINE
  5
E3
330
DF
100
AcDbEntity
  8
치수문자_일반주서
 62
     0
370
    -2
100
AcDbLine
 10
9.874908182653726
 20
3.612549365564452
 30
0.0
 11
9.874908182653726
 21
41.24336991912176
 31
0.0
  0
LINE
  5
E4
330
DF
100
AcDbEntity
  8
치수문자_일반주서
 62
     0
370
    -2
100
AcDbLine
 10
51.0229081826537
 20
41.24336991912176
 30
0.0
 11
13.17690818265373
 21
41.24336991912176
 31
0.0
  0
SOLID
  5
E5
330
DF
100
AcDbEntity
  8
치수문자_일반주서
 62
     0
100
AcDbTrace
 10
51.0229081826537
 20
40.69303658578843
 30
0.0
 11
51.0229081826537
 21
41.7937032524551
 31
0.0
 12
54.3249081826537
 22
41.24336991912176
 32
0.0
 13
54.3249081826537
 23
41.24336991912176
 33
0.0
  0
SOLID
  5
E6
330
DF
100
AcDbEntity
  8
치수문자_일반주서
 62
     0
100
AcDbTrace
 10
13.17690818265373
 20
41.7937032524551
 30
0.0
 11
13.17690818265373
 21
40.69303658578843
 31
0.0
 12
9.874908182653726
 22
41.24336991912176
 32
0.0
 13
9.874908182653726
 23
41.24336991912176
 33
0.0
  0
MTEXT
  5
E7
330
DF
100
AcDbEntity
  8
치수문자_일반주서
 62
     0
100
AcDbMText
 10
32.09990818265371
 20
45.61836991912176
 30
0.0
 40
3.5
 41
0.0
 71
     2
 72
     1
  1
\A1;44.45 [1 3/4]
  7
SLDTEXTSTYLE0
 73
     1
 44
1.0
  0
POINT
  5
E8
330
DF
100
AcDbEntity
  8
Defpoints
 62
     0
100
AcDbPoint
 10
54.3249081826537
 20
2.370145076999228
 30
0.0
  0
POINT
  5
E9
330
DF
100
AcDbEntity
  8
Defpoints
 62
     0
100
AcDbPoint
 10
9.874908182653726
 20
3.550049365564452
 30
0.0
  0
POINT
  5
EA
330
DF
100
AcDbEntity
  8
Defpoints
 62
     0
100
AcDbPoint
 10
9.874908182653726
 20
41.24336991912176
 30
0.0
  0
ENDBLK
  5
E1
330
DF
100
AcDbEntity
  8
0
100
AcDbBlockEnd
  0
BLOCK
  5
F6
330
F5
100
AcDbEntity
  8
0
100
AcDbBlockBegin
  2
_D_1
 70
     0
 10
0.0
 20
0.0
 30
0.0
  3
_D_1
  1
_D_1
  0
LINE
  5
F8
330
F5
100
AcDbEntity
  8
치수문자_일반주서
 62
     0
370
    -2
100
AcDbLine
 10
54.3249081826537
 20
2.432645076999228
 30
0.0
 11
54.3249081826537
 21
53.78828876542353
 31
0.0
  0
LINE
  5
F9
330
F5
100
AcDbEntity
  8
치수문자_일반주서
 62
     0
370
    -2
100
AcDbLine
 10
-34.5750918173463
 20
4.019835151814108
 30
0.0
 11
-34.5750918173463
 21
53.78828876542353
 31
0.0
  0
LINE
  5
FA
330
F5
100
AcDbEntity
  8
치수문자_일반주서
 62
     0
370
    -2
100
AcDbLine
 10
51.0229081826537
 20
53.78828876542353
 30
0.0
 11
-31.27309181734631
 21
53.78828876542353
 31
0.0
  0
SOLID
  5
FB
330
F5
100
AcDbEntity
  8
치수문자_일반주서
 62
     0
100
AcDbTrace
 10
51.0229081826537
 20
53.2379554320902
 30
0.0
 11
51.0229081826537
 21
54.33862209875686
 31
0.0
 12
54.3249081826537
 22
53.78828876542353
 32
0.0
 13
54.3249081826537
 23
53.78828876542353
 33
0.0
  0
SOLID
  5
FC
330
F5
100
AcDbEntity
  8
치수문자_일반주서
 62
     0
100
AcDbTrace
 10
-31.27309181734631
 20
54.33862209875686
 30
0.0
 11
-31.27309181734631
 21
53.2379554320902
 31
0.0
 12
-34.5750918173463
 22
53.78828876542353
 32
0.0
 13
-34.5750918173463
 23
53.78828876542353
 33
0.0
  0
MTEXT
  5
FD
330
F5
100
AcDbEntity
  8
치수문자_일반주서
 62
     0
100
AcDbMText
 10
13.25916706431774
 20
58.16328876542353
 30
0.0
 40
3.5
 41
0.0
 71
     2
 72
     1
  1
\A1;88.90 [3 1/2]
  7
SLDTEXTSTYLE0
 73
     1
 44
1.0
  0
POINT
  5
FE
330
F5
100
AcDbEntity
  8
Defpoints
 62
     0
100
AcDbPoint
 10
54.3249081826537
 20
2.370145076999228
 30
0.0
  0
POINT
  5
FF
330
F5
100
AcDbEntity
  8
Defpoints
 62
     0
100
AcDbPoint
 10
-34.5750918173463
 20
3.957335151814108
 30
0.0
  0
POINT
  5
100
330
F5
100
AcDbEntity
  8
Defpoints
 62
     0
100
AcDbPoint
 10
-34.5750918173463
 20
53.78828876542353
 30
0.0
  0
ENDBLK
  5
F7
330
F5
100
AcDbEntity
  8
0
100
AcDbBlockEnd
  0
BLOCK
  5
109
330
108
100
AcDbEntity
  8
0
100
AcDbBlockBegin
  2
_D_2
 70
     0
 10
0.0
 20
0.0
 30
0.0
  3
_D_2
  1
_D_2
  0
LINE
  5
10B
330
108
100
AcDbEntity
  8
치수문자_일반주서
 62
     0
370
    -2
100
AcDbLine
 10
-33.82759181734631
 20
4.767335151814089
 30
0.0
 11
-50.22561920202536
 21
4.767335151814031
 31
0.0
  0
LINE
  5
10C
330
108
100
AcDbEntity
  8
치수문자_일반주서
 62
     0
370
    -2
100
AcDbLine
 10
-33.82759181734631
 20
-4.757664848185907
 30
0.0
 11
-50.22561920202532
 21
-4.757664848185964
 31
0.0
  0
LINE
  5
10D
330
108
100
AcDbEntity
  8
치수문자_일반주서
 62
     0
370
    -2
100
AcDbLine
 10
-50.22561920202536
 20
4.767335151814031
 30
0.0
 11
-50.22561920202548
 21
37.62133515181403
 31
0.0
  0
LINE
  5
10E
330
108
100
AcDbEntity
  8
치수문자_일반주서
 62
     0
370
    -2
100
AcDbLine
 10
-50.22561920202534
 20
1.465335151814031
 30
0.0
 11
-50.22561920202534
 21
-1.455664848185965
 31
0.0
  0
SOLID
  5
10F
330
108
100
AcDbEntity
  8
치수문자_일반주서
 62
     0
100
AcDbTrace
 10
-49.67528586869201
 20
1.465335151814033
 30
0.0
 11
-50.77595253535868
 21
1.465335151814029
 31
0.0
 12
-50.22561920202536
 22
4.767335151814031
 32
0.0
 13
-50.22561920202536
 23
4.767335151814031
 33
0.0
  0
SOLID
  5
110
330
108
100
AcDbEntity
  8
치수문자_일반주서
 62
     0
100
AcDbTrace
 10
-50.77595253535867
 20
-1.455664848185967
 30
0.0
 11
-49.675285868692
 21
-1.455664848185963
 31
0.0
 12
-50.22561920202532
 22
-4.757664848185964
 32
0.0
 13
-50.22561920202532
 23
-4.757664848185964
 33
0.0
  0
MTEXT
  5
111
330
108
100
AcDbEntity
  8
치수문자_일반주서
 62
     0
100
AcDbMText
 10
-54.60061920202543
 20
24.49633515181401
 30
0.0
 40
3.5
 41
0.0
 71
     2
 72
     1
  1
\A1;%%c9.53 [3/8]
  7
SLDTEXTSTYLE0
 11
-3.729883127349610E-15
 21
1.0
 31
0.0
 73
     1
 44
1.0
  0
POINT
  5
112
330
108
100
AcDbEntity
  8
Defpoints
 62
     0
100
AcDbPoint
 10
-33.76509181734631
 20
4.767335151814089
 30
0.0
  0
POINT
  5
113
330
108
100
AcDbEntity
  8
Defpoints
 62
     0
100
AcDbPoint
 10
-33.76509181734631
 20
-4.757664848185907
 30
0.0
  0
POINT
  5
15E
330
108
100
AcDbEntity
  8
Defpoints
 62
     0
100
AcDbPoint
 10
-50.22561920202532
 20
-4.757664848185964
 30
0.0
  0
ENDBLK
  5
10A
330
108
100
AcDbEntity
  8
0
100
AcDbBlockEnd
  0
BLOCK
  5
11C
330
11B
100
AcDbEntity
  8
0
100
AcDbBlockBegin
  2
SW_DOWELSYMBOL_0
 70
     0
 10
0.0
 20
0.0
 30
0.0
  3
SW_DOWELSYMBOL_0
  1
SW_DOWELSYMBOL_0
  0
CIRCLE
  5
11E
330
11B
100
AcDbEntity
  8
외형선
 62
     0
100
AcDbCircle
 10
0.0
 20
0.0
 30
0.0
 40
3.000000000000004
  0
HATCH
  5
11F
330
11B
100
AcDbEntity
  8
0
  6
Continuous
 62
     0
370
    30
100
AcDbHatch
 10
0.0
 20
0.0
 30
0.0
210
0.0
220
0.0
230
1.0
  2
SOLID
 70
     1
 71
     0
 91
        1
 92
        0
 93
        3
 72
     2
 10
-0.0000000000000013
 20
-0.0000000000000039
 40
3.000000000000004
 50
0.0
 51
90.0
 73
     1
 72
     1
 10
-0.0000000000000013
 20
3.0
 11
-0.0000000000000013
 21
-0.000000000000004
 72
     1
 10
-0.0000000000000013
 20
-0.0000000000000039
 11
3.000000000000003
 21
-0.0000000000000039
 97
        0
 75
     0
 76
     1
 98
        1
 10
0.0
 20
0.0
  0
HATCH
  5
120
330
11B
100
AcDbEntity
  8
0
  6
Continuous
 62
     0
370
    30
100
AcDbHatch
 10
0.0
 20
0.0
 30
0.0
210
0.0
220
0.0
230
1.0
  2
SOLID
 70
     1
 71
     0
 91
        1
 92
        0
 93
        3
 72
     2
 10
-0.0000000000000013
 20
-0.0000000000000039
 40
3.000000000000004
 50
180.0
 51
270.0000000000008
 73
     1
 72
     1
 10
-0.0000000000000013
 20
-3.000000000000008
 11
-0.0000000000000013
 21
-0.000000000000004
 72
     1
 10
-0.0000000000000013
 20
-0.0000000000000039
 11
-3.000000000000006
 21
-0.0000000000000039
 97
        0
 75
     0
 76
     1
 98
        1
 10
0.0
 20
0.0
  0
ENDBLK
  5
11D
330
11B
100
AcDbEntity
  8
0
100
AcDbBlockEnd
  0
BLOCK
  5
14D
330
14C
100
AcDbEntity
  8
0
100
AcDbBlockBegin
  2
*D6
 70
     1
 10
0.0
 20
0.0
 30
0.0
  3
*D6
  1
*D6
  0
LINE
  5
14F
330
14C
100
AcDbEntity
  8
치수문자_일반주서
 62
     0
370
    -2
100
AcDbLine
 10
54.3874081826537
 20
2.386085151814097
 30
0.0
 11
70.4444204829959
 21
2.386085151814097
 31
0.0
  0
LINE
  5
150
330
14C
100
AcDbEntity
  8
치수문자_일반주서
 62
     0
370
    -2
100
AcDbLine
 10
54.38740818265369
 20
-2.376414848185909
 30
0.0
 11
70.4444204829959
 21
-2.37641484818591
 31
0.0
  0
LINE
  5
151
330
14C
100
AcDbEntity
  8
치수문자_일반주서
 62
     0
370
    -2
100
AcDbLine
 10
70.4444204829959
 20
2.386085151814097
 30
0.0
 11
70.4444204829959
 21
36.9900851518141
 31
0.0
  0
LINE
  5
152
330
14C
100
AcDbEntity
  8
치수문자_일반주서
 62
     0
370
    -2
100
AcDbLine
 10
70.4444204829959
 20
2.386085151814097
 30
0.0
 11
70.4444204829959
 21
-2.37641484818591
 31
0.0
  0
LINE
  5
153
330
14C
100
AcDbEntity
  8
치수문자_일반주서
 62
     0
370
    -2
100
AcDbLine
 10
70.4444204829959
 20
5.688085151814096
 30
0.0
 11
70.4444204829959
 21
8.990085151814096
 31
0.0
  0
LINE
  5
154
330
14C
100
AcDbEntity
  8
치수문자_일반주서
 62
     0
370
    -2
100
AcDbLine
 10
70.4444204829959
 20
-5.678414848185909
 30
0.0
 11
70.4444204829959
 21
-8.980414848185909
 31
0.0
  0
SOLID
  5
155
330
14C
100
AcDbEntity
  8
치수문자_일반주서
 62
     0
100
AcDbTrace
 10
69.89408714966257
 20
5.688085151814096
 30
0.0
 11
70.99475381632922
 21
5.688085151814096
 31
0.0
 12
70.4444204829959
 22
2.386085151814097
 32
0.0
 13
70.4444204829959
 23
2.386085151814097
 33
0.0
  0
SOLID
  5
156
330
14C
100
AcDbEntity
  8
치수문자_일반주서
 62
     0
100
AcDbTrace
 10
70.99475381632922
 20
-5.678414848185909
 30
0.0
 11
69.89408714966257
 21
-5.678414848185909
 31
0.0
 12
70.4444204829959
 22
-2.37641484818591
 32
0.0
 13
70.4444204829959
 23
-2.37641484818591
 33
0.0
  0
MTEXT
  5
157
330
14C
100
AcDbEntity
  8
치수문자_일반주서
 62
     0
100
AcDbMText
 10
67.8194204829959
 20
22.9900851518141
 30
0.0
 40
3.5
 41
0.0
 71
     5
 72
     1
  1
\A1;{%%c4.76 [3/16]}
  7
SLDTEXTSTYLE0
 11
0.0
 21
1.0
 31
0.0
 73
     1
 44
1.0
  0
POINT
  5
158
330
14C
100
AcDbEntity
  8
Defpoints
 62
     0
100
AcDbPoint
 10
54.3249081826537
 20
2.386085151814097
 30
0.0
  0
POINT
  5
159
330
14C
100
AcDbEntity
  8
Defpoints
 62
     0
100
AcDbPoint
 10
54.32490818265369
 20
-2.376414848185909
 30
0.0
  0
POINT
  5
15D
330
14C
100
AcDbEntity
  8
Defpoints
 62
     0
100
AcDbPoint
 10
70.4444204829959
 20
-2.37641484818591
 30
0.0
  0
ENDBLK
  5
14E
330
14C
100
AcDbEntity
  8
0
100
AcDbBlockEnd
  0
ENDSEC
  0
SECTION
  2
ENTITIES
  0
LINE
  5
95
330
1F
100
AcDbEntity
  8
0
  6
Continuous
 62
     4
370
    15
100
AcDbLine
 10
-33.76509181734631
 20
4.767335151814088
 30
0.0
 11
-34.5750918173463
 21
3.957335151814108
 31
0.0
  0
LINE
  5
96
330
1F
100
AcDbEntity
  8
0
  6
Continuous
 62
     4
370
    15
100
AcDbLine
 10
-34.5750918173463
 20
-3.947664848185928
 30
0.0
 11
-33.76509181734631
 21
-4.757664848185907
 31
0.0
  0
LINE
  5
97
330
1F
100
AcDbEntity
  8
0
  6
Continuous
 62
     4
370
    15
100
AcDbLine
 10
7.73808613290675
 20
4.767335151814094
 30
0.0
 11
-33.76509181734631
 21
4.767335151814089
 31
0.0
  0
LINE
  5
98
330
1F
100
AcDbEntity
  8
0
  6
Continuous
 62
     4
370
    15
100
AcDbLine
 10
-33.76509181734631
 20
-4.757664848185907
 30
0.0
 11
7.738086132906751
 21
-4.757664848185902
 31
0.0
  0
LINE
  5
99
330
1F
100
AcDbEntity
  8
0
  6
Continuous
 62
     4
370
    15
100
AcDbLine
 10
7.738086132906751
 20
-4.757664848185899
 30
0.0
 11
8.858908182653703
 21
-3.576564848185904
 31
0.0
  0
LINE
  5
9A
330
1F
100
AcDbEntity
  8
0
  6
Continuous
 62
     4
370
    15
100
AcDbLine
 10
8.858908182653703
 20
3.586235151814095
 30
0.0
 11
7.73808613290675
 21
4.767335151814092
 31
0.0
  0
LINE
  5
9B
330
1F
100
AcDbEntity
  8
0
  6
Continuous
 62
     1
370
    15
100
AcDbLine
 10
50.573372680172
 20
-2.474652262617909
 30
0.0
 11
53.18857162240778
 21
-2.406170868228703
 31
0.0
  0
LINE
  5
9C
330
1F
100
AcDbEntity
  8
0
  6
Continuous
 62
     1
370
    15
100
AcDbLine
 10
30.3814074825002
 20
-3.003397479611894
 30
0.0
 11
34.00913856255962
 21
-2.908401998075357
 31
0.0
  0
LINE
  5
9D
330
1F
100
AcDbEntity
  8
0
  6
Continuous
 62
     1
370
    15
100
AcDbLine
 10
10.28922615259673
 20
-3.529529764070628
 30
0.0
 11
14.34099855656484
 21
-3.423430369684123
 31
0.0
  0
LINE
  5
9E
330
1F
100
AcDbEntity
  8
0
  6
Continuous
 62
     1
370
    15
100
AcDbLine
 10
24.18239511215377
 20
3.175394634976398
 30
0.0
 11
20.32500220970982
 21
3.276404022981333
 31
0.0
  0
LINE
  5
9F
330
1F
100
AcDbEntity
  8
0
  6
Continuous
 62
     1
370
    15
100
AcDbLine
 10
43.81842029115267
 20
2.661207219708555
 30
0.0
 11
40.46338616546488
 21
2.74906188018576
 31
0.0
  0
LINE
  5
A0
330
1F
100
AcDbEntity
  8
0
  6
Continuous
 62
     1
370
    15
100
AcDbLine
 10
37.10005582979651
 20
-2.827463480938646
 30
0.0
 11
40.55132272411474
 21
-2.737088876729697
 31
0.0
  0
LINE
  5
A1
330
1F
100
AcDbEntity
  8
0
  6
Continuous
 62
     1
370
    15
100
AcDbLine
 10
16.97893812819432
 20
-3.354353490957179
 30
0.0
 11
20.90331604054737
 21
-3.251590038736452
 31
0.0
  0
LINE
  5
A2
330
1F
100
AcDbEntity
  8
0
  6
Continuous
 62
     1
370
    15
100
AcDbLine
 10
11.05745484625267
 20
3.519083291379546
 30
0.0
 11
9.874908182653726
 21
3.550049365564452
 31
0.0
  0
LINE
  5
A3
330
1F
100
AcDbEntity
  8
0
  6
Continuous
 62
     1
370
    15
100
AcDbLine
 10
30.73432009728108
 20
3.003826441188658
 30
0.0
 11
27.02872893968141
 21
3.100860760609035
 31
0.0
  0
LINE
  5
A4
330
1F
100
AcDbEntity
  8
0
  6
Continuous
 62
     1
370
    15
100
AcDbLine
 10
50.34395414980548
 20
2.490330101888798
 30
0.0
 11
47.1998753917464
 21
2.57266070165468
 31
0.0
  0
LINE
  5
A5
330
1F
100
AcDbEntity
  8
0
  6
Continuous
 62
     4
370
    15
100
AcDbLine
 10
8.858908182653703
 20
-3.576564848185904
 30
0.0
 11
8.984908182653697
 21
-3.572077240836046
 31
0.0
  0
LINE
  5
A6
330
1F
100
AcDbEntity
  8
0
  6
Continuous
 62
     4
370
    15
100
AcDbLine
 10
9.874908182653726
 20
3.550049365564452
 30
0.0
 11
8.858908182653703
 21
3.586235151814095
 31
0.0
  0
LINE
  5
A7
330
1F
100
AcDbEntity
  8
0
  6
Continuous
 62
     1
370
    15
100
AcDbLine
 10
43.82991388742151
 20
-2.651235945669917
 30
0.0
 11
47.08279564923977
 21
-2.566056238981106
 31
0.0
  0
LINE
  5
A8
330
1F
100
AcDbEntity
  8
0
  6
Continuous
 62
     1
370
    15
100
AcDbLine
 10
23.67644512765872
 20
-3.178973097960124
 30
0.0
 11
27.46037352577876
 21
-3.079887445703533
 31
0.0
  0
LINE
  5
A9
330
1F
100
AcDbEntity
  8
0
  6
Continuous
 62
     1
370
    15
100
AcDbLine
 10
17.62312643353122
 20
3.347155130146032
 30
0.0
 11
13.63141764923379
 21
3.451681703298678
 31
0.0
  0
LINE
  5
AA
330
1F
100
AcDbEntity
  8
0
  6
Continuous
 62
     1
370
    15
100
AcDbLine
 10
37.28157193735983
 20
2.832380618010641
 30
0.0
 11
33.73948699560851
 21
2.925133376486739
 31
0.0
  0
LINE
  5
AB
102
{ACAD_REACTORS
102
}
330
1F
100
AcDbEntity
  8
0
  6
Continuous
 62
     1
370
    15
100
AcDbLine
 10
54.3249081826537
 20
2.386085151814097
 30
0.0
 11
53.95228328784554
 21
2.39584267808427
 31
0.0
  0
LINE
  5
AC
330
1F
100
AcDbEntity
  8
0
  6
Continuous
 62
     4
370
    15
100
AcDbLine
 10
-33.76509181734631
 20
4.767335151814088
 30
0.0
 11
-33.76509181734631
 21
-4.757664848185907
 31
0.0
  0
LINE
  5
AD
330
1F
100
AcDbEntity
  8
0
  6
Continuous
 62
     4
370
    15
100
AcDbLine
 10
-34.5750918173463
 20
-3.947664848185927
 30
0.0
 11
-34.5750918173463
 21
3.957335151814106
 31
0.0
  0
LINE
  5
AE
330
1F
100
AcDbEntity
  8
0
  6
Continuous
 62
     4
370
    15
100
AcDbLine
 10
7.73808613290675
 20
4.767335151814091
 30
0.0
 11
7.738086132906751
 21
-4.757664848185902
 31
0.0
  0
LINE
  5
AF
330
1F
100
AcDbEntity
  8
0
  6
Continuous
 62
     4
370
    15
100
AcDbLine
 10
8.858908182653703
 20
3.586235151814095
 30
0.0
 11
8.858908182653703
 21
-3.576564848185904
 31
0.0
  0
LINE
  5
B0
330
1F
100
AcDbEntity
  8
0
  6
Continuous
 62
     1
370
    15
100
AcDbLine
 10
9.874908182653748
 20
-3.510856630754372
 30
0.0
 11
10.28846825345569
 21
-3.50058676357207
 31
0.0
  0
SPLINE
  5
B1
330
1F
100
AcDbEntity
  8
0
  6
Continuous
 62
     1
370
    15
100
AcDbSpline
210
0.0
220
0.0
230
1.0
 70
     8
 71
     3
 72
    23
 73
    19
 74
     0
 42
0.000000001
 43
0.00000001
 40
0.0
 40
0.0
 40
0.0
 40
0.0
 40
0.0554315319371171
 40
0.1218573774487005
 40
0.1902083725975558
 40
0.256630467740577
 40
0.324976956465295
 40
0.3914062494247187
 40
0.4597594468019374
 40
0.5262077810661742
 40
0.594579821908888
 40
0.6610599404692132
 40
0.729463889654553
 40
0.7959893005045156
 40
0.8644390251477901
 40
0.9310236265712014
 40
0.9975141738153347
 40
1.0
 40
1.0
 40
1.0
 40
1.0
 10
18.95949638168839
 20
3.001444917334215
 30
0.0
 10
19.16568018293412
 20
3.079292283939604
 30
0.0
 10
19.61894236808735
 20
3.250427296888223
 30
0.0
 10
20.32907505724957
 20
3.303723720321435
 30
0.0
 10
21.08265921929851
 20
3.195948614471383
 30
0.0
 10
21.8456363188287
 20
2.904403956412453
 30
0.0
 10
22.60404591378818
 20
2.457449055243008
 30
0.0
 10
23.37196967001658
 20
1.871274674546679
 30
0.0
 10
24.13533217258595
 20
1.190166265730995
 30
0.0
 10
24.90842103459157
 20
0.4414806427272656
 30
0.0
 10
25.67694056709817
 20
-0.3188005619969002
 30
0.0
 10
26.45540053307188
 20
-1.059398274936734
 30
0.0
 10
27.22930947464026
 20
-1.725327412793262
 30
0.0
 10
28.01336353345245
 20
-2.286938965815347
 30
0.0
 10
28.79285370750029
 20
-2.709280693573996
 30
0.0
 10
29.57512061393749
 20
-2.945201611620861
 30
0.0
 10
30.10217054770468
 20
-3.038543110801471
 30
0.0
 10
30.37161186697212
 20
-3.001476898337101
 30
0.0
 10
30.38132221057777
 20
-3.000141076273254
 30
0.0
  0
SPLINE
  5
B2
330
1F
100
AcDbEntity
  8
0
  6
Continuous
 62
     1
370
    15
100
AcDbSpline
210
0.0
220
0.0
230
1.0
 70
     8
 71
     3
 72
    22
 73
    18
 74
     0
 42
0.000000001
 43
0.00000001
 40
0.0
 40
0.0
 40
0.0
 40
0.0
 40
0.0356086229081237
 40
0.1069647259016201
 40
0.180376621019555
 40
0.251935625513481
 40
0.3255547325719205
 40
0.3973442379809007
 40
0.4711986395639439
 40
0.543251405789162
 40
0.6173747434261603
 40
0.6897246424773549
 40
0.7641517161622472
 40
0.8368313341023311
 40
0.9115960384677374
 40
0.9846339639045135
 40
1.0
 40
1.0
 40
1.0
 40
1.0
 10
38.85058010718603
 20
2.426902278581795
 30
0.0
 10
38.98633939423704
 20
2.484747588112994
 30
0.0
 10
39.39414665388534
 20
2.658509086687756
 30
0.0
 10
40.08475366684441
 20
2.765436682789648
 30
0.0
 10
40.91556773585022
 20
2.741881961313619
 30
0.0
 10
41.75791101672519
 20
2.524926444205757
 30
0.0
 10
42.5970605742157
 20
2.144419319322424
 30
0.0
 10
43.44794731132628
 20
1.617614504092997
 30
0.0
 10
44.29579918582262
 20
0.990220390184266
 30
0.0
 10
45.15569586425794
 20
0.2961274401345373
 30
0.0
 10
46.01283674304428
 20
-0.4047406083132373
 30
0.0
 10
46.8822183463623
 20
-1.073817932961213
 30
0.0
 10
47.7492290660046
 20
-1.651079362799887
 30
0.0
 10
48.62860407346218
 20
-2.109249290557045
 30
0.0
 10
49.50613712823013
 20
-2.387006314582419
 30
0.0
 10
50.15698498887037
 20
-2.502897201682341
 30
0.0
 10
50.51136525219963
 20
-2.465482419008504
 30
0.0
 10
50.57296226463507
 20
-2.458979125591487
 30
0.0
  0
LINE
  5
B3
330
1F
100
AcDbEntity
  8
0
  6
Continuous
 62
     4
370
    15
100
AcDbLine
 10
9.874908182653726
 20
-0.5135605888595212
 30
0.0
 11
9.874908182653728
 21
-3.510856630754208
 31
0.0
  0
SPLINE
  5
B4
330
1F
100
AcDbEntity
  8
0
  6
Continuous
 62
     1
370
    15
100
AcDbSpline
210
0.0
220
0.0
230
1.0
 70
     8
 71
     3
 72
    19
 73
    15
 74
     0
 42
0.000000001
 43
0.00000001
 40
0.0
 40
0.0
 40
0.0
 40
0.0
 40
0.0838909287565211
 40
0.16999829484695
 40
0.2576697812204565
 40
0.3478987186192686
 40
0.4352489538042197
 40
0.5251459945705585
 40
0.6121994821323237
 40
0.701789494830423
 40
0.7885788335558926
 40
0.8778954495648814
 40
0.9644536862319523
 40
1.0
 40
1.0
 40
1.0
 40
1.0
 10
53.2868899346522
 20
-2.391428782498495
 30
0.0
 10
53.01731724792852
 20
-2.361650377535717
 30
0.0
 10
52.47104963878883
 20
-2.301306808308745
 30
0.0
 10
51.64638795373639
 20
-2.001852014071467
 30
0.0
 10
50.80404280607939
 20
-1.556840533419245
 30
0.0
 10
49.96045303245874
 20
-0.9833731936253947
 30
0.0
 10
49.11288457927033
 20
-0.324917867473243
 30
0.0
 10
48.27792863377156
 20
0.3594276263396004
 30
0.0
 10
47.43895054921725
 20
1.032797203561743
 30
0.0
 10
46.61233413162318
 20
1.633775059822008
 30
0.0
 10
45.78149464423279
 20
2.134454129801262
 30
0.0
 10
44.96291292603376
 20
2.476218916073625
 30
0.0
 10
44.3057714131815
 20
2.650794592663678
 30
0.0
 10
43.92785123419808
 20
2.64150257552605
 30
0.0
 10
43.8178334730782
 20
2.638797541556922
 30
0.0
  0
SPLINE
  5
B5
330
1F
100
AcDbEntity
  8
0
  6
Continuous
 62
     1
370
    15
100
AcDbSpline
210
0.0
220
0.0
230
1.0
 70
     8
 71
     3
 72
    23
 73
    19
 74
     0
 42
0.000000001
 43
0.00000001
 40
0.0
 40
0.0
 40
0.0
 40
0.0
 40
0.0159534687128073
 40
0.0821487016769689
 40
0.1502652295505442
 40
0.2164002806985392
 40
0.2844541817226853
 40
0.3505431570777017
 40
0.4185490085450596
 40
0.4846049112416607
 40
0.5525761444737747
 40
0.6186108356892437
 40
0.6865596887758022
 40
0.7525839971866829
 40
0.8205216348316428
 40
0.8865455292509544
 40
0.9544822255580979
 40
1.0
 40
1.0
 40
1.0
 40
1.0
 10
35.54157352911685
 20
-2.515361788516365
 30
0.0
 10
35.47966429291214
 20
-2.547800819623899
 30
0.0
 10
35.16087698291812
 20
-2.714838116472293
 30
0.0
 10
34.58032935041388
 20
-2.866323958052039
 30
0.0
 10
33.80742728495036
 20
-2.939868582460246
 30
0.0
 10
33.03017436436686
 20
-2.819944390908433
 30
0.0
 10
32.2629708701812
 20
-2.531319836964157
 30
0.0
 10
31.49114516977702
 20
-2.081782712775822
 30
0.0
 10
30.72926302116844
 20
-1.506865037025367
 30
0.0
 10
29.96268709896665
 20
-0.8303482076701577
 30
0.0
 10
29.20589810604989
 20
-0.1037997557577611
 30
0.0
 10
28.44438021584923
 20
0.6425848953008448
 30
0.0
 10
27.69247924211113
 20
1.352520500246425
 30
0.0
 10
26.93584391366546
 20
1.996231894453267
 30
0.0
 10
26.18862977718009
 20
2.527522136252292
 30
0.0
 10
25.43676307309264
 20
2.916387401337668
 30
0.0
 10
24.77006155705665
 20
3.139109358051338
 30
0.0
 10
24.35031233216361
 20
3.151771180033765
 30
0.0
 10
24.18190953221484
 20
3.156851085243446
 30
0.0
  0
SPLINE
  5
B6
330
1F
100
AcDbEntity
  8
0
  6
Continuous
 62
     1
370
    15
100
AcDbSpline
210
0.0
220
0.0
230
1.0
 70
     8
 71
     3
 72
    16
 73
    12
 74
     0
 42
0.000000001
 43
0.00000001
 40
0.0
 40
0.0
 40
0.0
 40
0.0
 40
0.07805728259683
 40
0.2032581001838559
 40
0.3250593273160496
 40
0.4503831153078623
 40
0.5723165596138814
 40
0.6977757918008882
 40
0.8198530394975366
 40
0.9454596681019451
 40
1.0
 40
1.0
 40
1.0
 40
1.0
 10
15.64269898866436
 20
-3.082223203607033
 30
0.0
 10
15.49084072532242
 20
-3.153168685044244
 30
0.0
 10
15.09540776791948
 20
-3.337907934142089
 30
0.0
 10
14.46526440720452
 20
-3.443339188303599
 30
0.0
 10
13.74549863139187
 20
-3.408182990908522
 30
0.0
 10
13.03400149394466
 20
-3.189309785348272
 30
0.0
 10
12.31775478197949
 20
-2.801927396000477
 30
0.0
 10
11.60956285369019
 20
-2.270020024715961
 30
0.0
 10
10.89675414588634
 20
-1.611460462912152
 30
0.0
 10
10.32051574073048
 20
-1.007247963944282
 30
0.0
 10
9.97846549018918
 20
-0.6282914420539297
 30
0.0
 10
9.874908182653702
 20
-0.513560588859492
 30
0.0
  0
ELLIPSE
  5
B7
330
1F
100
AcDbEntity
  8
0
  6
Continuous
 62
     1
370
    15
100
AcDbEllipse
 10
49.81947170121286
 20
0.0926631430719367
 30
0.0
 11
3.546695365461666
 21
-2.429570194927364
 31
0.0
210
0.0
220
0.0
230
1.0
 40
0.1649633397708048
 41
6.059219830383811
 42
6.156244813715425
  0
ELLIPSE
  5
B8
330
1F
100
AcDbEntity
  8
0
  6
Continuous
 62
     1
370
    15
100
AcDbEllipse
 10
54.19754992604529
 20
-0.0397534538511236
 30
0.0
 11
3.294642764427458
 21
1.675812279191123
 31
0.0
210
0.0
220
0.0
230
1.0
 40
0.5143739000257491
 41
4.16928621634387
 42
4.493896086777532
  0
SPLINE
  5
B9
330
1F
100
AcDbEntity
  8
0
  6
Continuous
 62
     1
370
    15
100
AcDbSpline
210
0.0
220
0.0
230
1.0
 70
     8
 71
     3
 72
    17
 73
    13
 74
     0
 42
0.000000001
 43
0.00000001
 40
0.0
 40
0.0
 40
0.0
 40
0.0
 40
0.1166445281327927
 40
0.2186331507161277
 40
0.3235668066753449
 40
0.4257258361683312
 40
0.5308496252697855
 40
0.6329361356645995
 40
0.7379846715891553
 40
0.8400091809871416
 40
0.944993153777962
 40
1.0
 40
1.0
 40
1.0
 40
1.0
 10
9.874908182653748
 20
2.158081262520806
 30
0.0
 10
10.14741681676095
 20
1.90067425211061
 30
0.0
 10
10.65819449511359
 20
1.41820236420232
 30
0.0
 10
11.41673720391545
 20
0.5996321038292075
 30
0.0
 10
12.14363350830476
 20
-0.1994500983135364
 30
0.0
 10
12.87994575629626
 20
-0.9911560574213178
 30
0.0
 10
13.61202068694705
 20
-1.717323799351887
 30
0.0
 10
14.35294208578338
 20
-2.352130571769647
 30
0.0
 10
15.08903224060786
 20
-2.853668705049685
 30
0.0
 10
15.83412473443011
 20
-3.19356939713987
 30
0.0
 10
16.46158837000734
 20
-3.359804596223755
 30
0.0
 10
16.84614535256738
 20
-3.339343251153349
 30
0.0
 10
16.97836085676822
 20
-3.332308384598329
 30
0.0
  0
SPLINE
  5
BA
330
1F
100
AcDbEntity
  8
0
  6
Continuous
 62
     1
370
    15
100
AcDbSpline
210
0.0
220
0.0
230
1.0
 70
     8
 71
     3
 72
    23
 73
    19
 74
     0
 42
0.000000001
 43
0.00000001
 40
0.0
 40
0.0
 40
0.0
 40
0.0
 40
0.0088285862310937
 40
0.0766456211690737
 40
0.1464251750004728
 40
0.2142884130568477
 40
0.2841146628914624
 40
0.3520382818447808
 40
0.4198659551875874
 40
0.4896466487322566
 40
0.5576829590353595
 40
0.6276850458867065
 40
0.6958198477698694
 40
0.7659222139740315
 40
0.8341737729040495
 40
0.904395129133863
 40
0.97278321968027
 40
1.0
 40
1.0
 40
1.0
 40
1.0
 10
25.58546461463705
 20
2.817068539270219
 30
0.0
 10
25.61849941661335
 20
2.833374997698651
 30
0.0
 10
25.90529198468644
 20
2.974939977934446
 30
0.0
 10
26.45555831353034
 20
3.086516584560214
 30
0.0
 10
27.22927161772504
 20
3.122607695128811
 30
0.0
 10
28.01336084924784
 20
2.958542929925184
 30
0.0
 10
28.79290442767597
 20
2.627947078435151
 30
0.0
 10
29.57492727437719
 20
2.144688289223283
 30
0.0
 10
30.35919171891911
 20
1.541178377914848
 30
0.0
 10
31.14667503660848
 20
0.8511913229898825
 30
0.0
 10
31.94496455738237
 20
0.1101992462390384
 30
0.0
 10
32.73969332535426
 20
-0.6239446747279668
 30
0.0
 10
33.54499855736655
 20
-1.317957861908038
 30
0.0
 10
34.34626919383807
 20
-1.916364014026575
 30
0.0
 10
35.15829257947202
 20
-2.395634872782059
 30
0.0
 10
35.96658339801727
 20
-2.703234327744239
 30
0.0
 10
36.61615256982002
 20
-2.843769225242365
 30
0.0
 10
36.99236862496594
 20
-2.813655084226224
 30
0.0
 10
37.09946975520018
 20
-2.80508219507185
 30
0.0
  0
SPLINE
  5
BB
330
1F
100
AcDbEntity
  8
0
  6
Continuous
 62
     1
370
    15
100
AcDbSpline
210
0.0
220
0.0
230
1.0
 70
     8
 71
     3
 72
    18
 73
    14
 74
     0
 42
0.000000001
 43
0.00000001
 40
0.0
 40
0.0
 40
0.0
 40
0.0
 40
0.0619112090055759
 40
0.1598817379860477
 40
0.2606650130838887
 40
0.3590820213875249
 40
0.4603224893329538
 40
0.559224689398418
 40
0.6609611117035605
 40
0.7604073567364633
 40
0.8626995850573603
 40
0.9309049117854149
 40
1.0
 40
1.0
 40
1.0
 40
1.0
 10
45.48231497794036
 20
2.234915231700952
 30
0.0
 10
45.66153701403209
 20
2.306567045629862
 30
0.0
 10
46.12436646084783
 20
2.491603272911022
 30
0.0
 10
46.8823044340653
 20
2.595544870696992
 30
0.0
 10
47.74919446854255
 20
2.552772833754854
 30
0.0
 10
48.62865697756946
 20
2.31689498048807
 30
0.0
 10
49.50595646074752
 20
1.91821369441602
 30
0.0
 10
50.39603450276267
 20
1.377976558031192
 30
0.0
 10
51.28418502882275
 20
0.7459594203079591
 30
0.0
 10
52.18545026461906
 20
0.0601519311588092
 30
0.0
 10
52.99047214984807
 20
-0.5430756285038344
 30
0.0
 10
53.7062395314613
 20
-1.042929329256896
 30
0.0
 10
54.11779628159076
 20
-1.291128779422936
 30
0.0
 10
54.32490818265371
 20
-1.416032720253694
 30
0.0
  0
SPLINE
  5
BC
330
1F
100
AcDbEntity
  8
0
  6
Continuous
 62
     1
370
    15
100
AcDbSpline
210
0.0
220
0.0
230
1.0
 70
     8
 71
     3
 72
    11
 73
     7
 74
     0
 42
0.000000001
 43
0.00000001
 40
0.0
 40
0.0
 40
0.0
 40
0.0
 40
0.2733836957537569
 40
0.553990315830164
 40
0.8396940899092332
 40
1.0
 40
1.0
 40
1.0
 40
1.0
 10
53.28688993467182
 20
1.412361380997689
 30
0.0
 10
53.01731045890745
 20
1.577920395843027
 30
0.0
 10
52.47102909231659
 20
1.913412571665071
 30
0.0
 10
51.64647332220613
 20
2.263499763274297
 30
0.0
 10
50.93471072609729
 20
2.465336471031132
 30
0.0
 10
50.49969387384751
 20
2.466442333687527
 30
0.0
 10
50.34333903474907
 20
2.466839805594217
 30
0.0
  0
SPLINE
  5
BD
330
1F
100
AcDbEntity
  8
0
  6
Continuous
 62
     1
370
    15
100
AcDbSpline
210
0.0
220
0.0
230
1.0
 70
     8
 71
     3
 72
    22
 73
    18
 74
     0
 42
0.000000001
 43
0.00000001
 40
0.0
 40
0.0
 40
0.0
 40
0.0
 40
0.0397609639414862
 40
0.1077374428598822
 40
0.1776903341677597
 40
0.2455412577129844
 40
0.3153639672649065
 40
0.3831074786891449
 40
0.4528187724287122
 40
0.520470534978525
 40
0.590086625370019
 40
0.6576617617385323
 40
0.7271982442598438
 40
0.7947119442642534
 40
0.8641844944191234
 40
0.9316511581362594
 40
1.0
 40
1.0
 40
1.0
 40
1.0
 10
42.1661490503614
 20
-2.320968643587885
 30
0.0
 10
42.01100530991713
 20
-2.393694569283331
 30
0.0
 10
41.59062340228075
 20
-2.590754813486055
 30
0.0
 10
40.90034665029306
 20
-2.736030934598506
 30
0.0
 10
40.10288365818086
 20
-2.752162529252494
 30
0.0
 10
39.30123331244253
 20
-2.579272889877954
 30
0.0
 10
38.51039333095044
 20
-2.24043727359218
 30
0.0
 10
37.71523292999612
 20
-1.748594957747193
 30
0.0
 10
36.9306693936314
 20
-1.144399011409685
 30
0.0
 10
36.14172370854354
 20
-0.4549138544437727
 30
0.0
 10
35.36319595824943
 20
0.2642629570227594
 30
0.0
 10
34.58019582168041
 20
0.9811514680411206
 30
0.0
 10
33.807464374046
 20
1.638331261481186
 30
0.0
 10
33.03015667642739
 20
2.207990043874947
 30
0.0
 10
32.26300444530985
 20
2.640629174774597
 30
0.0
 10
31.49505109609493
 20
2.932668201715202
 30
0.0
 10
30.98896852521142
 20
2.979078161941913
 30
0.0
 10
30.73428363146993
 20
3.002433868043887
 30
0.0
  0
SPLINE
  5
BE
330
1F
100
AcDbEntity
  8
0
  6
Continuous
 62
     1
370
    15
100
AcDbSpline
210
0.0
220
0.0
230
1.0
 70
     8
 71
     3
 72
    23
 73
    19
 74
     0
 42
0.000000001
 43
0.00000001
 40
0.0
 40
0.0
 40
0.0
 40
0.0
 40
0.0483721604598334
 40
0.111731597343467
 40
0.1769252369197667
 40
0.2403191611268319
 40
0.3055478745696278
 40
0.3689840778390095
 40
0.4342559229086093
 40
0.4977414518054519
 40
0.5630636903836128
 40
0.6266053709812083
 40
0.6919850411739287
 40
0.7555894505735415
 40
0.8210333357183954
 40
0.8847067887184026
 40
0.9502214026091382
 40
1.0
 40
1.0
 40
1.0
 40
1.0
 10
22.27998847372408
 20
-2.893056776107151
 30
0.0
 10
22.09482458683496
 20
-2.976237438767017
 30
0.0
 10
21.66712698855164
 20
-3.168370852257864
 30
0.0
 10
20.99261309213228
 20
-3.274359500781443
 30
0.0
 10
20.26258953456161
 20
-3.230880532038556
 30
0.0
 10
19.52791977468858
 20
-3.00325454612336
 30
0.0
 10
18.80188843821202
 20
-2.614103872250825
 30
0.0
 10
18.07114076532866
 20
-2.075341196711236
 30
0.0
 10
17.34891947070876
 20
-1.425278041395718
 30
0.0
 10
16.62197691906668
 20
-0.6869064748728155
 30
0.0
 10
15.90344022569325
 20
0.0879769648143797
 30
0.0
 10
15.18017995269418
 20
0.8719006545702672
 30
0.0
 10
14.46520988557285
 20
1.610198166383795
 30
0.0
 10
13.74551566776979
 20
2.276340669985007
 30
0.0
 10
13.03398888882316
 20
2.825736719010262
 30
0.0
 10
12.31778780113223
 20
3.231998371375974
 30
0.0
 10
11.66072999841985
 20
3.473939919715515
 30
0.0
 10
11.23910447971885
 20
3.495069338735253
 30
0.0
 10
11.0570649067741
 20
3.504192103473911
 30
0.0
  0
ELLIPSE
  5
BF
330
1F
100
AcDbEntity
  8
0
  6
Continuous
 62
     1
370
    15
100
AcDbEllipse
 10
49.81947170121286
 20
-0.0667628826549794
 30
0.0
 11
3.491487570547158
 21
2.206113483888077
 31
0.0
210
0.0
220
0.0
230
1.0
 40
0.3359197321950548
 41
5.60936174199237
 42
5.834569789212196
  0
LINE
  5
C0
330
1F
100
AcDbEntity
  8
0
  6
Continuous
 62
     1
370
    15
100
AcDbLine
 10
53.01028129822761
 20
0.9253468062223956
 30
0.0
 11
54.3249081826537
 21
0.0048351518140961
 31
0.0
  0
LINE
  5
C1
330
1F
100
AcDbEntity
  8
0
  6
Continuous
 62
     1
370
    15
100
AcDbLine
 10
54.3249081826537
 20
0.0048351518140964
 30
0.0
 11
54.3249081826537
 21
-1.416032720253447
 31
0.0
  0
SPLINE
  5
C2
330
1F
100
AcDbEntity
  8
0
  6
Continuous
 62
     4
370
    15
100
AcDbSpline
210
0.0
220
0.0
230
1.0
 70
     8
 71
     3
 72
     8
 73
     4
 74
     0
 42
0.000000001
 43
0.00000001
 40
0.0
 40
0.0
 40
0.0
 40
0.0
 40
1.0
 40
1.0
 40
1.0
 40
1.0
 10
8.98490818284688
 20
2.875922637724031
 30
0.0
 10
9.281899532556064
 20
2.668782356502973
 30
0.0
 10
9.576453135151743
 20
2.428094105215515
 30
0.0
 10
9.874908182653636
 20
2.158081262520866
 30
0.0
  0
LINE
  5
C3
330
1F
100
AcDbEntity
  8
0
  6
Continuous
 62
     4
370
    15
100
AcDbLine
 10
8.984908182653697
 20
0.4926143457165235
 30
0.0
 11
8.984908182653697
 21
2.875922637859584
 31
0.0
  0
SPLINE
  5
C4
330
1F
100
AcDbEntity
  8
0
  6
Continuous
 62
     4
370
    15
100
AcDbSpline
210
0.0
220
0.0
230
1.0
 70
     8
 71
     3
 72
     8
 73
     4
 74
     0
 42
0.000000001
 43
0.00000001
 40
0.0
 40
0.0
 40
0.0
 40
0.0
 40
1.0
 40
1.0
 40
1.0
 40
1.0
 10
9.874908182653726
 20
-0.5135605888595212
 30
0.0
 10
9.576379553254732
 20
-0.1815408414624244
 30
0.0
 10
9.2819624513093
 20
0.1558365048204171
 30
0.0
 10
8.984908182653623
 20
0.4926143457161486
 30
0.0
  0
SPLINE
  5
C5
330
1F
100
AcDbEntity
  8
0
  6
Continuous
 62
     4
370
    15
100
AcDbSpline
210
0.0
220
0.0
230
1.0
 70
     8
 71
     3
 72
     8
 73
     4
 74
     0
 42
0.000000001
 43
0.00000001
 40
0.0
 40
0.0
 40
0.0
 40
0.0
 40
1.0
 40
1.0
 40
1.0
 40
1.0
 10
8.98490818284688
 20
-3.278239155074078
 30
0.0
 10
9.281899532556064
 20
-3.40073400390875
 30
0.0
 10
9.576453135151745
 20
-3.478672392211466
 30
0.0
 10
9.874908182653636
 20
-3.510856630754219
 30
0.0
  0
LINE
  5
C6
330
1F
100
AcDbEntity
  8
0
  6
Continuous
 62
     4
370
    15
100
AcDbLine
 10
8.984908182653697
 20
-3.572077240836046
 30
0.0
 11
8.984908182653697
 21
-3.278239154995183
 31
0.0
  0
SPLINE
  5
C7
330
1F
100
AcDbEntity
  8
0
  6
Continuous
 62
     1
370
    15
100
AcDbSpline
210
0.0
220
0.0
230
1.0
 70
     8
 71
     3
 72
    23
 73
    19
 74
     0
 42
0.000000001
 43
0.00000001
 40
0.0
 40
0.0
 40
0.0
 40
0.0
 40
0.0473960082607978
 40
0.1145870785882548
 40
0.1798368375443628
 40
0.2469798089444069
 40
0.3121899392553354
 40
0.3792916443911357
 40
0.4444702833322858
 40
0.511539066620104
 40
0.5766948565755853
 40
0.6437395775655882
 40
0.7088817548823461
 40
0.7759118786462516
 40
0.8410503780696826
 40
0.9080760824953333
 40
0.9732216406385862
 40
1.0
 40
1.0
 40
1.0
 40
1.0
 10
12.34866698138082
 20
3.191522823601403
 30
0.0
 10
12.5234628424321
 20
3.259956173463778
 30
0.0
 10
12.94605849557176
 20
3.425404233890911
 30
0.0
 10
13.6120688476769
 20
3.479149902971534
 30
0.0
 10
14.3529242621226
 20
3.376256261639834
 30
0.0
 10
15.08905476218647
 20
3.091359246817259
 30
0.0
 10
15.83405378929846
 20
2.642603956644998
 30
0.0
 10
16.57433337758503
 20
2.060609823789767
 30
0.0
 10
17.32357146919794
 20
1.367237091387024
 30
0.0
 10
18.06815469991402
 20
0.6126760914276601
 30
0.0
 10
18.82178924732753
 20
-0.1753148929768372
 30
0.0
 10
19.57082527311525
 20
-0.9393270941851039
 30
0.0
 10
20.32902612608313
 20
-1.65131115310302
 30
0.0
 10
21.08267869255464
 20
-2.258281049801444
 30
0.0
 10
21.84560690203419
 20
-2.741424403459632
 30
0.0
 10
22.60414601600942
 20
-3.051068833733799
 30
0.0
 10
23.21652253656903
 20
-3.193628851406654
 30
0.0
 10
23.5722339189678
 20
-3.164863110967377
 30
0.0
 10
23.67585621320189
 20
-3.156483362195888
 30
0.0
  0
SPLINE
  5
C8
330
1F
100
AcDbEntity
  8
0
  6
Continuous
 62
     1
370
    15
100
AcDbSpline
210
0.0
220
0.0
230
1.0
 70
     8
 71
     3
 72
    22
 73
    18
 74
     0
 42
0.000000001
 43
0.00000001
 40
0.0
 40
0.0
 40
0.0
 40
0.0
 40
0.0448818171136993
 40
0.1144854035889073
 40
0.1860989692462232
 40
0.255821829704517
 40
0.3275569504601264
 40
0.3974192857522091
 40
0.4692966305708323
 40
0.5393200931243123
 40
0.6113620633743037
 40
0.6815655578610544
 40
0.7537916374529232
 40
0.824194755991005
 40
0.8966247004481417
 40
0.967254596641397
 40
1.0
 40
1.0
 40
1.0
 40
1.0
 10
32.23929432152221
 20
2.626450291167639
 30
0.0
 10
32.40854708148458
 20
2.69439484812464
 30
0.0
 10
32.84028028167432
 20
2.867709132730942
 30
0.0
 10
33.54507256130069
 20
2.951244015513783
 30
0.0
 10
34.3462422433352
 20
2.888254833363625
 30
0.0
 10
35.15832722229413
 20
2.63682872093157
 30
0.0
 10
35.96646967936873
 20
2.226292476252628
 30
0.0
 10
36.78556619366713
 20
1.67407344506578
 30
0.0
 10
37.60099010724502
 20
1.025608927517926
 30
0.0
 10
38.42743886474921
 20
0.3122416952452861
 30
0.0
 10
39.25047977172183
 20
-0.407389330475007
 30
0.0
 10
40.08465492328665
 20
-1.098057511532565
 30
0.0
 10
40.9156009585809
 20
-1.701484635363355
 30
0.0
 10
41.75787558986296
 20
-2.190900280807281
 30
0.0
 10
42.59717094900266
 20
-2.512032017888867
 30
0.0
 10
43.29019869969244
 20
-2.663990731687703
 30
0.0
 10
43.69961002147968
 20
-2.636387782954174
 30
0.0
 10
43.82929611602663
 20
-2.627644207902062
 30
0.0
  0
SPLINE
  5
C9
330
1F
100
AcDbEntity
  8
0
  6
Continuous
 62
     1
370
    15
100
AcDbSpline
210
0.0
220
0.0
230
1.0
 70
     8
 71
     3
 72
    11
 73
     7
 74
     0
 42
0.000000001
 43
0.00000001
 40
0.0
 40
0.0
 40
0.0
 40
0.0
 40
0.0351388299371388
 40
0.4470788534773318
 40
0.7217478518862858
 40
0.9999999999999999
 40
0.9999999999999999
 40
0.9999999999999999
 40
0.9999999999999999
 10
52.09985453189759
 20
2.047810408203061
 30
0.0
 10
52.12576743151364
 20
2.059895551893389
 30
0.0
 10
52.45546279904126
 20
2.213657421450401
 30
0.0
 10
52.99062303659482
 20
2.328948222767171
 30
0.0
 10
53.70620782834289
 20
2.415257475654739
 30
0.0
 10
54.11778566832773
 20
2.385247369040718
 30
0.0
 10
54.32490818265371
 20
2.37014507699964
 30
0.0
  0
SPLINE
  5
CA
330
1F
100
AcDbEntity
  8
0
  6
Continuous
 62
     1
370
    15
100
AcDbSpline
210
0.0
220
0.0
230
1.0
 70
     8
 71
     3
 72
    22
 73
    18
 74
     0
 42
0.000000001
 43
0.00000001
 40
0.0
 40
0.0
 40
0.0
 40
0.0
 40
0.0442200822687325
 40
0.1142718910439619
 40
0.1863648377308469
 40
0.2562040863400614
 40
0.3280770311278631
 40
0.3977303122628725
 40
0.4694107177833421
 40
0.5389018619358101
 40
0.6104143894275061
 40
0.6797619493488624
 40
0.7511257857645249
 40
0.8203452578692865
 40
0.8915762867717414
 40
0.9606861802602688
 40
0.9999999999999999
 40
0.9999999999999999
 40
0.9999999999999999
 40
0.9999999999999999
 10
48.79021999007705
 20
-2.131543299265172
 30
0.0
 10
48.61653466206832
 20
-2.210677016760819
 30
0.0
 10
48.16770350075267
 20
-2.415171424722612
 30
0.0
 10
47.43902834309362
 20
-2.565857056090394
 30
0.0
 10
46.61230659687256
 20
-2.580954035560291
 30
0.0
 10
45.78152818026776
 20
-2.405634093841267
 30
0.0
 10
44.96280445708713
 20
-2.063307869562435
 30
0.0
 10
44.13977628279772
 20
-1.569151695415569
 30
0.0
 10
43.32853074018038
 20
-0.9661899083439878
 30
0.0
 10
42.51292166250235
 20
-0.2844198541684184
 30
0.0
 10
41.70876445216754
 20
0.4181469998037133
 30
0.0
 10
40.90026665838979
 20
1.10732193511737
 30
0.0
 10
40.10290979725482
 20
1.724325935672859
 30
0.0
 10
39.30120736099024
 20
2.242487435689193
 30
0.0
 10
38.51047222249706
 20
2.607658799292181
 30
0.0
 10
37.83459735318114
 20
2.807860792680718
 30
0.0
 10
37.42829596144357
 20
2.809080834708592
 30
0.0
 10
37.28097339519696
 20
2.809523214986214
 30
0.0
  0
SPLINE
  5
CB
330
1F
100
AcDbEntity
  8
0
  6
Continuous
 62
     1
370
    15
100
AcDbSpline
210
0.0
220
0.0
230
1.0
 70
     8
 71
     3
 72
    23
 73
    19
 74
     0
 42
0.000000001
 43
0.00000001
 40
0.0
 40
0.0
 40
0.0
 40
0.0
 40
0.0380779898963613
 40
0.1047464292273658
 40
0.1695265895937968
 40
0.2361840248246019
 40
0.3009637790006332
 40
0.3676202906319918
 40
0.4324087540037815
 40
0.4990737353394605
 40
0.563879515893259
 40
0.6305618374592332
 40
0.6953935234356218
 40
0.7621020324842609
 40
0.8269690071474314
 40
0.8937134050551025
 40
0.9586236411963789
 40
1.0
 40
1.0
 40
1.0
 40
1.0
 10
28.89099972119578
 20
-2.710054821297766
 30
0.0
 10
28.74458607598264
 20
-2.778674218338793
 30
0.0
 10
28.34182567376655
 20
-2.967435149137539
 30
0.0
 10
27.69254504007084
 20
-3.090657580161046
 30
0.0
 10
26.93582253147616
 20
-3.081483149867406
 30
0.0
 10
26.18864837784333
 20
-2.887699297454084
 30
0.0
 10
25.4367107984656
 20
-2.525405306512777
 30
0.0
 10
24.69404994340168
 20
-2.01863969254078
 30
0.0
 10
23.94666303542569
 20
-1.387561747648701
 30
0.0
 10
23.20837994500451
 20
-0.6780714432064077
 30
0.0
 10
22.46538091161337
 20
0.0826063413720739
 30
0.0
 10
21.73133174612782
 20
0.8391175998287826
 30
0.0
 10
20.99256509031592
 20
1.562892515527736
 30
0.0
 10
20.26260607830096
 20
2.200832303979992
 30
0.0
 10
19.5279009347823
 20
2.731417599833113
 30
0.0
 10
18.80194828360765
 20
3.106671392649643
 30
0.0
 10
18.16453796456186
 20
3.317355362231942
 30
0.0
 10
17.77442634111731
 20
3.323224094754076
 30
0.0
 10
17.62255960276265
 20
3.325508736412642
 30
0.0
  0
LINE
  5
CC
330
1F
100
AcDbEntity
  8
0
  6
Continuous
 62
     1
370
    15
100
AcDbLine
 10
54.3249081826537
 20
2.386085151814097
 30
0.0
 11
54.3249081826537
 21
2.370145076999228
 31
0.0
  0
SPLINE
  5
CD
330
1F
100
AcDbEntity
  8
0
  6
Continuous
 62
     1
370
    15
100
AcDbSpline
210
0.0
220
0.0
230
1.0
 70
     8
 71
     3
 72
    11
 73
     7
 74
     0
 42
0.000000001
 43
0.00000001
 40
0.0
 40
0.0
 40
0.0
 40
0.0
 40
0.1829996621859524
 40
0.5608949335608854
 40
0.8337023927962935
 40
1.0
 40
1.0
 40
1.0
 40
1.0
 10
52.73027576107674
 20
-1.841832139568599
 30
0.0
 10
52.78170877183456
 20
-1.779482286084646
 30
0.0
 10
52.9393512221388
 20
-1.588379655021442
 30
0.0
 10
53.23394020196178
 20
-1.331384385519889
 30
0.0
 10
53.54962621252415
 20
-1.129566373345687
 30
0.0
 10
53.70511129583708
 20
-1.085507758471836
 30
0.0
 10
53.76399651326464
 20
-1.068821906291519
 30
0.0
  0
SPLINE
  5
CE
330
1F
100
AcDbEntity
  8
0
  6
Continuous
 62
     1
370
    15
100
AcDbSpline
210
0.0
220
0.0
230
1.0
 70
     8
 71
     3
 72
     8
 73
     4
 74
     0
 42
0.000000001
 43
0.00000001
 40
0.0
 40
0.0
 40
0.0
 40
0.0
 40
1.0
 40
1.0
 40
1.0
 40
1.0
 10
52.73027576107675
 20
-1.841832139568596
 30
0.0
 10
52.91828990380805
 20
-2.025294732206572
 30
0.0
 10
53.10278564998306
 20
-2.20839515638062
 30
0.0
 10
53.28688993466758
 20
-2.391428782507233
 30
0.0
  0
SPLINE
  5
CF
330
1F
100
AcDbEntity
  8
0
  6
Continuous
 62
     1
370
    15
100
AcDbSpline
210
0.0
220
0.0
230
1.0
 70
     8
 71
     3
 72
    14
 73
    10
 74
     0
 42
0.000000001
 43
0.00000001
 40
0.0
 40
0.0
 40
0.0
 40
0.0
 40
0.0571876340718897
 40
0.233761391988872
 40
0.4111685385437683
 40
0.5675189136102265
 40
0.7170345759103451
 40
0.9278226078696415
 40
1.0
 40
1.0
 40
1.0
 40
1.0
 10
53.18727228907179
 20
1.175537368605635
 30
0.0
 10
53.21723109613915
 20
1.160161333770179
 30
0.0
 10
53.33969135448078
 20
1.097309926035998
 30
0.0
 10
53.58967161803941
 20
1.123640663091309
 30
0.0
 10
53.87758473200839
 20
1.246900968050846
 30
0.0
 10
54.10084236656018
 20
1.485858003131726
 30
0.0
 10
54.25995004572136
 20
1.812247083657544
 30
0.0
 10
54.31907647529938
 20
2.119937825364864
 30
0.0
 10
54.32372297656399
 20
2.319294247163253
 30
0.0
 10
54.3249081826537
 20
2.370145076999228
 30
0.0
  0
LINE
  5
D0
330
1F
100
AcDbEntity
  8
0
  6
Continuous
 62
     1
370
    15
100
AcDbLine
 10
54.3249081826537
 20
0.0048351518141037
 30
0.0
 11
54.3249081826537
 21
2.370145076999228
 31
0.0
  0
LINE
  5
D1
330
1F
100
AcDbEntity
  8
0
  6
Continuous
 62
     1
370
    15
100
AcDbLine
 10
54.3249081826537
 20
-1.416032720253687
 30
0.0
 11
54.3249081826537
 21
-2.057387840947586
 31
0.0
  0
LINE
  5
D2
330
1F
100
AcDbEntity
  8
0
  6
Continuous
 62
     4
370
    15
100
AcDbLine
 10
9.874908182653726
 20
3.550049365564452
 30
0.0
 11
9.874908182653726
 21
2.158081262520859
 31
0.0
  0
LINE
  5
D3
330
1F
100
AcDbEntity
  8
중심선
100
AcDbLine
 10
-37.57509181734629
 20
0.0048351518140911
 30
0.0
 11
57.32490428620234
 21
0.0048351518140911
 31
0.0
  0
CIRCLE
  5
D4
330
1F
100
AcDbEntity
  8
외형선
100
AcDbCircle
 10
-0.0000000000000013
 20
-0.0000000000000039
 30
0.0
 40
3.000000000000004
  0
INSERT
  5
D5
330
1F
100
AcDbEntity
  8
0
  6
Continuous
 62
     7
100
AcDbBlockReference
 66
     1
  2
블럭10
 10
-16.63945112874702
 20
-52.04717430164393
 30
0.0
  0
ATTRIB
  5
D6
330
D5
100
AcDbEntity
  8
FORMAT
 62
     2
100
AcDbText
 10
-25.8207464174883
 20
-49.97180738881174
 30
0.0
 40
4.233333333333333
  1
E5077152 [ 3 FLUTE ]
 41
0.75
  7
SLDTEXTSTYLE0
 11
-25.8207464174883
 21
-52.08847405547841
 31
0.0
100
AcDbAttribute
  2
AUTOATTR0
 70
     0
 74
     1
  0
SEQEND
  5
D7
330
D5
100
AcDbEntity
  8
0
  6
Continuous
 62
     7
  0
HATCH
  5
D8
330
1F
100
AcDbEntity
  8
중심선
100
AcDbHatch
 10
0.0
 20
0.0
 30
0.0
210
0.0
220
0.0
230
1.0
  2
SOLID
 70
     1
 71
     0
 91
        1
 92
        0
 93
        4
 72
     1
 10
-10.92454182436617
 20
-35.8
 11
-14.37081706820345
 21
-35.8
 72
     1
 10
-14.37081706820345
 20
-35.8
 11
-16.49904692740747
 21
-38.33632558057259
 72
     1
 10
-16.49904692740747
 20
-38.33632558057259
 11
-13.05273859845704
 21
-38.3362861512701
 72
     1
 10
-13.05273859845704
 20
-38.3362861512701
 11
-10.92454182436617
 21
-35.8
 97
        0
 75
     0
 76
     1
 98
        1
 10
0.0
 20
0.0
  0
HATCH
  5
D9
330
1F
100
AcDbEntity
  8
중심선
100
AcDbHatch
 10
0.0
 20
0.0
 30
0.0
210
0.0
220
0.0
230
1.0
  2
SOLID
 70
     1
 71
     0
 91
        1
 92
        0
 93
        4
 72
     1
 10
-5.911777833330217
 20
-35.8
 11
-9.358053077167499
 21
-35.8
 72
     1
 10
-9.358053077167499
 20
-35.8
 11
-13.88919108552489
 21
-41.20000000000002
 72
     1
 10
-13.88919108552489
 20
-41.20000000000002
 11
-10.44291584168761
 21
-41.20000000000002
 72
     1
 10
-10.44291584168761
 20
-41.20000000000002
 11
-5.911777833330217
 21
-35.8
 97
        0
 75
     0
 76
     1
 98
        1
 10
0.0
 20
0.0
  0
HATCH
  5
DA
330
1F
100
AcDbEntity
  8
중심선
100
AcDbHatch
 10
0.0
 20
0.0
 30
0.0
210
0.0
220
0.0
230
1.0
  2
SOLID
 70
     1
 71
     0
 91
        1
 92
        0
 93
        4
 72
     1
 10
-0.8990138422943217
 20
-35.80000000000003
 11
-4.345289086131437
 21
-35.8
 72
     1
 10
-4.345289086131437
 20
-35.8
 11
-11.39372598802069
 21
-44.20000000000002
 72
     1
 10
-11.39372598802069
 20
-44.20000000000002
 11
-7.947450744183405
 21
-44.20000000000002
 72
     1
 10
-7.947450744183405
 20
-44.20000000000002
 11
-0.8990138422943215
 21
-35.80000000000003
 97
        0
 75
     0
 76
     1
 98
        1
 10
0.0
 20
0.0
  0
HATCH
  5
DB
330
1F
100
AcDbEntity
  8
중심선
100
AcDbHatch
 10
0.0
 20
0.0
 30
0.0
210
0.0
220
0.0
230
1.0
  2
SOLID
 70
     1
 71
     0
 91
        1
 92
        0
 93
        6
 72
     3
 10
3.900876588717877
 20
-40.00000000005127
 11
3.960054785062284
 21
1.540850780301639E-10
 40
0.3939339440162633
 50
17.09539180608433
 51
320.0019657685079
 73
     0
 72
     1
 10
5.583876244418473
 20
-38.5878940046383
 11
7.889178118119511
 21
-36.65356729459038
 72
     3
 10
3.900876588665031
 20
-40.00000000000015
 11
6.600054785286829
 21
-1.249000902703301E-13
 40
0.6363583540795982
 50
39.99873849337408
 51
368.4976242363725
 73
     1
 72
     1
 10
10.32620908056564
 20
-39.03999999993002
 11
2.580943895500953
 21
-39.03999999992999
 72
     1
 10
2.580943895500953
 20
-39.03999999992999
 11
2.58091885105502
 21
-40.95999999992991
 72
     1
 10
2.58091885105502
 20
-40.95999999992991
 11
7.022298620527057
 21
-40.95999999992988
 97
        0
 75
     0
 76
     1
 98
        1
 10
0.0
 20
0.0
  0
POINT
  5
DC
330
1F
100
AcDbEntity
  8
치수문자_일반주서
100
AcDbPoint
 10
-0.0000000000000013
 20
-0.0000000000000039
 30
0.0
  0
DIMENSION
  5
DD
330
1F
100
AcDbEntity
  8
치수문자_일반주서
100
AcDbDimension
  2
_D
 10
9.874908182653726
 20
41.24336991912176
 30
0.0
 11
32.09990818265371
 21
41.24336991912176
 31
0.0
 70
   160
  1
<>
 71
     2
 42
44.44999999999997
  3
SLDDIMSTYLE0
100
AcDbAlignedDimension
 13
54.3249081826537
 23
2.370145076999228
 33
0.0
 14
9.874908182653726
 24
3.550049365564452
 34
0.0
100
AcDbRotatedDimension
1001
ACAD
1000
DSTYLE
1002
{
1070
   171
1070
     6
1070
   273
1070
     7
1002
}
  0
DIMENSION
  5
F3
330
1F
100
AcDbEntity
  8
치수문자_일반주서
100
AcDbDimension
  2
_D_1
 10
-34.5750918173463
 20
53.78828876542353
 30
0.0
 11
13.25916706431774
 21
53.78828876542353
 31
0.0
 70
   160
  1
<>
 71
     2
 42
88.9
  3
SLDDIMSTYLE1
100
AcDbAlignedDimension
 13
54.3249081826537
 23
2.370145076999228
 33
0.0
 14
-34.5750918173463
 24
3.957335151814108
 34
0.0
 50
0.0000000000000046
100
AcDbRotatedDimension
1001
ACAD
1000
DSTYLE
1002
{
1070
   171
1070
     6
1070
   273
1070
     7
1002
}
  0
DIMENSION
  5
107
330
1F
100
AcDbEntity
  8
치수문자_일반주서
100
AcDbDimension
  2
_D_2
 10
-50.22561920202532
 20
-4.757664848185964
 30
0.0
 11
-50.22561920202543
 21
24.49633515181403
 31
0.0
 70
   160
  1
%%c<>
 71
     2
 42
9.524999999999995
  3
SLDDIMSTYLE0
100
AcDbAlignedDimension
 13
-33.76509181734631
 23
4.767335151814089
 33
0.0
 14
-33.76509181734631
 24
-4.757664848185907
 34
0.0
 50
90.0000000000002
100
AcDbRotatedDimension
1001
ACAD
1000
DSTYLE
1002
{
1070
   171
1070
     6
1070
   273
1070
     7
1002
}
1001
ACAD_DSTYLE_DIMFLIPARROW_SYMBOL
1070
   385
1070
     0
1001
ACAD_DSTYLE_DIMFLIPARROW_WHICH_SYMBOL
1070
   386
1070
     3
  0
INSERT
  5
121
330
1F
100
AcDbEntity
  8
외형선
100
AcDbBlockReference
  2
SW_DOWELSYMBOL_0
 10
-0.0000000000000013
 20
-0.0000000000000039
 30
0.0
  0
DIMENSION
  5
149
102
{ACAD_REACTORS
102
}
102
{ACAD_XDICTIONARY
360
14A
102
}
330
1F
100
AcDbEntity
  8
치수문자_일반주서
100
AcDbDimension
  2
*D6
 10
70.4444204829959
 20
-2.37641484818591
 30
0.0
 11
70.4444204829959
 21
22.9900851518141
 31
0.0
 70
   160
  1
{%%c<>[]}
 71
     5
 42
4.762500000000006
  3
SLDDIMSTYLE0
100
AcDbAlignedDimension
 13
54.3249081826537
 23
2.386085151814097
 33
0.0
 14
54.32490818265369
 24
-2.376414848185909
 34
0.0
 50
90.0
100
AcDbRotatedDimension
1001
ACAD
1000
DSTYLE
1002
{
1070
   283
1070
     1
1070
   170
1070
     1
1070
   171
1070
     6
1070
   273
1070
     7
1002
}
  0
ENDSEC
  0
SECTION
  2
OBJECTS
  0
DICTIONARY
  5
C
330
0
100
AcDbDictionary
281
     1
  3
ACAD_GROUP
350
D
  3
ACAD_IMAGE_VARS
350
145
  3
ACAD_LAYOUT
350
1A
  3
ACAD_MLINESTYLE
350
17
  3
ACAD_PLOTSETTINGS
350
19
  3
ACAD_PLOTSTYLENAME
350
E
  3
ACAD_SCALELIST
350
47
  3
APPDATA
350
143
  3
DWGPROPS
350
160
  0
DICTIONARY
  5
14A
330
149
100
AcDbDictionary
280
     1
281
     1
  0
DICTIONARY
  5
D
102
{ACAD_REACTORS
330
C
102
}
330
C
100
AcDbDictionary
281
     1
  0
RASTERVARIABLES
  5
145
102
{ACAD_REACTORS
330
C
102
}
330
C
100
AcDbRasterVariables
 90
        0
 70
     1
 71
     1
 72
     1
  0
DICTIONARY
  5
1A
102
{ACAD_REACTORS
330
C
102
}
330
C
100
AcDbDictionary
281
     1
  3
Layout1
350
1E
  3
Layout2
350
26
  3
Model
350
22
  0
DICTIONARY
  5
17
102
{ACAD_REACTORS
330
C
102
}
330
C
100
AcDbDictionary
281
     1
  3
Standard
350
18
  0
DICTIONARY
  5
19
102
{ACAD_REACTORS
330
C
102
}
330
C
100
AcDbDictionary
281
     1
  0
ACDBDICTIONARYWDFLT
  5
E
102
{ACAD_REACTORS
330
C
102
}
330
C
100
AcDbDictionary
281
     1
  3
Normal
350
F
100
AcDbDictionaryWithDefault
340
F
  0
DICTIONARY
  5
47
102
{ACAD_REACTORS
330
C
102
}
330
C
100
AcDbDictionary
281
     1
  3
A0
350
48
  3
A1
350
49
  3
A2
350
4A
  3
A3
350
4B
  3
A4
350
4C
  3
A5
350
4D
  3
A6
350
4E
  3
A7
350
4F
  3
A8
350
50
  3
A9
350
51
  3
B0
350
52
  3
B1
350
53
  3
B2
350
54
  3
B3
350
55
  3
B4
350
56
  3
B5
350
57
  3
B6
350
58
  3
B7
350
59
  3
B8
350
5A
  3
B9
350
5B
  3
C0
350
5C
  3
C1
350
5D
  3
C2
350
5E
  3
C3
350
5F
  3
C4
350
60
  3
C5
350
61
  3
C6
350
62
  3
C7
350
63
  3
C8
350
64
  3
C9
350
65
  3
D0
350
66
  3
D1
350
67
  3
D2
350
68
  0
DICTIONARY
  5
143
102
{ACAD_REACTORS
330
C
102
}
330
C
100
AcDbDictionary
281
     1
  0
XRECORD
  5
160
102
{ACAD_REACTORS
330
C
102
}
330
C
100
AcDbXrecord
280
     1
  1
DWGPROPS COOKIE
  2

  3

  4

  6

  7

  8
12015048
  9

300
=
301
=
302
=
303
=
304
=
305
=
306
=
307
=
308
=
309
=
 40
0.0
 41
2458333.3481289
 42
2458340.063977859
  1

 90
        0
  0
LAYOUT
  5
1E
102
{ACAD_REACTORS
330
1A
102
}
330
1A
100
AcDbPlotSettings
  1

  2
none_device
  4

  6

 40
0.0
 41
0.0
 42
0.0
 43
0.0
 44
0.0
 45
0.0
 46
0.0
 47
0.0
 48
0.0
 49
0.0
140
0.0
141
0.0
142
1.0
143
1.0
 70
   688
 72
     1
 73
     0
 74
     5
  7

 75
    16
147
1.0
148
0.0
149
0.0
100
AcDbLayout
  1
Layout1
 70
     1
 71
     1
 10
0.0
 20
0.0
 11
420.0
 21
297.0
 12
0.0
 22
0.0
 32
0.0
 14
1.000000000000000E+20
 24
1.000000000000000E+20
 34
1.000000000000000E+20
 15
-1.000000000000000E+20
 25
-1.000000000000000E+20
 35
-1.000000000000000E+20
146
0.0
 13
0.0
 23
0.0
 33
0.0
 16
1.0
 26
0.0
 36
0.0
 17
0.0
 27
1.0
 37
0.0
 76
     0
330
1B
  0
LAYOUT
  5
26
102
{ACAD_REACTORS
330
1A
102
}
330
1A
100
AcDbPlotSettings
  1

  2
none_device
  4

  6

 40
0.0
 41
0.0
 42
0.0
 43
0.0
 44
0.0
 45
0.0
 46
0.0
 47
0.0
 48
0.0
 49
0.0
140
0.0
141
0.0
142
1.0
143
1.0
 70
   688
 72
     1
 73
     0
 74
     5
  7

 75
    16
147
1.0
148
0.0
149
0.0
100
AcDbLayout
  1
Layout2
 70
     1
 71
     2
 10
0.0
 20
0.0
 11
0.0
 21
0.0
 12
0.0
 22
0.0
 32
0.0
 14
0.0
 24
0.0
 34
0.0
 15
0.0
 25
0.0
 35
0.0
146
0.0
 13
0.0
 23
0.0
 33
0.0
 16
1.0
 26
0.0
 36
0.0
 17
0.0
 27
1.0
 37
0.0
 76
     0
330
23
  0
LAYOUT
  5
22
102
{ACAD_REACTORS
330
1A
102
}
330
1A
100
AcDbPlotSettings
  1

  2
none_device
  4
ANSI_A_(11.00_x_8.50_Inches)
  6

 40
6.35
 41
19.05
 42
6.35000508
 43
19.05000254
 44
279.4
 45
215.9
 46
130.6698205506549
 47
103.9197146583791
 48
0.0
 49
0.0
140
0.0
141
0.0
142
0.0914796403028641
143
1.0
 70
  1696
 72
     0
 73
     0
 74
     0
  7

 75
     0
147
0.0235690232323232
148
0.0
149
0.0
100
AcDbLayout
  1
Model
 70
     1
 71
     0
 10
0.0
 20
0.0
 11
420.0
 21
297.0
 12
0.0
 22
0.0
 32
0.0
 14
-54.60061920202548
 24
-49.97180738881174
 34
0.0
 15
70.99475381632922
 25
58.16328876542352
 35
0.0
146
0.0
 13
0.0
 23
0.0
 33
0.0
 16
1.0
 26
0.0
 36
0.0
 17
0.0
 27
1.0
 37
0.0
 76
     0
330
1F
331
29
  0
MLINESTYLE
  5
18
102
{ACAD_REACTORS
330
17
102
}
330
17
100
AcDbMlineStyle
  2
Standard
 70
     0
  3

 62
   256
 51
90.0
 52
90.0
 71
     2
 49
0.5
 62
   256
  6
BYLAYER
 49
-0.5
 62
   256
  6
BYLAYER
  0
ACDBPLACEHOLDER
  5
F
102
{ACAD_REACTORS
330
E
102
}
330
E
  0
SCALE
  5
48
102
{ACAD_REACTORS
330
47
102
}
330
47
100
AcDbScale
 70
     0
300
1:1
140
1.0
141
1.0
290
     1
  0
SCALE
  5
49
102
{ACAD_REACTORS
330
47
102
}
330
47
100
AcDbScale
 70
     0
300
1:2
140
1.0
141
2.0
290
     0
  0
SCALE
  5
4A
102
{ACAD_REACTORS
330
47
102
}
330
47
100
AcDbScale
 70
     0
300
1:4
140
1.0
141
4.0
290
     0
  0
SCALE
  5
4B
102
{ACAD_REACTORS
330
47
102
}
330
47
100
AcDbScale
 70
     0
300
1:5
140
1.0
141
5.0
290
     0
  0
SCALE
  5
4C
102
{ACAD_REACTORS
330
47
102
}
330
47
100
AcDbScale
 70
     0
300
1:8
140
1.0
141
8.0
290
     0
  0
SCALE
  5
4D
102
{ACAD_REACTORS
330
47
102
}
330
47
100
AcDbScale
 70
     0
300
1:10
140
1.0
141
10.0
290
     0
  0
SCALE
  5
4E
102
{ACAD_REACTORS
330
47
102
}
330
47
100
AcDbScale
 70
     0
300
1:16
140
1.0
141
16.0
290
     0
  0
SCALE
  5
4F
102
{ACAD_REACTORS
330
47
102
}
330
47
100
AcDbScale
 70
     0
300
1:20
140
1.0
141
20.0
290
     0
  0
SCALE
  5
50
102
{ACAD_REACTORS
330
47
102
}
330
47
100
AcDbScale
 70
     0
300
1:30
140
1.0
141
30.0
290
     0
  0
SCALE
  5
51
102
{ACAD_REACTORS
330
47
102
}
330
47
100
AcDbScale
 70
     0
300
1:40
140
1.0
141
40.0
290
     0
  0
SCALE
  5
52
102
{ACAD_REACTORS
330
47
102
}
330
47
100
AcDbScale
 70
     0
300
1:50
140
1.0
141
50.0
290
     0
  0
SCALE
  5
53
102
{ACAD_REACTORS
330
47
102
}
330
47
100
AcDbScale
 70
     0
300
1:100
140
1.0
141
100.0
290
     0
  0
SCALE
  5
54
102
{ACAD_REACTORS
330
47
102
}
330
47
100
AcDbScale
 70
     0
300
2:1
140
2.0
141
1.0
290
     0
  0
SCALE
  5
55
102
{ACAD_REACTORS
330
47
102
}
330
47
100
AcDbScale
 70
     0
300
4:1
140
4.0
141
1.0
290
     0
  0
SCALE
  5
56
102
{ACAD_REACTORS
330
47
102
}
330
47
100
AcDbScale
 70
     0
300
8:1
140
8.0
141
1.0
290
     0
  0
SCALE
  5
57
102
{ACAD_REACTORS
330
47
102
}
330
47
100
AcDbScale
 70
     0
300
10:1
140
10.0
141
1.0
290
     0
  0
SCALE
  5
58
102
{ACAD_REACTORS
330
47
102
}
330
47
100
AcDbScale
 70
     0
300
100:1
140
100.0
141
1.0
290
     0
  0
SCALE
  5
59
102
{ACAD_REACTORS
330
47
102
}
330
47
100
AcDbScale
 70
     0
300
1/128" = 1'-0"
140
0.0078125
141
12.0
290
     0
  0
SCALE
  5
5A
102
{ACAD_REACTORS
330
47
102
}
330
47
100
AcDbScale
 70
     0
300
1/64" = 1'-0"
140
0.015625
141
12.0
290
     0
  0
SCALE
  5
5B
102
{ACAD_REACTORS
330
47
102
}
330
47
100
AcDbScale
 70
     0
300
1/32" = 1'-0"
140
0.03125
141
12.0
290
     0
  0
SCALE
  5
5C
102
{ACAD_REACTORS
330
47
102
}
330
47
100
AcDbScale
 70
     0
300
1/16" = 1'-0"
140
0.0625
141
12.0
290
     0
  0
SCALE
  5
5D
102
{ACAD_REACTORS
330
47
102
}
330
47
100
AcDbScale
 70
     0
300
3/32" = 1'-0"
140
0.09375
141
12.0
290
     0
  0
SCALE
  5
5E
102
{ACAD_REACTORS
330
47
102
}
330
47
100
AcDbScale
 70
     0
300
1/8" = 1'-0"
140
0.125
141
12.0
290
     0
  0
SCALE
  5
5F
102
{ACAD_REACTORS
330
47
102
}
330
47
100
AcDbScale
 70
     0
300
3/16" = 1'-0"
140
0.1875
141
12.0
290
     0
  0
SCALE
  5
60
102
{ACAD_REACTORS
330
47
102
}
330
47
100
AcDbScale
 70
     0
300
1/4" = 1'-0"
140
0.25
141
12.0
290
     0
  0
SCALE
  5
61
102
{ACAD_REACTORS
330
47
102
}
330
47
100
AcDbScale
 70
     0
300
3/8" = 1'-0"
140
0.375
141
12.0
290
     0
  0
SCALE
  5
62
102
{ACAD_REACTORS
330
47
102
}
330
47
100
AcDbScale
 70
     0
300
1/2" = 1'-0"
140
0.5
141
12.0
290
     0
  0
SCALE
  5
63
102
{ACAD_REACTORS
330
47
102
}
330
47
100
AcDbScale
 70
     0
300
3/4" = 1'-0"
140
0.75
141
12.0
290
     0
  0
SCALE
  5
64
102
{ACAD_REACTORS
330
47
102
}
330
47
100
AcDbScale
 70
     0
300
1" = 1'-0"
140
1.0
141
12.0
290
     0
  0
SCALE
  5
65
102
{ACAD_REACTORS
330
47
102
}
330
47
100
AcDbScale
 70
     0
300
1-1/2" = 1'-0"
140
1.5
141
12.0
290
     0
  0
SCALE
  5
66
102
{ACAD_REACTORS
330
47
102
}
330
47
100
AcDbScale
 70
     0
300
3" = 1'-0"
140
3.0
141
12.0
290
     0
  0
SCALE
  5
67
102
{ACAD_REACTORS
330
47
102
}
330
47
100
AcDbScale
 70
     0
300
6" = 1'-0"
140
6.0
141
12.0
290
     0
  0
SCALE
  5
68
102
{ACAD_REACTORS
330
47
102
}
330
47
100
AcDbScale
 70
     0
300
1'-0" = 1'-0"
140
12.0
141
12.0
290
     0
  0
ENDSEC
  0
EOF
