  0
SECTION
  2
HEADER
  9
$ACADVER
  1
AC1015
  9
$ACADMAINTVER
 70
     6
  9
$DWGCODEPAGE
  3
ANSI_949
  9
$INSBASE
 10
0.0
 20
0.0
 30
0.0
  9
$EXTMIN
 10
-49.90922109744317
 20
-49.97180738881174
 30
0.0
  9
$EXTMAX
 10
58.32770084464776
 20
57.03909214920037
 30
0.0
  9
$LIMMIN
 10
0.0
 20
0.0
  9
$LIMMAX
 10
420.0
 20
297.0
  9
$ORTHOMODE
 70
     0
  9
$REGENMODE
 70
     1
  9
$FILLMODE
 70
     1
  9
$QTEXTMODE
 70
     0
  9
$MIRRTEXT
 70
     1
  9
$LTSCALE
 40
1.0
  9
$ATTMODE
 70
     1
  9
$TEXTSIZE
 40
3.5
  9
$TRACEWID
 40
1.0
  9
$TEXTSTYLE
  7
Standard
  9
$CLAYER
  8
0
  9
$CELTYPE
  6
ByLayer
  9
$CECOLOR
 62
   256
  9
$CELTSCALE
 40
1.0
  9
$DISPSILH
 70
     0
  9
$DIMSCALE
 40
1.0
  9
$DIMASZ
 40
3.302
  9
$DIMEXO
 40
1.0
  9
$DIMDLI
 40
3.75
  9
$DIMRND
 40
0.0
  9
$DIMDLE
 40
0.0
  9
$DIMEXE
 40
1.0
  9
$DIMTP
 40
0.0
  9
$DIMTM
 40
0.0
  9
$DIMTXT
 40
3.5
  9
$DIMCEN
 40
2.5
  9
$DIMTSZ
 40
0.0
  9
$DIMTOL
 70
     0
  9
$DIMLIM
 70
     0
  9
$DIMTIH
 70
     1
  9
$DIMTOH
 70
     1
  9
$DIMSE1
 70
     0
  9
$DIMSE2
 70
     0
  9
$DIMTAD
 70
     1
  9
$DIMZIN
 70
     0
  9
$DIMBLK
  1

  9
$DIMASO
 70
     1
  9
$DIMSHO
 70
     1
  9
$DIMPOST
  1

  9
$DIMAPOST
  1

  9
$DIMALT
 70
     0
  9
$DIMALTD
 70
     3
  9
$DIMALTF
 40
0.0393700787401575
  9
$DIMLFAC
 40
1.0
  9
$DIMTOFL
 70
     1
  9
$DIMTVP
 40
0.0
  9
$DIMTIX
 70
     0
  9
$DIMSOXD
 70
     0
  9
$DIMSAH
 70
     0
  9
$DIMBLK1
  1

  9
$DIMBLK2
  1

  9
$DIMSTYLE
  2
ISO-25
  9
$DIMCLRD
 70
     0
  9
$DIMCLRE
 70
     0
  9
$DIMCLRT
 70
     0
  9
$DIMTFAC
 40
1.0
  9
$DIMGAP
 40
1.524
  9
$DIMJUST
 70
     0
  9
$DIMSD1
 70
     0
  9
$DIMSD2
 70
     0
  9
$DIMTOLJ
 70
     0
  9
$DIMTZIN
 70
     0
  9
$DIMALTZ
 70
     0
  9
$DIMALTTZ
 70
     0
  9
$DIMUPT
 70
     0
  9
$DIMDEC
 70
     2
  9
$DIMTDEC
 70
     2
  9
$DIMALTU
 70
     2
  9
$DIMALTTD
 70
     3
  9
$DIMTXSTY
  7
Standard
  9
$DIMAUNIT
 70
     0
  9
$DIMADEC
 70
     2
  9
$DIMALTRND
 40
0.0
  9
$DIMAZIN
 70
     0
  9
$DIMDSEP
 70
    44
  9
$DIMATFIT
 70
     3
  9
$DIMFRAC
 70
     0
  9
$DIMLDRBLK
  1

  9
$DIMLUNIT
 70
     2
  9
$DIMLWD
 70
    -2
  9
$DIMLWE
 70
    -2
  9
$DIMTMOVE
 70
     0
  9
$LUNITS
 70
     2
  9
$LUPREC
 70
     2
  9
$SKETCHINC
 40
1.0
  9
$FILLETRAD
 40
10.0
  9
$AUNITS
 70
     0
  9
$AUPREC
 70
     2
  9
$MENU
  1
.
  9
$ELEVATION
 40
0.0
  9
$PELEVATION
 40
0.0
  9
$THICKNESS
 40
0.0
  9
$LIMCHECK
 70
     0
  9
$CHAMFERA
 40
0.0
  9
$CHAMFERB
 40
0.0
  9
$CHAMFERC
 40
0.0
  9
$CHAMFERD
 40
0.0
  9
$SKPOLY
 70
     0
  9
$TDCREATE
 40
2458333.723408437
  9
$TDUCREATE
 40
2458333.348408437
  9
$TDUPDATE
 40
2458340.443087836
  9
$TDUUPDATE
 40
2458340.068087836
  9
$TDINDWG
 40
0.0025990509
  9
$TDUSRTIMER
 40
2458340.065488889
  9
$USRTIMER
 70
     1
  9
$ANGBASE
 50
0.0
  9
$ANGDIR
 70
     0
  9
$PDMODE
 70
     0
  9
$PDSIZE
 40
-1.0
  9
$PLINEWID
 40
0.0
  9
$SPLFRAME
 70
     0
  9
$SPLINETYPE
 70
     6
  9
$SPLINESEGS
 70
     8
  9
$HANDSEED
  5
17A
  9
$SURFTAB1
 70
     6
  9
$SURFTAB2
 70
     6
  9
$SURFTYPE
 70
     6
  9
$SURFU
 70
     6
  9
$SURFV
 70
     6
  9
$UCSBASE
  2

  9
$UCSNAME
  2

  9
$UCSORG
 10
0.0
 20
0.0
 30
0.0
  9
$UCSXDIR
 10
1.0
 20
0.0
 30
0.0
  9
$UCSYDIR
 10
0.0
 20
1.0
 30
0.0
  9
$UCSORTHOREF
  2

  9
$UCSORTHOVIEW
 70
     0
  9
$UCSORGTOP
 10
0.0
 20
0.0
 30
0.0
  9
$UCSORGBOTTOM
 10
0.0
 20
0.0
 30
0.0
  9
$UCSORGLEFT
 10
0.0
 20
0.0
 30
0.0
  9
$UCSORGRIGHT
 10
0.0
 20
0.0
 30
0.0
  9
$UCSORGFRONT
 10
0.0
 20
0.0
 30
0.0
  9
$UCSORGBACK
 10
0.0
 20
0.0
 30
0.0
  9
$PUCSBASE
  2

  9
$PUCSNAME
  2

  9
$PUCSORG
 10
0.0
 20
0.0
 30
0.0
  9
$PUCSXDIR
 10
1.0
 20
0.0
 30
0.0
  9
$PUCSYDIR
 10
0.0
 20
1.0
 30
0.0
  9
$PUCSORTHOREF
  2

  9
$PUCSORTHOVIEW
 70
     0
  9
$PUCSORGTOP
 10
0.0
 20
0.0
 30
0.0
  9
$PUCSORGBOTTOM
 10
0.0
 20
0.0
 30
0.0
  9
$PUCSORGLEFT
 10
0.0
 20
0.0
 30
0.0
  9
$PUCSORGRIGHT
 10
0.0
 20
0.0
 30
0.0
  9
$PUCSORGFRONT
 10
0.0
 20
0.0
 30
0.0
  9
$PUCSORGBACK
 10
0.0
 20
0.0
 30
0.0
  9
$USERI1
 70
     0
  9
$USERI2
 70
     0
  9
$USERI3
 70
     0
  9
$USERI4
 70
     0
  9
$USERI5
 70
     0
  9
$USERR1
 40
0.0
  9
$USERR2
 40
0.0
  9
$USERR3
 40
0.0
  9
$USERR4
 40
0.0
  9
$USERR5
 40
0.0
  9
$WORLDVIEW
 70
     1
  9
$SHADEDGE
 70
     3
  9
$SHADEDIF
 70
    70
  9
$TILEMODE
 70
     1
  9
$MAXACTVP
 70
    64
  9
$PINSBASE
 10
0.0
 20
0.0
 30
0.0
  9
$PLIMCHECK
 70
     0
  9
$PEXTMIN
 10
1.000000000000000E+20
 20
1.000000000000000E+20
 30
1.000000000000000E+20
  9
$PEXTMAX
 10
-1.000000000000000E+20
 20
-1.000000000000000E+20
 30
-1.000000000000000E+20
  9
$PLIMMIN
 10
0.0
 20
0.0
  9
$PLIMMAX
 10
0.0
 20
0.0
  9
$UNITMODE
 70
     0
  9
$VISRETAIN
 70
     1
  9
$PLINEGEN
 70
     0
  9
$PSLTSCALE
 70
     1
  9
$TREEDEPTH
 70
  3020
  9
$CMLSTYLE
  2
Standard
  9
$CMLJUST
 70
     0
  9
$CMLSCALE
 40
20.0
  9
$PROXYGRAPHICS
 70
     1
  9
$MEASUREMENT
 70
     1
  9
$CELWEIGHT
370
    -1
  9
$ENDCAPS
280
     0
  9
$JOINSTYLE
280
     0
  9
$LWDISPLAY
290
     1
  9
$INSUNITS
 70
     4
  9
$HYPERLINKBASE
  1

  9
$STYLESHEET
  1

  9
$XEDIT
290
     1
  9
$CEPSNTYPE
380
     0
  9
$PSTYLEMODE
290
     1
  9
$FINGERPRINTGUID
  2
{58D134C2-63C9-45F8-A932-0829D29BD7A9}
  9
$VERSIONGUID
  2
{FAEB1C32-E019-11D5-929B-00C0DF256EC4}
  9
$EXTNAMES
290
     1
  9
$PSVPSCALE
 40
0.0
  9
$OLESTARTUP
290
     0
  0
ENDSEC
  0
SECTION
  2
CLASSES
  0
CLASS
  1
ACDBDICTIONARYWDFLT
  2
AcDbDictionaryWithDefault
  3
ObjectDBX Classes
 90
        0
280
     0
281
     0
  0
CLASS
  1
VISUALSTYLE
  2
AcDbVisualStyle
  3
ObjectDBX Classes
 90
     4095
280
     0
281
     0
  0
CLASS
  1
MATERIAL
  2
AcDbMaterial
  3
ObjectDBX Classes
 90
     1153
280
     0
281
     0
  0
CLASS
  1
SCALE
  2
AcDbScale
  3
ObjectDBX Classes
 90
     1153
280
     0
281
     0
  0
CLASS
  1
SUN
  2
AcDbSun
  3
SCENEOE
 90
     1153
280
     0
281
     0
  0
CLASS
  1
ACDBPLACEHOLDER
  2
AcDbPlaceHolder
  3
ObjectDBX Classes
 90
        0
280
     0
281
     0
  0
CLASS
  1
LAYOUT
  2
AcDbLayout
  3
ObjectDBX Classes
 90
        0
280
     0
281
     0
  0
CLASS
  1
TABLESTYLE
  2
AcDbTableStyle
  3
ObjectDBX Classes
 90
     4095
280
     0
281
     0
  0
CLASS
  1
MLEADERSTYLE
  2
AcDbMLeaderStyle
  3
ACDB_MLEADERSTYLE_CLASS
 90
     4095
280
     0
281
     0
  0
CLASS
  1
RASTERVARIABLES
  2
AcDbRasterVariables
  3
ISM
 90
        0
280
     0
281
     0
  0
CLASS
  1
DIMASSOC
  2
AcDbDimAssoc
  3
"AcDbDimAssoc|Product Desc:     AcDim ARX App For Dimension|Company:          Autodesk, Inc.|WEB Address:      www.autodesk.com"
 90
        0
280
     0
281
     0
  0
ENDSEC
  0
SECTION
  2
TABLES
  0
TABLE
  2
VPORT
  5
8
330
0
100
AcDbSymbolTable
 70
     1
  0
VPORT
  5
29
330
8
100
AcDbSymbolTableRecord
100
AcDbViewportTableRecord
  2
*Active
 70
     0
 10
0.0
 20
0.0
 11
1.0
 21
1.0
 12
23.47656078692697
 22
3.705501379862127
 13
0.0
 23
0.0
 14
10.0
 24
10.0
 15
10.0
 25
10.0
 16
0.0
 26
0.0
 36
1.0
 17
0.0
 27
0.0
 37
0.0
 40
141.9835933836544
 41
2.213513513513513
 42
50.0
 43
0.0
 44
0.0
 50
0.0
 51
0.0
 71
    16
 72
  2000
 73
     1
 74
     3
 75
     0
 76
     0
 77
     0
 78
     0
281
     0
 65
     1
110
0.0
120
0.0
130
0.0
111
1.0
121
0.0
131
0.0
112
0.0
122
1.0
132
0.0
 79
     0
146
0.0
  0
ENDTAB
  0
TABLE
  2
LTYPE
  5
5
330
0
100
AcDbSymbolTable
 70
     6
  0
LTYPE
  5
14
330
5
100
AcDbSymbolTableRecord
100
AcDbLinetypeTableRecord
  2
ByBlock
 70
     0
  3

 72
    65
 73
     0
 40
0.0
  0
LTYPE
  5
15
330
5
100
AcDbSymbolTableRecord
100
AcDbLinetypeTableRecord
  2
ByLayer
 70
     0
  3

 72
    65
 73
     0
 40
0.0
  0
LTYPE
  5
16
330
5
100
AcDbSymbolTableRecord
100
AcDbLinetypeTableRecord
  2
Continuous
 70
     0
  3
Solid line
 72
    65
 73
     0
 40
0.0
  0
LTYPE
  5
6A
330
5
100
AcDbSymbolTableRecord
100
AcDbLinetypeTableRecord
  2
HIDDEN
 70
     0
  3
Hidden __ __ __ __ __ __ __ __ __ __ __ __ __ __
 72
    65
 73
     2
 40
1.905
 49
1.27
 74
     0
 49
-0.635
 74
     0
  0
LTYPE
  5
6B
330
5
100
AcDbSymbolTableRecord
100
AcDbLinetypeTableRecord
  2
PHANTOM
 70
     0
  3
Phantom ______  __  __  ______  __  __  ______
 72
    65
 73
     6
 40
12.7
 49
6.35
 74
     0
 49
-1.27
 74
     0
 49
1.27
 74
     0
 49
-1.27
 74
     0
 49
1.27
 74
     0
 49
-1.27
 74
     0
  0
LTYPE
  5
6C
330
5
100
AcDbSymbolTableRecord
100
AcDbLinetypeTableRecord
  2
CENTER
 70
     0
  3
Center ____ _ ____ _ ____ _ ____ _ ____ _ ____
 72
    65
 73
     4
 40
10.16
 49
6.35
 74
     0
 49
-1.27
 74
     0
 49
1.27
 74
     0
 49
-1.27
 74
     0
  0
LTYPE
  5
6D
330
5
100
AcDbSymbolTableRecord
100
AcDbLinetypeTableRecord
  2
CENTERX2
 70
     0
  3
Center (2x) ________  __  ________  __  _____
 72
    65
 73
     4
 40
20.32
 49
12.7
 74
     0
 49
-2.54
 74
     0
 49
2.54
 74
     0
 49
-2.54
 74
     0
  0
LTYPE
  5
6E
330
5
100
AcDbSymbolTableRecord
100
AcDbLinetypeTableRecord
  2
DOT2
 70
     0
  3
Dot (.5x) ........................................
 72
    65
 73
     2
 40
0.635
 49
0.0
 74
     0
 49
-0.635
 74
     0
  0
ENDTAB
  0
TABLE
  2
LAYER
  5
2
330
0
100
AcDbSymbolTable
 70
    17
  0
LAYER
  5
10
330
2
100
AcDbSymbolTableRecord
100
AcDbLayerTableRecord
  2
0
 70
     0
 62
     7
  6
Continuous
370
    -3
390
F
  0
LAYER
  5
6F
330
2
100
AcDbSymbolTableRecord
100
AcDbLayerTableRecord
  2
FORMAT
 70
     0
 62
     2
  6
Continuous
370
    -3
390
F
  0
LAYER
  5
70
330
2
100
AcDbSymbolTableRecord
100
AcDbLayerTableRecord
  2
외형선
 70
     0
 62
   100
  6
Continuous
370
    30
390
F
  0
LAYER
  5
71
330
2
100
AcDbSymbolTableRecord
100
AcDbLayerTableRecord
  2
숨은선
 70
     0
 62
     2
  6
HIDDEN
370
    15
390
F
  0
LAYER
  5
72
330
2
100
AcDbSymbolTableRecord
100
AcDbLayerTableRecord
  2
중심선
 70
     0
 62
     1
  6
CENTERX2
370
    -3
390
F
  0
LAYER
  5
73
330
2
100
AcDbSymbolTableRecord
100
AcDbLayerTableRecord
  2
파단선
 70
     0
 62
     4
  6
Continuous
370
    -3
390
F
  0
LAYER
  5
74
330
2
100
AcDbSymbolTableRecord
100
AcDbLayerTableRecord
  2
해칭선
 70
     0
 62
     4
  6
Continuous
370
    -3
390
F
  0
LAYER
  5
75
330
2
100
AcDbSymbolTableRecord
100
AcDbLayerTableRecord
  2
가는실선
 70
     0
 62
     4
  6
Continuous
370
    -3
390
F
  0
LAYER
  5
76
330
2
100
AcDbSymbolTableRecord
100
AcDbLayerTableRecord
  2
치수_보조선
 70
     0
 62
     4
  6
Continuous
370
    -3
390
F
  0
LAYER
  5
77
330
2
100
AcDbSymbolTableRecord
100
AcDbLayerTableRecord
  2
치수문자_일반주서
 70
     0
 62
     7
  6
Continuous
370
    15
390
F
  0
LAYER
  5
78
330
2
100
AcDbSymbolTableRecord
100
AcDbLayerTableRecord
  2
개별주서
 70
     0
 62
   100
  6
Continuous
370
    30
390
F
  0
LAYER
  5
79
330
2
100
AcDbSymbolTableRecord
100
AcDbLayerTableRecord
  2
중간선
 70
     0
 62
     2
  6
Continuous
370
    15
390
F
  0
LAYER
  5
7A
330
2
100
AcDbSymbolTableRecord
100
AcDbLayerTableRecord
  2
윤곽선
 70
     0
 62
     3
  6
Continuous
370
    40
390
F
  0
LAYER
  5
7B
330
2
100
AcDbSymbolTableRecord
100
AcDbLayerTableRecord
  2
중심마크
 70
     0
 62
   100
  6
Continuous
370
    30
390
F
  0
LAYER
  5
7C
330
2
100
AcDbSymbolTableRecord
100
AcDbLayerTableRecord
  2
가상선
 70
     0
 62
     4
  6
PHANTOM
370
    -3
390
F
  0
LAYER
  5
7D
330
2
100
AcDbSymbolTableRecord
100
AcDbLayerTableRecord
  2
특수지정선
 70
     0
 62
     5
  6
CENTERX2
370
    60
390
F
  0
LAYER
  5
14B
330
2
100
AcDbSymbolTableRecord
100
AcDbLayerTableRecord
  2
Defpoints
 70
     0
 62
     7
  6
Continuous
290
     0
370
    -3
390
F
  0
ENDTAB
  0
TABLE
  2
STYLE
  5
3
330
0
100
AcDbSymbolTable
 70
     2
  0
STYLE
  5
11
330
3
100
AcDbSymbolTableRecord
100
AcDbTextStyleTableRecord
  2
Standard
 70
     0
 40
0.0
 41
1.0
 50
0.0
 71
     0
 42
3.5
  3
txt
  4

  0
STYLE
  5
93
330
3
100
AcDbSymbolTableRecord
100
AcDbTextStyleTableRecord
  2
SLDTEXTSTYLE0
 70
     0
 40
0.0
 41
0.75
 50
0.0
 71
     0
 42
3.5
  3
TXT
  4

  0
ENDTAB
  0
TABLE
  2
VIEW
  5
6
330
0
100
AcDbSymbolTable
 70
     0
  0
ENDTAB
  0
TABLE
  2
UCS
  5
7
330
0
100
AcDbSymbolTable
 70
     0
  0
ENDTAB
  0
TABLE
  2
APPID
  5
9
330
0
100
AcDbSymbolTable
 70
     2
  0
APPID
  5
12
330
9
100
AcDbSymbolTableRecord
100
AcDbRegAppTableRecord
  2
ACAD
 70
     0
  0
APPID
  5
15F
330
9
100
AcDbSymbolTableRecord
100
AcDbRegAppTableRecord
  2
PE_DIMMEASUREMENT
 70
     0
  0
ENDTAB
  0
TABLE
  2
DIMSTYLE
  5
A
330
0
100
AcDbSymbolTable
 70
     3
100
AcDbDimStyleTable
  0
DIMSTYLE
105
27
330
A
100
AcDbSymbolTableRecord
100
AcDbDimStyleTableRecord
  2
ISO-25
 70
     0
 41
2.5
 42
0.625
 43
3.75
 44
1.25
 73
     0
 74
     0
 77
     1
 78
     8
140
2.5
141
2.5
143
0.03937007874016
147
0.625
171
     3
172
     1
178
     0
271
     2
272
     2
274
     3
278
    44
283
     0
284
     8
340
11
  0
DIMSTYLE
105
E1
102
{ACAD_REACTORS
330
E0
330
10A
330
14C
330
165
102
}
330
A
100
AcDbSymbolTableRecord
100
AcDbDimStyleTableRecord
  2
SLDDIMSTYLE0
 70
     0
 41
3.302
 44
0.0
 45
0.000000001
 73
     0
 74
     0
 77
     1
 78
    12
 79
     3
140
3.5
143
0.0393700787401575
147
0.875
148
0.000000001
170
     1
172
     1
173
     1
178
     0
271
     2
272
     2
276
     2
284
    12
289
     0
340
93
  0
DIMSTYLE
105
F7
102
{ACAD_REACTORS
330
F6
102
}
330
A
100
AcDbSymbolTableRecord
100
AcDbDimStyleTableRecord
  2
SLDDIMSTYLE1
 70
     0
 41
3.302
 44
0.0
 45
0.000000001
 73
     0
 74
     0
 77
     1
 78
     4
 79
     1
140
3.5
143
0.0393700787401575
147
0.875
148
0.000000001
170
     1
173
     1
178
     0
271
     2
272
     2
276
     2
284
    12
340
93
  0
ENDTAB
  0
TABLE
  2
BLOCK_RECORD
  5
1
330
0
100
AcDbSymbolTable
 70
     8
  0
BLOCK_RECORD
  5
1F
330
1
100
AcDbSymbolTableRecord
100
AcDbBlockTableRecord
  2
*Model_Space
340
22
  0
BLOCK_RECORD
  5
1B
330
1
100
AcDbSymbolTableRecord
100
AcDbBlockTableRecord
  2
*Paper_Space
340
1E
  0
BLOCK_RECORD
  5
23
330
1
100
AcDbSymbolTableRecord
100
AcDbBlockTableRecord
  2
*Paper_Space0
340
26
  0
BLOCK_RECORD
  5
7E
330
1
100
AcDbSymbolTableRecord
100
AcDbBlockTableRecord
  2
블럭10
340
0
102
{BLKREFS
331
D8
102
}
  0
BLOCK_RECORD
  5
E2
330
1
100
AcDbSymbolTableRecord
100
AcDbBlockTableRecord
  2
_D
340
0
  0
BLOCK_RECORD
  5
F8
330
1
100
AcDbSymbolTableRecord
100
AcDbBlockTableRecord
  2
_D_1
340
0
  0
BLOCK_RECORD
  5
10B
330
1
100
AcDbSymbolTableRecord
100
AcDbBlockTableRecord
  2
_D_2
340
0
  0
BLOCK_RECORD
  5
11E
330
1
100
AcDbSymbolTableRecord
100
AcDbBlockTableRecord
  2
SW_DOWELSYMBOL_0
340
0
102
{BLKREFS
331
124
102
}
  0
BLOCK_RECORD
  5
14F
330
1
100
AcDbSymbolTableRecord
100
AcDbBlockTableRecord
  2
*D6
340
0
  0
BLOCK_RECORD
  5
168
330
1
100
AcDbSymbolTableRecord
100
AcDbBlockTableRecord
  2
*D7
340
0
  0
ENDTAB
  0
ENDSEC
  0
SECTION
  2
BLOCKS
  0
BLOCK
  5
20
330
1F
100
AcDbEntity
  8
0
100
AcDbBlockBegin
  2
*Model_Space
 70
     0
 10
0.0
 20
0.0
 30
0.0
  3
*Model_Space
  1
*Model_Space
  0
ENDBLK
  5
21
330
1F
100
AcDbEntity
  8
0
100
AcDbBlockEnd
  0
BLOCK
  5
1C
330
1B
100
AcDbEntity
 67
     1
  8
0
100
AcDbBlockBegin
  2
*Paper_Space
 70
     0
 10
0.0
 20
0.0
 30
0.0
  3
*Paper_Space
  1
*Paper_Space
  0
ENDBLK
  5
1D
330
1B
100
AcDbEntity
 67
     1
  8
0
100
AcDbBlockEnd
  0
BLOCK
  5
24
330
23
100
AcDbEntity
  8
0
100
AcDbBlockBegin
  2
*Paper_Space0
 70
     0
 10
0.0
 20
0.0
 30
0.0
  3
*Paper_Space0
  1
*Paper_Space0
  0
ENDBLK
  5
25
330
23
100
AcDbEntity
  8
0
100
AcDbBlockEnd
  0
BLOCK
  5
7F
330
7E
100
AcDbEntity
  8
0
100
AcDbBlockBegin
  2
블럭10
 70
     2
 10
0.0
 20
0.0
 30
0.0
  3
블럭10
  1
블럭10
  0
ELLIPSE
  5
81
330
7E
100
AcDbEntity
  8
중심선
100
AcDbEllipse
 10
20.54032771741204
 20
12.0471743016438
 30
0.0
 11
6.600054785286829
 21
-1.261213355974178E-13
 31
0.0
210
0.0
220
0.0
230
1.0
 40
0.636358354079598
 41
0.9219305317359503
 42
6.513795318482858
  0
ELLIPSE
  5
82
330
7E
100
AcDbEntity
  8
중심선
100
AcDbEllipse
 10
20.54032771746488
 20
12.04717430159265
 30
0.0
 11
3.960054785062283
 21
1.540847449632565E-10
 31
0.0
210
0.0
220
0.0
230
1.0
 40
0.3939339440162632
 41
1.131841032648279
 42
5.62031148352944
  0
LINE
  5
83
330
7E
100
AcDbEntity
  8
중심선
100
AcDbLine
 10
2.268634060543552
 20
16.24717430164393
 30
0.0
 11
5.714909304380834
 21
16.24717430164393
 31
0.0
  0
LINE
  5
84
330
7E
100
AcDbEntity
  8
중심선
100
AcDbLine
 10
5.245725140726316
 20
7.84717430164391
 30
0.0
 11
8.692000384563599
 21
7.84717430164391
 31
0.0
  0
LINE
  5
85
330
7E
100
AcDbEntity
  8
중심선
100
AcDbLine
 10
15.74043728645272
 20
16.24717430164393
 30
0.0
 11
8.692000384563599
 21
7.84717430164391
 31
0.0
  0
LINE
  5
86
330
7E
100
AcDbEntity
  8
중심선
100
AcDbLine
 10
0.1404042013395286
 20
13.71084872107135
 30
0.0
 11
3.58671253028996
 21
13.71088815037384
 31
0.0
  0
LINE
  5
87
330
7E
100
AcDbEntity
  8
중심선
100
AcDbLine
 10
2.750260043222114
 20
10.84717430164391
 30
0.0
 11
6.196535287059397
 21
10.84717430164391
 31
0.0
  0
LINE
  5
88
330
7E
100
AcDbEntity
  8
중심선
100
AcDbLine
 10
12.29416204261559
 20
16.24717430164393
 30
0.0
 11
5.245725140726316
 21
7.84717430164391
 31
0.0
  0
LINE
  5
89
330
7E
100
AcDbEntity
  8
중심선
100
AcDbLine
 10
10.72767329541681
 20
16.24717430164393
 30
0.0
 11
6.196535287059397
 21
10.84717430164391
 31
0.0
  0
LINE
  5
8A
330
7E
100
AcDbEntity
  8
중심선
100
AcDbLine
 10
7.28139805157953
 20
16.24717430164393
 30
0.0
 11
2.750260043222114
 21
10.84717430164391
 31
0.0
  0
LINE
  5
8B
330
7E
100
AcDbEntity
  8
중심선
100
AcDbLine
 10
5.714909304380834
 20
16.24717430164393
 30
0.0
 11
3.58671253028996
 21
13.71088815037384
 31
0.0
  0
LINE
  5
8C
330
7E
100
AcDbEntity
  8
중심선
100
AcDbLine
 10
2.268634060543552
 20
16.24717430164393
 30
0.0
 11
0.1404042013395286
 21
13.71084872107135
 31
0.0
  0
LINE
  5
8D
330
7E
100
AcDbEntity
  8
중심선
100
AcDbLine
 10
7.28139805157953
 20
16.24717430164393
 30
0.0
 11
10.72767329541681
 21
16.24717430164393
 31
0.0
  0
LINE
  5
8E
330
7E
100
AcDbEntity
  8
중심선
100
AcDbLine
 10
12.29416204261559
 20
16.24717430164393
 30
0.0
 11
15.74043728645272
 21
16.24717430164393
 31
0.0
  0
LINE
  5
8F
330
7E
100
AcDbEntity
  8
중심선
100
AcDbLine
 10
19.22036997980202
 20
11.08717430171403
 30
0.0
 11
23.66174974927406
 21
11.08717430171406
 31
0.0
  0
LINE
  5
90
330
7E
100
AcDbEntity
  8
중심선
100
AcDbLine
 10
19.22039502424796
 20
13.00717430171391
 30
0.0
 11
19.22036997980202
 21
11.08717430171403
 31
0.0
  0
LINE
  5
91
330
7E
100
AcDbEntity
  8
중심선
100
AcDbLine
 10
19.22039502424796
 20
13.00717430171391
 30
0.0
 11
26.96566020931264
 21
13.00717430171391
 31
0.0
  0
LINE
  5
92
330
7E
100
AcDbEntity
  8
중심선
100
AcDbLine
 10
22.22332737316547
 20
13.45928029700563
 30
0.0
 11
24.52862924686651
 21
15.39360700705356
 31
0.0
  0
ATTDEF
  5
94
330
7E
100
AcDbEntity
  8
FORMAT
 62
     2
100
AcDbText
 10
-9.18129528874128
 20
2.075366912832191
 30
0.0
 40
4.233333333333333
  1
E5077208 [ 3 FLUTE ]
 41
0.75
  7
SLDTEXTSTYLE0
 11
-9.18129528874128
 21
-0.0412997538344756
 31
0.0
100
AcDbAttributeDefinition
  3

  2
AUTOATTR0
 70
     0
 74
     1
  0
ENDBLK
  5
80
330
7E
100
AcDbEntity
  8
0
100
AcDbBlockEnd
  0
BLOCK
  5
E3
330
E2
100
AcDbEntity
  8
0
100
AcDbBlockBegin
  2
_D
 70
     0
 10
0.0
 20
0.0
 30
0.0
  3
_D
  1
_D
  0
LINE
  5
E5
330
E2
100
AcDbEntity
  8
치수문자_일반주서
 62
     0
370
    -2
100
AcDbLine
 10
41.6249081826537
 20
1.644208435270851
 30
0.0
 11
41.6249081826537
 21
36.79946038529743
 31
0.0
  0
LINE
  5
E6
330
E2
100
AcDbEntity
  8
치수문자_일반주서
 62
     0
370
    -2
100
AcDbLine
 10
9.874908182653707
 20
2.762133593109919
 30
0.0
 11
9.874908182653707
 21
36.79946038529743
 31
0.0
  0
LINE
  5
E7
330
E2
100
AcDbEntity
  8
치수문자_일반주서
 62
     0
370
    -2
100
AcDbLine
 10
38.3229081826537
 20
36.79946038529743
 30
0.0
 11
13.17690818265371
 21
36.79946038529743
 31
0.0
  0
SOLID
  5
E8
330
E2
100
AcDbEntity
  8
치수문자_일반주서
 62
     0
100
AcDbTrace
 10
38.3229081826537
 20
36.24912705196409
 30
0.0
 11
38.3229081826537
 21
37.34979371863076
 31
0.0
 12
41.6249081826537
 22
36.79946038529743
 32
0.0
 13
41.6249081826537
 23
36.79946038529743
 33
0.0
  0
SOLID
  5
E9
330
E2
100
AcDbEntity
  8
치수문자_일반주서
 62
     0
100
AcDbTrace
 10
13.17690818265371
 20
37.34979371863076
 30
0.0
 11
13.17690818265371
 21
36.24912705196409
 31
0.0
 12
9.874908182653707
 22
36.79946038529743
 32
0.0
 13
9.874908182653707
 23
36.79946038529743
 33
0.0
  0
MTEXT
  5
EA
330
E2
100
AcDbEntity
  8
치수문자_일반주서
 62
     0
100
AcDbMText
 10
25.7499081826537
 20
41.17446038529743
 30
0.0
 40
3.5
 41
0.0
 71
     2
 72
     1
  1
\A1;31.75 [1 1/4]
  7
SLDTEXTSTYLE0
 73
     1
 44
1.0
  0
POINT
  5
EB
330
E2
100
AcDbEntity
  8
Defpoints
 62
     0
100
AcDbPoint
 10
41.6249081826537
 20
1.581708435270851
 30
0.0
  0
POINT
  5
EC
330
E2
100
AcDbEntity
  8
Defpoints
 62
     0
100
AcDbPoint
 10
9.874908182653707
 20
2.699633593109919
 30
0.0
  0
POINT
  5
ED
330
E2
100
AcDbEntity
  8
Defpoints
 62
     0
100
AcDbPoint
 10
9.874908182653707
 20
36.79946038529743
 30
0.0
  0
ENDBLK
  5
E4
330
E2
100
AcDbEntity
  8
0
100
AcDbBlockEnd
  0
BLOCK
  5
F9
330
F8
100
AcDbEntity
  8
0
100
AcDbBlockBegin
  2
_D_1
 70
     0
 10
0.0
 20
0.0
 30
0.0
  3
_D_1
  1
_D_1
  0
LINE
  5
FB
330
F8
100
AcDbEntity
  8
치수문자_일반주서
 62
     0
370
    -2
100
AcDbLine
 10
41.6249081826537
 20
1.644208435270851
 30
0.0
 11
41.6249081826537
 21
52.66409214920037
 31
0.0
  0
LINE
  5
FC
330
F8
100
AcDbEntity
  8
치수문자_일반주서
 62
     0
370
    -2
100
AcDbLine
 10
-34.5750918173463
 20
2.432335151814089
 30
0.0
 11
-34.5750918173463
 21
52.66409214920037
 31
0.0
  0
LINE
  5
FD
330
F8
100
AcDbEntity
  8
치수문자_일반주서
 62
     0
370
    -2
100
AcDbLine
 10
38.3229081826537
 20
52.66409214920037
 30
0.0
 11
-31.27309181734631
 21
52.66409214920037
 31
0.0
  0
SOLID
  5
FE
330
F8
100
AcDbEntity
  8
치수문자_일반주서
 62
     0
100
AcDbTrace
 10
38.3229081826537
 20
52.11375881586704
 30
0.0
 11
38.3229081826537
 21
53.21442548253371
 31
0.0
 12
41.6249081826537
 22
52.66409214920037
 32
0.0
 13
41.6249081826537
 23
52.66409214920037
 33
0.0
  0
SOLID
  5
FF
330
F8
100
AcDbEntity
  8
치수문자_일반주서
 62
     0
100
AcDbTrace
 10
-31.27309181734631
 20
53.21442548253371
 30
0.0
 11
-31.27309181734631
 21
52.11375881586704
 31
0.0
 12
-34.5750918173463
 22
52.66409214920037
 32
0.0
 13
-34.5750918173463
 23
52.66409214920037
 33
0.0
  0
MTEXT
  5
100
330
F8
100
AcDbEntity
  8
치수문자_일반주서
 62
     0
100
AcDbMText
 10
4.818907239273386
 20
57.03909214920037
 30
0.0
 40
3.5
 41
0.0
 71
     2
 72
     1
  1
\A1;76.20 [3]
  7
SLDTEXTSTYLE0
 73
     1
 44
1.0
  0
POINT
  5
101
330
F8
100
AcDbEntity
  8
Defpoints
 62
     0
100
AcDbPoint
 10
41.6249081826537
 20
1.581708435270851
 30
0.0
  0
POINT
  5
102
330
F8
100
AcDbEntity
  8
Defpoints
 62
     0
100
AcDbPoint
 10
-34.5750918173463
 20
2.369835151814089
 30
0.0
  0
POINT
  5
103
330
F8
100
AcDbEntity
  8
Defpoints
 62
     0
100
AcDbPoint
 10
-34.5750918173463
 20
52.66409214920037
 30
0.0
  0
ENDBLK
  5
FA
330
F8
100
AcDbEntity
  8
0
100
AcDbBlockEnd
  0
BLOCK
  5
10C
330
10B
100
AcDbEntity
  8
0
100
AcDbBlockBegin
  2
_D_2
 70
     0
 10
0.0
 20
0.0
 30
0.0
  3
_D_2
  1
_D_2
  0
LINE
  5
10E
330
10B
100
AcDbEntity
  8
치수문자_일반주서
 62
     0
370
    -2
100
AcDbLine
 10
-33.8275918173463
 20
3.179835151814088
 30
0.0
 11
-45.53422109744307
 21
3.179835151814046
 31
0.0
  0
LINE
  5
10F
330
10B
100
AcDbEntity
  8
치수문자_일반주서
 62
     0
370
    -2
100
AcDbLine
 10
-33.8275918173463
 20
-3.170164848185907
 30
0.0
 11
-45.53422109744304
 21
-3.170164848185948
 31
0.0
  0
LINE
  5
110
330
10B
100
AcDbEntity
  8
치수문자_일반주서
 62
     0
370
    -2
100
AcDbLine
 10
-45.53422109744307
 20
3.179835151814046
 30
0.0
 11
-45.53422109744318
 21
37.11250043815251
 31
0.0
  0
LINE
  5
111
330
10B
100
AcDbEntity
  8
치수문자_일반주서
 62
     0
370
    -2
100
AcDbLine
 10
-45.53422109744307
 20
3.179835151814046
 30
0.0
 11
-45.53422109744304
 21
-3.170164848185948
 31
0.0
  0
LINE
  5
112
330
10B
100
AcDbEntity
  8
치수문자_일반주서
 62
     0
370
    -2
100
AcDbLine
 10
-45.53422109744308
 20
6.481835151814046
 30
0.0
 11
-45.53422109744309
 21
9.783835151814046
 31
0.0
  0
LINE
  5
113
330
10B
100
AcDbEntity
  8
치수문자_일반주서
 62
     0
370
    -2
100
AcDbLine
 10
-45.53422109744303
 20
-6.472164848185948
 30
0.0
 11
-45.53422109744302
 21
-9.774164848185947
 31
0.0
  0
SOLID
  5
114
330
10B
100
AcDbEntity
  8
치수문자_일반주서
 62
     0
100
AcDbTrace
 10
-46.08455443077641
 20
6.481835151814044
 30
0.0
 11
-44.98388776410975
 21
6.481835151814048
 31
0.0
 12
-45.53422109744307
 22
3.179835151814046
 32
0.0
 13
-45.53422109744307
 23
3.179835151814046
 33
0.0
  0
SOLID
  5
115
330
10B
100
AcDbEntity
  8
치수문자_일반주서
 62
     0
100
AcDbTrace
 10
-44.9838877641097
 20
-6.472164848185946
 30
0.0
 11
-46.08455443077636
 21
-6.472164848185949
 31
0.0
 12
-45.53422109744304
 22
-3.170164848185948
 32
0.0
 13
-45.53422109744304
 23
-3.170164848185948
 33
0.0
  0
MTEXT
  5
116
330
10B
100
AcDbEntity
  8
치수문자_일반주서
 62
     0
100
AcDbMText
 10
-49.90922109744314
 20
24.42500043815249
 30
0.0
 40
3.5
 41
0.0
 71
     2
 72
     1
  1
\A1;%%c6.35 [1/4]
  7
SLDTEXTSTYLE0
 11
-3.356894814614649E-15
 21
1.0
 31
0.0
 73
     1
 44
1.0
  0
POINT
  5
160
330
10B
100
AcDbEntity
  8
Defpoints
 62
     0
100
AcDbPoint
 10
-33.7650918173463
 20
3.179835151814088
 30
0.0
  0
POINT
  5
162
330
10B
100
AcDbEntity
  8
Defpoints
 62
     0
100
AcDbPoint
 10
-33.7650918173463
 20
-3.170164848185907
 30
0.0
  0
POINT
  5
163
330
10B
100
AcDbEntity
  8
Defpoints
 62
     0
100
AcDbPoint
 10
-45.53422109744304
 20
-3.170164848185948
 30
0.0
  0
ENDBLK
  5
10D
330
10B
100
AcDbEntity
  8
0
100
AcDbBlockEnd
  0
BLOCK
  5
11F
330
11E
100
AcDbEntity
  8
0
100
AcDbBlockBegin
  2
SW_DOWELSYMBOL_0
 70
     0
 10
0.0
 20
0.0
 30
0.0
  3
SW_DOWELSYMBOL_0
  1
SW_DOWELSYMBOL_0
  0
CIRCLE
  5
121
330
11E
100
AcDbEntity
  8
외형선
 62
     0
100
AcDbCircle
 10
0.0
 20
0.0
 30
0.0
 40
3.000000000000004
  0
HATCH
  5
122
330
11E
100
AcDbEntity
  8
0
  6
Continuous
 62
     0
370
    30
100
AcDbHatch
 10
0.0
 20
0.0
 30
0.0
210
0.0
220
0.0
230
1.0
  2
SOLID
 70
     1
 71
     0
 91
        1
 92
        0
 93
        3
 72
     2
 10
-0.0000000000000013
 20
-0.0000000000000039
 40
3.000000000000004
 50
0.0
 51
90.0
 73
     1
 72
     1
 10
-0.0000000000000013
 20
3.0
 11
-0.0000000000000013
 21
-0.000000000000004
 72
     1
 10
-0.0000000000000013
 20
-0.0000000000000039
 11
3.000000000000003
 21
-0.0000000000000039
 97
        0
 75
     0
 76
     1
 98
        1
 10
0.0
 20
0.0
  0
HATCH
  5
123
330
11E
100
AcDbEntity
  8
0
  6
Continuous
 62
     0
370
    30
100
AcDbHatch
 10
0.0
 20
0.0
 30
0.0
210
0.0
220
0.0
230
1.0
  2
SOLID
 70
     1
 71
     0
 91
        1
 92
        0
 93
        3
 72
     2
 10
-0.0000000000000013
 20
-0.0000000000000039
 40
3.000000000000004
 50
180.0
 51
270.0000000000008
 73
     1
 72
     1
 10
-0.0000000000000013
 20
-3.000000000000008
 11
-0.0000000000000013
 21
-0.000000000000004
 72
     1
 10
-0.0000000000000013
 20
-0.0000000000000039
 11
-3.000000000000006
 21
-0.0000000000000039
 97
        0
 75
     0
 76
     1
 98
        1
 10
0.0
 20
0.0
  0
ENDBLK
  5
120
330
11E
100
AcDbEntity
  8
0
100
AcDbBlockEnd
  0
BLOCK
  5
150
330
14F
100
AcDbEntity
  8
0
100
AcDbBlockBegin
  2
*D6
 70
     1
 10
0.0
 20
0.0
 30
0.0
  3
*D6
  1
*D6
  0
LINE
  5
152
330
14F
100
AcDbEntity
  8
치수문자_일반주서
 62
     0
370
    -2
100
AcDbLine
 10
41.6874081826537
 20
1.592335151814097
 30
0.0
 11
57.77736751131442
 21
1.592335151814098
 31
0.0
  0
LINE
  5
153
330
14F
100
AcDbEntity
  8
치수문자_일반주서
 62
     0
370
    -2
100
AcDbLine
 10
41.6874081826537
 20
-1.582664848185908
 30
0.0
 11
57.77736751131442
 21
-1.58266484818591
 31
0.0
  0
LINE
  5
154
330
14F
100
AcDbEntity
  8
치수문자_일반주서
 62
     0
370
    -2
100
AcDbLine
 10
57.77736751131442
 20
1.592335151814098
 30
0.0
 11
57.77736751131442
 21
32.6963351518141
 31
0.0
  0
LINE
  5
155
330
14F
100
AcDbEntity
  8
치수문자_일반주서
 62
     0
370
    -2
100
AcDbLine
 10
57.77736751131442
 20
1.592335151814098
 30
0.0
 11
57.77736751131442
 21
-1.58266484818591
 31
0.0
  0
LINE
  5
156
330
14F
100
AcDbEntity
  8
치수문자_일반주서
 62
     0
370
    -2
100
AcDbLine
 10
57.77736751131442
 20
4.894335151814097
 30
0.0
 11
57.77736751131442
 21
8.196335151814097
 31
0.0
  0
LINE
  5
157
330
14F
100
AcDbEntity
  8
치수문자_일반주서
 62
     0
370
    -2
100
AcDbLine
 10
57.77736751131442
 20
-4.88466484818591
 30
0.0
 11
57.77736751131442
 21
-8.18666484818591
 31
0.0
  0
SOLID
  5
158
330
14F
100
AcDbEntity
  8
치수문자_일반주서
 62
     0
100
AcDbTrace
 10
57.22703417798108
 20
4.894335151814097
 30
0.0
 11
58.32770084464775
 21
4.894335151814097
 31
0.0
 12
57.77736751131442
 22
1.592335151814098
 32
0.0
 13
57.77736751131442
 23
1.592335151814098
 33
0.0
  0
SOLID
  5
159
330
14F
100
AcDbEntity
  8
치수문자_일반주서
 62
     0
100
AcDbTrace
 10
58.32770084464775
 20
-4.88466484818591
 30
0.0
 11
57.22703417798108
 21
-4.88466484818591
 31
0.0
 12
57.77736751131442
 22
-1.58266484818591
 32
0.0
 13
57.77736751131442
 23
-1.58266484818591
 33
0.0
  0
MTEXT
  5
15A
330
14F
100
AcDbEntity
  8
치수문자_일반주서
 62
     0
100
AcDbMText
 10
55.15236751131442
 20
20.4463351518141
 30
0.0
 40
3.5
 41
0.0
 71
     5
 72
     1
  1
\A1;{%%c3.18 [1/8]}
  7
SLDTEXTSTYLE0
 11
0.0
 21
1.0
 31
0.0
 73
     1
 44
1.0
  0
POINT
  5
15B
330
14F
100
AcDbEntity
  8
Defpoints
 62
     0
100
AcDbPoint
 10
41.6249081826537
 20
1.592335151814097
 30
0.0
  0
POINT
  5
15C
330
14F
100
AcDbEntity
  8
Defpoints
 62
     0
100
AcDbPoint
 10
41.6249081826537
 20
-1.582664848185908
 30
0.0
  0
POINT
  5
15E
330
14F
100
AcDbEntity
  8
Defpoints
 62
     0
100
AcDbPoint
 10
57.77736751131442
 20
-1.582664848185909
 30
0.0
  0
ENDBLK
  5
151
330
14F
100
AcDbEntity
  8
0
100
AcDbBlockEnd
  0
BLOCK
  5
169
330
168
100
AcDbEntity
  8
0
100
AcDbBlockBegin
  2
*D7
 70
     1
 10
0.0
 20
0.0
 30
0.0
  3
*D7
  1
*D7
  0
LINE
  5
16B
330
168
100
AcDbEntity
  8
치수문자_일반주서
 62
     0
370
    -2
100
AcDbLine
 10
14.88955570769947
 20
9.12547745198362
 30
0.0
 11
15.54757234872859
 21
14.33407746543529
 31
0.0
  0
LINE
  5
16C
330
168
100
AcDbEntity
  8
치수문자_일반주서
 62
     0
370
    -2
100
AcDbLine
 10
12.90954096462581
 20
2.595097871305736
 30
0.0
 11
14.36004750029156
 21
2.54444506692748
 31
0.0
  0
ARC
  5
16D
330
168
100
AcDbEntity
  8
치수문자_일반주서
 62
     0
370
    -2
100
AcDbCircle
 10
87.0849602692826
 20
0.0048351518140915
 30
0.0
 40
72.7692418249517
100
AcDbArc
 50
172.7998111831711
 51
175.3999055915856
  0
ARC
  5
16E
330
168
100
AcDbEntity
  8
치수문자_일반주서
 62
     0
370
    -2
100
AcDbCircle
 10
87.0849602692826
 20
0.0048351518140915
 30
0.0
 40
72.7692418249517
100
AcDbArc
 50
182.6000944084145
 51
185.200188816829
  0
ARC
  5
16F
330
168
100
AcDbEntity
  8
치수문자_일반주서
 62
     0
370
    -2
100
AcDbCircle
 10
87.0849602692826
 20
0.0048351518140915
 30
0.0
 40
72.7692418249517
100
AcDbArc
 50
178.0
 51
180.0
  0
SOLID
  5
170
330
168
100
AcDbEntity
  8
치수문자_일반주서
 62
     0
100
AcDbTrace
 10
14.00070587957254
 20
5.872649444275242
 30
0.0
 11
15.09954738685933
 21
5.809289733300449
 31
0.0
 12
14.36004750029156
 22
2.54444506692748
 32
0.0
 13
14.36004750029156
 23
2.54444506692748
 33
0.0
  0
SOLID
  5
171
330
168
100
AcDbEntity
  8
치수문자_일반주서
 62
     0
100
AcDbTrace
 10
14.94082641188013
 20
-3.283828833254046
 30
0.0
 11
13.84044306712564
 21
-3.308800931644709
 31
0.0
 12
14.3157184443309
 22
0.0048351518140915
 32
0.0
 13
14.3157184443309
 23
0.0048351518140915
 33
0.0
  0
MTEXT
  5
172
330
168
100
AcDbEntity
  8
치수문자_일반주서
 62
     0
100
AcDbMText
 10
12.61426402148819
 20
12.05878577922401
 30
0.0
 40
3.5
 41
0.0
 71
     5
 72
     1
  1
\A1;2%%d
  7
SLDTEXTSTYLE0
 11
0.1253365030531645
 21
0.992114288276509
 31
0.0
 73
     1
 44
1.0
  0
POINT
  5
173
330
168
100
AcDbEntity
  8
Defpoints
 62
     0
100
AcDbPoint
 10
14.32064433957474
 20
0.8515246226135381
 30
0.0
  0
POINT
  5
174
330
168
100
AcDbEntity
  8
Defpoints
 62
     0
100
AcDbPoint
 10
-37.57509181734629
 20
0.0048351518140915
 30
0.0
  0
POINT
  5
175
330
168
100
AcDbEntity
  8
Defpoints
 62
     0
100
AcDbPoint
 10
12.84707903793712
 20
2.597279089849643
 30
0.0
  0
POINT
  5
176
330
168
100
AcDbEntity
  8
Defpoints
 62
     0
100
AcDbPoint
 10
9.94488185119813
 20
2.698626048827353
 30
0.0
  0
POINT
  5
177
330
168
100
AcDbEntity
  8
Defpoints
 62
     0
100
AcDbPoint
 10
44.62490428620234
 20
0.0048351518140915
 30
0.0
  0
ENDBLK
  5
16A
330
168
100
AcDbEntity
  8
0
100
AcDbBlockEnd
  0
ENDSEC
  0
SECTION
  2
ENTITIES
  0
LINE
  5
95
330
1F
100
AcDbEntity
  8
0
  6
Continuous
 62
     4
370
    15
100
AcDbLine
 10
-33.7650918173463
 20
3.179835151814088
 30
0.0
 11
-34.5750918173463
 21
2.369835151814089
 31
0.0
  0
LINE
  5
96
330
1F
100
AcDbEntity
  8
0
  6
Continuous
 62
     4
370
    15
100
AcDbLine
 10
-34.5750918173463
 20
-2.360164848185908
 30
0.0
 11
-33.7650918173463
 21
-3.170164848185907
 31
0.0
  0
LINE
  5
97
330
1F
100
AcDbEntity
  8
0
  6
Continuous
 62
     4
370
    15
100
AcDbLine
 10
8.451510991821882
 20
3.179835151814093
 30
0.0
 11
-33.7650918173463
 21
3.179835151814088
 31
0.0
  0
LINE
  5
98
330
1F
100
AcDbEntity
  8
0
  6
Continuous
 62
     4
370
    15
100
AcDbLine
 10
-33.7650918173463
 20
-3.170164848185907
 30
0.0
 11
8.451510991821884
 21
-3.170164848185901
 31
0.0
  0
LINE
  5
99
330
1F
100
AcDbEntity
  8
0
  6
Continuous
 62
     4
370
    15
100
AcDbLine
 10
8.451510991821884
 20
-3.170164848185899
 30
0.0
 11
8.858908182653703
 21
-2.733284848185904
 31
0.0
  0
LINE
  5
9A
330
1F
100
AcDbEntity
  8
0
  6
Continuous
 62
     4
370
    15
100
AcDbLine
 10
8.858908182653703
 20
2.742955151814096
 30
0.0
 11
8.451510991821882
 21
3.17983515181409
 31
0.0
  0
LINE
  5
9B
330
1F
100
AcDbEntity
  8
0
  6
Continuous
 62
     1
370
    15
100
AcDbLine
 10
39.10818649872368
 20
-1.670550705985307
 30
0.0
 11
40.87583328469671
 21
-1.608823120029514
 31
0.0
  0
LINE
  5
9C
330
1F
100
AcDbEntity
  8
0
  6
Continuous
 62
     1
370
    15
100
AcDbLine
 10
25.59379576451364
 20
-2.142483629636067
 30
0.0
 11
28.1287227775085
 21
-2.053962027736868
 31
0.0
  0
LINE
  5
9D
330
1F
100
AcDbEntity
  8
0
  6
Continuous
 62
     1
370
    15
100
AcDbLine
 10
12.17476292908995
 20
-2.611086582084091
 30
0.0
 11
15.03367401185073
 21
-2.511251207165599
 31
0.0
  0
LINE
  5
9E
330
1F
100
AcDbEntity
  8
0
  6
Continuous
 62
     1
370
    15
100
AcDbLine
 10
21.58777236272336
 20
2.292047353056724
 30
0.0
 11
18.87529836630818
 21
2.386769032237899
 31
0.0
  0
LINE
  5
9F
330
1F
100
AcDbEntity
  8
0
  6
Continuous
 62
     1
370
    15
100
AcDbLine
 10
34.6500365090384
 20
1.835903037762937
 30
0.0
 11
32.3343658121482
 21
1.916768040387834
 31
0.0
  0
LINE
  5
A0
330
1F
100
AcDbEntity
  8
0
  6
Continuous
 62
     1
370
    15
100
AcDbLine
 10
30.0837795115918
 20
-1.985689942182656
 30
0.0
 11
32.47805223501917
 21
-1.90208009630747
 31
0.0
  0
LINE
  5
A1
330
1F
100
AcDbEntity
  8
0
  6
Continuous
 62
     1
370
    15
100
AcDbLine
 10
16.64122449091562
 20
-2.455114307439825
 30
0.0
 11
19.40516349899872
 21
-2.358595430449305
 31
0.0
  0
LINE
  5
A2
102
{ACAD_REACTORS
102
}
330
1F
100
AcDbEntity
  8
0
  6
Continuous
 62
     1
370
    15
100
AcDbLine
 10
12.84707903793712
 20
2.597279089849643
 30
0.0
 11
9.94488185119813
 21
2.698626048827353
 31
0.0
  0
LINE
  5
A3
330
1F
100
AcDbEntity
  8
0
  6
Continuous
 62
     1
370
    15
100
AcDbLine
 10
25.94970751340335
 20
2.139725221121877
 30
0.0
 11
23.35160641328704
 21
2.230452910755294
 31
0.0
  0
LINE
  5
A4
330
1F
100
AcDbEntity
  8
0
  6
Continuous
 62
     1
370
    15
100
AcDbLine
 10
38.98394238486227
 20
1.684559709674361
 30
0.0
 11
36.84598297397826
 21
1.759218897444554
 31
0.0
  0
LINE
  5
A5
330
1F
100
AcDbEntity
  8
0
  6
Continuous
 62
     4
370
    15
100
AcDbLine
 10
8.858908182653703
 20
-2.733284848185904
 30
0.0
 11
9.874908182653714
 21
-2.691399279548893
 31
0.0
  0
LINE
  5
A6
330
1F
100
AcDbEntity
  8
0
  6
Continuous
 62
     4
370
    15
100
AcDbLine
 10
8.984908182653697
 20
2.737760681687853
 30
0.0
 11
8.858908182653703
 21
2.742955151814096
 31
0.0
  0
LINE
  5
A7
330
1F
100
AcDbEntity
  8
0
  6
Continuous
 62
     1
370
    15
100
AcDbLine
 10
34.5882002017707
 20
-1.82839210556706
 30
0.0
 11
36.81878134294605
 21
-1.750498495703436
 31
0.0
  0
LINE
  5
A8
330
1F
100
AcDbEntity
  8
0
  6
Continuous
 62
     1
370
    15
100
AcDbLine
 10
21.11313955659432
 20
-2.298951592244586
 30
0.0
 11
23.77018696942459
 21
-2.206165452012495
 31
0.0
  0
LINE
  5
A9
330
1F
100
AcDbEntity
  8
0
  6
Continuous
 62
     1
370
    15
100
AcDbLine
 10
9.874908182653714
 20
-2.691399279548893
 30
0.0
 11
10.65927296703302
 21
-2.664008657716138
 31
0.0
  0
LINE
  5
AA
330
1F
100
AcDbEntity
  8
0
  6
Continuous
 62
     1
370
    15
100
AcDbLine
 10
17.21997844960758
 20
2.444574077484099
 30
0.0
 11
14.40759328039538
 21
2.542784731700169
 31
0.0
  0
LINE
  5
AB
330
1F
100
AcDbEntity
  8
0
  6
Continuous
 62
     1
370
    15
100
AcDbLine
 10
30.30375498851273
 20
1.987678532887456
 30
0.0
 11
27.83614388935045
 21
2.07384941127658
 31
0.0
  0
LINE
  5
AC
102
{ACAD_REACTORS
102
}
330
1F
100
AcDbEntity
  8
0
  6
Continuous
 62
     1
370
    15
100
AcDbLine
 10
41.6249081826537
 20
1.592335151814097
 30
0.0
 11
41.37440979808131
 21
1.601082748159804
 31
0.0
  0
LINE
  5
AD
330
1F
100
AcDbEntity
  8
0
  6
Continuous
 62
     4
370
    15
100
AcDbLine
 10
-33.7650918173463
 20
3.179835151814088
 30
0.0
 11
-33.7650918173463
 21
-3.170164848185907
 31
0.0
  0
LINE
  5
AE
330
1F
100
AcDbEntity
  8
0
  6
Continuous
 62
     4
370
    15
100
AcDbLine
 10
-34.5750918173463
 20
-2.360164848185908
 30
0.0
 11
-34.5750918173463
 21
2.369835151814091
 31
0.0
  0
LINE
  5
AF
330
1F
100
AcDbEntity
  8
0
  6
Continuous
 62
     4
370
    15
100
AcDbLine
 10
8.451510991821882
 20
3.17983515181409
 30
0.0
 11
8.451510991821884
 21
-3.170164848185901
 31
0.0
  0
LINE
  5
B0
330
1F
100
AcDbEntity
  8
0
  6
Continuous
 62
     4
370
    15
100
AcDbLine
 10
8.858908182653703
 20
2.742955151814096
 30
0.0
 11
8.858908182653703
 21
-2.733284848185904
 31
0.0
  0
SPLINE
  5
B1
330
1F
100
AcDbEntity
  8
0
  6
Continuous
 62
     1
370
    15
100
AcDbSpline
210
0.0
220
0.0
230
1.0
 70
     8
 71
     3
 72
    12
 73
     8
 74
     0
 42
0.000000001
 43
0.00000001
 40
0.0
 40
0.0
 40
0.0
 40
0.0
 40
0.1986474193304578
 40
0.3961420123566277
 40
0.5993472397204531
 40
0.797033886342431
 40
0.9999999999999999
 40
0.9999999999999999
 40
0.9999999999999999
 40
0.9999999999999999
 10
9.8749081826537
 20
-1.266366285121444
 30
0.0
 10
10.02595216231153
 20
-1.426369316591625
 30
0.0
 10
10.32716355613523
 20
-1.745446821264951
 30
0.0
 10
10.7848610973197
 20
-2.129105314185262
 30
0.0
 10
11.24364195280991
 20
-2.412631114816963
 30
0.0
 10
11.70813270469849
 20
-2.590655251013104
 30
0.0
 10
12.01785560837336
 20
-2.604117084174725
 30
0.0
 10
12.17475769492272
 20
-2.610936695145617
 30
0.0
  0
SPLINE
  5
B2
330
1F
100
AcDbEntity
  8
0
  6
Continuous
 62
     1
370
    15
100
AcDbSpline
210
0.0
220
0.0
230
1.0
 70
     8
 71
     3
 72
    23
 73
    19
 74
     0
 42
0.000000001
 43
0.00000001
 40
0.0
 40
0.0
 40
0.0
 40
0.0
 40
0.039389859795357
 40
0.1061514017640962
 40
0.1709367706426636
 40
0.2376042107108119
 40
0.3023113603050822
 40
0.3688975339191781
 40
0.4335397790881987
 40
0.5000583338328941
 40
0.5646498347352242
 40
0.6311152841075761
 40
0.6956711336936953
 40
0.7620989463485531
 40
0.826635284095486
 40
0.8930419992390711
 40
0.9575761458365812
 40
1.0
 40
1.0
 40
1.0
 40
1.0
 10
18.03822252350849
 20
2.219633925139283
 30
0.0
 10
18.13432677262412
 20
2.25927798450142
 30
0.0
 10
18.39331730501265
 20
2.366114426539375
 30
0.0
 10
18.81262353283294
 20
2.405467632054855
 30
0.0
 10
19.30033032972138
 20
2.345815137973181
 30
0.0
 10
19.78522048074216
 20
2.162615345204318
 30
0.0
 10
20.27631244830967
 20
1.868832286189454
 30
0.0
 10
20.76462448669225
 20
1.483951862469617
 30
0.0
 10
21.25921239147023
 20
1.021986875549888
 30
0.0
 10
21.75111341706891
 20
0.5159806896503464
 30
0.0
 10
22.24936975754009
 20
-0.0161949400632551
 30
0.0
 10
22.74502580953472
 20
-0.5362066638439462
 30
0.0
 10
23.24713359528406
 20
-1.025674530223299
 30
0.0
 10
23.74672956113682
 20
-1.44878273121887
 30
0.0
 10
24.25286658053136
 20
-1.79206014748598
 30
0.0
 10
24.75665959907007
 20
-2.024345885411215
 30
0.0
 10
25.20481972980184
 20
-2.14450073325157
 30
0.0
 10
25.48296642339722
 20
-2.13269902049012
 30
0.0
 10
25.59329061309018
 20
-2.128017985527721
 30
0.0
  0
SPLINE
  5
B3
330
1F
100
AcDbEntity
  8
0
  6
Continuous
 62
     1
370
    15
100
AcDbSpline
210
0.0
220
0.0
230
1.0
 70
     8
 71
     3
 72
    22
 73
    18
 74
     0
 42
0.000000001
 43
0.00000001
 40
0.0
 40
0.0
 40
0.0
 40
0.0
 40
0.0315386286372849
 40
0.1040170109470501
 40
0.1746471690030183
 40
0.2473113153342093
 40
0.3181621782106052
 40
0.3910509737085408
 40
0.462164895950033
 40
0.5353216562766923
 40
0.6067456706688301
 40
0.680218530307993
 40
0.7520046224832158
 40
0.8258466539028738
 40
0.8980542083929839
 40
0.9723262925030576
 40
1.0
 40
1.0
 40
1.0
 40
1.0
 10
31.31221417764259
 20
1.723510026732178
 30
0.0
 10
31.39148735773591
 20
1.756936371194759
 30
0.0
 10
31.65293687529126
 20
1.86717922537434
 30
0.0
 10
32.09459343758044
 20
1.93007779129609
 30
0.0
 10
32.64209667380964
 20
1.907597692814006
 30
0.0
 10
33.18818340595232
 20
1.758050015094296
 30
0.0
 10
33.74248633038766
 20
1.497156487025024
 30
0.0
 10
34.29539625227698
 20
1.144260325524918
 30
0.0
 10
34.85684615843759
 20
0.7181428723794285
 30
0.0
 10
35.41709841960967
 20
0.2539127355442177
 30
0.0
 10
35.98616915722728
 20
-0.2237106698543191
 30
0.0
 10
36.5543176370869
 20
-0.6748919413266666
 30
0.0
 10
37.13154496197608
 20
-1.074239316928928
 30
0.0
 10
37.70818347283072
 20
-1.390355950179245
 30
0.0
 10
38.29428805043196
 20
-1.595551119555851
 30
0.0
 10
38.75939053617873
 20
-1.685810195175648
 30
0.0
 10
39.03332333321581
 20
-1.662486483989234
 30
0.0
 10
39.10768379458969
 20
-1.656155143078134
 30
0.0
  0
LINE
  5
B4
330
1F
100
AcDbEntity
  8
0
  6
Continuous
 62
     4
370
    15
100
AcDbLine
 10
9.874908182653714
 20
2.114060049112091
 30
0.0
 11
9.874908182653714
 21
-1.266366285121461
 31
0.0
  0
SPLINE
  5
B5
330
1F
100
AcDbEntity
  8
0
  6
Continuous
 62
     1
370
    15
100
AcDbSpline
210
0.0
220
0.0
230
1.0
 70
     8
 71
     3
 72
    19
 73
    15
 74
     0
 42
0.000000001
 43
0.00000001
 40
0.0
 40
0.0
 40
0.0
 40
0.0
 40
0.0781511915508736
 40
0.1581414821645935
 40
0.2445281246851449
 40
0.3334375439981003
 40
0.4194690821889989
 40
0.5080108716044169
 40
0.5937282551634017
 40
0.6819442315523268
 40
0.7673918605916308
 40
0.85532787279149
 40
0.9405467427523803
 40
1.0
 40
1.0
 40
1.0
 40
1.0
 10
40.9399782889791
 20
-1.598708522901803
 30
0.0
 10
40.77215243012794
 20
-1.582240297340183
 30
0.0
 10
40.43255133720037
 20
-1.548916306403461
 30
0.0
 10
39.91016998236707
 20
-1.371495001922585
 30
0.0
 10
39.36671626959976
 20
-1.096022562761557
 30
0.0
 10
38.81294867336117
 20
-0.7256959819388427
 30
0.0
 10
38.2570930391642
 20
-0.2933455995726132
 30
0.0
 10
37.71032041402111
 20
0.1631598245138282
 30
0.0
 10
37.16146492220381
 20
0.6198810467972949
 30
0.0
 10
36.62132971886859
 20
1.036382132935124
 30
0.0
 10
36.07905920286105
 20
1.393101278366817
 30
0.0
 10
35.54524907025935
 20
1.653410351471408
 30
0.0
 10
35.06702420293119
 20
1.807313457202882
 30
0.0
 10
34.77115594968443
 20
1.818075209091831
 30
0.0
 10
34.64956838675096
 20
1.822497769372337
 30
0.0
  0
SPLINE
  5
B6
330
1F
100
AcDbEntity
  8
0
  6
Continuous
 62
     1
370
    15
100
AcDbSpline
210
0.0
220
0.0
230
1.0
 70
     8
 71
     3
 72
    23
 73
    19
 74
     0
 42
0.000000001
 43
0.00000001
 40
0.0
 40
0.0
 40
0.0
 40
0.0
 40
0.034886182129575
 40
0.1008373632713435
 40
0.1649247206707988
 40
0.2308685525674877
 40
0.2949665463348394
 40
0.3609204756320818
 40
0.4250448780727354
 40
0.4910251968907334
 40
0.5551923295905038
 40
0.6212159356872532
 40
0.6854394724387884
 40
0.7515204892319335
 40
0.8158127873177855
 40
0.8819639450395166
 40
0.9463366195881684
 40
1.0
 40
1.0
 40
1.0
 40
1.0
 10
29.0901406002988
 20
-1.794552378576646
 30
0.0
 10
29.00013120604732
 20
-1.838498570020356
 30
0.0
 10
28.73996200919287
 20
-1.965523592550544
 30
0.0
 10
28.31658391763871
 20
-2.05550193997121
 30
0.0
 10
27.81532721442854
 20
-2.062364734458599
 30
0.0
 10
27.3207630533897
 20
-1.945890559112446
 30
0.0
 10
26.82359574755456
 20
-1.716455586579046
 30
0.0
 10
26.33289087716916
 20
-1.388921576182549
 30
0.0
 10
25.83955618431495
 20
-0.9759867440575134
 30
0.0
 10
25.3525510154528
 20
-0.5073201238779625
 30
0.0
 10
24.86285719899086
 20
-0.0004701995627505
 30
0.0
 10
24.37938486253019
 20
0.508232518934103
 30
0.0
 10
23.89315972479052
 20
0.9999402044739637
 30
0.0
 10
23.41307318334409
 20
1.439355841847284
 30
0.0
 10
22.93015643470599
 20
1.81135503076014
 30
0.0
 10
22.45335038830209
 20
2.08514487946606
 30
0.0
 10
22.00412701009645
 20
2.255409827465778
 30
0.0
 10
21.71767638652966
 20
2.274167100392161
 30
0.0
 10
21.58744576515878
 20
2.282694822475672
 30
0.0
  0
SPLINE
  5
B7
330
1F
100
AcDbEntity
  8
0
  6
Continuous
 62
     1
370
    15
100
AcDbSpline
210
0.0
220
0.0
230
1.0
 70
     8
 71
     3
 72
    21
 73
    17
 74
     0
 42
0.000000001
 43
0.00000001
 40
0.0
 40
0.0
 40
0.0
 40
0.0
 40
0.0641411951089501
 40
0.1405016709396725
 40
0.2148995066302396
 40
0.2914433589661533
 40
0.36602620962729
 40
0.4427600540002701
 40
0.5175375029037226
 40
0.594471276077409
 40
0.6694493865958611
 40
0.7465892250432445
 40
0.821774501785106
 40
0.8991270377410293
 40
0.9492521744527053
 40
1.0
 40
1.0
 40
1.0
 40
1.0
 10
15.8322561046879
 20
-2.297009689305097
 30
0.0
 10
15.70187148205243
 20
-2.354166760130085
 30
0.0
 10
15.41626318750781
 20
-2.4793696651163
 30
0.0
 10
14.98135043225366
 20
-2.530704249798119
 30
0.0
 10
14.523006687886
 20
-2.474167637763589
 30
0.0
 10
14.06984071081919
 20
-2.296770806142479
 30
0.0
 10
13.6137276215436
 20
-2.00706338916493
 30
0.0
 10
13.16275142956967
 20
-1.62201313329861
 30
0.0
 10
12.70875991872212
 20
-1.153132879748646
 30
0.0
 10
12.25989479054659
 20
-0.6296017652668843
 30
0.0
 10
11.80796667286679
 20
-0.0669074211768695
 30
0.0
 10
11.36110965615006
 20
0.4997341087682743
 30
0.0
 10
10.91123874721144
 20
1.053960830385631
 30
0.0
 10
10.51554070713367
 20
1.503470723456388
 30
0.0
 10
10.16897580150439
 20
1.858163104309868
 30
0.0
 10
9.973333289372
 20
2.028410754574047
 30
0.0
 10
9.874908182653712
 20
2.11406004911209
 30
0.0
  0
ELLIPSE
  5
B8
330
1F
100
AcDbEntity
  8
0
  6
Continuous
 62
     1
370
    15
100
AcDbEllipse
 10
38.58965292419878
 20
0.0841996657050077
 30
0.0
 11
2.403280748245337
 21
-1.646231308619825
 31
0.0
210
0.0
220
0.0
230
1.0
 40
0.1648756616496586
 41
6.063258097878363
 42
6.157545414880699
  0
ELLIPSE
  5
B9
330
1F
100
AcDbEntity
  8
0
  6
Continuous
 62
     1
370
    15
100
AcDbEllipse
 10
41.5115571434296
 20
-0.0348494742502081
 30
0.0
 11
2.19895759108217
 21
1.117977978731384
 31
0.0
210
0.0
220
0.0
230
1.0
 40
0.5141293395495345
 41
4.184884176703078
 42
4.506612205938607
  0
SPLINE
  5
BA
330
1F
100
AcDbEntity
  8
0
  6
Continuous
 62
     1
370
    15
100
AcDbSpline
210
0.0
220
0.0
230
1.0
 70
     8
 71
     3
 72
    22
 73
    18
 74
     0
 42
0.000000001
 43
0.00000001
 40
0.0
 40
0.0
 40
0.0
 40
0.0
 40
0.068769343946371
 40
0.1371395933115124
 40
0.2074867955021266
 40
0.2759235315089308
 40
0.3463529896631267
 40
0.4146289732861134
 40
0.484892653700171
 40
0.5530134566336474
 40
0.6231170527101588
 40
0.6910895568259983
 40
0.7610400674004899
 40
0.8288729698510983
 40
0.898679172336587
 40
0.9663836881776962
 40
0.9999999999999999
 40
0.9999999999999999
 40
0.9999999999999999
 40
0.9999999999999999
 10
9.8749081826537
 20
2.69963359310992
 30
0.0
 10
10.02595169442263
 20
2.688824715974422
 30
0.0
 10
10.32716215518385
 20
2.667269689716322
 30
0.0
 10
10.78486673022427
 20
2.481698317707867
 30
0.0
 10
11.24362039264864
 20
2.192278157079397
 30
0.0
 10
11.70857834606132
 20
1.797590327689538
 30
0.0
 10
12.17075488842057
 20
1.326497324639612
 30
0.0
 10
12.63877601161726
 20
0.7927564637668638
 30
0.0
 10
13.10335559454025
 20
0.231830318872315
 30
0.0
 10
13.57394034027782
 20
-0.3394330282437534
 30
0.0
 10
14.04103440647
 20
-0.8834105819081947
 30
0.0
 10
14.51423162508926
 20
-1.38374191262066
 30
0.0
 10
14.98396440968706
 20
-1.806997065026117
 30
0.0
 10
15.45983004121701
 20
-2.142610109617133
 30
0.0
 10
15.93240074707958
 20
-2.360208599385452
 30
0.0
 10
16.32752236426176
 20
-2.463385467500987
 30
0.0
 10
16.56265839024287
 20
-2.445295603693273
 30
0.0
 10
16.64067202428362
 20
-2.439293733035413
 30
0.0
  0
SPLINE
  5
BB
330
1F
100
AcDbEntity
  8
0
  6
Continuous
 62
     1
370
    15
100
AcDbSpline
210
0.0
220
0.0
230
1.0
 70
     8
 71
     3
 72
    23
 73
    19
 74
     0
 42
0.000000001
 43
0.00000001
 40
0.0
 40
0.0
 40
0.0
 40
0.0
 40
0.0377395937415588
 40
0.1042587704042169
 40
0.1727068418591153
 40
0.2392059132720371
 40
0.3076322455803133
 40
0.3741290592047231
 40
0.4425519386288937
 40
0.5090657168883954
 40
0.5775048348110556
 40
0.6440563526115162
 40
0.712532986561008
 40
0.7791447741977503
 40
0.8476819944325901
 40
0.9143785766274318
 40
0.9830014886120461
 40
0.9999999999999999
 40
0.9999999999999999
 40
0.9999999999999999
 40
0.9999999999999999
 10
22.47181192120312
 20
2.058573546773884
 30
0.0
 10
22.56454265247523
 20
2.096964111879788
 30
0.0
 10
22.82071901959035
 20
2.203021244886416
 30
0.0
 10
23.24719843609785
 20
2.248502213852331
 30
0.0
 10
23.74670881440941
 20
2.199660321550212
 30
0.0
 10
24.25288581668141
 20
2.024651274313698
 30
0.0
 10
24.75660254383744
 20
1.743757272199666
 30
0.0
 10
25.26701300394064
 20
1.366129861860944
 30
0.0
 10
25.77507872432534
 20
0.9206025351249709
 30
0.0
 10
26.28996293884796
 20
0.4245208662566581
 30
0.0
 10
26.80260144778364
 20
-0.0847747505552895
 30
0.0
 10
27.32220087541548
 20
-0.5869835595390891
 30
0.0
 10
27.83965678379235
 20
-1.044344303923574
 30
0.0
 10
28.36424020356597
 20
-1.437515676952341
 30
0.0
 10
28.88674744204418
 20
-1.739824846682115
 30
0.0
 10
29.41672264238815
 20
-1.926905585431121
 30
0.0
 10
29.81414194605662
 20
-2.004186508564158
 30
0.0
 10
30.0387881434134
 20
-1.979384923684384
 30
0.0
 10
30.08338738964893
 20
-1.974461038908681
 30
0.0
  0
SPLINE
  5
BC
330
1F
100
AcDbEntity
  8
0
  6
Continuous
 62
     1
370
    15
100
AcDbSpline
210
0.0
220
0.0
230
1.0
 70
     8
 71
     3
 72
    18
 73
    14
 74
     0
 42
0.000000001
 43
0.00000001
 40
0.0
 40
0.0
 40
0.0
 40
0.0
 40
0.044220898278239
 40
0.1441498833446648
 40
0.2417847293025482
 40
0.3422158176152771
 40
0.4404238861423826
 40
0.5414398806244006
 40
0.6403062967578207
 40
0.7419947233521136
 40
0.841607996876335
 40
0.9440587387459072
 40
1.0
 40
1.0
 40
1.0
 40
1.0
 10
35.72669711055336
 20
1.54952938426398
 30
0.0
 10
35.81149613806745
 20
1.584858026286364
 30
0.0
 10
36.08792132163074
 20
1.700021214383745
 30
0.0
 10
36.55441279410294
 20
1.770583545792402
 30
0.0
 10
37.13151151709348
 20
1.755301844652207
 30
0.0
 10
37.70822062446481
 20
1.610994694303853
 30
0.0
 10
38.29417423404656
 20
1.353956296422883
 30
0.0
 10
38.88004564947403
 20
1.004837711412282
 30
0.0
 10
39.4754458303205
 20
0.584932103597918
 30
0.0
 10
40.07118291827666
 20
0.1316208283142484
 30
0.0
 10
40.67676873046803
 20
-0.3258007200914307
 30
0.0
 10
41.19393837826657
 20
-0.6882449917890237
 30
0.0
 10
41.51242450220477
 20
-0.8760726728240589
 30
0.0
 10
41.62490818265371
 20
-0.9424100962312725
 30
0.0
  0
SPLINE
  5
BD
330
1F
100
AcDbEntity
  8
0
  6
Continuous
 62
     1
370
    15
100
AcDbSpline
210
0.0
220
0.0
230
1.0
 70
     8
 71
     3
 72
    11
 73
     7
 74
     0
 42
0.000000001
 43
0.00000001
 40
0.0
 40
0.0
 40
0.0
 40
0.0
 40
0.2556286546944356
 40
0.5172729108142601
 40
0.7998393154048372
 40
1.0
 40
1.0
 40
1.0
 40
1.0
 10
40.93997828898372
 20
0.9444018175312998
 30
0.0
 10
40.77214830493324
 20
1.04974682477071
 30
0.0
 10
40.43253886453046
 20
1.262915878919259
 30
0.0
 10
39.91022295782351
 20
1.50131667837607
 30
0.0
 10
39.42552860221571
 20
1.654342888739725
 30
0.0
 10
39.11304494066668
 20
1.66624077040268
 30
0.0
 10
38.98347495169847
 20
1.671174175202702
 30
0.0
  0
SPLINE
  5
BE
330
1F
100
AcDbEntity
  8
0
  6
Continuous
 62
     1
370
    15
100
AcDbSpline
210
0.0
220
0.0
230
1.0
 70
     8
 71
     3
 72
    23
 73
    19
 74
     0
 42
0.000000001
 43
0.00000001
 40
0.0
 40
0.0
 40
0.0
 40
0.0
 40
0.0121745579837763
 40
0.0782545110870233
 40
0.1462541274108851
 40
0.2122429345938883
 40
0.2801474920899874
 40
0.3460687901975418
 40
0.4139027068537802
 40
0.4797784352494088
 40
0.5475643765323002
 40
0.6134148634151297
 40
0.6811738290572965
 40
0.7470178817785412
 40
0.8147692967258412
 40
0.8806242773679258
 40
0.9483860664951173
 40
0.9999999999999999
 40
0.9999999999999999
 40
0.9999999999999999
 40
0.9999999999999999
 10
33.5189199575718
 20
-1.627460186381204
 30
0.0
 10
33.48717799511208
 20
-1.644507516094115
 30
0.0
 10
33.28314990994161
 20
-1.754082783943748
 30
0.0
 10
32.90410648172334
 20
-1.860917830573886
 30
0.0
 10
32.38681532638578
 20
-1.924954273741591
 30
0.0
 10
31.86741293825529
 20
-1.859840489158873
 30
0.0
 10
31.35526019159769
 20
-1.681697003931001
 30
0.0
 10
30.8407489036569
 20
-1.394798393504234
 30
0.0
 10
30.33333455408903
 20
-1.022176894432774
 30
0.0
 10
29.82349697623227
 20
-0.5790308482122943
 30
0.0
 10
29.32057334466335
 20
-0.0994886403224058
 30
0.0
 10
28.81517546461827
 20
0.3968155494369668
 30
0.0
 10
28.31652155841116
 20
0.8721807154812959
 30
0.0
 10
27.81534670261679
 20
1.307043977519613
 30
0.0
 10
27.32074860543583
 20
1.669817424270908
 30
0.0
 10
26.82363360973669
 20
1.941301656003559
 30
0.0
 10
26.36785887081784
 20
2.105557952734602
 30
0.0
 10
26.07569112287592
 20
2.122621926202316
 30
0.0
 10
25.94936789414857
 20
2.129999798121937
 30
0.0
  0
SPLINE
  5
BF
330
1F
100
AcDbEntity
  8
0
  6
Continuous
 62
     1
370
    15
100
AcDbSpline
210
0.0
220
0.0
230
1.0
 70
     8
 71
     3
 72
    24
 73
    20
 74
     0
 42
0.000000001
 43
0.00000001
 40
0.0
 40
0.0
 40
0.0
 40
0.0
 40
0.0203237521849101
 40
0.0830879577478415
 40
0.1441963701706722
 40
0.2070693275211386
 40
0.2682934500733583
 40
0.3312849694830978
 40
0.3926339530370715
 40
0.4557534959725347
 40
0.5172359915273931
 40
0.5804925294168155
 40
0.6421164434981361
 40
0.7055181825399569
 40
0.7672903508300845
 40
0.8308443465099375
 40
0.8927701318480898
 40
0.9564818770105527
 40
1.0
 40
1.0
 40
1.0
 40
1.0
 10
20.23838633777905
 20
-2.133637419340932
 30
0.0
 10
20.18672423986314
 20
-2.160951295734125
 30
0.0
 10
19.97551824946589
 20
-2.272616414804626
 30
0.0
 10
19.61081017663227
 20
-2.355072355436645
 30
0.0
 10
19.13985175665654
 20
-2.370118802018454
 30
0.0
 10
18.67461847722248
 20
-2.258463930903758
 30
0.0
 10
18.20648277234596
 20
-2.032524971429684
 30
0.0
 10
17.7438154986002
 20
-1.704374493118696
 30
0.0
 10
17.27831464732218
 20
-1.284876825615517
 30
0.0
 10
16.81812899471489
 20
-0.801252681150543
 30
0.0
 10
16.35514512319968
 20
-0.2686630941674313
 30
0.0
 10
15.89735916112662
 20
0.2780674758090406
 30
0.0
 10
15.43677130954661
 20
0.8218469255255595
 30
0.0
 10
14.98132025161527
 20
1.327259788693743
 30
0.0
 10
14.52301738560596
 20
1.778094303936284
 30
0.0
 10
14.06982854871329
 20
2.146412185304099
 30
0.0
 10
13.61376501340272
 20
2.415025706844171
 30
0.0
 10
13.20723783631788
 20
2.569845391877021
 30
0.0
 10
12.95074428747896
 20
2.580601003480292
 30
0.0
 10
12.84664905732761
 20
2.584966056209022
 30
0.0
  0
ELLIPSE
  5
C0
330
1F
100
AcDbEntity
  8
0
  6
Continuous
 62
     1
370
    15
100
AcDbEllipse
 10
38.58965292419878
 20
-0.0598633926909365
 30
0.0
 11
2.365923876426116
 21
1.494643049976225
 31
0.0
210
0.0
220
0.0
230
1.0
 40
0.3357523528405981
 41
5.611038744452555
 42
5.836073517940553
  0
LINE
  5
C1
330
1F
100
AcDbEntity
  8
0
  6
Continuous
 62
     1
370
    15
100
AcDbLine
 10
40.75343027652511
 20
0.6150505510685504
 30
0.0
 11
41.6249081826537
 21
0.0048351518140948
 31
0.0
  0
LINE
  5
C2
330
1F
100
AcDbEntity
  8
0
  6
Continuous
 62
     1
370
    15
100
AcDbLine
 10
41.6249081826537
 20
0.0048351518140965
 30
0.0
 11
41.6249081826537
 21
-0.9424100962309323
 31
0.0
  0
SPLINE
  5
C3
330
1F
100
AcDbEntity
  8
0
  6
Continuous
 62
     4
370
    15
100
AcDbSpline
210
0.0
220
0.0
230
1.0
 70
     8
 71
     3
 72
     8
 73
     4
 74
     0
 42
0.000000001
 43
0.00000001
 40
0.0
 40
0.0
 40
0.0
 40
0.0
 40
1.0
 40
1.0
 40
1.0
 40
1.0
 10
9.874908182653716
 20
-2.504300528383365
 30
0.0
 10
9.576258357153149
 20
-2.37486044634576
 30
0.0
 10
9.28104176485881
 20
-2.167869122411294
 30
0.0
 10
8.984908182653697
 20
-1.898779683185487
 30
0.0
  0
SPLINE
  5
C4
330
1F
100
AcDbEntity
  8
0
  6
Continuous
 62
     4
370
    15
100
AcDbSpline
210
0.0
220
0.0
230
1.0
 70
     8
 71
     3
 72
     8
 73
     4
 74
     0
 42
0.000000001
 43
0.00000001
 40
0.0
 40
0.0
 40
0.0
 40
0.0
 40
1.0
 40
1.0
 40
1.0
 40
1.0
 10
8.984908182653786
 20
-0.1935304951020441
 30
0.0
 10
9.280987525773309
 20
-0.5720004336532614
 30
0.0
 10
9.576316821874968
 20
-0.9384742122270808
 30
0.0
 10
9.874908182653709
 20
-1.266366285121453
 30
0.0
  0
SPLINE
  5
C5
330
1F
100
AcDbEntity
  8
0
  6
Continuous
 62
     1
370
    15
100
AcDbSpline
210
0.0
220
0.0
230
1.0
 70
     8
 71
     3
 72
    23
 73
    19
 74
     0
 42
0.000000001
 43
0.00000001
 40
0.0
 40
0.0
 40
0.0
 40
0.0
 40
0.0295571706712313
 40
0.0981327189302423
 40
0.1687071892990425
 40
0.2370669287767499
 40
0.3074174224332308
 40
0.375594150267675
 40
0.445754541856614
 40
0.5137796308635171
 40
0.5837823340577313
 40
0.6516869423210514
 40
0.7215642211579979
 40
0.7893751667033796
 40
0.8591547618683782
 40
0.9268963342210242
 40
0.9966033379519672
 40
1.0
 40
1.0
 40
1.0
 40
1.0
 10
37.93763297270885
 20
-1.453480775001041
 30
0.0
 10
37.85998175804986
 20
-1.491975200377652
 30
0.0
 10
37.6021720743192
 20
-1.619780485527658
 30
0.0
 10
37.16155951453772
 20
-1.730329524776447
 30
0.0
 10
36.62130119466922
 20
-1.77077242751154
 30
0.0
 10
36.0790806994345
 20
-1.683482496256157
 30
0.0
 10
35.54519092548347
 20
-1.483247704546492
 30
0.0
 10
35.00916037060819
 20
-1.17746639829335
 30
0.0
 10
34.48119167871192
 20
-0.7922587141755377
 30
0.0
 10
33.95101839552947
 20
-0.3453969661721437
 30
0.0
 10
33.4286298098182
 20
0.1262189925896413
 30
0.0
 10
32.90397516013333
 20
0.6010213953679843
 30
0.0
 10
32.38684701157503
 20
1.040678728953107
 30
0.0
 10
31.8674141654693
 20
1.424313498305597
 30
0.0
 10
31.35522195878632
 20
1.725512784709288
 30
0.0
 10
30.84089690658929
 20
1.914263417069571
 30
0.0
 10
30.49203112346426
 20
1.998807307194799
 30
0.0
 10
30.3120229305929
 20
1.985548568686879
 30
0.0
 10
30.30365909561218
 20
1.984932519499541
 30
0.0
  0
SPLINE
  5
C6
330
1F
100
AcDbEntity
  8
0
  6
Continuous
 62
     1
370
    15
100
AcDbSpline
210
0.0
220
0.0
230
1.0
 70
     8
 71
     3
 72
    24
 73
    20
 74
     0
 42
0.000000001
 43
0.00000001
 40
0.0
 40
0.0
 40
0.0
 40
0.0
 40
0.0375023862308964
 40
0.0999550428517579
 40
0.1642139619285093
 40
0.2267334838797167
 40
0.2910606098405734
 40
0.3536582919786138
 40
0.4180652494150666
 40
0.4807518490897816
 40
0.5452497046952567
 40
0.6080355838134509
 40
0.6726350032176857
 40
0.735530214394561
 40
0.8002415654686211
 40
0.8632558701178135
 40
0.928089249983981
 40
0.9912320665476827
 40
1.0
 40
1.0
 40
1.0
 40
1.0
 10
24.66295333114512
 20
-1.963964395824958
 30
0.0
 10
24.56698953757974
 20
-2.010441935760489
 30
0.0
 10
24.31121741046793
 20
-2.134318439706066
 30
0.0
 10
23.89321546917545
 20
-2.214662496024363
 30
0.0
 10
23.41305624508486
 20
-2.206887150046771
 30
0.0
 10
22.93016939881933
 20
-2.074960050558355
 30
0.0
 10
22.4533150311808
 20
-1.833675061059636
 30
0.0
 10
21.97359565236289
 20
-1.489617145826616
 30
0.0
 10
21.49984577344955
 20
-1.066558725790613
 30
0.0
 10
21.0231888354749
 20
-0.5790200366602511
 30
0.0
 10
20.55240025712786
 20
-0.0600979388126729
 30
0.0
 10
20.0786955390927
 20
0.4723410703436132
 30
0.0
 10
19.61073401476572
 20
0.9821959854367296
 30
0.0
 10
19.13987076053528
 20
1.45229250232758
 30
0.0
 10
18.67462053546173
 20
1.84977667274866
 30
0.0
 10
18.20645651007995
 20
2.165069675940327
 30
0.0
 10
17.74392099613451
 20
2.361801278854619
 30
0.0
 10
17.41365487956966
 20
2.451944243660998
 30
0.0
 10
17.24080300578976
 20
2.438970376302557
 30
0.0
 10
17.21972752366682
 20
2.43738849868909
 30
0.0
  0
SPLINE
  5
C7
330
1F
100
AcDbEntity
  8
0
  6
Continuous
 62
     1
370
    15
100
AcDbSpline
210
0.0
220
0.0
230
1.0
 70
     8
 71
     3
 72
    12
 73
     8
 74
     0
 42
0.000000001
 43
0.00000001
 40
0.0
 40
0.0
 40
0.0
 40
0.0
 40
0.0385043985205183
 40
0.3237736925971165
 40
0.6172660395488025
 40
0.8074517113303541
 40
1.0
 40
1.0
 40
1.0
 40
1.0
 10
11.41739931825927
 20
-2.458686191178074
 30
0.0
 10
11.39744515020819
 20
-2.470356720561186
 30
0.0
 10
11.22965562691108
 20
-2.568491233451186
 30
0.0
 10
10.91134351742366
 20
-2.649156449906972
 30
0.0
 10
10.5155232870188
 20
-2.677430024243612
 30
0.0
 10
10.16897940511398
 20
-2.618599093461973
 30
0.0
 10
9.973334495508396
 20
-2.542556520354113
 30
0.0
 10
9.874908182653712
 20
-2.504300528383361
 30
0.0
  0
SPLINE
  5
C8
330
1F
100
AcDbEntity
  8
0
  6
Continuous
 62
     4
370
    15
100
AcDbSpline
210
0.0
220
0.0
230
1.0
 70
     8
 71
     3
 72
     9
 73
     5
 74
     0
 42
0.000000001
 43
0.00000001
 40
0.0
 40
0.0
 40
0.0
 40
0.0
 40
0.3483706971471016
 40
1.0
 40
1.0
 40
1.0
 40
1.0
 10
9.201880603001324
 20
2.549942726868753
 30
0.0
 10
9.27977728105788
 20
2.584171979299032
 30
0.0
 10
9.503380123359115
 20
2.682427236444915
 30
0.0
 10
9.728326519413509
 20
2.692845044263705
 30
0.0
 10
9.874908182653707
 20
2.699633593109919
 30
0.0
  0
LINE
  5
C9
330
1F
100
AcDbEntity
  8
0
  6
Continuous
 62
     4
370
    15
100
AcDbLine
 10
8.984908182653697
 20
2.654832601040007
 30
0.0
 11
8.984908182653697
 21
2.737760681687853
 31
0.0
  0
SPLINE
  5
CA
330
1F
100
AcDbEntity
  8
0
  6
Continuous
 62
     4
370
    15
100
AcDbSpline
210
0.0
220
0.0
230
1.0
 70
     8
 71
     3
 72
     8
 73
     4
 74
     0
 42
0.000000001
 43
0.00000001
 40
0.0
 40
0.0
 40
0.0
 40
0.0
 40
1.0
 40
1.0
 40
1.0
 40
1.0
 10
9.874908182653714
 20
2.114060049112091
 30
0.0
 10
9.576258357153149
 20
2.363482766298568
 30
0.0
 10
9.28104176485881
 20
2.548411679176118
 30
0.0
 10
8.984908182653697
 20
2.65483260104001
 30
0.0
  0
LINE
  5
CB
330
1F
100
AcDbEntity
  8
0
  6
Continuous
 62
     4
370
    15
100
AcDbLine
 10
8.984908182653697
 20
-1.898779683185485
 30
0.0
 11
8.984908182653697
 21
-0.1935304951016827
 31
0.0
  0
SPLINE
  5
CC
330
1F
100
AcDbEntity
  8
0
  6
Continuous
 62
     1
370
    15
100
AcDbSpline
210
0.0
220
0.0
230
1.0
 70
     8
 71
     3
 72
    11
 73
     7
 74
     0
 42
0.000000001
 43
0.00000001
 40
0.0
 40
0.0
 40
0.0
 40
0.0
 40
0.183191268596588
 40
0.5659574479837135
 40
0.83943544606768
 40
1.0
 40
1.0
 40
1.0
 40
1.0
 10
40.56506971273191
 20
-1.226970263425752
 30
0.0
 10
40.59924797551587
 20
-1.185620102035957
 30
0.0
 10
40.70483948394259
 20
-1.057871481737799
 30
0.0
 10
40.90151381154249
 20
-0.8865562583870885
 30
0.0
 10
41.11079944790851
 20
-0.7528162792857114
 30
0.0
 10
41.21258513866083
 20
-0.7240850849356079
 30
0.0
 10
41.25023852991571
 20
-0.713456607650749
 30
0.0
  0
SPLINE
  5
CD
330
1F
100
AcDbEntity
  8
0
  6
Continuous
 62
     1
370
    15
100
AcDbSpline
210
0.0
220
0.0
230
1.0
 70
     8
 71
     3
 72
     8
 73
     4
 74
     0
 42
0.000000001
 43
0.00000001
 40
0.0
 40
0.0
 40
0.0
 40
0.0
 40
1.0
 40
1.0
 40
1.0
 40
1.0
 10
40.5650697127319
 20
-1.226970263425754
 30
0.0
 10
40.69162138722516
 20
-1.351061354244325
 30
0.0
 10
40.81586102979701
 20
-1.474903197167575
 30
0.0
 10
40.93997828897942
 20
-1.598708522908971
 30
0.0
  0
SPLINE
  5
CE
330
1F
100
AcDbEntity
  8
0
  6
Continuous
 62
     1
370
    15
100
AcDbSpline
210
0.0
220
0.0
230
1.0
 70
     8
 71
     3
 72
    23
 73
    19
 74
     0
 42
0.000000001
 43
0.00000001
 40
0.0
 40
0.0
 40
0.0
 40
0.0
 40
0.0579495996169323
 40
0.1214861939308836
 40
0.1868717092982593
 40
0.2502778124013199
 40
0.3155284372769232
 40
0.3788145323262982
 40
0.4439411074590393
 40
0.5071169392972624
 40
0.5721294420794806
 40
0.635205632259415
 40
0.700114943911217
 40
0.7631029093627181
 40
0.8279207298743761
 40
0.8908326461551737
 40
0.9555714548669636
 40
1.0
 40
1.0
 40
1.0
 40
1.0
 10
13.62484555254031
 20
2.393212148217615
 30
0.0
 10
13.76518085391618
 20
2.442597646642387
 30
0.0
 10
14.05938136178848
 20
2.546129962286758
 30
0.0
 10
14.51426055342075
 20
2.554601740573363
 30
0.0
 10
14.9839525008964
 20
2.450961867411204
 30
0.0
 10
15.45984900085472
 20
2.224571737804142
 30
0.0
 10
15.93233558474494
 20
1.894880096607477
 30
0.0
 10
16.41101211495691
 20
1.471799659358191
 30
0.0
 10
16.8863994473824
 20
0.9845039183757078
 30
0.0
 10
17.3679764401488
 20
0.4488728995072454
 30
0.0
 10
17.84639220770029
 20
-0.0984533140918676
 30
0.0
 10
18.33099612390932
 20
-0.6395775415450561
 30
0.0
 10
18.81257122887616
 20
-1.137452075389984
 30
0.0
 10
19.30034772759223
 20
-1.575439677825238
 30
0.0
 10
19.78520403765149
 20
-1.924859674178359
 30
0.0
 10
20.27636004824841
 20
-2.168869154226234
 30
0.0
 10
20.71725142977846
 20
-2.297604731370116
 30
0.0
 10
20.9983211196478
 20
-2.289816615006603
 30
0.0
 10
21.11270987198156
 20
-2.286647034842102
 30
0.0
  0
SPLINE
  5
CF
330
1F
100
AcDbEntity
  8
0
  6
Continuous
 62
     1
370
    15
100
AcDbSpline
210
0.0
220
0.0
230
1.0
 70
     8
 71
     3
 72
    22
 73
    18
 74
     0
 42
0.000000001
 43
0.00000001
 40
0.0
 40
0.0
 40
0.0
 40
0.0
 40
0.058421185855146
 40
0.1286339548034618
 40
0.1969345967132636
 40
0.2672094880325144
 40
0.3355970743549222
 40
0.4059598300255673
 40
0.4744618504309542
 40
0.5449406010189484
 40
0.6135872584107243
 40
0.6842129001210987
 40
0.7530375631149343
 40
0.823844220223305
 40
0.8928839462342019
 40
0.9639095098779481
 40
1.0
 40
1.0
 40
1.0
 40
1.0
 10
26.88110748058251
 20
1.895054149799719
 30
0.0
 10
27.02650580005315
 20
1.946904014061067
 30
0.0
 10
27.34664926481712
 20
2.061068986892962
 30
0.0
 10
27.83969326254178
 20
2.09230985282625
 30
0.0
 10
28.36422275356857
 20
2.013483689200568
 30
0.0
 10
28.88678068128982
 20
1.81528386108129
 30
0.0
 10
29.41660928502293
 20
1.510348726134696
 30
0.0
 10
29.94453222673562
 20
1.121657594619744
 30
0.0
 10
30.47993593220417
 20
0.6667231856697089
 30
0.0
 10
31.01354606524591
 20
0.1813554015610888
 30
0.0
 10
31.5548668044022
 20
-0.3124003501330677
 30
0.0
 10
32.09450653955209
 20
-0.7755012648896016
 30
0.0
 10
32.642125745172
 20
-1.185826028635781
 30
0.0
 10
33.1881554738267
 20
-1.512665865652153
 30
0.0
 10
33.74256792821431
 20
-1.732654871096975
 30
0.0
 10
34.20745851658696
 20
-1.837328559799599
 30
0.0
 10
34.4918558626717
 20
-1.819449061309562
 30
0.0
 10
34.58767753690972
 20
-1.813424942226041
 30
0.0
  0
SPLINE
  5
D0
330
1F
100
AcDbEntity
  8
0
  6
Continuous
 62
     1
370
    15
100
AcDbSpline
210
0.0
220
0.0
230
1.0
 70
     8
 71
     3
 72
    10
 73
     6
 74
     0
 42
0.000000001
 43
0.00000001
 40
0.0
 40
0.0
 40
0.0
 40
0.0
 40
0.3574445308203662
 40
0.7730607438333889
 40
1.0
 40
1.0
 40
1.0
 40
1.0
 10
40.14456823202222
 20
1.381386552167025
 30
0.0
 10
40.32007894733052
 20
1.441368725294826
 30
0.0
 10
40.69966356096432
 20
1.571094764936553
 30
0.0
 10
41.19395949933435
 20
1.617719721155113
 30
0.0
 10
41.51243001483097
 20
1.591107427805611
 30
0.0
 10
41.62490818265371
 20
1.581708435271419
 30
0.0
  0
LINE
  5
D1
330
1F
100
AcDbEntity
  8
0
  6
Continuous
 62
     1
370
    15
100
AcDbLine
 10
41.6249081826537
 20
1.592335151814097
 30
0.0
 11
41.6249081826537
 21
1.581708435270851
 31
0.0
  0
SPLINE
  5
D2
330
1F
100
AcDbEntity
  8
0
  6
Continuous
 62
     1
370
    15
100
AcDbSpline
210
0.0
220
0.0
230
1.0
 70
     8
 71
     3
 72
    14
 73
    10
 74
     0
 42
0.000000001
 43
0.00000001
 40
0.0
 40
0.0
 40
0.0
 40
0.0
 40
0.0743434795445668
 40
0.2482641221015946
 40
0.4230233236344897
 40
0.576732777195013
 40
0.7235964250318646
 40
0.9311797985301221
 40
1.0
 40
1.0
 40
1.0
 40
1.0
 10
40.85212632621049
 20
0.798654774220304
 30
0.0
 10
40.87833982444465
 20
0.7849212703497002
 30
0.0
 10
40.96587771164314
 20
0.7390593292258598
 30
0.0
 10
41.13875914757903
 20
0.7554587539325587
 30
0.0
 10
41.330014776878
 20
0.8386075298795442
 30
0.0
 10
41.47770146014381
 20
0.9975119199845588
 30
0.0
 10
41.58270878326017
 20
1.214455656981048
 30
0.0
 10
41.62118516530889
 20
1.417664573284507
 30
0.0
 10
41.62416600085385
 20
1.549006366635019
 30
0.0
 10
41.6249081826537
 20
1.581708435270851
 30
0.0
  0
LINE
  5
D3
330
1F
100
AcDbEntity
  8
0
  6
Continuous
 62
     1
370
    15
100
AcDbLine
 10
41.6249081826537
 20
0.0048351518141014
 30
0.0
 11
41.6249081826537
 21
1.581708435270851
 31
0.0
  0
LINE
  5
D4
330
1F
100
AcDbEntity
  8
0
  6
Continuous
 62
     1
370
    15
100
AcDbLine
 10
41.6249081826537
 20
-0.9424100962312689
 30
0.0
 11
41.6249081826537
 21
-1.369980176693691
 31
0.0
  0
LINE
  5
D5
330
1F
100
AcDbEntity
  8
0
  6
Continuous
 62
     8
370
    15
100
AcDbLine
 10
9.874908182653716
 20
-2.504300528383365
 30
0.0
 11
9.874908182653714
 21
-2.691399279548893
 31
0.0
  0
LINE
  5
D6
102
{ACAD_REACTORS
102
}
330
1F
100
AcDbEntity
  8
중심선
100
AcDbLine
 10
-37.57509181734629
 20
0.0048351518140915
 30
0.0
 11
44.62490428620234
 21
0.0048351518140915
 31
0.0
  0
CIRCLE
  5
D7
330
1F
100
AcDbEntity
  8
외형선
100
AcDbCircle
 10
-0.0000000000000013
 20
-0.0000000000000039
 30
0.0
 40
3.000000000000004
  0
INSERT
  5
D8
330
1F
100
AcDbEntity
  8
0
  6
Continuous
 62
     7
100
AcDbBlockReference
 66
     1
  2
블럭10
 10
-16.63945112874702
 20
-52.04717430164393
 30
0.0
  0
ATTRIB
  5
D9
330
D8
100
AcDbEntity
  8
FORMAT
 62
     2
100
AcDbText
 10
-25.8207464174883
 20
-49.97180738881174
 30
0.0
 40
4.233333333333333
  1
E5077208 [ 3 FLUTE ]
 41
0.75
  7
SLDTEXTSTYLE0
 11
-25.8207464174883
 21
-52.08847405547841
 31
0.0
100
AcDbAttribute
  2
AUTOATTR0
 70
     0
 74
     1
  0
SEQEND
  5
DA
330
D8
100
AcDbEntity
  8
0
  6
Continuous
 62
     7
  0
HATCH
  5
DB
330
1F
100
AcDbEntity
  8
중심선
100
AcDbHatch
 10
0.0
 20
0.0
 30
0.0
210
0.0
220
0.0
230
1.0
  2
SOLID
 70
     1
 71
     0
 91
        1
 92
        0
 93
        4
 72
     1
 10
-10.92454182436617
 20
-35.8
 11
-14.37081706820345
 21
-35.8
 72
     1
 10
-14.37081706820345
 20
-35.8
 11
-16.49904692740747
 21
-38.33632558057259
 72
     1
 10
-16.49904692740747
 20
-38.33632558057259
 11
-13.05273859845704
 21
-38.3362861512701
 72
     1
 10
-13.05273859845704
 20
-38.3362861512701
 11
-10.92454182436617
 21
-35.8
 97
        0
 75
     0
 76
     1
 98
        1
 10
0.0
 20
0.0
  0
HATCH
  5
DC
330
1F
100
AcDbEntity
  8
중심선
100
AcDbHatch
 10
0.0
 20
0.0
 30
0.0
210
0.0
220
0.0
230
1.0
  2
SOLID
 70
     1
 71
     0
 91
        1
 92
        0
 93
        4
 72
     1
 10
-5.911777833330217
 20
-35.8
 11
-9.358053077167499
 21
-35.8
 72
     1
 10
-9.358053077167499
 20
-35.8
 11
-13.88919108552489
 21
-41.20000000000002
 72
     1
 10
-13.88919108552489
 20
-41.20000000000002
 11
-10.44291584168761
 21
-41.20000000000002
 72
     1
 10
-10.44291584168761
 20
-41.20000000000002
 11
-5.911777833330217
 21
-35.8
 97
        0
 75
     0
 76
     1
 98
        1
 10
0.0
 20
0.0
  0
HATCH
  5
DD
330
1F
100
AcDbEntity
  8
중심선
100
AcDbHatch
 10
0.0
 20
0.0
 30
0.0
210
0.0
220
0.0
230
1.0
  2
SOLID
 70
     1
 71
     0
 91
        1
 92
        0
 93
        4
 72
     1
 10
-0.8990138422943217
 20
-35.80000000000003
 11
-4.345289086131437
 21
-35.8
 72
     1
 10
-4.345289086131437
 20
-35.8
 11
-11.39372598802069
 21
-44.20000000000002
 72
     1
 10
-11.39372598802069
 20
-44.20000000000002
 11
-7.947450744183405
 21
-44.20000000000002
 72
     1
 10
-7.947450744183405
 20
-44.20000000000002
 11
-0.8990138422943215
 21
-35.80000000000003
 97
        0
 75
     0
 76
     1
 98
        1
 10
0.0
 20
0.0
  0
HATCH
  5
DE
330
1F
100
AcDbEntity
  8
중심선
100
AcDbHatch
 10
0.0
 20
0.0
 30
0.0
210
0.0
220
0.0
230
1.0
  2
SOLID
 70
     1
 71
     0
 91
        1
 92
        0
 93
        6
 72
     3
 10
3.900876588717877
 20
-40.00000000005127
 11
3.960054785062284
 21
1.540850780301639E-10
 40
0.3939339440162633
 50
17.09539180608433
 51
320.0019657685079
 73
     0
 72
     1
 10
5.583876244418473
 20
-38.5878940046383
 11
7.889178118119511
 21
-36.65356729459038
 72
     3
 10
3.900876588665031
 20
-40.00000000000015
 11
6.600054785286829
 21
-1.249000902703301E-13
 40
0.6363583540795982
 50
39.99873849337408
 51
368.4976242363725
 73
     1
 72
     1
 10
10.32620908056564
 20
-39.03999999993002
 11
2.580943895500953
 21
-39.03999999992999
 72
     1
 10
2.580943895500953
 20
-39.03999999992999
 11
2.58091885105502
 21
-40.95999999992991
 72
     1
 10
2.58091885105502
 20
-40.95999999992991
 11
7.022298620527057
 21
-40.95999999992988
 97
        0
 75
     0
 76
     1
 98
        1
 10
0.0
 20
0.0
  0
POINT
  5
DF
330
1F
100
AcDbEntity
  8
치수문자_일반주서
100
AcDbPoint
 10
-0.0000000000000013
 20
-0.0000000000000039
 30
0.0
  0
DIMENSION
  5
E0
330
1F
100
AcDbEntity
  8
치수문자_일반주서
100
AcDbDimension
  2
_D
 10
9.874908182653707
 20
36.79946038529743
 30
0.0
 11
25.7499081826537
 21
36.79946038529743
 31
0.0
 70
   160
  1
<>
 71
     2
 42
31.74999999999999
  3
SLDDIMSTYLE0
100
AcDbAlignedDimension
 13
41.6249081826537
 23
1.581708435270851
 33
0.0
 14
9.874908182653707
 24
2.699633593109919
 34
0.0
100
AcDbRotatedDimension
1001
ACAD
1000
DSTYLE
1002
{
1070
   171
1070
     6
1070
   273
1070
     7
1002
}
  0
DIMENSION
  5
F6
330
1F
100
AcDbEntity
  8
치수문자_일반주서
100
AcDbDimension
  2
_D_1
 10
-34.5750918173463
 20
52.66409214920037
 30
0.0
 11
4.818907239273386
 21
52.66409214920037
 31
0.0
 70
   160
  1
<>
 71
     2
 42
76.2
  3
SLDDIMSTYLE1
100
AcDbAlignedDimension
 13
41.6249081826537
 23
1.581708435270851
 33
0.0
 14
-34.5750918173463
 24
2.369835151814089
 34
0.0
 50
0.0000000000000053
100
AcDbRotatedDimension
1001
ACAD
1000
DSTYLE
1002
{
1070
   171
1070
     6
1070
   273
1070
     7
1002
}
  0
DIMENSION
  5
10A
330
1F
100
AcDbEntity
  8
치수문자_일반주서
100
AcDbDimension
  2
_D_2
 10
-45.53422109744304
 20
-3.170164848185948
 30
0.0
 11
-45.53422109744314
 21
24.42500043815251
 31
0.0
 70
   160
  1
%%c<>
 71
     2
 42
6.349999999999994
  3
SLDDIMSTYLE0
100
AcDbAlignedDimension
 13
-33.7650918173463
 23
3.179835151814088
 33
0.0
 14
-33.7650918173463
 24
-3.170164848185907
 34
0.0
 50
90.0000000000002
100
AcDbRotatedDimension
1001
ACAD
1000
DSTYLE
1002
{
1070
   171
1070
     6
1070
   273
1070
     7
1002
}
  0
INSERT
  5
124
330
1F
100
AcDbEntity
  8
외형선
100
AcDbBlockReference
  2
SW_DOWELSYMBOL_0
 10
-0.0000000000000013
 20
-0.0000000000000039
 30
0.0
  0
DIMENSION
  5
14C
102
{ACAD_REACTORS
102
}
102
{ACAD_XDICTIONARY
360
14D
102
}
330
1F
100
AcDbEntity
  8
치수문자_일반주서
100
AcDbDimension
  2
*D6
 10
57.77736751131442
 20
-1.58266484818591
 30
0.0
 11
57.77736751131442
 21
20.4463351518141
 31
0.0
 70
   160
  1
{%%c<>[]}
 71
     5
 42
3.175000000000005
  3
SLDDIMSTYLE0
100
AcDbAlignedDimension
 13
41.6249081826537
 23
1.592335151814097
 33
0.0
 14
41.6249081826537
 24
-1.582664848185908
 34
0.0
 50
90.0
100
AcDbRotatedDimension
1001
ACAD
1000
DSTYLE
1002
{
1070
   283
1070
     1
1070
   170
1070
     1
1070
   171
1070
     6
1070
   273
1070
     7
1002
}
  0
DIMENSION
  5
165
102
{ACAD_REACTORS
102
}
102
{ACAD_XDICTIONARY
360
166
102
}
330
1F
100
AcDbEntity
  8
치수문자_일반주서
100
AcDbDimension
  2
*D7
 10
44.62490428620234
 20
0.0048351518140915
 30
0.0
 11
12.61426402148819
 21
12.05878577922401
 31
0.0
 70
    34
  1
<>
 71
     5
 42
0.0349065850398865
  3
SLDDIMSTYLE0
100
AcDb2LineAngularDimension
 13
12.84707903793712
 23
2.597279089849643
 33
0.0
 14
9.94488185119813
 24
2.698626048827353
 34
0.0
 15
-37.57509181734629
 25
0.0048351518140915
 35
0.0
 16
14.32064433957474
 26
0.8515246226135381
 36
0.0
1001
ACAD
1000
DSTYLE
1002
{
1070
   171
1070
     6
1070
   273
1070
     7
1002
}
  0
ENDSEC
  0
SECTION
  2
OBJECTS
  0
DICTIONARY
  5
C
330
0
100
AcDbDictionary
281
     1
  3
ACAD_GROUP
350
D
  3
ACAD_IMAGE_VARS
350
148
  3
ACAD_LAYOUT
350
1A
  3
ACAD_MLINESTYLE
350
17
  3
ACAD_PLOTSETTINGS
350
19
  3
ACAD_PLOTSTYLENAME
350
E
  3
ACAD_SCALELIST
350
47
  3
APPDATA
350
146
  3
DWGPROPS
350
179
  0
DICTIONARY
  5
14D
330
14C
100
AcDbDictionary
280
     1
281
     1
  0
DICTIONARY
  5
166
330
165
100
AcDbDictionary
280
     1
281
     1
  0
DICTIONARY
  5
D
102
{ACAD_REACTORS
330
C
102
}
330
C
100
AcDbDictionary
281
     1
  0
RASTERVARIABLES
  5
148
102
{ACAD_REACTORS
330
C
102
}
330
C
100
AcDbRasterVariables
 90
        0
 70
     1
 71
     1
 72
     1
  0
DICTIONARY
  5
1A
102
{ACAD_REACTORS
330
C
102
}
330
C
100
AcDbDictionary
281
     1
  3
Layout1
350
1E
  3
Layout2
350
26
  3
Model
350
22
  0
DICTIONARY
  5
17
102
{ACAD_REACTORS
330
C
102
}
330
C
100
AcDbDictionary
281
     1
  3
Standard
350
18
  0
DICTIONARY
  5
19
102
{ACAD_REACTORS
330
C
102
}
330
C
100
AcDbDictionary
281
     1
  0
ACDBDICTIONARYWDFLT
  5
E
102
{ACAD_REACTORS
330
C
102
}
330
C
100
AcDbDictionary
281
     1
  3
Normal
350
F
100
AcDbDictionaryWithDefault
340
F
  0
DICTIONARY
  5
47
102
{ACAD_REACTORS
330
C
102
}
330
C
100
AcDbDictionary
281
     1
  3
A0
350
48
  3
A1
350
49
  3
A2
350
4A
  3
A3
350
4B
  3
A4
350
4C
  3
A5
350
4D
  3
A6
350
4E
  3
A7
350
4F
  3
A8
350
50
  3
A9
350
51
  3
B0
350
52
  3
B1
350
53
  3
B2
350
54
  3
B3
350
55
  3
B4
350
56
  3
B5
350
57
  3
B6
350
58
  3
B7
350
59
  3
B8
350
5A
  3
B9
350
5B
  3
C0
350
5C
  3
C1
350
5D
  3
C2
350
5E
  3
C3
350
5F
  3
C4
350
60
  3
C5
350
61
  3
C6
350
62
  3
C7
350
63
  3
C8
350
64
  3
C9
350
65
  3
D0
350
66
  3
D1
350
67
  3
D2
350
68
  0
DICTIONARY
  5
146
102
{ACAD_REACTORS
330
C
102
}
330
C
100
AcDbDictionary
281
     1
  0
XRECORD
  5
179
102
{ACAD_REACTORS
330
C
102
}
330
C
100
AcDbXrecord
280
     1
  1
DWGPROPS COOKIE
  2

  3

  4

  6

  7

  8
12015048
  9

300
=
301
=
302
=
303
=
304
=
305
=
306
=
307
=
308
=
309
=
 40
0.0
 41
2458333.348408437
 42
2458340.068087836
  1

 90
        0
  0
LAYOUT
  5
1E
102
{ACAD_REACTORS
330
1A
102
}
330
1A
100
AcDbPlotSettings
  1

  2
none_device
  4

  6

 40
0.0
 41
0.0
 42
0.0
 43
0.0
 44
0.0
 45
0.0
 46
0.0
 47
0.0
 48
0.0
 49
0.0
140
0.0
141
0.0
142
1.0
143
1.0
 70
   688
 72
     1
 73
     0
 74
     5
  7

 75
    16
147
1.0
148
0.0
149
0.0
100
AcDbLayout
  1
Layout1
 70
     1
 71
     1
 10
0.0
 20
0.0
 11
420.0
 21
297.0
 12
0.0
 22
0.0
 32
0.0
 14
1.000000000000000E+20
 24
1.000000000000000E+20
 34
1.000000000000000E+20
 15
-1.000000000000000E+20
 25
-1.000000000000000E+20
 35
-1.000000000000000E+20
146
0.0
 13
0.0
 23
0.0
 33
0.0
 16
1.0
 26
0.0
 36
0.0
 17
0.0
 27
1.0
 37
0.0
 76
     0
330
1B
  0
LAYOUT
  5
26
102
{ACAD_REACTORS
330
1A
102
}
330
1A
100
AcDbPlotSettings
  1

  2
none_device
  4

  6

 40
0.0
 41
0.0
 42
0.0
 43
0.0
 44
0.0
 45
0.0
 46
0.0
 47
0.0
 48
0.0
 49
0.0
140
0.0
141
0.0
142
1.0
143
1.0
 70
   688
 72
     1
 73
     0
 74
     5
  7

 75
    16
147
1.0
148
0.0
149
0.0
100
AcDbLayout
  1
Layout2
 70
     1
 71
     2
 10
0.0
 20
0.0
 11
0.0
 21
0.0
 12
0.0
 22
0.0
 32
0.0
 14
0.0
 24
0.0
 34
0.0
 15
0.0
 25
0.0
 35
0.0
146
0.0
 13
0.0
 23
0.0
 33
0.0
 16
1.0
 26
0.0
 36
0.0
 17
0.0
 27
1.0
 37
0.0
 76
     0
330
23
  0
LAYOUT
  5
22
102
{ACAD_REACTORS
330
1A
102
}
330
1A
100
AcDbPlotSettings
  1

  2
none_device
  4
ANSI_A_(11.00_x_8.50_Inches)
  6

 40
6.35
 41
19.05
 42
6.35000508
 43
19.05000254
 44
279.4
 45
215.9
 46
146.01272942344
 47
105.6119490946392
 48
0.0
 49
0.0
140
0.0
141
0.0
142
0.0959356527919581
143
1.0
 70
  1696
 72
     0
 73
     0
 74
     0
  7

 75
     0
147
0.0235690232323232
148
0.0
149
0.0
100
AcDbLayout
  1
Model
 70
     1
 71
     0
 10
0.0
 20
0.0
 11
420.0
 21
297.0
 12
0.0
 22
0.0
 32
0.0
 14
-49.90922109744317
 24
-49.97180738881174
 34
0.0
 15
58.32770084464776
 25
57.03909214920037
 35
0.0
146
0.0
 13
0.0
 23
0.0
 33
0.0
 16
1.0
 26
0.0
 36
0.0
 17
0.0
 27
1.0
 37
0.0
 76
     0
330
1F
331
29
  0
MLINESTYLE
  5
18
102
{ACAD_REACTORS
330
17
102
}
330
17
100
AcDbMlineStyle
  2
Standard
 70
     0
  3

 62
   256
 51
90.0
 52
90.0
 71
     2
 49
0.5
 62
   256
  6
BYLAYER
 49
-0.5
 62
   256
  6
BYLAYER
  0
ACDBPLACEHOLDER
  5
F
102
{ACAD_REACTORS
330
E
102
}
330
E
  0
SCALE
  5
48
102
{ACAD_REACTORS
330
47
102
}
330
47
100
AcDbScale
 70
     0
300
1:1
140
1.0
141
1.0
290
     1
  0
SCALE
  5
49
102
{ACAD_REACTORS
330
47
102
}
330
47
100
AcDbScale
 70
     0
300
1:2
140
1.0
141
2.0
290
     0
  0
SCALE
  5
4A
102
{ACAD_REACTORS
330
47
102
}
330
47
100
AcDbScale
 70
     0
300
1:4
140
1.0
141
4.0
290
     0
  0
SCALE
  5
4B
102
{ACAD_REACTORS
330
47
102
}
330
47
100
AcDbScale
 70
     0
300
1:5
140
1.0
141
5.0
290
     0
  0
SCALE
  5
4C
102
{ACAD_REACTORS
330
47
102
}
330
47
100
AcDbScale
 70
     0
300
1:8
140
1.0
141
8.0
290
     0
  0
SCALE
  5
4D
102
{ACAD_REACTORS
330
47
102
}
330
47
100
AcDbScale
 70
     0
300
1:10
140
1.0
141
10.0
290
     0
  0
SCALE
  5
4E
102
{ACAD_REACTORS
330
47
102
}
330
47
100
AcDbScale
 70
     0
300
1:16
140
1.0
141
16.0
290
     0
  0
SCALE
  5
4F
102
{ACAD_REACTORS
330
47
102
}
330
47
100
AcDbScale
 70
     0
300
1:20
140
1.0
141
20.0
290
     0
  0
SCALE
  5
50
102
{ACAD_REACTORS
330
47
102
}
330
47
100
AcDbScale
 70
     0
300
1:30
140
1.0
141
30.0
290
     0
  0
SCALE
  5
51
102
{ACAD_REACTORS
330
47
102
}
330
47
100
AcDbScale
 70
     0
300
1:40
140
1.0
141
40.0
290
     0
  0
SCALE
  5
52
102
{ACAD_REACTORS
330
47
102
}
330
47
100
AcDbScale
 70
     0
300
1:50
140
1.0
141
50.0
290
     0
  0
SCALE
  5
53
102
{ACAD_REACTORS
330
47
102
}
330
47
100
AcDbScale
 70
     0
300
1:100
140
1.0
141
100.0
290
     0
  0
SCALE
  5
54
102
{ACAD_REACTORS
330
47
102
}
330
47
100
AcDbScale
 70
     0
300
2:1
140
2.0
141
1.0
290
     0
  0
SCALE
  5
55
102
{ACAD_REACTORS
330
47
102
}
330
47
100
AcDbScale
 70
     0
300
4:1
140
4.0
141
1.0
290
     0
  0
SCALE
  5
56
102
{ACAD_REACTORS
330
47
102
}
330
47
100
AcDbScale
 70
     0
300
8:1
140
8.0
141
1.0
290
     0
  0
SCALE
  5
57
102
{ACAD_REACTORS
330
47
102
}
330
47
100
AcDbScale
 70
     0
300
10:1
140
10.0
141
1.0
290
     0
  0
SCALE
  5
58
102
{ACAD_REACTORS
330
47
102
}
330
47
100
AcDbScale
 70
     0
300
100:1
140
100.0
141
1.0
290
     0
  0
SCALE
  5
59
102
{ACAD_REACTORS
330
47
102
}
330
47
100
AcDbScale
 70
     0
300
1/128" = 1'-0"
140
0.0078125
141
12.0
290
     0
  0
SCALE
  5
5A
102
{ACAD_REACTORS
330
47
102
}
330
47
100
AcDbScale
 70
     0
300
1/64" = 1'-0"
140
0.015625
141
12.0
290
     0
  0
SCALE
  5
5B
102
{ACAD_REACTORS
330
47
102
}
330
47
100
AcDbScale
 70
     0
300
1/32" = 1'-0"
140
0.03125
141
12.0
290
     0
  0
SCALE
  5
5C
102
{ACAD_REACTORS
330
47
102
}
330
47
100
AcDbScale
 70
     0
300
1/16" = 1'-0"
140
0.0625
141
12.0
290
     0
  0
SCALE
  5
5D
102
{ACAD_REACTORS
330
47
102
}
330
47
100
AcDbScale
 70
     0
300
3/32" = 1'-0"
140
0.09375
141
12.0
290
     0
  0
SCALE
  5
5E
102
{ACAD_REACTORS
330
47
102
}
330
47
100
AcDbScale
 70
     0
300
1/8" = 1'-0"
140
0.125
141
12.0
290
     0
  0
SCALE
  5
5F
102
{ACAD_REACTORS
330
47
102
}
330
47
100
AcDbScale
 70
     0
300
3/16" = 1'-0"
140
0.1875
141
12.0
290
     0
  0
SCALE
  5
60
102
{ACAD_REACTORS
330
47
102
}
330
47
100
AcDbScale
 70
     0
300
1/4" = 1'-0"
140
0.25
141
12.0
290
     0
  0
SCALE
  5
61
102
{ACAD_REACTORS
330
47
102
}
330
47
100
AcDbScale
 70
     0
300
3/8" = 1'-0"
140
0.375
141
12.0
290
     0
  0
SCALE
  5
62
102
{ACAD_REACTORS
330
47
102
}
330
47
100
AcDbScale
 70
     0
300
1/2" = 1'-0"
140
0.5
141
12.0
290
     0
  0
SCALE
  5
63
102
{ACAD_REACTORS
330
47
102
}
330
47
100
AcDbScale
 70
     0
300
3/4" = 1'-0"
140
0.75
141
12.0
290
     0
  0
SCALE
  5
64
102
{ACAD_REACTORS
330
47
102
}
330
47
100
AcDbScale
 70
     0
300
1" = 1'-0"
140
1.0
141
12.0
290
     0
  0
SCALE
  5
65
102
{ACAD_REACTORS
330
47
102
}
330
47
100
AcDbScale
 70
     0
300
1-1/2" = 1'-0"
140
1.5
141
12.0
290
     0
  0
SCALE
  5
66
102
{ACAD_REACTORS
330
47
102
}
330
47
100
AcDbScale
 70
     0
300
3" = 1'-0"
140
3.0
141
12.0
290
     0
  0
SCALE
  5
67
102
{ACAD_REACTORS
330
47
102
}
330
47
100
AcDbScale
 70
     0
300
6" = 1'-0"
140
6.0
141
12.0
290
     0
  0
SCALE
  5
68
102
{ACAD_REACTORS
330
47
102
}
330
47
100
AcDbScale
 70
     0
300
1'-0" = 1'-0"
140
12.0
141
12.0
290
     0
  0
ENDSEC
  0
EOF
