  0
SECTION
  2
HEADER
  9
$ACADVER
  1
AC1015
  9
$ACADMAINTVER
 70
     6
  9
$DWGCODEPAGE
  3
ANSI_949
  9
$INSBASE
 10
0.0
 20
0.0
 30
0.0
  9
$EXTMIN
 10
-58.30009181734641
 20
-49.97180738881174
 30
0.0
  9
$EXTMAX
 10
79.51599545453197
 20
59.45456063300844
 30
0.0
  9
$LIMMIN
 10
0.0
 20
0.0
  9
$LIMMAX
 10
420.0
 20
297.0
  9
$ORTHOMODE
 70
     1
  9
$REGENMODE
 70
     1
  9
$FILLMODE
 70
     1
  9
$QTEXTMODE
 70
     0
  9
$MIRRTEXT
 70
     1
  9
$LTSCALE
 40
1.0
  9
$ATTMODE
 70
     1
  9
$TEXTSIZE
 40
3.5
  9
$TRACEWID
 40
1.0
  9
$TEXTSTYLE
  7
Standard
  9
$CLAYER
  8
0
  9
$CELTYPE
  6
ByLayer
  9
$CECOLOR
 62
   256
  9
$CELTSCALE
 40
1.0
  9
$DISPSILH
 70
     0
  9
$DIMSCALE
 40
1.0
  9
$DIMASZ
 40
3.302
  9
$DIMEXO
 40
1.0
  9
$DIMDLI
 40
3.75
  9
$DIMRND
 40
0.0
  9
$DIMDLE
 40
0.0
  9
$DIMEXE
 40
1.0
  9
$DIMTP
 40
0.0
  9
$DIMTM
 40
0.0
  9
$DIMTXT
 40
3.5
  9
$DIMCEN
 40
2.5
  9
$DIMTSZ
 40
0.0
  9
$DIMTOL
 70
     0
  9
$DIMLIM
 70
     0
  9
$DIMTIH
 70
     1
  9
$DIMTOH
 70
     1
  9
$DIMSE1
 70
     0
  9
$DIMSE2
 70
     0
  9
$DIMTAD
 70
     1
  9
$DIMZIN
 70
     0
  9
$DIMBLK
  1

  9
$DIMASO
 70
     1
  9
$DIMSHO
 70
     1
  9
$DIMPOST
  1

  9
$DIMAPOST
  1

  9
$DIMALT
 70
     0
  9
$DIMALTD
 70
     3
  9
$DIMALTF
 40
0.0393700787401575
  9
$DIMLFAC
 40
1.0
  9
$DIMTOFL
 70
     1
  9
$DIMTVP
 40
0.0
  9
$DIMTIX
 70
     0
  9
$DIMSOXD
 70
     0
  9
$DIMSAH
 70
     0
  9
$DIMBLK1
  1

  9
$DIMBLK2
  1

  9
$DIMSTYLE
  2
ISO-25
  9
$DIMCLRD
 70
     0
  9
$DIMCLRE
 70
     0
  9
$DIMCLRT
 70
     0
  9
$DIMTFAC
 40
1.0
  9
$DIMGAP
 40
1.524
  9
$DIMJUST
 70
     0
  9
$DIMSD1
 70
     0
  9
$DIMSD2
 70
     0
  9
$DIMTOLJ
 70
     0
  9
$DIMTZIN
 70
     0
  9
$DIMALTZ
 70
     0
  9
$DIMALTTZ
 70
     0
  9
$DIMUPT
 70
     0
  9
$DIMDEC
 70
     2
  9
$DIMTDEC
 70
     2
  9
$DIMALTU
 70
     2
  9
$DIMALTTD
 70
     3
  9
$DIMTXSTY
  7
Standard
  9
$DIMAUNIT
 70
     0
  9
$DIMADEC
 70
     2
  9
$DIMALTRND
 40
0.0
  9
$DIMAZIN
 70
     0
  9
$DIMDSEP
 70
    44
  9
$DIMATFIT
 70
     3
  9
$DIMFRAC
 70
     0
  9
$DIMLDRBLK
  1

  9
$DIMLUNIT
 70
     2
  9
$DIMLWD
 70
    -2
  9
$DIMLWE
 70
    -2
  9
$DIMTMOVE
 70
     0
  9
$LUNITS
 70
     2
  9
$LUPREC
 70
     2
  9
$SKETCHINC
 40
1.0
  9
$FILLETRAD
 40
10.0
  9
$AUNITS
 70
     0
  9
$AUPREC
 70
     2
  9
$MENU
  1
.
  9
$ELEVATION
 40
0.0
  9
$PELEVATION
 40
0.0
  9
$THICKNESS
 40
0.0
  9
$LIMCHECK
 70
     0
  9
$CHAMFERA
 40
0.0
  9
$CHAMFERB
 40
0.0
  9
$CHAMFERC
 40
0.0
  9
$CHAMFERD
 40
0.0
  9
$SKPOLY
 70
     0
  9
$TDCREATE
 40
2458333.723656979
  9
$TDUCREATE
 40
2458333.348656979
  9
$TDUPDATE
 40
2458340.44940191
  9
$TDUUPDATE
 40
2458340.07440191
  9
$TDINDWG
 40
0.0017581481
  9
$TDUSRTIMER
 40
2458340.072643854
  9
$USRTIMER
 70
     1
  9
$ANGBASE
 50
0.0
  9
$ANGDIR
 70
     0
  9
$PDMODE
 70
     0
  9
$PDSIZE
 40
-1.0
  9
$PLINEWID
 40
0.0
  9
$SPLFRAME
 70
     0
  9
$SPLINETYPE
 70
     6
  9
$SPLINESEGS
 70
     8
  9
$HANDSEED
  5
173
  9
$SURFTAB1
 70
     6
  9
$SURFTAB2
 70
     6
  9
$SURFTYPE
 70
     6
  9
$SURFU
 70
     6
  9
$SURFV
 70
     6
  9
$UCSBASE
  2

  9
$UCSNAME
  2

  9
$UCSORG
 10
0.0
 20
0.0
 30
0.0
  9
$UCSXDIR
 10
1.0
 20
0.0
 30
0.0
  9
$UCSYDIR
 10
0.0
 20
1.0
 30
0.0
  9
$UCSORTHOREF
  2

  9
$UCSORTHOVIEW
 70
     0
  9
$UCSORGTOP
 10
0.0
 20
0.0
 30
0.0
  9
$UCSORGBOTTOM
 10
0.0
 20
0.0
 30
0.0
  9
$UCSORGLEFT
 10
0.0
 20
0.0
 30
0.0
  9
$UCSORGRIGHT
 10
0.0
 20
0.0
 30
0.0
  9
$UCSORGFRONT
 10
0.0
 20
0.0
 30
0.0
  9
$UCSORGBACK
 10
0.0
 20
0.0
 30
0.0
  9
$PUCSBASE
  2

  9
$PUCSNAME
  2

  9
$PUCSORG
 10
0.0
 20
0.0
 30
0.0
  9
$PUCSXDIR
 10
1.0
 20
0.0
 30
0.0
  9
$PUCSYDIR
 10
0.0
 20
1.0
 30
0.0
  9
$PUCSORTHOREF
  2

  9
$PUCSORTHOVIEW
 70
     0
  9
$PUCSORGTOP
 10
0.0
 20
0.0
 30
0.0
  9
$PUCSORGBOTTOM
 10
0.0
 20
0.0
 30
0.0
  9
$PUCSORGLEFT
 10
0.0
 20
0.0
 30
0.0
  9
$PUCSORGRIGHT
 10
0.0
 20
0.0
 30
0.0
  9
$PUCSORGFRONT
 10
0.0
 20
0.0
 30
0.0
  9
$PUCSORGBACK
 10
0.0
 20
0.0
 30
0.0
  9
$USERI1
 70
     0
  9
$USERI2
 70
     0
  9
$USERI3
 70
     0
  9
$USERI4
 70
     0
  9
$USERI5
 70
     0
  9
$USERR1
 40
0.0
  9
$USERR2
 40
0.0
  9
$USERR3
 40
0.0
  9
$USERR4
 40
0.0
  9
$USERR5
 40
0.0
  9
$WORLDVIEW
 70
     1
  9
$SHADEDGE
 70
     3
  9
$SHADEDIF
 70
    70
  9
$TILEMODE
 70
     1
  9
$MAXACTVP
 70
    64
  9
$PINSBASE
 10
0.0
 20
0.0
 30
0.0
  9
$PLIMCHECK
 70
     0
  9
$PEXTMIN
 10
1.000000000000000E+20
 20
1.000000000000000E+20
 30
1.000000000000000E+20
  9
$PEXTMAX
 10
-1.000000000000000E+20
 20
-1.000000000000000E+20
 30
-1.000000000000000E+20
  9
$PLIMMIN
 10
0.0
 20
0.0
  9
$PLIMMAX
 10
0.0
 20
0.0
  9
$UNITMODE
 70
     0
  9
$VISRETAIN
 70
     1
  9
$PLINEGEN
 70
     0
  9
$PSLTSCALE
 70
     1
  9
$TREEDEPTH
 70
  3020
  9
$CMLSTYLE
  2
Standard
  9
$CMLJUST
 70
     0
  9
$CMLSCALE
 40
20.0
  9
$PROXYGRAPHICS
 70
     1
  9
$MEASUREMENT
 70
     1
  9
$CELWEIGHT
370
    -1
  9
$ENDCAPS
280
     0
  9
$JOINSTYLE
280
     0
  9
$LWDISPLAY
290
     1
  9
$INSUNITS
 70
     4
  9
$HYPERLINKBASE
  1

  9
$STYLESHEET
  1

  9
$XEDIT
290
     1
  9
$CEPSNTYPE
380
     0
  9
$PSTYLEMODE
290
     1
  9
$FINGERPRINTGUID
  2
{99899F69-3310-4C2C-9D94-46AFE0EE721F}
  9
$VERSIONGUID
  2
{FAEB1C32-E019-11D5-929B-00C0DF256EC4}
  9
$EXTNAMES
290
     1
  9
$PSVPSCALE
 40
0.0
  9
$OLESTARTUP
290
     0
  0
ENDSEC
  0
SECTION
  2
CLASSES
  0
CLASS
  1
ACDBDICTIONARYWDFLT
  2
AcDbDictionaryWithDefault
  3
ObjectDBX Classes
 90
        0
280
     0
281
     0
  0
CLASS
  1
VISUALSTYLE
  2
AcDbVisualStyle
  3
ObjectDBX Classes
 90
     4095
280
     0
281
     0
  0
CLASS
  1
MATERIAL
  2
AcDbMaterial
  3
ObjectDBX Classes
 90
     1153
280
     0
281
     0
  0
CLASS
  1
SCALE
  2
AcDbScale
  3
ObjectDBX Classes
 90
     1153
280
     0
281
     0
  0
CLASS
  1
SUN
  2
AcDbSun
  3
SCENEOE
 90
     1153
280
     0
281
     0
  0
CLASS
  1
ACDBPLACEHOLDER
  2
AcDbPlaceHolder
  3
ObjectDBX Classes
 90
        0
280
     0
281
     0
  0
CLASS
  1
LAYOUT
  2
AcDbLayout
  3
ObjectDBX Classes
 90
        0
280
     0
281
     0
  0
CLASS
  1
TABLESTYLE
  2
AcDbTableStyle
  3
ObjectDBX Classes
 90
     4095
280
     0
281
     0
  0
CLASS
  1
MLEADERSTYLE
  2
AcDbMLeaderStyle
  3
ACDB_MLEADERSTYLE_CLASS
 90
     4095
280
     0
281
     0
  0
CLASS
  1
RASTERVARIABLES
  2
AcDbRasterVariables
  3
ISM
 90
        0
280
     0
281
     0
  0
CLASS
  1
DIMASSOC
  2
AcDbDimAssoc
  3
"AcDbDimAssoc|Product Desc:     AcDim ARX App For Dimension|Company:          Autodesk, Inc.|WEB Address:      www.autodesk.com"
 90
        0
280
     0
281
     0
  0
ENDSEC
  0
SECTION
  2
TABLES
  0
TABLE
  2
VPORT
  5
8
330
0
100
AcDbSymbolTable
 70
     1
  0
VPORT
  5
29
330
8
100
AcDbSymbolTableRecord
100
AcDbViewportTableRecord
  2
*Active
 70
     0
 10
0.0
 20
0.0
 11
1.0
 21
1.0
 12
38.04082023984682
 22
-17.54722686603003
 13
0.0
 23
0.0
 14
10.0
 24
10.0
 15
10.0
 25
10.0
 16
0.0
 26
0.0
 36
1.0
 17
0.0
 27
0.0
 37
0.0
 40
181.7229282490961
 41
1.444267515923567
 42
50.0
 43
0.0
 44
0.0
 50
0.0
 51
0.0
 71
    16
 72
  2000
 73
     1
 74
     3
 75
     0
 76
     0
 77
     0
 78
     0
281
     0
 65
     1
110
0.0
120
0.0
130
0.0
111
1.0
121
0.0
131
0.0
112
0.0
122
1.0
132
0.0
 79
     0
146
0.0
  0
ENDTAB
  0
TABLE
  2
LTYPE
  5
5
330
0
100
AcDbSymbolTable
 70
     6
  0
LTYPE
  5
14
330
5
100
AcDbSymbolTableRecord
100
AcDbLinetypeTableRecord
  2
ByBlock
 70
     0
  3

 72
    65
 73
     0
 40
0.0
  0
LTYPE
  5
15
330
5
100
AcDbSymbolTableRecord
100
AcDbLinetypeTableRecord
  2
ByLayer
 70
     0
  3

 72
    65
 73
     0
 40
0.0
  0
LTYPE
  5
16
330
5
100
AcDbSymbolTableRecord
100
AcDbLinetypeTableRecord
  2
Continuous
 70
     0
  3
Solid line
 72
    65
 73
     0
 40
0.0
  0
LTYPE
  5
6A
330
5
100
AcDbSymbolTableRecord
100
AcDbLinetypeTableRecord
  2
HIDDEN
 70
     0
  3
Hidden __ __ __ __ __ __ __ __ __ __ __ __ __ __
 72
    65
 73
     2
 40
1.905
 49
1.27
 74
     0
 49
-0.635
 74
     0
  0
LTYPE
  5
6B
330
5
100
AcDbSymbolTableRecord
100
AcDbLinetypeTableRecord
  2
PHANTOM
 70
     0
  3
Phantom ______  __  __  ______  __  __  ______
 72
    65
 73
     6
 40
12.7
 49
6.35
 74
     0
 49
-1.27
 74
     0
 49
1.27
 74
     0
 49
-1.27
 74
     0
 49
1.27
 74
     0
 49
-1.27
 74
     0
  0
LTYPE
  5
6C
330
5
100
AcDbSymbolTableRecord
100
AcDbLinetypeTableRecord
  2
CENTER
 70
     0
  3
Center ____ _ ____ _ ____ _ ____ _ ____ _ ____
 72
    65
 73
     4
 40
10.16
 49
6.35
 74
     0
 49
-1.27
 74
     0
 49
1.27
 74
     0
 49
-1.27
 74
     0
  0
LTYPE
  5
6D
330
5
100
AcDbSymbolTableRecord
100
AcDbLinetypeTableRecord
  2
CENTERX2
 70
     0
  3
Center (2x) ________  __  ________  __  _____
 72
    65
 73
     4
 40
20.32
 49
12.7
 74
     0
 49
-2.54
 74
     0
 49
2.54
 74
     0
 49
-2.54
 74
     0
  0
LTYPE
  5
6E
330
5
100
AcDbSymbolTableRecord
100
AcDbLinetypeTableRecord
  2
DOT2
 70
     0
  3
Dot (.5x) ........................................
 72
    65
 73
     2
 40
0.635
 49
0.0
 74
     0
 49
-0.635
 74
     0
  0
ENDTAB
  0
TABLE
  2
LAYER
  5
2
330
0
100
AcDbSymbolTable
 70
    17
  0
LAYER
  5
10
330
2
100
AcDbSymbolTableRecord
100
AcDbLayerTableRecord
  2
0
 70
     0
 62
     7
  6
Continuous
370
    -3
390
F
  0
LAYER
  5
6F
330
2
100
AcDbSymbolTableRecord
100
AcDbLayerTableRecord
  2
FORMAT
 70
     0
 62
     2
  6
Continuous
370
    -3
390
F
  0
LAYER
  5
70
330
2
100
AcDbSymbolTableRecord
100
AcDbLayerTableRecord
  2
외형선
 70
     0
 62
   100
  6
Continuous
370
    30
390
F
  0
LAYER
  5
71
330
2
100
AcDbSymbolTableRecord
100
AcDbLayerTableRecord
  2
숨은선
 70
     0
 62
     2
  6
HIDDEN
370
    15
390
F
  0
LAYER
  5
72
330
2
100
AcDbSymbolTableRecord
100
AcDbLayerTableRecord
  2
중심선
 70
     0
 62
     1
  6
CENTERX2
370
    -3
390
F
  0
LAYER
  5
73
330
2
100
AcDbSymbolTableRecord
100
AcDbLayerTableRecord
  2
파단선
 70
     0
 62
     4
  6
Continuous
370
    -3
390
F
  0
LAYER
  5
74
330
2
100
AcDbSymbolTableRecord
100
AcDbLayerTableRecord
  2
해칭선
 70
     0
 62
     4
  6
Continuous
370
    -3
390
F
  0
LAYER
  5
75
330
2
100
AcDbSymbolTableRecord
100
AcDbLayerTableRecord
  2
가는실선
 70
     0
 62
     4
  6
Continuous
370
    -3
390
F
  0
LAYER
  5
76
330
2
100
AcDbSymbolTableRecord
100
AcDbLayerTableRecord
  2
치수_보조선
 70
     0
 62
     4
  6
Continuous
370
    -3
390
F
  0
LAYER
  5
77
330
2
100
AcDbSymbolTableRecord
100
AcDbLayerTableRecord
  2
치수문자_일반주서
 70
     0
 62
     7
  6
Continuous
370
    15
390
F
  0
LAYER
  5
78
330
2
100
AcDbSymbolTableRecord
100
AcDbLayerTableRecord
  2
개별주서
 70
     0
 62
   100
  6
Continuous
370
    30
390
F
  0
LAYER
  5
79
330
2
100
AcDbSymbolTableRecord
100
AcDbLayerTableRecord
  2
중간선
 70
     0
 62
     2
  6
Continuous
370
    15
390
F
  0
LAYER
  5
7A
330
2
100
AcDbSymbolTableRecord
100
AcDbLayerTableRecord
  2
윤곽선
 70
     0
 62
     3
  6
Continuous
370
    40
390
F
  0
LAYER
  5
7B
330
2
100
AcDbSymbolTableRecord
100
AcDbLayerTableRecord
  2
중심마크
 70
     0
 62
   100
  6
Continuous
370
    30
390
F
  0
LAYER
  5
7C
330
2
100
AcDbSymbolTableRecord
100
AcDbLayerTableRecord
  2
가상선
 70
     0
 62
     4
  6
PHANTOM
370
    -3
390
F
  0
LAYER
  5
7D
330
2
100
AcDbSymbolTableRecord
100
AcDbLayerTableRecord
  2
특수지정선
 70
     0
 62
     5
  6
CENTERX2
370
    60
390
F
  0
LAYER
  5
148
330
2
100
AcDbSymbolTableRecord
100
AcDbLayerTableRecord
  2
Defpoints
 70
     0
 62
     7
  6
Continuous
290
     0
370
    -3
390
F
  0
ENDTAB
  0
TABLE
  2
STYLE
  5
3
330
0
100
AcDbSymbolTable
 70
     2
  0
STYLE
  5
11
330
3
100
AcDbSymbolTableRecord
100
AcDbTextStyleTableRecord
  2
Standard
 70
     0
 40
0.0
 41
1.0
 50
0.0
 71
     0
 42
3.5
  3
txt
  4

  0
STYLE
  5
93
330
3
100
AcDbSymbolTableRecord
100
AcDbTextStyleTableRecord
  2
SLDTEXTSTYLE0
 70
     0
 40
0.0
 41
0.75
 50
0.0
 71
     0
 42
3.5
  3
TXT
  4

  0
ENDTAB
  0
TABLE
  2
VIEW
  5
6
330
0
100
AcDbSymbolTable
 70
     0
  0
ENDTAB
  0
TABLE
  2
UCS
  5
7
330
0
100
AcDbSymbolTable
 70
     0
  0
ENDTAB
  0
TABLE
  2
APPID
  5
9
330
0
100
AcDbSymbolTable
 70
     2
  0
APPID
  5
12
330
9
100
AcDbSymbolTableRecord
100
AcDbRegAppTableRecord
  2
ACAD
 70
     0
  0
APPID
  5
170
330
9
100
AcDbSymbolTableRecord
100
AcDbRegAppTableRecord
  2
PE_DIMMEASUREMENT
 70
     0
  0
ENDTAB
  0
TABLE
  2
DIMSTYLE
  5
A
330
0
100
AcDbSymbolTable
 70
     4
100
AcDbDimStyleTable
  0
DIMSTYLE
105
27
330
A
100
AcDbSymbolTableRecord
100
AcDbDimStyleTableRecord
  2
ISO-25
 70
     0
 41
2.5
 42
0.625
 43
3.75
 44
1.25
 73
     0
 74
     0
 77
     1
 78
     8
140
2.5
141
2.5
143
0.03937007874016
147
0.625
171
     3
172
     1
178
     0
271
     2
272
     2
274
     3
278
    44
283
     0
284
     8
340
11
  0
DIMSTYLE
105
DF
330
A
100
AcDbSymbolTableRecord
100
AcDbDimStyleTableRecord
  2
SLDDIMSTYLE0
 70
     0
 41
3.302
 44
0.0
 45
0.000000001
 73
     0
 74
     0
 77
     1
 78
    12
 79
     3
140
3.5
143
0.0393700787401575
147
0.875
148
0.000000001
170
     1
172
     1
173
     1
178
     0
271
     2
272
     2
276
     2
284
    12
289
     0
340
93
  0
DIMSTYLE
105
F5
330
A
100
AcDbSymbolTableRecord
100
AcDbDimStyleTableRecord
  2
SLDDIMSTYLE1
 70
     0
 41
3.302
 44
0.0
 45
0.000000001
 73
     0
 74
     0
 77
     1
 78
     4
 79
     1
140
3.5
143
0.0393700787401575
147
0.875
148
0.000000001
170
     1
173
     1
178
     0
271
     2
272
     2
276
     2
284
    12
340
93
  0
DIMSTYLE
105
109
102
{ACAD_REACTORS
330
108
330
DE
330
F4
330
149
330
15E
102
}
330
A
100
AcDbSymbolTableRecord
100
AcDbDimStyleTableRecord
  2
SLDDIMSTYLE2
 70
     0
 41
3.302
 44
0.0
 45
0.000000001
 73
     0
 74
     0
 77
     1
 78
     4
 79
     1
140
3.5
143
0.0393700787401575
147
0.875
148
0.000000001
170
     1
172
     1
173
     1
178
     0
271
     2
272
     2
276
     2
284
    12
289
     0
340
93
  0
ENDTAB
  0
TABLE
  2
BLOCK_RECORD
  5
1
330
0
100
AcDbSymbolTable
 70
     8
  0
BLOCK_RECORD
  5
1F
330
1
100
AcDbSymbolTableRecord
100
AcDbBlockTableRecord
  2
*Model_Space
340
22
  0
BLOCK_RECORD
  5
1B
330
1
100
AcDbSymbolTableRecord
100
AcDbBlockTableRecord
  2
*Paper_Space
340
1E
  0
BLOCK_RECORD
  5
23
330
1
100
AcDbSymbolTableRecord
100
AcDbBlockTableRecord
  2
*Paper_Space0
340
26
  0
BLOCK_RECORD
  5
7E
330
1
100
AcDbSymbolTableRecord
100
AcDbBlockTableRecord
  2
블럭10
340
0
102
{BLKREFS
331
D6
102
}
  0
BLOCK_RECORD
  5
E0
330
1
100
AcDbSymbolTableRecord
100
AcDbBlockTableRecord
  2
_D
340
0
  0
BLOCK_RECORD
  5
F6
330
1
100
AcDbSymbolTableRecord
100
AcDbBlockTableRecord
  2
_D_1
340
0
  0
BLOCK_RECORD
  5
10A
330
1
100
AcDbSymbolTableRecord
100
AcDbBlockTableRecord
  2
_D_2
340
0
  0
BLOCK_RECORD
  5
11D
330
1
100
AcDbSymbolTableRecord
100
AcDbBlockTableRecord
  2
SW_DOWELSYMBOL_0
340
0
102
{BLKREFS
331
123
102
}
  0
BLOCK_RECORD
  5
14C
330
1
100
AcDbSymbolTableRecord
100
AcDbBlockTableRecord
  2
*D6
340
0
  0
BLOCK_RECORD
  5
161
330
1
100
AcDbSymbolTableRecord
100
AcDbBlockTableRecord
  2
*D7
340
0
  0
ENDTAB
  0
ENDSEC
  0
SECTION
  2
BLOCKS
  0
BLOCK
  5
20
330
1F
100
AcDbEntity
  8
0
100
AcDbBlockBegin
  2
*Model_Space
 70
     0
 10
0.0
 20
0.0
 30
0.0
  3
*Model_Space
  1
*Model_Space
  0
ENDBLK
  5
21
330
1F
100
AcDbEntity
  8
0
100
AcDbBlockEnd
  0
BLOCK
  5
1C
330
1B
100
AcDbEntity
 67
     1
  8
0
100
AcDbBlockBegin
  2
*Paper_Space
 70
     0
 10
0.0
 20
0.0
 30
0.0
  3
*Paper_Space
  1
*Paper_Space
  0
ENDBLK
  5
1D
330
1B
100
AcDbEntity
 67
     1
  8
0
100
AcDbBlockEnd
  0
BLOCK
  5
24
330
23
100
AcDbEntity
  8
0
100
AcDbBlockBegin
  2
*Paper_Space0
 70
     0
 10
0.0
 20
0.0
 30
0.0
  3
*Paper_Space0
  1
*Paper_Space0
  0
ENDBLK
  5
25
330
23
100
AcDbEntity
  8
0
100
AcDbBlockEnd
  0
BLOCK
  5
7F
330
7E
100
AcDbEntity
  8
0
100
AcDbBlockBegin
  2
블럭10
 70
     2
 10
0.0
 20
0.0
 30
0.0
  3
블럭10
  1
블럭10
  0
ELLIPSE
  5
81
330
7E
100
AcDbEntity
  8
중심선
100
AcDbEllipse
 10
20.54032771741204
 20
12.0471743016438
 30
0.0
 11
6.600054785286829
 21
-1.261213355974178E-13
 31
0.0
210
0.0
220
0.0
230
1.0
 40
0.636358354079598
 41
0.9219305317359503
 42
6.513795318482858
  0
ELLIPSE
  5
82
330
7E
100
AcDbEntity
  8
중심선
100
AcDbEllipse
 10
20.54032771746488
 20
12.04717430159265
 30
0.0
 11
3.960054785062283
 21
1.540847449632565E-10
 31
0.0
210
0.0
220
0.0
230
1.0
 40
0.3939339440162632
 41
1.131841032648279
 42
5.62031148352944
  0
LINE
  5
83
330
7E
100
AcDbEntity
  8
중심선
100
AcDbLine
 10
2.268634060543552
 20
16.24717430164393
 30
0.0
 11
5.714909304380834
 21
16.24717430164393
 31
0.0
  0
LINE
  5
84
330
7E
100
AcDbEntity
  8
중심선
100
AcDbLine
 10
5.245725140726316
 20
7.84717430164391
 30
0.0
 11
8.692000384563599
 21
7.84717430164391
 31
0.0
  0
LINE
  5
85
330
7E
100
AcDbEntity
  8
중심선
100
AcDbLine
 10
15.74043728645272
 20
16.24717430164393
 30
0.0
 11
8.692000384563599
 21
7.84717430164391
 31
0.0
  0
LINE
  5
86
330
7E
100
AcDbEntity
  8
중심선
100
AcDbLine
 10
0.1404042013395286
 20
13.71084872107135
 30
0.0
 11
3.58671253028996
 21
13.71088815037384
 31
0.0
  0
LINE
  5
87
330
7E
100
AcDbEntity
  8
중심선
100
AcDbLine
 10
2.750260043222114
 20
10.84717430164391
 30
0.0
 11
6.196535287059397
 21
10.84717430164391
 31
0.0
  0
LINE
  5
88
330
7E
100
AcDbEntity
  8
중심선
100
AcDbLine
 10
12.29416204261559
 20
16.24717430164393
 30
0.0
 11
5.245725140726316
 21
7.84717430164391
 31
0.0
  0
LINE
  5
89
330
7E
100
AcDbEntity
  8
중심선
100
AcDbLine
 10
10.72767329541681
 20
16.24717430164393
 30
0.0
 11
6.196535287059397
 21
10.84717430164391
 31
0.0
  0
LINE
  5
8A
330
7E
100
AcDbEntity
  8
중심선
100
AcDbLine
 10
7.28139805157953
 20
16.24717430164393
 30
0.0
 11
2.750260043222114
 21
10.84717430164391
 31
0.0
  0
LINE
  5
8B
330
7E
100
AcDbEntity
  8
중심선
100
AcDbLine
 10
5.714909304380834
 20
16.24717430164393
 30
0.0
 11
3.58671253028996
 21
13.71088815037384
 31
0.0
  0
LINE
  5
8C
330
7E
100
AcDbEntity
  8
중심선
100
AcDbLine
 10
2.268634060543552
 20
16.24717430164393
 30
0.0
 11
0.1404042013395286
 21
13.71084872107135
 31
0.0
  0
LINE
  5
8D
330
7E
100
AcDbEntity
  8
중심선
100
AcDbLine
 10
7.28139805157953
 20
16.24717430164393
 30
0.0
 11
10.72767329541681
 21
16.24717430164393
 31
0.0
  0
LINE
  5
8E
330
7E
100
AcDbEntity
  8
중심선
100
AcDbLine
 10
12.29416204261559
 20
16.24717430164393
 30
0.0
 11
15.74043728645272
 21
16.24717430164393
 31
0.0
  0
LINE
  5
8F
330
7E
100
AcDbEntity
  8
중심선
100
AcDbLine
 10
19.22036997980202
 20
11.08717430171403
 30
0.0
 11
23.66174974927406
 21
11.08717430171406
 31
0.0
  0
LINE
  5
90
330
7E
100
AcDbEntity
  8
중심선
100
AcDbLine
 10
19.22039502424796
 20
13.00717430171391
 30
0.0
 11
19.22036997980202
 21
11.08717430171403
 31
0.0
  0
LINE
  5
91
330
7E
100
AcDbEntity
  8
중심선
100
AcDbLine
 10
19.22039502424796
 20
13.00717430171391
 30
0.0
 11
26.96566020931264
 21
13.00717430171391
 31
0.0
  0
LINE
  5
92
330
7E
100
AcDbEntity
  8
중심선
100
AcDbLine
 10
22.22332737316547
 20
13.45928029700563
 30
0.0
 11
24.52862924686651
 21
15.39360700705356
 31
0.0
  0
ATTDEF
  5
94
330
7E
100
AcDbEntity
  8
FORMAT
 62
     2
100
AcDbText
 10
-9.18129528874128
 20
2.075366912832191
 30
0.0
 40
4.233333333333333
  1
E5077216 [ 3 FLUTE ]
 41
0.75
  7
SLDTEXTSTYLE0
 11
-9.18129528874128
 21
-0.0412997538344756
 31
0.0
100
AcDbAttributeDefinition
  3

  2
AUTOATTR0
 70
     0
 74
     1
  0
ENDBLK
  5
80
330
7E
100
AcDbEntity
  8
0
100
AcDbBlockEnd
  0
BLOCK
  5
E1
330
E0
100
AcDbEntity
  8
0
100
AcDbBlockBegin
  2
_D
 70
     0
 10
0.0
 20
0.0
 30
0.0
  3
_D
  1
_D
  0
LINE
  5
E3
330
E0
100
AcDbEntity
  8
치수문자_일반주서
 62
     0
370
    -2
100
AcDbLine
 10
60.6749081826537
 20
3.221081718727606
 30
0.0
 11
60.6749081826537
 21
37.67119858927334
 31
0.0
  0
LINE
  5
E4
330
E0
100
AcDbEntity
  8
치수문자_일반주서
 62
     0
370
    -2
100
AcDbLine
 10
9.874908182653712
 20
5.016310241994879
 30
0.0
 11
9.874908182653712
 21
37.67119858927334
 31
0.0
  0
LINE
  5
E5
330
E0
100
AcDbEntity
  8
치수문자_일반주서
 62
     0
370
    -2
100
AcDbLine
 10
57.3729081826537
 20
37.67119858927334
 30
0.0
 11
13.17690818265371
 21
37.67119858927334
 31
0.0
  0
SOLID
  5
E6
330
E0
100
AcDbEntity
  8
치수문자_일반주서
 62
     0
100
AcDbTrace
 10
57.3729081826537
 20
37.12086525594
 30
0.0
 11
57.3729081826537
 21
38.22153192260667
 31
0.0
 12
60.6749081826537
 22
37.67119858927334
 32
0.0
 13
60.6749081826537
 23
37.67119858927334
 33
0.0
  0
SOLID
  5
E7
330
E0
100
AcDbEntity
  8
치수문자_일반주서
 62
     0
100
AcDbTrace
 10
13.17690818265371
 20
38.22153192260667
 30
0.0
 11
13.17690818265371
 21
37.12086525594
 31
0.0
 12
9.874908182653712
 22
37.67119858927334
 32
0.0
 13
9.874908182653712
 23
37.67119858927334
 33
0.0
  0
MTEXT
  5
E8
330
E0
100
AcDbEntity
  8
치수문자_일반주서
 62
     0
100
AcDbMText
 10
35.2749081826537
 20
42.04619858927334
 30
0.0
 40
3.5
 41
0.0
 71
     2
 72
     1
  1
\A1;50.80 [2]
  7
SLDTEXTSTYLE0
 73
     1
 44
1.0
  0
POINT
  5
E9
330
E0
100
AcDbEntity
  8
Defpoints
 62
     0
100
AcDbPoint
 10
60.6749081826537
 20
3.158581718727606
 30
0.0
  0
POINT
  5
EA
330
E0
100
AcDbEntity
  8
Defpoints
 62
     0
100
AcDbPoint
 10
9.874908182653712
 20
4.953810241994879
 30
0.0
  0
POINT
  5
EB
330
E0
100
AcDbEntity
  8
Defpoints
 62
     0
100
AcDbPoint
 10
9.874908182653712
 20
37.67119858927334
 30
0.0
  0
ENDBLK
  5
E2
330
E0
100
AcDbEntity
  8
0
100
AcDbBlockEnd
  0
BLOCK
  5
F7
330
F6
100
AcDbEntity
  8
0
100
AcDbBlockBegin
  2
_D_1
 70
     0
 10
0.0
 20
0.0
 30
0.0
  3
_D_1
  1
_D_1
  0
LINE
  5
F9
330
F6
100
AcDbEntity
  8
치수문자_일반주서
 62
     0
370
    -2
100
AcDbLine
 10
60.6749081826537
 20
3.221081718727606
 30
0.0
 11
60.6749081826537
 21
55.07956063300844
 31
0.0
  0
LINE
  5
FA
330
F6
100
AcDbEntity
  8
치수문자_일반주서
 62
     0
370
    -2
100
AcDbLine
 10
-40.9250918173463
 20
5.607335151814106
 30
0.0
 11
-40.9250918173463
 21
55.07956063300844
 31
0.0
  0
LINE
  5
FB
330
F6
100
AcDbEntity
  8
치수문자_일반주서
 62
     0
370
    -2
100
AcDbLine
 10
57.3729081826537
 20
55.07956063300844
 30
0.0
 11
-37.6230918173463
 21
55.07956063300844
 31
0.0
  0
SOLID
  5
FC
330
F6
100
AcDbEntity
  8
치수문자_일반주서
 62
     0
100
AcDbTrace
 10
57.3729081826537
 20
54.52922729967511
 30
0.0
 11
57.3729081826537
 21
55.62989396634178
 31
0.0
 12
60.6749081826537
 22
55.07956063300844
 32
0.0
 13
60.6749081826537
 23
55.07956063300844
 33
0.0
  0
SOLID
  5
FD
330
F6
100
AcDbEntity
  8
치수문자_일반주서
 62
     0
100
AcDbTrace
 10
-37.6230918173463
 20
55.62989396634178
 30
0.0
 11
-37.6230918173463
 21
54.52922729967511
 31
0.0
 12
-40.9250918173463
 22
55.07956063300844
 32
0.0
 13
-40.9250918173463
 23
55.07956063300844
 33
0.0
  0
MTEXT
  5
FE
330
F6
100
AcDbEntity
  8
치수문자_일반주서
 62
     0
100
AcDbMText
 10
13.74263261884118
 20
59.45456063300844
 30
0.0
 40
3.5
 41
0.0
 71
     2
 72
     1
  1
\A1;101.60 [4]
  7
SLDTEXTSTYLE0
 73
     1
 44
1.0
  0
POINT
  5
FF
330
F6
100
AcDbEntity
  8
Defpoints
 62
     0
100
AcDbPoint
 10
60.6749081826537
 20
3.158581718727606
 30
0.0
  0
POINT
  5
100
330
F6
100
AcDbEntity
  8
Defpoints
 62
     0
100
AcDbPoint
 10
-40.9250918173463
 20
5.544835151814106
 30
0.0
  0
POINT
  5
101
330
F6
100
AcDbEntity
  8
Defpoints
 62
     0
100
AcDbPoint
 10
-40.9250918173463
 20
55.07956063300844
 30
0.0
  0
ENDBLK
  5
F8
330
F6
100
AcDbEntity
  8
0
100
AcDbBlockEnd
  0
BLOCK
  5
10B
330
10A
100
AcDbEntity
  8
0
100
AcDbBlockBegin
  2
_D_2
 70
     0
 10
0.0
 20
0.0
 30
0.0
  3
_D_2
  1
_D_2
  0
LINE
  5
10D
330
10A
100
AcDbEntity
  8
치수문자_일반주서
 62
     0
370
    -2
100
AcDbLine
 10
-40.17759181734632
 20
6.354835151814086
 30
0.0
 11
-53.9250918173463
 21
6.354835151814036
 31
0.0
  0
LINE
  5
10E
330
10A
100
AcDbEntity
  8
치수문자_일반주서
 62
     0
370
    -2
100
AcDbLine
 10
-40.17759181734632
 20
-6.345164848185906
 30
0.0
 11
-53.92509181734626
 21
-6.345164848185959
 31
0.0
  0
LINE
  5
10F
330
10A
100
AcDbEntity
  8
치수문자_일반주서
 62
     0
370
    -2
100
AcDbLine
 10
-53.9250918173463
 20
6.354835151814036
 30
0.0
 11
-53.92509181734641
 21
40.08383515181404
 31
0.0
  0
LINE
  5
110
330
10A
100
AcDbEntity
  8
치수문자_일반주서
 62
     0
370
    -2
100
AcDbLine
 10
-53.9250918173463
 20
6.354835151814036
 30
0.0
 11
-53.92509181734626
 21
-6.345164848185959
 31
0.0
  0
LINE
  5
111
330
10A
100
AcDbEntity
  8
치수문자_일반주서
 62
     0
370
    -2
100
AcDbLine
 10
-53.92509181734631
 20
9.656835151814036
 30
0.0
 11
-53.92509181734633
 21
12.95883515181404
 31
0.0
  0
LINE
  5
112
330
10A
100
AcDbEntity
  8
치수문자_일반주서
 62
     0
370
    -2
100
AcDbLine
 10
-53.92509181734624
 20
-9.647164848185959
 30
0.0
 11
-53.92509181734623
 21
-12.94916484818596
 31
0.0
  0
SOLID
  5
113
330
10A
100
AcDbEntity
  8
치수문자_일반주서
 62
     0
100
AcDbTrace
 10
-54.47542515067965
 20
9.656835151814034
 30
0.0
 11
-53.37475848401298
 21
9.656835151814038
 31
0.0
 12
-53.9250918173463
 22
6.354835151814036
 32
0.0
 13
-53.9250918173463
 23
6.354835151814036
 33
0.0
  0
SOLID
  5
114
330
10A
100
AcDbEntity
  8
치수문자_일반주서
 62
     0
100
AcDbTrace
 10
-53.37475848401291
 20
-9.647164848185957
 30
0.0
 11
-54.47542515067958
 21
-9.64716484818596
 31
0.0
 12
-53.92509181734626
 22
-6.345164848185959
 32
0.0
 13
-53.92509181734626
 23
-6.345164848185959
 33
0.0
  0
MTEXT
  5
115
330
10A
100
AcDbEntity
  8
치수문자_일반주서
 62
     0
100
AcDbMText
 10
-58.30009181734637
 20
26.74008515181402
 30
0.0
 40
3.5
 41
0.0
 71
     2
 72
     1
  1
\A1;%%c12.70 [1/2]
  7
SLDTEXTSTYLE0
 11
-3.356894814614648E-15
 21
1.0
 31
0.0
 73
     1
 44
1.0
  0
POINT
  5
116
330
10A
100
AcDbEntity
  8
Defpoints
 62
     0
100
AcDbPoint
 10
-40.11509181734632
 20
6.354835151814086
 30
0.0
  0
POINT
  5
117
330
10A
100
AcDbEntity
  8
Defpoints
 62
     0
100
AcDbPoint
 10
-40.11509181734632
 20
-6.345164848185906
 30
0.0
  0
POINT
  5
118
330
10A
100
AcDbEntity
  8
Defpoints
 62
     0
100
AcDbPoint
 10
-53.92509181734626
 20
-6.345164848185954
 30
0.0
  0
ENDBLK
  5
10C
330
10A
100
AcDbEntity
  8
0
100
AcDbBlockEnd
  0
BLOCK
  5
11E
330
11D
100
AcDbEntity
  8
0
100
AcDbBlockBegin
  2
SW_DOWELSYMBOL_0
 70
     0
 10
0.0
 20
0.0
 30
0.0
  3
SW_DOWELSYMBOL_0
  1
SW_DOWELSYMBOL_0
  0
CIRCLE
  5
120
330
11D
100
AcDbEntity
  8
외형선
 62
     0
100
AcDbCircle
 10
0.0
 20
0.0
 30
0.0
 40
3.000000000000004
  0
HATCH
  5
121
330
11D
100
AcDbEntity
  8
0
  6
Continuous
 62
     0
370
    30
100
AcDbHatch
 10
0.0
 20
0.0
 30
0.0
210
0.0
220
0.0
230
1.0
  2
SOLID
 70
     1
 71
     0
 91
        1
 92
        0
 93
        3
 72
     2
 10
-0.0000000000000013
 20
-0.0000000000000039
 40
3.000000000000004
 50
0.0
 51
90.0
 73
     1
 72
     1
 10
-0.0000000000000013
 20
3.0
 11
-0.0000000000000013
 21
-0.000000000000004
 72
     1
 10
-0.0000000000000013
 20
-0.0000000000000039
 11
3.000000000000003
 21
-0.0000000000000039
 97
        0
 75
     0
 76
     1
 98
        1
 10
0.0
 20
0.0
  0
HATCH
  5
122
330
11D
100
AcDbEntity
  8
0
  6
Continuous
 62
     0
370
    30
100
AcDbHatch
 10
0.0
 20
0.0
 30
0.0
210
0.0
220
0.0
230
1.0
  2
SOLID
 70
     1
 71
     0
 91
        1
 92
        0
 93
        3
 72
     2
 10
-0.0000000000000013
 20
-0.0000000000000039
 40
3.000000000000004
 50
180.0
 51
270.0000000000008
 73
     1
 72
     1
 10
-0.0000000000000013
 20
-3.000000000000008
 11
-0.0000000000000013
 21
-0.000000000000004
 72
     1
 10
-0.0000000000000013
 20
-0.0000000000000039
 11
-3.000000000000006
 21
-0.0000000000000039
 97
        0
 75
     0
 76
     1
 98
        1
 10
0.0
 20
0.0
  0
ENDBLK
  5
11F
330
11D
100
AcDbEntity
  8
0
100
AcDbBlockEnd
  0
BLOCK
  5
14D
330
14C
100
AcDbEntity
  8
0
100
AcDbBlockBegin
  2
*D6
 70
     1
 10
0.0
 20
0.0
 30
0.0
  3
*D6
  1
*D6
  0
LINE
  5
14F
330
14C
100
AcDbEntity
  8
치수문자_일반주서
 62
     0
370
    -2
100
AcDbLine
 10
26.74866772705776
 20
10.96973056784037
 30
0.0
 11
27.20768782720731
 21
16.19962545661765
 31
0.0
  0
LINE
  5
150
330
14C
100
AcDbEntity
  8
치수문자_일반주서
 62
     0
370
    -2
100
AcDbLine
 10
20.66356062157084
 20
4.577062197048872
 30
0.0
 11
26.34462284999637
 21
4.37867513250175
 31
0.0
  0
ARC
  5
151
330
14C
100
AcDbEntity
  8
치수문자_일반주서
 62
     0
370
    -2
100
AcDbCircle
 10
151.7334729879205
 20
-0.0000000000000036
 30
0.0
 40
125.4652801966615
100
AcDbArc
 50
174.9840879625541
 51
176.492043981277
  0
ARC
  5
152
330
14C
100
AcDbEntity
  8
치수문자_일반주서
 62
     0
370
    -2
100
AcDbCircle
 10
151.7334729879205
 20
-0.0000000000000036
 30
0.0
 40
125.4652801966615
100
AcDbArc
 50
181.507956018723
 51
183.0159120374459
  0
ARC
  5
153
330
14C
100
AcDbEntity
  8
치수문자_일반주서
 62
     0
370
    -2
100
AcDbCircle
 10
151.7334729879205
 20
-0.0000000000000036
 30
0.0
 40
125.4652801966615
100
AcDbArc
 50
178.0
 51
180.0
  0
SOLID
  5
154
330
14C
100
AcDbEntity
  8
치수문자_일반주서
 62
     0
100
AcDbTrace
 10
25.95357789423425
 20
7.703303626085775
 30
0.0
 11
27.05297334922162
 21
7.650419368841918
 31
0.0
 12
26.34462284999637
 22
4.37867513250175
 32
0.0
 13
26.34462284999637
 23
4.37867513250175
 33
0.0
  0
SOLID
  5
155
330
14C
100
AcDbEntity
  8
치수문자_일반주서
 62
     0
100
AcDbTrace
 10
26.86192955531149
 20
-3.294472254062891
 30
0.0
 11
25.76135818836933
 21
-3.308955947590043
 31
0.0
 12
26.26819279125895
 22
-0.0000000000000036
 32
0.0
 13
26.26819279125895
 23
-0.0000000000000036
 33
0.0
  0
MTEXT
  5
156
330
14C
100
AcDbEntity
  8
치수문자_일반주서
 62
     0
100
AcDbMText
 10
24.3632303327439
 20
13.81418806230378
 30
0.0
 40
3.5
 41
0.0
 71
     5
 72
     1
  1
\A1;2%%d
  7
SLDTEXTSTYLE0
 11
0.08743240002848425
 21
0.996170455005196
 31
0.0
 73
     1
 44
1.0
  0
POINT
  5
157
330
14C
100
AcDbEntity
  8
Defpoints
 62
     0
100
AcDbPoint
 10
26.27668578653399
 20
1.459821883934908
 30
0.0
  0
POINT
  5
158
330
14C
100
AcDbEntity
  8
Defpoints
 62
     0
100
AcDbPoint
 10
20.60109869488215
 20
4.579243415592779
 30
0.0
  0
POINT
  5
159
330
14C
100
AcDbEntity
  8
Defpoints
 62
     0
100
AcDbPoint
 10
-43.92509181734628
 20
-0.0000000000000035
 30
0.0
  0
POINT
  5
15A
330
14C
100
AcDbEntity
  8
Defpoints
 62
     0
100
AcDbPoint
 10
63.67490428620231
 20
-0.0000000000000035
 30
0.0
  0
POINT
  5
15B
330
14C
100
AcDbEntity
  8
Defpoints
 62
     0
100
AcDbPoint
 10
15.17741425353403
 20
4.768642649765075
 30
0.0
  0
ENDBLK
  5
14E
330
14C
100
AcDbEntity
  8
0
100
AcDbBlockEnd
  0
BLOCK
  5
162
330
161
100
AcDbEntity
  8
0
100
AcDbBlockBegin
  2
*D7
 70
     1
 10
0.0
 20
0.0
 30
0.0
  3
*D7
  1
*D7
  0
LINE
  5
164
330
161
100
AcDbEntity
  8
치수문자_일반주서
 62
     0
370
    -2
100
AcDbLine
 10
60.7374081826537
 20
3.179119018117158
 30
0.0
 11
78.96566212119865
 21
3.179119018117159
 31
0.0
  0
LINE
  5
165
330
161
100
AcDbEntity
  8
치수문자_일반주서
 62
     0
370
    -2
100
AcDbLine
 10
60.73740818265368
 20
-3.175000000000003
 30
0.0
 11
78.96566212119865
 21
-3.175000000000004
 31
0.0
  0
LINE
  5
166
330
161
100
AcDbEntity
  8
치수문자_일반주서
 62
     0
370
    -2
100
AcDbLine
 10
78.96566212119865
 20
3.179119018117159
 30
0.0
 11
78.96566212119865
 21
35.15811901811716
 31
0.0
  0
LINE
  5
167
330
161
100
AcDbEntity
  8
치수문자_일반주서
 62
     0
370
    -2
100
AcDbLine
 10
78.96566212119865
 20
3.179119018117159
 30
0.0
 11
78.96566212119865
 21
-3.175000000000004
 31
0.0
  0
LINE
  5
168
330
161
100
AcDbEntity
  8
치수문자_일반주서
 62
     0
370
    -2
100
AcDbLine
 10
78.96566212119865
 20
6.481119018117159
 30
0.0
 11
78.96566212119865
 21
9.783119018117159
 31
0.0
  0
LINE
  5
169
330
161
100
AcDbEntity
  8
치수문자_일반주서
 62
     0
370
    -2
100
AcDbLine
 10
78.96566212119865
 20
-6.477000000000004
 30
0.0
 11
78.96566212119865
 21
-9.779000000000003
 31
0.0
  0
SOLID
  5
16A
330
161
100
AcDbEntity
  8
치수문자_일반주서
 62
     0
100
AcDbTrace
 10
78.41532878786532
 20
6.481119018117159
 30
0.0
 11
79.51599545453197
 21
6.481119018117159
 31
0.0
 12
78.96566212119865
 22
3.179119018117159
 32
0.0
 13
78.96566212119865
 23
3.179119018117159
 33
0.0
  0
SOLID
  5
16B
330
161
100
AcDbEntity
  8
치수문자_일반주서
 62
     0
100
AcDbTrace
 10
79.51599545453197
 20
-6.477000000000004
 30
0.0
 11
78.41532878786532
 21
-6.477000000000004
 31
0.0
 12
78.96566212119865
 22
-3.175000000000004
 32
0.0
 13
78.96566212119865
 23
-3.175000000000004
 33
0.0
  0
MTEXT
  5
16C
330
161
100
AcDbEntity
  8
치수문자_일반주서
 62
     0
100
AcDbMText
 10
76.34066212119865
 20
22.47061901811716
 30
0.0
 40
3.5
 41
0.0
 71
     5
 72
     1
  1
\A1;{%%c6.35 [1/4]}
  7
SLDTEXTSTYLE0
 11
0.0
 21
1.0
 31
0.0
 73
     1
 44
1.0
  0
POINT
  5
16D
330
161
100
AcDbEntity
  8
Defpoints
 62
     0
100
AcDbPoint
 10
60.6749081826537
 20
3.179119018117158
 30
0.0
  0
POINT
  5
16E
330
161
100
AcDbEntity
  8
Defpoints
 62
     0
100
AcDbPoint
 10
60.67490818265368
 20
-3.175000000000003
 30
0.0
  0
POINT
  5
171
330
161
100
AcDbEntity
  8
Defpoints
 62
     0
100
AcDbPoint
 10
78.96566212119865
 20
-3.175000000000005
 30
0.0
  0
ENDBLK
  5
163
330
161
100
AcDbEntity
  8
0
100
AcDbBlockEnd
  0
ENDSEC
  0
SECTION
  2
ENTITIES
  0
LINE
  5
95
330
1F
100
AcDbEntity
  8
0
  6
Continuous
 62
     4
370
    15
100
AcDbLine
 10
7.591713432101226
 20
6.354835151814092
 30
0.0
 11
-40.11509181734632
 21
6.354835151814086
 31
0.0
  0
LINE
  5
96
330
1F
100
AcDbEntity
  8
0
  6
Continuous
 62
     4
370
    15
100
AcDbLine
 10
-40.11509181734632
 20
-6.345164848185906
 30
0.0
 11
7.59171343210123
 21
-6.345164848185901
 31
0.0
  0
LINE
  5
97
330
1F
100
AcDbEntity
  8
0
  6
Continuous
 62
     4
370
    15
100
AcDbLine
 10
-40.11509181734632
 20
6.354835151814085
 30
0.0
 11
-40.9250918173463
 21
5.544835151814105
 31
0.0
  0
LINE
  5
98
330
1F
100
AcDbEntity
  8
0
  6
Continuous
 62
     4
370
    15
100
AcDbLine
 10
-40.9250918173463
 20
-5.535164848185928
 30
0.0
 11
-40.11509181734632
 21
-6.345164848185907
 31
0.0
  0
LINE
  5
99
330
1F
100
AcDbEntity
  8
0
  6
Continuous
 62
     4
370
    15
100
AcDbLine
 10
7.59171343210123
 20
-6.345164848185899
 30
0.0
 11
8.3549081826537
 21
-5.526738678038343
 31
0.0
  0
LINE
  5
9A
330
1F
100
AcDbEntity
  8
0
  6
Continuous
 62
     4
370
    15
100
AcDbLine
 10
8.858908182653703
 20
4.995935151814096
 30
0.0
 11
7.591713432101226
 21
6.35483515181409
 31
0.0
  0
LINE
  5
9B
330
1F
100
AcDbEntity
  8
0
  6
Continuous
 62
     1
370
    15
100
AcDbLine
 10
37.59404456493294
 20
-3.976166366250795
 30
0.0
 11
42.38181976039905
 21
-3.808973572271616
 31
0.0
  0
LINE
  5
9C
330
1F
100
AcDbEntity
  8
0
  6
Continuous
 62
     1
370
    15
100
AcDbLine
 10
10.70553733747704
 20
-4.915133729117978
 30
0.0
 11
16.2353721924176
 21
-4.722027640821166
 31
0.0
  0
LINE
  5
9D
330
1F
100
AcDbEntity
  8
0
  6
Continuous
 62
     1
370
    15
100
AcDbLine
 10
29.32498423260885
 20
4.274598619657434
 30
0.0
 11
24.12986416078949
 21
4.45601621016739
 31
0.0
  0
LINE
  5
9E
330
1F
100
AcDbEntity
  8
0
  6
Continuous
 62
     1
370
    15
100
AcDbLine
 10
55.39354371921186
 20
3.364264462843859
 30
0.0
 11
51.11573020541125
 21
3.513649002487973
 31
0.0
  0
LINE
  5
9F
330
1F
100
AcDbEntity
  8
0
  6
Continuous
 62
     1
370
    15
100
AcDbLine
 10
46.60000237853438
 20
-3.661671389389615
 30
0.0
 11
51.06309481722994
 21
-3.505816767117564
 31
0.0
  0
LINE
  5
A0
330
1F
100
AcDbEntity
  8
0
  6
Continuous
 62
     1
370
    15
100
AcDbLine
 10
19.64887938475251
 20
-4.602825342999215
 30
0.0
 11
24.96500620266879
 21
-4.417182103801862
 31
0.0
  0
LINE
  5
A1
330
1F
100
AcDbEntity
  8
0
  6
Continuous
 62
     1
370
    15
100
AcDbLine
 10
11.86426877264442
 20
4.884340239395847
 30
0.0
 11
9.874908182653714
 21
4.953810241994879
 31
0.0
  0
LINE
  5
A2
330
1F
100
AcDbEntity
  8
0
  6
Continuous
 62
     1
370
    15
100
AcDbLine
 10
38.03201593022261
 20
3.970542372787724
 30
0.0
 11
33.09941045447341
 21
4.142792751600094
 31
0.0
  0
LINE
  5
A3
330
1F
100
AcDbEntity
  8
0
  6
Continuous
 62
     1
370
    15
100
AcDbLine
 10
60.6749081826537
 20
3.179835151814099
 30
0.0
 11
60.17692614810528
 21
3.197225067653596
 31
0.0
  0
LINE
  5
A4
330
1F
100
AcDbEntity
  8
0
  6
Continuous
 62
     1
370
    15
100
AcDbLine
 10
55.6418661625748
 20
-3.345922548411357
 30
0.0
 11
59.1767583867397
 21
-3.222481391873123
 31
0.0
  0
LINE
  5
A5
330
1F
100
AcDbEntity
  8
0
  6
Continuous
 62
     1
370
    15
100
AcDbLine
 10
28.61001041157012
 20
-4.289895752026369
 30
0.0
 11
33.68233217139136
 21
-4.112766373063674
 31
0.0
  0
LINE
  5
A6
102
{ACAD_REACTORS
102
}
330
1F
100
AcDbEntity
  8
0
  6
Continuous
 62
     1
370
    15
100
AcDbLine
 10
20.60109869488215
 20
4.579243415592779
 30
0.0
 11
15.17741425353403
 21
4.768642649765075
 31
0.0
  0
LINE
  5
A7
330
1F
100
AcDbEntity
  8
0
  6
Continuous
 62
     1
370
    15
100
AcDbLine
 10
46.72565358033585
 20
3.666953856363341
 30
0.0
 11
42.09349712207675
 21
3.828712324291917
 31
0.0
  0
LINE
  5
A8
330
1F
100
AcDbEntity
  8
0
  6
Continuous
 62
     4
370
    15
100
AcDbLine
 10
9.874908182653714
 20
4.953810241994879
 30
0.0
 11
8.858908182653703
 21
4.995935151814096
 31
0.0
  0
LINE
  5
A9
330
1F
100
AcDbEntity
  8
0
  6
Continuous
 62
     4
370
    15
100
AcDbLine
 10
7.591713432101226
 20
6.35483515181409
 30
0.0
 11
7.59171343210123
 21
-6.345164848185901
 31
0.0
  0
LINE
  5
AA
330
1F
100
AcDbEntity
  8
0
  6
Continuous
 62
     4
370
    15
100
AcDbLine
 10
-40.11509181734632
 20
6.354835151814086
 30
0.0
 11
-40.11509181734632
 21
-6.345164848185906
 31
0.0
  0
LINE
  5
AB
330
1F
100
AcDbEntity
  8
0
  6
Continuous
 62
     4
370
    15
100
AcDbLine
 10
-40.9250918173463
 20
-5.535164848185927
 30
0.0
 11
-40.9250918173463
 21
5.544835151814105
 31
0.0
  0
SPLINE
  5
AC
330
1F
100
AcDbEntity
  8
0
  6
Continuous
 62
     4
370
    15
100
AcDbSpline
210
0.0
220
0.0
230
1.0
 70
     8
 71
     3
 72
     8
 73
     4
 74
     0
 42
0.000000001
 43
0.00000001
 40
0.0
 40
0.0
 40
0.0
 40
0.0
 40
1.0
 40
1.0
 40
1.0
 40
1.0
 10
8.354908182653698
 20
4.864706348873823
 30
0.0
 10
8.526563075213621
 20
4.608697825754662
 30
0.0
 10
8.69459637997027
 20
4.348483931138525
 30
0.0
 10
8.858908182653703
 20
4.083187536771362
 30
0.0
  0
LINE
  5
AD
330
1F
100
AcDbEntity
  8
0
  6
Continuous
 62
     4
370
    15
100
AcDbLine
 10
8.354908182653698
 20
1.736588262413679
 30
0.0
 11
8.354908182653698
 21
4.864706348873824
 31
0.0
  0
SPLINE
  5
AE
330
1F
100
AcDbEntity
  8
0
  6
Continuous
 62
     4
370
    15
100
AcDbSpline
210
0.0
220
0.0
230
1.0
 70
     8
 71
     3
 72
     8
 73
     4
 74
     0
 42
0.000000001
 43
0.00000001
 40
0.0
 40
0.0
 40
0.0
 40
0.0
 40
1.0
 40
1.0
 40
1.0
 40
1.0
 10
8.858908182653703
 20
0.9769289015009596
 30
0.0
 10
8.678436156754147
 20
1.206618427623232
 30
0.0
 10
8.513164538756378
 20
1.462264821775773
 30
0.0
 10
8.354908182653698
 20
1.736588262413679
 30
0.0
  0
LINE
  5
AF
330
1F
100
AcDbEntity
  8
0
  6
Continuous
 62
     4
370
    15
100
AcDbLine
 10
8.858908182653703
 20
0.97692890150096
 30
0.0
 11
8.858908182653723
 21
-4.52604543235824
 31
0.0
  0
SPLINE
  5
B0
330
1F
100
AcDbEntity
  8
0
  6
Continuous
 62
     4
370
    15
100
AcDbSpline
210
0.0
220
0.0
230
1.0
 70
     8
 71
     3
 72
     8
 73
     4
 74
     0
 42
0.000000001
 43
0.00000001
 40
0.0
 40
0.0
 40
0.0
 40
0.0
 40
1.0
 40
1.0
 40
1.0
 40
1.0
 10
8.3549081826537
 20
-4.713106289654831
 30
0.0
 10
8.526563075213623
 20
-4.659161413331464
 30
0.0
 10
8.69459637997027
 20
-4.597733486403811
 30
0.0
 10
8.858908182653705
 20
-4.526045432358121
 30
0.0
  0
LINE
  5
B1
330
1F
100
AcDbEntity
  8
0
  6
Continuous
 62
     4
370
    15
100
AcDbLine
 10
8.3549081826537
 20
-5.526738678038343
 30
0.0
 11
8.3549081826537
 21
-4.713106289654832
 31
0.0
  0
SPLINE
  5
B2
330
1F
100
AcDbEntity
  8
0
  6
Continuous
 62
     4
370
    15
100
AcDbSpline
210
0.0
220
0.0
230
1.0
 70
     8
 71
     3
 72
     8
 73
     4
 74
     0
 42
0.000000001
 43
0.00000001
 40
0.0
 40
0.0
 40
0.0
 40
0.0
 40
1.0
 40
1.0
 40
1.0
 40
1.0
 10
8.858908182653705
 20
-4.720856131923171
 30
0.0
 10
8.678436156754147
 20
-4.967078760198104
 30
0.0
 10
8.51316453875638
 20
-5.197111251786497
 30
0.0
 10
8.354908182653698
 20
-5.410712287107692
 30
0.0
  0
LINE
  5
B3
330
1F
100
AcDbEntity
  8
0
  6
Continuous
 62
     4
370
    15
100
AcDbLine
 10
8.858908182653703
 20
4.995935151814096
 30
0.0
 11
8.858908182653721
 21
4.083187536771463
 31
0.0
  0
SPLINE
  5
B4
330
1F
100
AcDbEntity
  8
0
  6
Continuous
 62
     4
370
    15
100
AcDbSpline
210
0.0
220
0.0
230
1.0
 70
     8
 71
     3
 72
     8
 73
     4
 74
     0
 42
0.000000001
 43
0.00000001
 40
0.0
 40
0.0
 40
0.0
 40
0.0
 40
1.0
 40
1.0
 40
1.0
 40
1.0
 10
9.874908182653716
 20
-0.2286593856973044
 30
0.0
 10
9.534414499394284
 20
0.1736169002351678
 30
0.0
 10
9.197728017485899
 20
0.5771470569583166
 30
0.0
 10
8.858908182653703
 20
0.9769289015009596
 30
0.0
  0
SPLINE
  5
B5
330
1F
100
AcDbEntity
  8
0
  6
Continuous
 62
     4
370
    15
100
AcDbSpline
210
0.0
220
0.0
230
1.0
 70
     8
 71
     3
 72
     8
 73
     4
 74
     0
 42
0.000000001
 43
0.00000001
 40
0.0
 40
0.0
 40
0.0
 40
0.0
 40
1.0
 40
1.0
 40
1.0
 40
1.0
 10
8.858908182653721
 20
4.083187536771463
 30
0.0
 10
9.197683807851131
 20
3.843083243740819
 30
0.0
 10
9.53446346785319
 20
3.567862585560019
 30
0.0
 10
9.874908182653668
 20
3.260983876502316
 30
0.0
  0
SPLINE
  5
B6
330
1F
100
AcDbEntity
  8
0
  6
Continuous
 62
     1
370
    15
100
AcDbSpline
210
0.0
220
0.0
230
1.0
 70
     8
 71
     3
 72
    19
 73
    15
 74
     0
 42
0.000000001
 43
0.00000001
 40
0.0
 40
0.0
 40
0.0
 40
0.0
 40
0.0534081346050157
 40
0.1072630466576781
 40
0.2048438376887032
 40
0.3052438064382963
 40
0.4029614331543651
 40
0.5035189473544688
 40
0.6010992144308855
 40
0.7015142470833869
 40
0.7989765831853793
 40
0.8992689789155749
 40
0.9966343256175028
 40
0.9999999999999999
 40
0.9999999999999999
 40
0.9999999999999999
 40
0.9999999999999999
 10
9.874908182653732
 20
3.260983876502342
 30
0.0
 10
10.04541043344573
 20
3.103928147456407
 30
0.0
 10
10.38784124510384
 20
2.788502864077802
 30
0.0
 10
11.04337604652994
 20
2.123145115649873
 30
0.0
 10
11.85265475764424
 20
1.242153539310671
 30
0.0
 10
12.80645547656342
 20
0.1542077108339871
 30
0.0
 10
13.77367484186347
 20
-0.9402371845261959
 30
0.0
 10
14.73568588381696
 20
-1.966517951820659
 30
0.0
 10
15.71032411327474
 20
-2.890255036233905
 30
0.0
 10
16.67887810745061
 20
-3.645648734801843
 30
0.0
 10
17.66005224828104
 20
-4.217586945551091
 30
0.0
 10
18.63586766385449
 20
-4.530631768091617
 30
0.0
 10
19.30183863438401
 20
-4.652581595671004
 30
0.0
 10
19.63752176709876
 20
-4.600510064443514
 30
0.0
 10
19.64873777690638
 20
-4.598770224850676
 30
0.0
  0
SPLINE
  5
B7
330
1F
100
AcDbEntity
  8
0
  6
Continuous
 62
     1
370
    15
100
AcDbSpline
210
0.0
220
0.0
230
1.0
 70
     8
 71
     3
 72
    22
 73
    18
 74
     0
 42
0.000000001
 43
0.00000001
 40
0.0
 40
0.0
 40
0.0
 40
0.0
 40
0.0354331836865497
 40
0.10568338739597
 40
0.1740148516883118
 40
0.2443214778207814
 40
0.3127393032275593
 40
0.3831332220158026
 40
0.4516633524989077
 40
0.5221715097111947
 40
0.5908376595815983
 40
0.661483569577268
 40
0.7303242252809347
 40
0.8011473896570277
 40
0.8702010117365675
 40
0.9412415656646008
 40
1.0
 40
1.0
 40
1.0
 40
1.0
 10
31.19631085641458
 20
3.775059029060861
 30
0.0
 10
31.37238104367206
 20
3.848523651060994
 30
0.0
 10
31.89752984129125
 20
4.067640007508685
 30
0.0
 10
32.76717526433031
 20
4.176146169403496
 30
0.0
 10
33.81470841870447
 20
4.102135771717875
 30
0.0
 10
34.85799948214616
 20
3.778383924453033
 30
0.0
 10
35.91606040606503
 20
3.233845890934267
 30
0.0
 10
36.97008777664268
 20
2.507364380405357
 30
0.0
 10
38.03921319096141
 20
1.63238394397188
 30
0.0
 10
39.10450752319016
 20
0.6772823530815837
 30
0.0
 10
40.18534237406136
 20
-0.3142941715212476
 30
0.0
 10
41.262589063428
 20
-1.264316842626255
 30
0.0
 10
42.35578451231307
 20
-2.127865646471848
 30
0.0
 10
43.44587602433935
 20
-2.838336041555287
 30
0.0
 10
44.5524004798754
 20
-3.353590896307086
 30
0.0
 10
45.60016849518919
 20
-3.647844398312396
 30
0.0
 10
46.28806101899233
 20
-3.646703573241622
 30
0.0
 10
46.59946165647391
 20
-3.646187135510432
 30
0.0
  0
SPLINE
  5
B8
330
1F
100
AcDbEntity
  8
0
  6
Continuous
 62
     1
370
    15
100
AcDbSpline
210
0.0
220
0.0
230
1.0
 70
     8
 71
     3
 72
    10
 73
     6
 74
     0
 42
0.000000001
 43
0.00000001
 40
0.0
 40
0.0
 40
0.0
 40
0.0
 40
0.2207983972806958
 40
0.6381346348472037
 40
1.0
 40
1.0
 40
1.0
 40
1.0
 10
57.73041161813136
 20
2.748233026059561
 30
0.0
 10
57.94579089026828
 20
2.832972519642025
 30
0.0
 10
58.56826358423454
 20
3.077880120695115
 30
0.0
 10
59.54983974214928
 20
3.228841571202125
 30
0.0
 10
60.31811641362701
 20
3.180863151709206
 30
0.0
 10
60.67490818265371
 20
3.158581718728743
 30
0.0
  0
SPLINE
  5
B9
330
1F
100
AcDbEntity
  8
0
  6
Continuous
 62
     1
370
    15
100
AcDbSpline
210
0.0
220
0.0
230
1.0
 70
     8
 71
     3
 72
    14
 73
    10
 74
     0
 42
0.000000001
 43
0.00000001
 40
0.0
 40
0.0
 40
0.0
 40
0.0
 40
0.0723428170726649
 40
0.2467183777552076
 40
0.421938325564728
 40
0.5759381405834483
 40
0.7229526086575309
 40
0.9306960900023422
 40
1.0
 40
1.0
 40
1.0
 40
1.0
 10
59.12624355138042
 20
1.572079681750206
 30
0.0
 10
59.179460517451
 20
1.552746539862104
 30
0.0
 10
59.36095197810006
 20
1.486812676673547
 30
0.0
 10
59.69982194037741
 20
1.501198661068241
 30
0.0
 10
60.0846832606428
 20
1.672941690216189
 30
0.0
 10
60.37999505607836
 20
1.989318417159555
 30
0.0
 10
60.59027184461554
 20
2.423374774227194
 30
0.0
 10
60.66740990443355
 20
2.829856883423488
 30
0.0
 10
60.67340779851514
 20
3.092804814434921
 30
0.0
 10
60.67490818265372
 20
3.15858171872766
 30
0.0
  0
SPLINE
  5
BA
330
1F
100
AcDbEntity
  8
0
  6
Continuous
 62
     1
370
    15
100
AcDbSpline
210
0.0
220
0.0
230
1.0
 70
     8
 71
     3
 72
    11
 73
     7
 74
     0
 42
0.000000001
 43
0.00000001
 40
0.0
 40
0.0
 40
0.0
 40
0.0
 40
0.2663463033756442
 40
0.539513682014878
 40
0.8220710457473851
 40
1.0
 40
1.0
 40
1.0
 40
1.0
 10
59.30503084149584
 20
1.88392655660201
 30
0.0
 10
58.95536462106291
 20
2.10310117088411
 30
0.0
 10
58.24707729861439
 20
2.547063417241082
 30
0.0
 10
57.17361284372706
 20
3.025123226580988
 30
0.0
 10
56.21871951105946
 20
3.315074085841577
 30
0.0
 10
55.62277640786282
 20
3.329158231217479
 30
0.0
 10
55.39250782222972
 20
3.334600254488098
 30
0.0
  0
SPLINE
  5
BB
330
1F
100
AcDbEntity
  8
0
  6
Continuous
 62
     1
370
    15
100
AcDbSpline
210
0.0
220
0.0
230
1.0
 70
     8
 71
     3
 72
    23
 73
    19
 74
     0
 42
0.000000001
 43
0.00000001
 40
0.0
 40
0.0
 40
0.0
 40
0.0
 40
0.0158005438988095
 40
0.0819802530167547
 40
0.1500825896439903
 40
0.2161694511425798
 40
0.2841749511012995
 40
0.3501951819638122
 40
0.4181308722318016
 40
0.4841087010878685
 40
0.5519997261771626
 40
0.6179523913518009
 40
0.6858165111758713
 40
0.751761919455106
 40
0.8196176332906469
 40
0.8855743975334665
 40
0.9534408846911855
 40
1.0
 40
1.0
 40
1.0
 40
1.0
 10
44.4388855058943
 20
-3.267588359783804
 30
0.0
 10
44.35664558385782
 20
-3.310884509308972
 30
0.0
 10
43.92994827142312
 20
-3.53552419990797
 30
0.0
 10
43.15335671786264
 20
-3.744687239206999
 30
0.0
 10
42.11927517681523
 20
-3.853401773586088
 30
0.0
 10
41.08077426567108
 20
-3.705100671404023
 30
0.0
 10
40.05699185781251
 20
-3.331601160639229
 30
0.0
 10
39.02824973528608
 20
-2.742873697540347
 30
0.0
 10
38.01389630420235
 20
-1.985701304046486
 30
0.0
 10
36.99449543235267
 20
-1.091309391657223
 30
0.0
 10
35.98904278028882
 20
-0.1282508590603181
 30
0.0
 10
34.97852939209503
 20
0.863796402970696
 30
0.0
 10
33.98160106762155
 20
1.809722485022022
 30
0.0
 10
32.97952408466826
 20
2.670324091693685
 30
0.0
 10
31.9907307032071
 20
3.383721714889056
 30
0.0
 10
30.99676837693822
 20
3.910340322470954
 30
0.0
 10
30.11074890083038
 20
4.217460848738742
 30
0.0
 10
29.55164700060577
 20
4.241127448721931
 30
0.0
 10
29.32415167367884
 20
4.250757251264654
 30
0.0
  0
SPLINE
  5
BC
330
1F
100
AcDbEntity
  8
0
  6
Continuous
 62
     1
370
    15
100
AcDbSpline
210
0.0
220
0.0
230
1.0
 70
     8
 71
     3
 72
    17
 73
    13
 74
     0
 42
0.000000001
 43
0.00000001
 40
0.0
 40
0.0
 40
0.0
 40
0.0
 40
0.0486437670876037
 40
0.1656131491093787
 40
0.279498829498839
 40
0.3966730829706076
 40
0.5107759220026468
 40
0.6281727576304232
 40
0.7425076606177087
 40
0.8601425033811959
 40
0.9297114117992569
 40
1.0
 40
1.0
 40
1.0
 40
1.0
 10
17.91807555809337
 20
-4.262029172355753
 30
0.0
 10
17.78539966328082
 20
-4.330579714903649
 30
0.0
 10
17.33368973071658
 20
-4.563967708972202
 30
0.0
 10
16.57506147911481
 20
-4.726195980790572
 30
0.0
 10
15.63341631168361
 20
-4.736196581886993
 30
0.0
 10
14.70307486948576
 20
-4.495386845085156
 30
0.0
 10
13.76700888168405
 20
-4.026515947017425
 30
0.0
 10
12.84181413918271
 20
-3.35552494069247
 30
0.0
 10
11.91102427578133
 20
-2.504702816554611
 30
0.0
 10
11.11015519342165
 20
-1.655118798449607
 30
0.0
 10
10.42923871092401
 20
-0.88145559459656
 30
0.0
 10
10.06031782405697
 20
-0.4470033246087811
 30
0.0
 10
9.87490818265371
 20
-0.2286593856972985
 30
0.0
  0
SPLINE
  5
BD
330
1F
100
AcDbEntity
  8
0
  6
Continuous
 62
     1
370
    15
100
AcDbSpline
210
0.0
220
0.0
230
1.0
 70
     8
 71
     3
 72
     9
 73
     5
 74
     0
 42
0.000000001
 43
0.00000001
 40
0.0
 40
0.0
 40
0.0
 40
0.0
 40
0.6167731004656877
 40
1.0
 40
1.0
 40
1.0
 40
1.0
 10
9.874908182653733
 20
-4.850836992853101
 30
0.0
 10
10.04536801365195
 20
-4.878749540925214
 30
0.0
 10
10.32174166041039
 20
-4.924005321456236
 30
0.0
 10
10.5989901284161
 20
-4.911419421589696
 30
0.0
 10
10.70523919921057
 20
-4.906596166205993
 30
0.0
  0
SPLINE
  5
BE
330
1F
100
AcDbEntity
  8
0
  6
Continuous
 62
     1
370
    15
100
AcDbSpline
210
0.0
220
0.0
230
1.0
 70
     8
 71
     3
 72
    23
 73
    19
 74
     0
 42
0.000000001
 43
0.00000001
 40
0.0
 40
0.0
 40
0.0
 40
0.0
 40
0.0168573925040158
 40
0.0833101603243583
 40
0.1516900895899746
 40
0.2181190451734724
 40
0.2864732480290902
 40
0.3528992736994301
 40
0.4212493033469015
 40
0.4876912678739386
 40
0.5560568661516394
 40
0.6225295151421437
 40
0.6909252879526812
 40
0.7574529713012157
 40
0.8259036771229689
 40
0.892515441867012
 40
0.9610511360352333
 40
1.0
 40
1.0
 40
1.0
 40
1.0
 10
22.35357692128471
 20
4.114183731656566
 30
0.0
 10
22.43641102981589
 20
4.153273950927037
 30
0.0
 10
22.84578174716815
 20
4.346459963162404
 30
0.0
 10
23.59520312633005
 20
4.46956513109984
 30
0.0
 10
24.59257362200031
 20
4.456978309655478
 30
0.0
 10
25.60386828774786
 20
4.181721963716884
 30
0.0
 10
26.60971791047791
 20
3.687935996627506
 30
0.0
 10
27.62933078699785
 20
2.989144056743508
 30
0.0
 10
28.64392771467261
 20
2.139069454071194
 30
0.0
 10
29.67239937035675
 20
1.170983043355545
 30
0.0
 10
30.69606393950927
 20
0.1573190238788068
 30
0.0
 10
31.73392717629535
 20
-0.8610734026160458
 30
0.0
 10
32.76703490307604
 20
-1.808202995429344
 30
0.0
 10
33.81475552525913
 20
-2.644139136607996
 30
0.0
 10
34.85795370226825
 20
-3.309779835221264
 30
0.0
 10
35.9161944623913
 20
-3.763659798078891
 30
0.0
 10
36.82466504194452
 20
-3.987337178661695
 30
0.0
 10
37.38866227524696
 20
-3.957944363639571
 30
0.0
 10
37.59303629787841
 20
-3.947293375500217
 30
0.0
  0
SPLINE
  5
BF
330
1F
100
AcDbEntity
  8
0
  6
Continuous
 62
     1
370
    15
100
AcDbSpline
210
0.0
220
0.0
230
1.0
 70
     8
 71
     3
 72
    18
 73
    14
 74
     0
 42
0.000000001
 43
0.00000001
 40
0.0
 40
0.0
 40
0.0
 40
0.0
 40
0.0139675625792243
 40
0.1136683285789171
 40
0.2110688351013391
 40
0.3112603865789639
 40
0.4092070530171572
 40
0.5099549801451159
 40
0.6085452060976186
 40
0.709950289529382
 40
0.8092730408002523
 40
0.9114253865823196
 40
1.0
 40
1.0
 40
1.0
 40
1.0
 10
48.85969984963938
 20
3.101105472856625
 30
0.0
 10
48.9132888289675
 20
3.125906039486711
 30
0.0
 10
49.3493971102748
 20
3.327733591048573
 30
0.0
 10
50.16444859969099
 20
3.490405687630108
 30
0.0
 10
51.31572831600169
 20
3.547812694027709
 30
0.0
 10
52.46637520313909
 20
3.33542611065551
 30
0.0
 10
53.63532811663889
 20
2.891683780448119
 30
0.0
 10
54.80387158162363
 20
2.248793115800986
 30
0.0
 10
55.99149600712883
 20
1.446832737351398
 30
0.0
 10
57.17946431232595
 20
0.5561651139675887
 30
0.0
 10
58.38735113711846
 20
-0.3646490320762412
 30
0.0
 10
59.54969899580685
 20
-1.211891754119834
 30
0.0
 10
60.31807177888776
 20
-1.674716891105284
 30
0.0
 10
60.67490818265371
 20
-1.889655344276645
 30
0.0
  0
LINE
  5
C0
330
1F
100
AcDbEntity
  8
0
  6
Continuous
 62
     4
370
    15
100
AcDbLine
 10
9.874908182653716
 20
-0.2286593856973044
 30
0.0
 11
9.874908182653716
 21
-4.850836992852946
 31
0.0
  0
ELLIPSE
  5
C1
330
1F
100
AcDbEntity
  8
0
  6
Continuous
 62
     1
370
    15
100
AcDbEllipse
 10
54.60439766574384
 20
-0.1245619371959702
 30
0.0
 11
4.731847752852246
 21
2.989286099952452
 31
0.0
210
0.0
220
0.0
230
1.0
 40
0.3357523528405988
 41
5.61103874445256
 42
5.836058132176339
  0
LINE
  5
C2
330
1F
100
AcDbEntity
  8
0
  6
Continuous
 62
     1
370
    15
100
AcDbLine
 10
58.93195237039651
 20
1.225265950323014
 30
0.0
 11
60.6749081826537
 21
0.0048351518140996
 31
0.0
  0
LINE
  5
C3
330
1F
100
AcDbEntity
  8
0
  6
Continuous
 62
     1
370
    15
100
AcDbLine
 10
60.6749081826537
 20
0.0048351518140986
 30
0.0
 11
60.6749081826537
 21
-1.889655344275963
 31
0.0
  0
SPLINE
  5
C4
330
1F
100
AcDbEntity
  8
0
  6
Continuous
 62
     1
370
    15
100
AcDbSpline
210
0.0
220
0.0
230
1.0
 70
     8
 71
     3
 72
    22
 73
    18
 74
     0
 42
0.000000001
 43
0.00000001
 40
0.0
 40
0.0
 40
0.0
 40
0.0
 40
0.0345389212475332
 40
0.1031272141431914
 40
0.1737145661708094
 40
0.2420873412763226
 40
0.3124511543247901
 40
0.3806420518792882
 40
0.4508168912599187
 40
0.5188625823178762
 40
0.5888864716733474
 40
0.656812510589269
 40
0.7267119107175246
 40
0.7945426519796847
 40
0.8643426601432155
 40
0.932105012540578
 40
1.0
 40
1.0
 40
1.0
 40
1.0
 10
53.29403910493498
 20
-2.913757896707421
 30
0.0
 10
53.11267697786511
 20
-3.001720071313705
 30
0.0
 10
52.57116119682042
 20
-3.264359832182637
 30
0.0
 10
51.6643567446181
 20
-3.480388910831326
 30
0.0
 10
50.58441997976469
 20
-3.541612904068743
 30
0.0
 10
49.5005119095063
 20
-3.348816607477033
 30
0.0
 10
48.43333602174005
 20
-2.931430269595432
 30
0.0
 10
47.36172041369907
 20
-2.305660948405861
 30
0.0
 10
46.3063640036524
 20
-1.524495759527047
 30
0.0
 10
45.24638829258264
 20
-0.624283761359461
 30
0.0
 10
44.20208410643777
 20
0.3209440541193997
 30
0.0
 10
43.15311618228672
 20
1.267977008815165
 30
0.0
 10
42.119342043444
 20
2.13954829735107
 30
0.0
 10
41.08074207001103
 20
2.898084366852065
 30
0.0
 10
40.05705365335537
 20
3.476645941989395
 30
0.0
 10
39.03714030096381
 20
3.868984362422907
 30
0.0
 10
38.36720355689943
 20
3.934601714587664
 30
0.0
 10
38.03190767917637
 20
3.967442468409389
 30
0.0
  0
SPLINE
  5
C5
330
1F
100
AcDbEntity
  8
0
  6
Continuous
 62
     1
370
    15
100
AcDbSpline
210
0.0
220
0.0
230
1.0
 70
     8
 71
     3
 72
    24
 73
    20
 74
     0
 42
0.000000001
 43
0.00000001
 40
0.0
 40
0.0
 40
0.0
 40
0.0
 40
0.0420790791907156
 40
0.1045482349208099
 40
0.1688239872926623
 40
0.2313594177412948
 40
0.295702744149057
 40
0.3583165606122003
 40
0.4227399368708775
 40
0.4854445885851246
 40
0.5499608847751088
 40
0.6127674269476843
 40
0.6773880678441165
 40
0.7403050938939179
 40
0.805038917609402
 40
0.8680759146329495
 40
0.9329327055841727
 40
0.9960979081368747
 40
1.0
 40
1.0
 40
1.0
 40
1.0
 10
26.74672596715573
 20
-3.936452009542077
 30
0.0
 10
26.53147967535706
 20
-4.037705391180469
 30
0.0
 10
25.99668613154385
 20
-4.289276065578517
 30
0.0
 10
25.13768641122588
 20
-4.441514816256048
 30
0.0
 10
24.1775819302668
 20
-4.406834099316618
 30
0.0
 10
23.21217063545655
 20
-4.125363984755281
 30
0.0
 10
22.25865542251333
 20
-3.626588347859498
 30
0.0
 10
21.2995809033978
 20
-2.924473465798722
 30
0.0
 10
20.35226166387211
 20
-2.067620240312275
 30
0.0
 10
19.39927727423409
 20
-1.085219936063848
 30
0.0
 10
18.4578529044554
 20
-0.0441820951288874
 30
0.0
 10
17.51072608545216
 20
1.019905727201854
 30
0.0
 10
16.57493209494165
 20
2.034653416737512
 30
0.0
 10
15.63344725436191
 20
2.966154661804441
 30
0.0
 10
14.70308386493311
 20
3.748825365509789
 30
0.0
 10
13.76694402005967
 20
4.365160250150026
 30
0.0
 10
12.84207058507536
 20
4.739043244869698
 30
0.0
 10
12.2050489512041
 20
4.907243484778932
 30
0.0
 10
11.88277656327149
 20
4.879034949033581
 30
0.0
 10
11.86402619509852
 20
4.877393727350773
 30
0.0
  0
LINE
  5
C6
102
{ACAD_REACTORS
102
}
330
1F
100
AcDbEntity
  8
0
  6
Continuous
 62
     1
370
    15
100
AcDbLine
 10
60.6749081826537
 20
3.179835151814099
 30
0.0
 11
60.6749081826537
 21
3.179119018117158
 31
0.0
  0
SPLINE
  5
C7
330
1F
100
AcDbEntity
  8
0
  6
Continuous
 62
     1
370
    15
100
AcDbSpline
210
0.0
220
0.0
230
1.0
 70
     8
 71
     3
 72
    23
 73
    19
 74
     0
 42
0.000000001
 43
0.00000001
 40
0.0
 40
0.0
 40
0.0
 40
0.0
 40
0.0181692396897884
 40
0.0849429718482159
 40
0.1497397070254838
 40
0.2164188264165533
 40
0.2811372512719912
 40
0.3477349354260436
 40
0.4123889559028172
 40
0.4789198010882615
 40
0.5435190657322083
 40
0.6099928120618454
 40
0.6745505695216533
 40
0.7409805322371733
 40
0.8055151565053743
 40
0.8719201264419408
 40
0.9364519043482937
 40
1.0
 40
1.0
 40
1.0
 40
1.0
 10
13.49928730471109
 20
4.43814618186053
 30
0.0
 10
13.58786330991558
 20
4.480113530801886
 30
0.0
 10
14.0019647937956
 20
4.676314990000723
 30
0.0
 10
14.73586419732558
 20
4.789435840992251
 30
0.0
 10
15.71028084538359
 20
4.756147823840406
 30
0.0
 10
16.67886845216705
 20
4.463924188113782
 30
0.0
 10
17.6601310458293
 20
3.945388342470032
 30
0.0
 10
18.63555503467892
 20
3.231992645830067
 30
0.0
 10
19.62375879337069
 20
2.350726874152598
 30
0.0
 10
20.60634342980547
 20
1.364133530739567
 30
0.0
 10
21.60184795313434
 20
0.3074833589357336
 30
0.0
 10
22.59179436832321
 20
-0.7436527402479324
 30
0.0
 10
23.59498855167165
 20
-1.751430854793957
 30
0.0
 10
24.59263363667704
 20
-2.643355525558052
 30
0.0
 10
25.60383836385172
 20
-3.388476746405908
 30
0.0
 10
26.60977757720946
 20
-3.92698165062821
 30
0.0
 10
27.61438998779371
 20
-4.259020186670409
 30
0.0
 10
28.27972018229298
 20
-4.276210125208818
 30
0.0
 10
28.60983033672597
 20
-4.284739083179647
 30
0.0
  0
SPLINE
  5
C8
330
1F
100
AcDbEntity
  8
0
  6
Continuous
 62
     1
370
    15
100
AcDbSpline
210
0.0
220
0.0
230
1.0
 70
     8
 71
     3
 72
    22
 73
    18
 74
     0
 42
0.000000001
 43
0.00000001
 40
0.0
 40
0.0
 40
0.0
 40
0.0
 40
0.0090721478908416
 40
0.0814747537320657
 40
0.1520272154537638
 40
0.2246114833195865
 40
0.2953822070832155
 40
0.368189270154651
 40
0.4392103604303333
 40
0.5122721164171955
 40
0.5835949742440134
 40
0.6569641697858946
 40
0.7286406181789183
 40
0.802370979809529
 40
0.8744493440078677
 40
0.9485891391415698
 40
1.0
 40
1.0
 40
1.0
 40
1.0
 10
40.03915326560742
 20
3.453353976182476
 30
0.0
 10
40.08474421820605
 20
3.474781363121084
 30
0.0
 10
40.4941854751252
 20
3.667215513771034
 30
0.0
 10
41.26288471993448
 20
3.814477016196351
 30
0.0
 10
42.35569776633761
 20
3.856779872618406
 30
0.0
 10
43.44592118089199
 20
3.632682728851667
 30
0.0
 10
44.5523067517006
 20
3.180495173445578
 30
0.0
 10
45.65603868138409
 20
2.530518824990104
 30
0.0
 10
46.77655319747222
 20
1.71787263483484
 30
0.0
 10
47.89476880321461
 20
0.8095669163702719
 30
0.0
 10
49.03027509352678
 20
-0.1467673414093922
 30
0.0
 10
50.1641289109837
 20
-1.070778523518118
 30
0.0
 10
51.31582424825861
 20
-1.911973621311713
 30
0.0
 10
52.46631781390135
 20
-2.601382207922428
 30
0.0
 10
53.6354611050874
 20
-3.089430933339837
 30
0.0
 10
54.69052234700568
 20
-3.347987280769631
 30
0.0
 10
55.36485563409153
 20
-3.328592723712633
 30
0.0
 10
55.64098366003152
 20
-3.320650982059521
 30
0.0
  0
SPLINE
  5
C9
330
1F
100
AcDbEntity
  8
0
  6
Continuous
 62
     4
370
    15
100
AcDbSpline
210
0.0
220
0.0
230
1.0
 70
     8
 71
     3
 72
     8
 73
     4
 74
     0
 42
0.000000001
 43
0.00000001
 40
0.0
 40
0.0
 40
0.0
 40
0.0
 40
1.0
 40
1.0
 40
1.0
 40
1.0
 10
8.858908182653723
 20
-4.52604543235824
 30
0.0
 10
9.197683807851131
 20
-4.679638554205164
 30
0.0
 10
9.53446346785319
 20
-4.78831399039014
 30
0.0
 10
9.87490818265367
 20
-4.850836992852941
 30
0.0
  0
LINE
  5
CA
330
1F
100
AcDbEntity
  8
0
  6
Continuous
 62
     4
370
    15
100
AcDbLine
 10
9.080969713873456
 20
-4.612105474307024
 30
0.0
 11
8.858908182653705
 21
-4.720856131923168
 31
0.0
  0
SPLINE
  5
CB
330
1F
100
AcDbEntity
  8
0
  6
Continuous
 62
     1
370
    15
100
AcDbSpline
210
0.0
220
0.0
230
1.0
 70
     8
 71
     3
 72
    12
 73
     8
 74
     0
 42
0.000000001
 43
0.00000001
 40
0.0
 40
0.0
 40
0.0
 40
0.0
 40
0.1806293447018361
 40
0.3677782772780438
 40
0.5621667177437547
 40
0.8338604310731588
 40
0.9999999999999999
 40
0.9999999999999999
 40
0.9999999999999999
 40
0.9999999999999999
 10
58.55521858407371
 20
-2.458772975819032
 30
0.0
 10
58.6230182960373
 20
-2.37668446890912
 30
0.0
 10
58.76106486486634
 20
-2.209544574195505
 30
0.0
 10
59.00959955613946
 20
-1.968256378815127
 30
0.0
 10
59.32065714193393
 20
-1.719285978940795
 30
0.0
 10
59.64885346432688
 20
-1.509294577480116
 30
0.0
 10
59.85565551749296
 20
-1.45108873676608
 30
0.0
 10
59.93412831834799
 20
-1.42900203464188
 30
0.0
  0
SPLINE
  5
CC
330
1F
100
AcDbEntity
  8
0
  6
Continuous
 62
     1
370
    15
100
AcDbSpline
210
0.0
220
0.0
230
1.0
 70
     8
 71
     3
 72
     8
 73
     4
 74
     0
 42
0.000000001
 43
0.00000001
 40
0.0
 40
0.0
 40
0.0
 40
0.0
 40
1.0
 40
1.0
 40
1.0
 40
1.0
 10
58.55521858407369
 20
-2.458772975819034
 30
0.0
 10
58.80840519404018
 20
-2.707035703823638
 30
0.0
 10
59.05682029974853
 20
-2.954660694182805
 30
0.0
 10
59.3050308414894
 20
-3.202257946293473
 30
0.0
  0
SPLINE
  5
CD
330
1F
100
AcDbEntity
  8
0
  6
Continuous
 62
     1
370
    15
100
AcDbSpline
210
0.0
220
0.0
230
1.0
 70
     8
 71
     3
 72
    19
 73
    15
 74
     0
 42
0.000000001
 43
0.00000001
 40
0.0
 40
0.0
 40
0.0
 40
0.0
 40
0.0814192922127387
 40
0.1649237161244601
 40
0.2512985607284156
 40
0.3401957419658927
 40
0.426209793526624
 40
0.5147331962298854
 40
0.6004381538926659
 40
0.6886410491922736
 40
0.7740767051666733
 40
0.8620002758478188
 40
0.947208665518428
 40
1.0
 40
1.0
 40
1.0
 40
1.0
 10
59.30503084146628
 20
-3.202257946281519
 30
0.0
 10
58.95537467202721
 20
-3.167113238284074
 30
0.0
 10
58.24710770897064
 20
-3.095923773385476
 30
0.0
 10
57.17348576007956
 20
-2.718102328486751
 30
0.0
 10
56.07230053050198
 20
-2.144891948502347
 30
0.0
 10
54.96527458751184
 20
-1.393241862990851
 30
0.0
 10
53.85423323409707
 20
-0.521922679406967
 30
0.0
 10
52.76128018406603
 20
0.39264939268793
 30
0.0
 10
51.66418945458394
 20
1.302751830077189
 30
0.0
 10
50.58447232758505
 20
2.127649859547663
 30
0.0
 10
49.50046649221298
 20
2.829175754171884
 30
0.0
 10
48.43346715788875
 20
3.333438598031174
 30
0.0
 10
47.50470879058277
 20
3.620668983733847
 30
0.0
 10
46.94047210316202
 20
3.632847259123996
 30
0.0
 10
46.72462523915268
 20
3.637506017780797
 30
0.0
  0
SPLINE
  5
CE
330
1F
100
AcDbEntity
  8
0
  6
Continuous
 62
     1
370
    15
100
AcDbSpline
210
0.0
220
0.0
230
1.0
 70
     8
 71
     3
 72
    23
 73
    19
 74
     0
 42
0.000000001
 43
0.00000001
 40
0.0
 40
0.0
 40
0.0
 40
0.0
 40
0.0396738691232845
 40
0.1056384617508792
 40
0.1697380478661505
 40
0.2356944697901327
 40
0.2998050940138141
 40
0.3657719877130225
 40
0.4299116846009827
 40
0.4959077128110199
 40
0.5600903998557363
 40
0.626129944839083
 40
0.6903684050390179
 40
0.7564646298447416
 40
0.8207712418520653
 40
0.8869369545829201
 40
0.9513241727200136
 40
0.9999999999999999
 40
0.9999999999999999
 40
0.9999999999999999
 40
0.9999999999999999
 10
35.6022285845995
 20
-3.596450830029738
 30
0.0
 10
35.39759886413965
 20
-3.69372121466983
 30
0.0
 10
34.85273723668614
 20
-3.95272024940892
 30
0.0
 10
33.9817110697507
 20
-4.125526784820317
 30
0.0
 10
32.97948828547437
 20
-4.119907720948596
 30
0.0
 10
31.990762016109
 20
-3.869413124914645
 30
0.0
 10
30.99668017775432
 20
-3.394080746560245
 30
0.0
 10
30.01565130641068
 20
-2.725081580125757
 30
0.0
 10
29.02922315918315
 20
-1.888397377149289
 30
0.0
 10
28.05551268852561
 20
-0.9440137914417881
 30
0.0
 10
27.07641027507088
 20
0.0726475822219628
 30
0.0
 10
26.10969936822451
 20
1.088680027583158
 30
0.0
 10
25.13758816789329
 20
2.066610606361171
 30
0.0
 10
24.17761313936143
 20
2.935950276501536
 30
0.0
 10
23.21214247800306
 20
3.667417000378065
 30
0.0
 10
22.25873807276227
 20
4.19869180389566
 30
0.0
 10
21.3849533288367
 20
4.517248668563448
 30
0.0
 10
20.83642290558339
 20
4.543996052516105
 30
0.0
 10
20.6002699517902
 20
4.555511318504813
 30
0.0
  0
ELLIPSE
  5
CF
330
1F
100
AcDbEntity
  8
0
  6
Continuous
 62
     1
370
    15
100
AcDbEllipse
 10
54.60439766574384
 20
0.1635641795959196
 30
0.0
 11
4.806561496490681
 21
-3.292462617239652
 31
0.0
210
0.0
220
0.0
230
1.0
 40
0.1648756616496584
 41
6.063258097878363
 42
6.157530029116528
  0
ELLIPSE
  5
D0
330
1F
100
AcDbEntity
  8
0
  6
Continuous
 62
     1
370
    15
100
AcDbEllipse
 10
60.44820610420551
 20
-0.0745341003145152
 30
0.0
 11
4.39791518216434
 21
2.235955957462769
 31
0.0
210
0.0
220
0.0
230
1.0
 40
0.514129339549534
 41
4.116642602409495
 42
4.506612205938604
  0
LINE
  5
D1
330
1F
100
AcDbEntity
  8
0
  6
Continuous
 62
     1
370
    15
100
AcDbLine
 10
60.6749081826537
 20
0.0048351518141037
 30
0.0
 11
60.6749081826537
 21
3.158581718727606
 31
0.0
  0
LINE
  5
D2
330
1F
100
AcDbEntity
  8
0
  6
Continuous
 62
     1
370
    15
100
AcDbLine
 10
60.6749081826537
 20
-1.889655344276634
 30
0.0
 11
60.6749081826537
 21
-2.744795505201482
 31
0.0
  0
LINE
  5
D3
330
1F
100
AcDbEntity
  8
0
  6
Continuous
 62
     4
370
    15
100
AcDbLine
 10
9.874908182653714
 20
4.953810241994879
 30
0.0
 11
9.874908182653714
 21
3.260983876502319
 31
0.0
  0
LINE
  5
D4
102
{ACAD_REACTORS
102
}
330
1F
100
AcDbEntity
  8
중심선
100
AcDbLine
 10
-43.92509181734628
 20
-0.0000000000000035
 30
0.0
 11
63.67490428620231
 21
-0.0000000000000035
 31
0.0
  0
CIRCLE
  5
D5
330
1F
100
AcDbEntity
  8
외형선
100
AcDbCircle
 10
-0.0000000000000013
 20
-0.0000000000000039
 30
0.0
 40
3.000000000000004
  0
INSERT
  5
D6
330
1F
100
AcDbEntity
  8
0
  6
Continuous
 62
     7
100
AcDbBlockReference
 66
     1
  2
블럭10
 10
-16.63945112874702
 20
-52.04717430164393
 30
0.0
  0
ATTRIB
  5
D7
330
D6
100
AcDbEntity
  8
FORMAT
 62
     2
100
AcDbText
 10
-25.8207464174883
 20
-49.97180738881174
 30
0.0
 40
4.233333333333333
  1
E5077216 [ 3 FLUTE ]
 41
0.75
  7
SLDTEXTSTYLE0
 11
-25.8207464174883
 21
-52.08847405547841
 31
0.0
100
AcDbAttribute
  2
AUTOATTR0
 70
     0
 74
     1
  0
SEQEND
  5
D8
330
D6
100
AcDbEntity
  8
0
  6
Continuous
 62
     7
  0
HATCH
  5
D9
330
1F
100
AcDbEntity
  8
중심선
100
AcDbHatch
 10
0.0
 20
0.0
 30
0.0
210
0.0
220
0.0
230
1.0
  2
SOLID
 70
     1
 71
     0
 91
        1
 92
        0
 93
        4
 72
     1
 10
-10.92454182436617
 20
-35.8
 11
-14.37081706820345
 21
-35.8
 72
     1
 10
-14.37081706820345
 20
-35.8
 11
-16.49904692740747
 21
-38.33632558057259
 72
     1
 10
-16.49904692740747
 20
-38.33632558057259
 11
-13.05273859845704
 21
-38.3362861512701
 72
     1
 10
-13.05273859845704
 20
-38.3362861512701
 11
-10.92454182436617
 21
-35.8
 97
        0
 75
     0
 76
     1
 98
        1
 10
0.0
 20
0.0
  0
HATCH
  5
DA
330
1F
100
AcDbEntity
  8
중심선
100
AcDbHatch
 10
0.0
 20
0.0
 30
0.0
210
0.0
220
0.0
230
1.0
  2
SOLID
 70
     1
 71
     0
 91
        1
 92
        0
 93
        4
 72
     1
 10
-5.911777833330217
 20
-35.8
 11
-9.358053077167499
 21
-35.8
 72
     1
 10
-9.358053077167499
 20
-35.8
 11
-13.88919108552489
 21
-41.20000000000002
 72
     1
 10
-13.88919108552489
 20
-41.20000000000002
 11
-10.44291584168761
 21
-41.20000000000002
 72
     1
 10
-10.44291584168761
 20
-41.20000000000002
 11
-5.911777833330217
 21
-35.8
 97
        0
 75
     0
 76
     1
 98
        1
 10
0.0
 20
0.0
  0
HATCH
  5
DB
330
1F
100
AcDbEntity
  8
중심선
100
AcDbHatch
 10
0.0
 20
0.0
 30
0.0
210
0.0
220
0.0
230
1.0
  2
SOLID
 70
     1
 71
     0
 91
        1
 92
        0
 93
        4
 72
     1
 10
-0.8990138422943217
 20
-35.80000000000003
 11
-4.345289086131437
 21
-35.8
 72
     1
 10
-4.345289086131437
 20
-35.8
 11
-11.39372598802069
 21
-44.20000000000002
 72
     1
 10
-11.39372598802069
 20
-44.20000000000002
 11
-7.947450744183405
 21
-44.20000000000002
 72
     1
 10
-7.947450744183405
 20
-44.20000000000002
 11
-0.8990138422943215
 21
-35.80000000000003
 97
        0
 75
     0
 76
     1
 98
        1
 10
0.0
 20
0.0
  0
HATCH
  5
DC
330
1F
100
AcDbEntity
  8
중심선
100
AcDbHatch
 10
0.0
 20
0.0
 30
0.0
210
0.0
220
0.0
230
1.0
  2
SOLID
 70
     1
 71
     0
 91
        1
 92
        0
 93
        6
 72
     3
 10
3.900876588717877
 20
-40.00000000005127
 11
3.960054785062284
 21
1.540850780301639E-10
 40
0.3939339440162633
 50
17.09539180608433
 51
320.0019657685079
 73
     0
 72
     1
 10
5.583876244418473
 20
-38.5878940046383
 11
7.889178118119511
 21
-36.65356729459038
 72
     3
 10
3.900876588665031
 20
-40.00000000000015
 11
6.600054785286829
 21
-1.249000902703301E-13
 40
0.6363583540795982
 50
39.99873849337408
 51
368.4976242363725
 73
     1
 72
     1
 10
10.32620908056564
 20
-39.03999999993002
 11
2.580943895500953
 21
-39.03999999992999
 72
     1
 10
2.580943895500953
 20
-39.03999999992999
 11
2.58091885105502
 21
-40.95999999992991
 72
     1
 10
2.58091885105502
 20
-40.95999999992991
 11
7.022298620527057
 21
-40.95999999992988
 97
        0
 75
     0
 76
     1
 98
        1
 10
0.0
 20
0.0
  0
POINT
  5
DD
330
1F
100
AcDbEntity
  8
치수문자_일반주서
100
AcDbPoint
 10
-0.0000000000000013
 20
-0.0000000000000039
 30
0.0
  0
DIMENSION
  5
DE
330
1F
100
AcDbEntity
  8
치수문자_일반주서
100
AcDbDimension
  2
_D
 10
9.874908182653712
 20
37.67119858927334
 30
0.0
 11
35.2749081826537
 21
37.67119858927334
 31
0.0
 70
   160
  1
<>
 71
     2
 42
50.79999999999998
  3
SLDDIMSTYLE2
100
AcDbAlignedDimension
 13
60.6749081826537
 23
3.158581718727606
 33
0.0
 14
9.874908182653712
 24
4.953810241994879
 34
0.0
100
AcDbRotatedDimension
1001
ACAD
1000
DSTYLE
1002
{
1070
   171
1070
     6
1070
   273
1070
     7
1002
}
  0
DIMENSION
  5
F4
330
1F
100
AcDbEntity
  8
치수문자_일반주서
100
AcDbDimension
  2
_D_1
 10
-40.9250918173463
 20
55.07956063300844
 30
0.0
 11
13.74263261884118
 21
55.07956063300844
 31
0.0
 70
   160
  1
<>
 71
     2
 42
101.6
  3
SLDDIMSTYLE2
100
AcDbAlignedDimension
 13
60.6749081826537
 23
3.158581718727606
 33
0.0
 14
-40.9250918173463
 24
5.544835151814106
 34
0.0
 50
0.000000000000004
100
AcDbRotatedDimension
1001
ACAD
1000
DSTYLE
1002
{
1070
   171
1070
     6
1070
   273
1070
     7
1002
}
  0
DIMENSION
  5
108
330
1F
100
AcDbEntity
  8
치수문자_일반주서
100
AcDbDimension
  2
_D_2
 10
-53.92509181734626
 20
-6.345164848185959
 30
0.0
 11
-53.92509181734637
 21
26.74008515181404
 31
0.0
 70
   160
  1
%%c<>
 71
     2
 42
12.69999999999999
  3
SLDDIMSTYLE2
100
AcDbAlignedDimension
 13
-40.11509181734632
 23
6.354835151814086
 33
0.0
 14
-40.11509181734632
 24
-6.345164848185906
 34
0.0
 50
90.0000000000002
100
AcDbRotatedDimension
1001
ACAD
1000
DSTYLE
1002
{
1070
   171
1070
     6
1070
   273
1070
     7
1002
}
  0
INSERT
  5
123
330
1F
100
AcDbEntity
  8
외형선
100
AcDbBlockReference
  2
SW_DOWELSYMBOL_0
 10
-0.0000000000000013
 20
-0.0000000000000039
 30
0.0
  0
DIMENSION
  5
149
102
{ACAD_REACTORS
102
}
102
{ACAD_XDICTIONARY
360
14A
102
}
330
1F
100
AcDbEntity
  8
치수문자_일반주서
100
AcDbDimension
  2
*D6
 10
15.17741425353403
 20
4.768642649765075
 30
0.0
 11
24.3632303327439
 21
13.81418806230378
 31
0.0
 70
    34
  1
<>
 71
     5
 42
0.0349065850398866
  3
SLDDIMSTYLE2
100
AcDb2LineAngularDimension
 13
-43.92509181734628
 23
-0.0000000000000035
 33
0.0
 14
63.67490428620231
 24
-0.0000000000000035
 34
0.0
 15
20.60109869488215
 25
4.579243415592779
 35
0.0
 16
26.27668578653399
 26
1.459821883934908
 36
0.0
1001
ACAD
1000
DSTYLE
1002
{
1070
   171
1070
     6
1070
   273
1070
     7
1002
}
  0
DIMENSION
  5
15E
102
{ACAD_REACTORS
102
}
102
{ACAD_XDICTIONARY
360
15F
102
}
330
1F
100
AcDbEntity
  8
치수문자_일반주서
100
AcDbDimension
  2
*D7
 10
78.96566212119865
 20
-3.175000000000004
 30
0.0
 11
78.96566212119865
 21
22.47061901811716
 31
0.0
 70
   160
  1
{%%c<>[]}
 71
     5
 42
6.354119018117162
  3
SLDDIMSTYLE2
100
AcDbAlignedDimension
 13
60.6749081826537
 23
3.179119018117158
 33
0.0
 14
60.67490818265368
 24
-3.175000000000003
 34
0.0
 50
90.0
100
AcDbRotatedDimension
1001
ACAD
1000
DSTYLE
1002
{
1070
   283
1070
     1
1070
   170
1070
     1
1070
   171
1070
     6
1070
   273
1070
     7
1002
}
  0
ENDSEC
  0
SECTION
  2
OBJECTS
  0
DICTIONARY
  5
C
330
0
100
AcDbDictionary
281
     1
  3
ACAD_GROUP
350
D
  3
ACAD_IMAGE_VARS
350
147
  3
ACAD_LAYOUT
350
1A
  3
ACAD_MLINESTYLE
350
17
  3
ACAD_PLOTSETTINGS
350
19
  3
ACAD_PLOTSTYLENAME
350
E
  3
ACAD_SCALELIST
350
47
  3
APPDATA
350
145
  3
DWGPROPS
350
172
  0
DICTIONARY
  5
14A
330
149
100
AcDbDictionary
280
     1
281
     1
  0
DICTIONARY
  5
15F
330
15E
100
AcDbDictionary
280
     1
281
     1
  0
DICTIONARY
  5
D
102
{ACAD_REACTORS
330
C
102
}
330
C
100
AcDbDictionary
281
     1
  0
RASTERVARIABLES
  5
147
102
{ACAD_REACTORS
330
C
102
}
330
C
100
AcDbRasterVariables
 90
        0
 70
     1
 71
     1
 72
     1
  0
DICTIONARY
  5
1A
102
{ACAD_REACTORS
330
C
102
}
330
C
100
AcDbDictionary
281
     1
  3
Layout1
350
1E
  3
Layout2
350
26
  3
Model
350
22
  0
DICTIONARY
  5
17
102
{ACAD_REACTORS
330
C
102
}
330
C
100
AcDbDictionary
281
     1
  3
Standard
350
18
  0
DICTIONARY
  5
19
102
{ACAD_REACTORS
330
C
102
}
330
C
100
AcDbDictionary
281
     1
  0
ACDBDICTIONARYWDFLT
  5
E
102
{ACAD_REACTORS
330
C
102
}
330
C
100
AcDbDictionary
281
     1
  3
Normal
350
F
100
AcDbDictionaryWithDefault
340
F
  0
DICTIONARY
  5
47
102
{ACAD_REACTORS
330
C
102
}
330
C
100
AcDbDictionary
281
     1
  3
A0
350
48
  3
A1
350
49
  3
A2
350
4A
  3
A3
350
4B
  3
A4
350
4C
  3
A5
350
4D
  3
A6
350
4E
  3
A7
350
4F
  3
A8
350
50
  3
A9
350
51
  3
B0
350
52
  3
B1
350
53
  3
B2
350
54
  3
B3
350
55
  3
B4
350
56
  3
B5
350
57
  3
B6
350
58
  3
B7
350
59
  3
B8
350
5A
  3
B9
350
5B
  3
C0
350
5C
  3
C1
350
5D
  3
C2
350
5E
  3
C3
350
5F
  3
C4
350
60
  3
C5
350
61
  3
C6
350
62
  3
C7
350
63
  3
C8
350
64
  3
C9
350
65
  3
D0
350
66
  3
D1
350
67
  3
D2
350
68
  0
DICTIONARY
  5
145
102
{ACAD_REACTORS
330
C
102
}
330
C
100
AcDbDictionary
281
     1
  0
XRECORD
  5
172
102
{ACAD_REACTORS
330
C
102
}
330
C
100
AcDbXrecord
280
     1
  1
DWGPROPS COOKIE
  2

  3

  4

  6

  7

  8
12015048
  9

300
=
301
=
302
=
303
=
304
=
305
=
306
=
307
=
308
=
309
=
 40
0.0
 41
2458333.348656979
 42
2458340.07440191
  1

 90
        0
  0
LAYOUT
  5
1E
102
{ACAD_REACTORS
330
1A
102
}
330
1A
100
AcDbPlotSettings
  1

  2
none_device
  4

  6

 40
0.0
 41
0.0
 42
0.0
 43
0.0
 44
0.0
 45
0.0
 46
0.0
 47
0.0
 48
0.0
 49
0.0
140
0.0
141
0.0
142
1.0
143
1.0
 70
   688
 72
     1
 73
     0
 74
     5
  7

 75
    16
147
1.0
148
0.0
149
0.0
100
AcDbLayout
  1
Layout1
 70
     1
 71
     1
 10
0.0
 20
0.0
 11
420.0
 21
297.0
 12
0.0
 22
0.0
 32
0.0
 14
1.000000000000000E+20
 24
1.000000000000000E+20
 34
1.000000000000000E+20
 15
-1.000000000000000E+20
 25
-1.000000000000000E+20
 35
-1.000000000000000E+20
146
0.0
 13
0.0
 23
0.0
 33
0.0
 16
1.0
 26
0.0
 36
0.0
 17
0.0
 27
1.0
 37
0.0
 76
     0
330
1B
  0
LAYOUT
  5
26
102
{ACAD_REACTORS
330
1A
102
}
330
1A
100
AcDbPlotSettings
  1

  2
none_device
  4

  6

 40
0.0
 41
0.0
 42
0.0
 43
0.0
 44
0.0
 45
0.0
 46
0.0
 47
0.0
 48
0.0
 49
0.0
140
0.0
141
0.0
142
1.0
143
1.0
 70
   688
 72
     1
 73
     0
 74
     5
  7

 75
    16
147
1.0
148
0.0
149
0.0
100
AcDbLayout
  1
Layout2
 70
     1
 71
     2
 10
0.0
 20
0.0
 11
0.0
 21
0.0
 12
0.0
 22
0.0
 32
0.0
 14
0.0
 24
0.0
 34
0.0
 15
0.0
 25
0.0
 35
0.0
146
0.0
 13
0.0
 23
0.0
 33
0.0
 16
1.0
 26
0.0
 36
0.0
 17
0.0
 27
1.0
 37
0.0
 76
     0
330
23
  0
LAYOUT
  5
22
102
{ACAD_REACTORS
330
1A
102
}
330
1A
100
AcDbPlotSettings
  1

  2
none_device
  4
ANSI_A_(11.00_x_8.50_Inches)
  6

 40
6.35
 41
19.05
 42
6.35000508
 43
19.05000254
 44
279.4
 45
215.9
 46
130.928189324021
 47
101.644118882377
 48
0.0
 49
0.0
140
0.0
141
0.0
142
0.082661012558327
143
1.0
 70
  1696
 72
     0
 73
     0
 74
     0
  7

 75
     0
147
0.0235690232323232
148
0.0
149
0.0
100
AcDbLayout
  1
Model
 70
     1
 71
     0
 10
0.0
 20
0.0
 11
420.0
 21
297.0
 12
0.0
 22
0.0
 32
0.0
 14
-58.30009181734641
 24
-49.97180738881174
 34
0.0
 15
79.51599545453197
 25
59.45456063300844
 35
0.0
146
0.0
 13
0.0
 23
0.0
 33
0.0
 16
1.0
 26
0.0
 36
0.0
 17
0.0
 27
1.0
 37
0.0
 76
     0
330
1F
331
29
  0
MLINESTYLE
  5
18
102
{ACAD_REACTORS
330
17
102
}
330
17
100
AcDbMlineStyle
  2
Standard
 70
     0
  3

 62
   256
 51
90.0
 52
90.0
 71
     2
 49
0.5
 62
   256
  6
BYLAYER
 49
-0.5
 62
   256
  6
BYLAYER
  0
ACDBPLACEHOLDER
  5
F
102
{ACAD_REACTORS
330
E
102
}
330
E
  0
SCALE
  5
48
102
{ACAD_REACTORS
330
47
102
}
330
47
100
AcDbScale
 70
     0
300
1:1
140
1.0
141
1.0
290
     1
  0
SCALE
  5
49
102
{ACAD_REACTORS
330
47
102
}
330
47
100
AcDbScale
 70
     0
300
1:2
140
1.0
141
2.0
290
     0
  0
SCALE
  5
4A
102
{ACAD_REACTORS
330
47
102
}
330
47
100
AcDbScale
 70
     0
300
1:4
140
1.0
141
4.0
290
     0
  0
SCALE
  5
4B
102
{ACAD_REACTORS
330
47
102
}
330
47
100
AcDbScale
 70
     0
300
1:5
140
1.0
141
5.0
290
     0
  0
SCALE
  5
4C
102
{ACAD_REACTORS
330
47
102
}
330
47
100
AcDbScale
 70
     0
300
1:8
140
1.0
141
8.0
290
     0
  0
SCALE
  5
4D
102
{ACAD_REACTORS
330
47
102
}
330
47
100
AcDbScale
 70
     0
300
1:10
140
1.0
141
10.0
290
     0
  0
SCALE
  5
4E
102
{ACAD_REACTORS
330
47
102
}
330
47
100
AcDbScale
 70
     0
300
1:16
140
1.0
141
16.0
290
     0
  0
SCALE
  5
4F
102
{ACAD_REACTORS
330
47
102
}
330
47
100
AcDbScale
 70
     0
300
1:20
140
1.0
141
20.0
290
     0
  0
SCALE
  5
50
102
{ACAD_REACTORS
330
47
102
}
330
47
100
AcDbScale
 70
     0
300
1:30
140
1.0
141
30.0
290
     0
  0
SCALE
  5
51
102
{ACAD_REACTORS
330
47
102
}
330
47
100
AcDbScale
 70
     0
300
1:40
140
1.0
141
40.0
290
     0
  0
SCALE
  5
52
102
{ACAD_REACTORS
330
47
102
}
330
47
100
AcDbScale
 70
     0
300
1:50
140
1.0
141
50.0
290
     0
  0
SCALE
  5
53
102
{ACAD_REACTORS
330
47
102
}
330
47
100
AcDbScale
 70
     0
300
1:100
140
1.0
141
100.0
290
     0
  0
SCALE
  5
54
102
{ACAD_REACTORS
330
47
102
}
330
47
100
AcDbScale
 70
     0
300
2:1
140
2.0
141
1.0
290
     0
  0
SCALE
  5
55
102
{ACAD_REACTORS
330
47
102
}
330
47
100
AcDbScale
 70
     0
300
4:1
140
4.0
141
1.0
290
     0
  0
SCALE
  5
56
102
{ACAD_REACTORS
330
47
102
}
330
47
100
AcDbScale
 70
     0
300
8:1
140
8.0
141
1.0
290
     0
  0
SCALE
  5
57
102
{ACAD_REACTORS
330
47
102
}
330
47
100
AcDbScale
 70
     0
300
10:1
140
10.0
141
1.0
290
     0
  0
SCALE
  5
58
102
{ACAD_REACTORS
330
47
102
}
330
47
100
AcDbScale
 70
     0
300
100:1
140
100.0
141
1.0
290
     0
  0
SCALE
  5
59
102
{ACAD_REACTORS
330
47
102
}
330
47
100
AcDbScale
 70
     0
300
1/128" = 1'-0"
140
0.0078125
141
12.0
290
     0
  0
SCALE
  5
5A
102
{ACAD_REACTORS
330
47
102
}
330
47
100
AcDbScale
 70
     0
300
1/64" = 1'-0"
140
0.015625
141
12.0
290
     0
  0
SCALE
  5
5B
102
{ACAD_REACTORS
330
47
102
}
330
47
100
AcDbScale
 70
     0
300
1/32" = 1'-0"
140
0.03125
141
12.0
290
     0
  0
SCALE
  5
5C
102
{ACAD_REACTORS
330
47
102
}
330
47
100
AcDbScale
 70
     0
300
1/16" = 1'-0"
140
0.0625
141
12.0
290
     0
  0
SCALE
  5
5D
102
{ACAD_REACTORS
330
47
102
}
330
47
100
AcDbScale
 70
     0
300
3/32" = 1'-0"
140
0.09375
141
12.0
290
     0
  0
SCALE
  5
5E
102
{ACAD_REACTORS
330
47
102
}
330
47
100
AcDbScale
 70
     0
300
1/8" = 1'-0"
140
0.125
141
12.0
290
     0
  0
SCALE
  5
5F
102
{ACAD_REACTORS
330
47
102
}
330
47
100
AcDbScale
 70
     0
300
3/16" = 1'-0"
140
0.1875
141
12.0
290
     0
  0
SCALE
  5
60
102
{ACAD_REACTORS
330
47
102
}
330
47
100
AcDbScale
 70
     0
300
1/4" = 1'-0"
140
0.25
141
12.0
290
     0
  0
SCALE
  5
61
102
{ACAD_REACTORS
330
47
102
}
330
47
100
AcDbScale
 70
     0
300
3/8" = 1'-0"
140
0.375
141
12.0
290
     0
  0
SCALE
  5
62
102
{ACAD_REACTORS
330
47
102
}
330
47
100
AcDbScale
 70
     0
300
1/2" = 1'-0"
140
0.5
141
12.0
290
     0
  0
SCALE
  5
63
102
{ACAD_REACTORS
330
47
102
}
330
47
100
AcDbScale
 70
     0
300
3/4" = 1'-0"
140
0.75
141
12.0
290
     0
  0
SCALE
  5
64
102
{ACAD_REACTORS
330
47
102
}
330
47
100
AcDbScale
 70
     0
300
1" = 1'-0"
140
1.0
141
12.0
290
     0
  0
SCALE
  5
65
102
{ACAD_REACTORS
330
47
102
}
330
47
100
AcDbScale
 70
     0
300
1-1/2" = 1'-0"
140
1.5
141
12.0
290
     0
  0
SCALE
  5
66
102
{ACAD_REACTORS
330
47
102
}
330
47
100
AcDbScale
 70
     0
300
3" = 1'-0"
140
3.0
141
12.0
290
     0
  0
SCALE
  5
67
102
{ACAD_REACTORS
330
47
102
}
330
47
100
AcDbScale
 70
     0
300
6" = 1'-0"
140
6.0
141
12.0
290
     0
  0
SCALE
  5
68
102
{ACAD_REACTORS
330
47
102
}
330
47
100
AcDbScale
 70
     0
300
1'-0" = 1'-0"
140
12.0
141
12.0
290
     0
  0
ENDSEC
  0
EOF
