  0
SECTION
  2
HEADER
  9
$ACADVER
  1
AC1015
  9
$ACADMAINTVER
 70
     6
  9
$DWGCODEPAGE
  3
ANSI_949
  9
$INSBASE
 10
0.0
 20
0.0
 30
0.0
  9
$EXTMIN
 10
-51.95009181734636
 20
-49.97180738881174
 30
0.0
  9
$EXTMAX
 10
67.95135845790114
 20
48.35193315650731
 30
0.0
  9
$LIMMIN
 10
0.0
 20
0.0
  9
$LIMMAX
 10
420.0
 20
297.0
  9
$ORTHOMODE
 70
     1
  9
$REGENMODE
 70
     1
  9
$FILLMODE
 70
     1
  9
$QTEXTMODE
 70
     0
  9
$MIRRTEXT
 70
     1
  9
$LTSCALE
 40
1.0
  9
$ATTMODE
 70
     1
  9
$TEXTSIZE
 40
3.5
  9
$TRACEWID
 40
1.0
  9
$TEXTSTYLE
  7
Standard
  9
$CLAYER
  8
0
  9
$CELTYPE
  6
ByLayer
  9
$CECOLOR
 62
   256
  9
$CELTSCALE
 40
1.0
  9
$DISPSILH
 70
     0
  9
$DIMSCALE
 40
1.0
  9
$DIMASZ
 40
3.302
  9
$DIMEXO
 40
1.0
  9
$DIMDLI
 40
3.75
  9
$DIMRND
 40
0.0
  9
$DIMDLE
 40
0.0
  9
$DIMEXE
 40
1.0
  9
$DIMTP
 40
0.0
  9
$DIMTM
 40
0.0
  9
$DIMTXT
 40
3.5
  9
$DIMCEN
 40
2.5
  9
$DIMTSZ
 40
0.0
  9
$DIMTOL
 70
     0
  9
$DIMLIM
 70
     0
  9
$DIMTIH
 70
     1
  9
$DIMTOH
 70
     1
  9
$DIMSE1
 70
     0
  9
$DIMSE2
 70
     0
  9
$DIMTAD
 70
     1
  9
$DIMZIN
 70
     0
  9
$DIMBLK
  1

  9
$DIMASO
 70
     1
  9
$DIMSHO
 70
     1
  9
$DIMPOST
  1

  9
$DIMAPOST
  1

  9
$DIMALT
 70
     0
  9
$DIMALTD
 70
     3
  9
$DIMALTF
 40
0.0393700787401575
  9
$DIMLFAC
 40
1.0
  9
$DIMTOFL
 70
     1
  9
$DIMTVP
 40
0.0
  9
$DIMTIX
 70
     0
  9
$DIMSOXD
 70
     0
  9
$DIMSAH
 70
     0
  9
$DIMBLK1
  1

  9
$DIMBLK2
  1

  9
$DIMSTYLE
  2
ISO-25
  9
$DIMCLRD
 70
     0
  9
$DIMCLRE
 70
     0
  9
$DIMCLRT
 70
     0
  9
$DIMTFAC
 40
1.0
  9
$DIMGAP
 40
1.524
  9
$DIMJUST
 70
     0
  9
$DIMSD1
 70
     0
  9
$DIMSD2
 70
     0
  9
$DIMTOLJ
 70
     0
  9
$DIMTZIN
 70
     0
  9
$DIMALTZ
 70
     0
  9
$DIMALTTZ
 70
     0
  9
$DIMUPT
 70
     0
  9
$DIMDEC
 70
     2
  9
$DIMTDEC
 70
     2
  9
$DIMALTU
 70
     2
  9
$DIMALTTD
 70
     3
  9
$DIMTXSTY
  7
Standard
  9
$DIMAUNIT
 70
     0
  9
$DIMADEC
 70
     2
  9
$DIMALTRND
 40
0.0
  9
$DIMAZIN
 70
     0
  9
$DIMDSEP
 70
    44
  9
$DIMATFIT
 70
     3
  9
$DIMFRAC
 70
     0
  9
$DIMLDRBLK
  1

  9
$DIMLUNIT
 70
     2
  9
$DIMLWD
 70
    -2
  9
$DIMLWE
 70
    -2
  9
$DIMTMOVE
 70
     0
  9
$LUNITS
 70
     2
  9
$LUPREC
 70
     2
  9
$SKETCHINC
 40
1.0
  9
$FILLETRAD
 40
10.0
  9
$AUNITS
 70
     0
  9
$AUPREC
 70
     2
  9
$MENU
  1
.
  9
$ELEVATION
 40
0.0
  9
$PELEVATION
 40
0.0
  9
$THICKNESS
 40
0.0
  9
$LIMCHECK
 70
     0
  9
$CHAMFERA
 40
0.0
  9
$CHAMFERB
 40
0.0
  9
$CHAMFERC
 40
0.0
  9
$CHAMFERD
 40
0.0
  9
$SKPOLY
 70
     0
  9
$TDCREATE
 40
2458333.723936435
  9
$TDUCREATE
 40
2458333.348936435
  9
$TDUPDATE
 40
2458340.456899398
  9
$TDUUPDATE
 40
2458340.081899398
  9
$TDINDWG
 40
0.0043988426
  9
$TDUSRTIMER
 40
2458340.077500648
  9
$USRTIMER
 70
     1
  9
$ANGBASE
 50
0.0
  9
$ANGDIR
 70
     0
  9
$PDMODE
 70
     0
  9
$PDSIZE
 40
-1.0
  9
$PLINEWID
 40
0.0
  9
$SPLFRAME
 70
     0
  9
$SPLINETYPE
 70
     6
  9
$SPLINESEGS
 70
     8
  9
$HANDSEED
  5
17A
  9
$SURFTAB1
 70
     6
  9
$SURFTAB2
 70
     6
  9
$SURFTYPE
 70
     6
  9
$SURFU
 70
     6
  9
$SURFV
 70
     6
  9
$UCSBASE
  2

  9
$UCSNAME
  2

  9
$UCSORG
 10
0.0
 20
0.0
 30
0.0
  9
$UCSXDIR
 10
1.0
 20
0.0
 30
0.0
  9
$UCSYDIR
 10
0.0
 20
1.0
 30
0.0
  9
$UCSORTHOREF
  2

  9
$UCSORTHOVIEW
 70
     0
  9
$UCSORGTOP
 10
0.0
 20
0.0
 30
0.0
  9
$UCSORGBOTTOM
 10
0.0
 20
0.0
 30
0.0
  9
$UCSORGLEFT
 10
0.0
 20
0.0
 30
0.0
  9
$UCSORGRIGHT
 10
0.0
 20
0.0
 30
0.0
  9
$UCSORGFRONT
 10
0.0
 20
0.0
 30
0.0
  9
$UCSORGBACK
 10
0.0
 20
0.0
 30
0.0
  9
$PUCSBASE
  2

  9
$PUCSNAME
  2

  9
$PUCSORG
 10
0.0
 20
0.0
 30
0.0
  9
$PUCSXDIR
 10
1.0
 20
0.0
 30
0.0
  9
$PUCSYDIR
 10
0.0
 20
1.0
 30
0.0
  9
$PUCSORTHOREF
  2

  9
$PUCSORTHOVIEW
 70
     0
  9
$PUCSORGTOP
 10
0.0
 20
0.0
 30
0.0
  9
$PUCSORGBOTTOM
 10
0.0
 20
0.0
 30
0.0
  9
$PUCSORGLEFT
 10
0.0
 20
0.0
 30
0.0
  9
$PUCSORGRIGHT
 10
0.0
 20
0.0
 30
0.0
  9
$PUCSORGFRONT
 10
0.0
 20
0.0
 30
0.0
  9
$PUCSORGBACK
 10
0.0
 20
0.0
 30
0.0
  9
$USERI1
 70
     0
  9
$USERI2
 70
     0
  9
$USERI3
 70
     0
  9
$USERI4
 70
     0
  9
$USERI5
 70
     0
  9
$USERR1
 40
0.0
  9
$USERR2
 40
0.0
  9
$USERR3
 40
0.0
  9
$USERR4
 40
0.0
  9
$USERR5
 40
0.0
  9
$WORLDVIEW
 70
     1
  9
$SHADEDGE
 70
     3
  9
$SHADEDIF
 70
    70
  9
$TILEMODE
 70
     1
  9
$MAXACTVP
 70
    64
  9
$PINSBASE
 10
0.0
 20
0.0
 30
0.0
  9
$PLIMCHECK
 70
     0
  9
$PEXTMIN
 10
1.000000000000000E+20
 20
1.000000000000000E+20
 30
1.000000000000000E+20
  9
$PEXTMAX
 10
-1.000000000000000E+20
 20
-1.000000000000000E+20
 30
-1.000000000000000E+20
  9
$PLIMMIN
 10
0.0
 20
0.0
  9
$PLIMMAX
 10
0.0
 20
0.0
  9
$UNITMODE
 70
     0
  9
$VISRETAIN
 70
     1
  9
$PLINEGEN
 70
     0
  9
$PSLTSCALE
 70
     1
  9
$TREEDEPTH
 70
  3020
  9
$CMLSTYLE
  2
Standard
  9
$CMLJUST
 70
     0
  9
$CMLSCALE
 40
20.0
  9
$PROXYGRAPHICS
 70
     1
  9
$MEASUREMENT
 70
     1
  9
$CELWEIGHT
370
    -1
  9
$ENDCAPS
280
     0
  9
$JOINSTYLE
280
     0
  9
$LWDISPLAY
290
     1
  9
$INSUNITS
 70
     4
  9
$HYPERLINKBASE
  1

  9
$STYLESHEET
  1

  9
$XEDIT
290
     1
  9
$CEPSNTYPE
380
     0
  9
$PSTYLEMODE
290
     1
  9
$FINGERPRINTGUID
  2
{787120C0-7A80-4A7C-8508-CBA3902886CD}
  9
$VERSIONGUID
  2
{FAEB1C32-E019-11D5-929B-00C0DF256EC4}
  9
$EXTNAMES
290
     1
  9
$PSVPSCALE
 40
0.0
  9
$OLESTARTUP
290
     0
  0
ENDSEC
  0
SECTION
  2
CLASSES
  0
CLASS
  1
ACDBDICTIONARYWDFLT
  2
AcDbDictionaryWithDefault
  3
ObjectDBX Classes
 90
        0
280
     0
281
     0
  0
CLASS
  1
VISUALSTYLE
  2
AcDbVisualStyle
  3
ObjectDBX Classes
 90
     4095
280
     0
281
     0
  0
CLASS
  1
MATERIAL
  2
AcDbMaterial
  3
ObjectDBX Classes
 90
     1153
280
     0
281
     0
  0
CLASS
  1
SCALE
  2
AcDbScale
  3
ObjectDBX Classes
 90
     1153
280
     0
281
     0
  0
CLASS
  1
SUN
  2
AcDbSun
  3
SCENEOE
 90
     1153
280
     0
281
     0
  0
CLASS
  1
ACDBPLACEHOLDER
  2
AcDbPlaceHolder
  3
ObjectDBX Classes
 90
        0
280
     0
281
     0
  0
CLASS
  1
LAYOUT
  2
AcDbLayout
  3
ObjectDBX Classes
 90
        0
280
     0
281
     0
  0
CLASS
  1
TABLESTYLE
  2
AcDbTableStyle
  3
ObjectDBX Classes
 90
     4095
280
     0
281
     0
  0
CLASS
  1
MLEADERSTYLE
  2
AcDbMLeaderStyle
  3
ACDB_MLEADERSTYLE_CLASS
 90
     4095
280
     0
281
     0
  0
CLASS
  1
RASTERVARIABLES
  2
AcDbRasterVariables
  3
ISM
 90
        0
280
     0
281
     0
  0
CLASS
  1
DIMASSOC
  2
AcDbDimAssoc
  3
"AcDbDimAssoc|Product Desc:     AcDim ARX App For Dimension|Company:          Autodesk, Inc.|WEB Address:      www.autodesk.com"
 90
        0
280
     0
281
     0
  0
ENDSEC
  0
SECTION
  2
TABLES
  0
TABLE
  2
VPORT
  5
8
330
0
100
AcDbSymbolTable
 70
     1
  0
VPORT
  5
29
330
8
100
AcDbSymbolTableRecord
100
AcDbViewportTableRecord
  2
*Active
 70
     0
 10
0.0
 20
0.0
 11
1.0
 21
1.0
 12
15.62592913247187
 22
0.9306115354611606
 13
0.0
 23
0.0
 14
10.0
 24
10.0
 15
10.0
 25
10.0
 16
0.0
 26
0.0
 36
1.0
 17
0.0
 27
0.0
 37
0.0
 40
142.6118788325319
 41
1.444267515923567
 42
50.0
 43
0.0
 44
0.0
 50
0.0
 51
0.0
 71
    16
 72
  2000
 73
     1
 74
     3
 75
     0
 76
     0
 77
     0
 78
     0
281
     0
 65
     1
110
0.0
120
0.0
130
0.0
111
1.0
121
0.0
131
0.0
112
0.0
122
1.0
132
0.0
 79
     0
146
0.0
  0
ENDTAB
  0
TABLE
  2
LTYPE
  5
5
330
0
100
AcDbSymbolTable
 70
     6
  0
LTYPE
  5
14
330
5
100
AcDbSymbolTableRecord
100
AcDbLinetypeTableRecord
  2
ByBlock
 70
     0
  3

 72
    65
 73
     0
 40
0.0
  0
LTYPE
  5
15
330
5
100
AcDbSymbolTableRecord
100
AcDbLinetypeTableRecord
  2
ByLayer
 70
     0
  3

 72
    65
 73
     0
 40
0.0
  0
LTYPE
  5
16
330
5
100
AcDbSymbolTableRecord
100
AcDbLinetypeTableRecord
  2
Continuous
 70
     0
  3
Solid line
 72
    65
 73
     0
 40
0.0
  0
LTYPE
  5
6A
330
5
100
AcDbSymbolTableRecord
100
AcDbLinetypeTableRecord
  2
HIDDEN
 70
     0
  3
Hidden __ __ __ __ __ __ __ __ __ __ __ __ __ __
 72
    65
 73
     2
 40
1.905
 49
1.27
 74
     0
 49
-0.635
 74
     0
  0
LTYPE
  5
6B
330
5
100
AcDbSymbolTableRecord
100
AcDbLinetypeTableRecord
  2
PHANTOM
 70
     0
  3
Phantom ______  __  __  ______  __  __  ______
 72
    65
 73
     6
 40
12.7
 49
6.35
 74
     0
 49
-1.27
 74
     0
 49
1.27
 74
     0
 49
-1.27
 74
     0
 49
1.27
 74
     0
 49
-1.27
 74
     0
  0
LTYPE
  5
6C
330
5
100
AcDbSymbolTableRecord
100
AcDbLinetypeTableRecord
  2
CENTER
 70
     0
  3
Center ____ _ ____ _ ____ _ ____ _ ____ _ ____
 72
    65
 73
     4
 40
10.16
 49
6.35
 74
     0
 49
-1.27
 74
     0
 49
1.27
 74
     0
 49
-1.27
 74
     0
  0
LTYPE
  5
6D
330
5
100
AcDbSymbolTableRecord
100
AcDbLinetypeTableRecord
  2
CENTERX2
 70
     0
  3
Center (2x) ________  __  ________  __  _____
 72
    65
 73
     4
 40
20.32
 49
12.7
 74
     0
 49
-2.54
 74
     0
 49
2.54
 74
     0
 49
-2.54
 74
     0
  0
LTYPE
  5
6E
330
5
100
AcDbSymbolTableRecord
100
AcDbLinetypeTableRecord
  2
DOT2
 70
     0
  3
Dot (.5x) ........................................
 72
    65
 73
     2
 40
0.635
 49
0.0
 74
     0
 49
-0.635
 74
     0
  0
ENDTAB
  0
TABLE
  2
LAYER
  5
2
330
0
100
AcDbSymbolTable
 70
    17
  0
LAYER
  5
10
330
2
100
AcDbSymbolTableRecord
100
AcDbLayerTableRecord
  2
0
 70
     0
 62
     7
  6
Continuous
370
    -3
390
F
  0
LAYER
  5
6F
330
2
100
AcDbSymbolTableRecord
100
AcDbLayerTableRecord
  2
FORMAT
 70
     0
 62
     2
  6
Continuous
370
    -3
390
F
  0
LAYER
  5
70
330
2
100
AcDbSymbolTableRecord
100
AcDbLayerTableRecord
  2
외형선
 70
     0
 62
   100
  6
Continuous
370
    30
390
F
  0
LAYER
  5
71
330
2
100
AcDbSymbolTableRecord
100
AcDbLayerTableRecord
  2
숨은선
 70
     0
 62
     2
  6
HIDDEN
370
    15
390
F
  0
LAYER
  5
72
330
2
100
AcDbSymbolTableRecord
100
AcDbLayerTableRecord
  2
중심선
 70
     0
 62
     1
  6
CENTERX2
370
    -3
390
F
  0
LAYER
  5
73
330
2
100
AcDbSymbolTableRecord
100
AcDbLayerTableRecord
  2
파단선
 70
     0
 62
     4
  6
Continuous
370
    -3
390
F
  0
LAYER
  5
74
330
2
100
AcDbSymbolTableRecord
100
AcDbLayerTableRecord
  2
해칭선
 70
     0
 62
     4
  6
Continuous
370
    -3
390
F
  0
LAYER
  5
75
330
2
100
AcDbSymbolTableRecord
100
AcDbLayerTableRecord
  2
가는실선
 70
     0
 62
     4
  6
Continuous
370
    -3
390
F
  0
LAYER
  5
76
330
2
100
AcDbSymbolTableRecord
100
AcDbLayerTableRecord
  2
치수_보조선
 70
     0
 62
     4
  6
Continuous
370
    -3
390
F
  0
LAYER
  5
77
330
2
100
AcDbSymbolTableRecord
100
AcDbLayerTableRecord
  2
치수문자_일반주서
 70
     0
 62
     7
  6
Continuous
370
    15
390
F
  0
LAYER
  5
78
330
2
100
AcDbSymbolTableRecord
100
AcDbLayerTableRecord
  2
개별주서
 70
     0
 62
   100
  6
Continuous
370
    30
390
F
  0
LAYER
  5
79
330
2
100
AcDbSymbolTableRecord
100
AcDbLayerTableRecord
  2
중간선
 70
     0
 62
     2
  6
Continuous
370
    15
390
F
  0
LAYER
  5
7A
330
2
100
AcDbSymbolTableRecord
100
AcDbLayerTableRecord
  2
윤곽선
 70
     0
 62
     3
  6
Continuous
370
    40
390
F
  0
LAYER
  5
7B
330
2
100
AcDbSymbolTableRecord
100
AcDbLayerTableRecord
  2
중심마크
 70
     0
 62
   100
  6
Continuous
370
    30
390
F
  0
LAYER
  5
7C
330
2
100
AcDbSymbolTableRecord
100
AcDbLayerTableRecord
  2
가상선
 70
     0
 62
     4
  6
PHANTOM
370
    -3
390
F
  0
LAYER
  5
7D
330
2
100
AcDbSymbolTableRecord
100
AcDbLayerTableRecord
  2
특수지정선
 70
     0
 62
     5
  6
CENTERX2
370
    60
390
F
  0
LAYER
  5
14E
330
2
100
AcDbSymbolTableRecord
100
AcDbLayerTableRecord
  2
Defpoints
 70
     0
 62
     7
  6
Continuous
290
     0
370
    -3
390
F
  0
ENDTAB
  0
TABLE
  2
STYLE
  5
3
330
0
100
AcDbSymbolTable
 70
     2
  0
STYLE
  5
11
330
3
100
AcDbSymbolTableRecord
100
AcDbTextStyleTableRecord
  2
Standard
 70
     0
 40
0.0
 41
1.0
 50
0.0
 71
     0
 42
3.5
  3
txt
  4

  0
STYLE
  5
93
330
3
100
AcDbSymbolTableRecord
100
AcDbTextStyleTableRecord
  2
SLDTEXTSTYLE0
 70
     0
 40
0.0
 41
0.75
 50
0.0
 71
     0
 42
3.5
  3
TXT
  4

  0
ENDTAB
  0
TABLE
  2
VIEW
  5
6
330
0
100
AcDbSymbolTable
 70
     0
  0
ENDTAB
  0
TABLE
  2
UCS
  5
7
330
0
100
AcDbSymbolTable
 70
     0
  0
ENDTAB
  0
TABLE
  2
APPID
  5
9
330
0
100
AcDbSymbolTable
 70
     2
  0
APPID
  5
12
330
9
100
AcDbSymbolTableRecord
100
AcDbRegAppTableRecord
  2
ACAD
 70
     0
  0
APPID
  5
164
330
9
100
AcDbSymbolTableRecord
100
AcDbRegAppTableRecord
  2
PE_DIMMEASUREMENT
 70
     0
  0
ENDTAB
  0
TABLE
  2
DIMSTYLE
  5
A
330
0
100
AcDbSymbolTable
 70
     3
100
AcDbDimStyleTable
  0
DIMSTYLE
105
27
330
A
100
AcDbSymbolTableRecord
100
AcDbDimStyleTableRecord
  2
ISO-25
 70
     0
 41
2.5
 42
0.625
 43
3.75
 44
1.25
 73
     0
 74
     0
 77
     1
 78
     8
140
2.5
141
2.5
143
0.03937007874016
147
0.625
171
     3
172
     1
178
     0
271
     2
272
     2
274
     3
278
    44
283
     0
284
     8
340
11
  0
DIMSTYLE
105
E6
102
{ACAD_REACTORS
330
E5
330
10F
330
151
330
165
102
}
330
A
100
AcDbSymbolTableRecord
100
AcDbDimStyleTableRecord
  2
SLDDIMSTYLE0
 70
     0
 41
3.302
 44
0.0
 45
0.000000001
 73
     0
 74
     0
 77
     1
 78
    12
 79
     3
140
3.5
143
0.0393700787401575
147
0.875
148
0.000000001
170
     1
172
     1
173
     1
178
     0
271
     2
272
     2
276
     2
284
    12
289
     0
340
93
  0
DIMSTYLE
105
FC
102
{ACAD_REACTORS
330
FB
102
}
330
A
100
AcDbSymbolTableRecord
100
AcDbDimStyleTableRecord
  2
SLDDIMSTYLE1
 70
     0
 41
3.302
 44
0.0
 45
0.000000001
 73
     0
 74
     0
 77
     1
 78
     4
 79
     1
140
3.5
143
0.0393700787401575
147
0.875
148
0.000000001
170
     1
173
     1
178
     0
271
     2
272
     2
276
     2
284
    12
340
93
  0
ENDTAB
  0
TABLE
  2
BLOCK_RECORD
  5
1
330
0
100
AcDbSymbolTable
 70
     8
  0
BLOCK_RECORD
  5
1F
330
1
100
AcDbSymbolTableRecord
100
AcDbBlockTableRecord
  2
*Model_Space
340
22
  0
BLOCK_RECORD
  5
1B
330
1
100
AcDbSymbolTableRecord
100
AcDbBlockTableRecord
  2
*Paper_Space
340
1E
  0
BLOCK_RECORD
  5
23
330
1
100
AcDbSymbolTableRecord
100
AcDbBlockTableRecord
  2
*Paper_Space0
340
26
  0
BLOCK_RECORD
  5
7E
330
1
100
AcDbSymbolTableRecord
100
AcDbBlockTableRecord
  2
블럭10
340
0
102
{BLKREFS
331
DD
102
}
  0
BLOCK_RECORD
  5
E7
330
1
100
AcDbSymbolTableRecord
100
AcDbBlockTableRecord
  2
_D
340
0
  0
BLOCK_RECORD
  5
FD
330
1
100
AcDbSymbolTableRecord
100
AcDbBlockTableRecord
  2
_D_1
340
0
  0
BLOCK_RECORD
  5
110
330
1
100
AcDbSymbolTableRecord
100
AcDbBlockTableRecord
  2
_D_2
340
0
  0
BLOCK_RECORD
  5
123
330
1
100
AcDbSymbolTableRecord
100
AcDbBlockTableRecord
  2
SW_DOWELSYMBOL_0
340
0
102
{BLKREFS
331
129
102
}
  0
BLOCK_RECORD
  5
154
330
1
100
AcDbSymbolTableRecord
100
AcDbBlockTableRecord
  2
*D6
340
0
  0
BLOCK_RECORD
  5
168
330
1
100
AcDbSymbolTableRecord
100
AcDbBlockTableRecord
  2
*D7
340
0
  0
ENDTAB
  0
ENDSEC
  0
SECTION
  2
BLOCKS
  0
BLOCK
  5
20
330
1F
100
AcDbEntity
  8
0
100
AcDbBlockBegin
  2
*Model_Space
 70
     0
 10
0.0
 20
0.0
 30
0.0
  3
*Model_Space
  1
*Model_Space
  0
ENDBLK
  5
21
330
1F
100
AcDbEntity
  8
0
100
AcDbBlockEnd
  0
BLOCK
  5
1C
330
1B
100
AcDbEntity
 67
     1
  8
0
100
AcDbBlockBegin
  2
*Paper_Space
 70
     0
 10
0.0
 20
0.0
 30
0.0
  3
*Paper_Space
  1
*Paper_Space
  0
ENDBLK
  5
1D
330
1B
100
AcDbEntity
 67
     1
  8
0
100
AcDbBlockEnd
  0
BLOCK
  5
24
330
23
100
AcDbEntity
  8
0
100
AcDbBlockBegin
  2
*Paper_Space0
 70
     0
 10
0.0
 20
0.0
 30
0.0
  3
*Paper_Space0
  1
*Paper_Space0
  0
ENDBLK
  5
25
330
23
100
AcDbEntity
  8
0
100
AcDbBlockEnd
  0
BLOCK
  5
7F
330
7E
100
AcDbEntity
  8
0
100
AcDbBlockBegin
  2
블럭10
 70
     2
 10
0.0
 20
0.0
 30
0.0
  3
블럭10
  1
블럭10
  0
ELLIPSE
  5
81
330
7E
100
AcDbEntity
  8
중심선
100
AcDbEllipse
 10
20.54032771741204
 20
12.0471743016438
 30
0.0
 11
6.600054785286829
 21
-1.261213355974178E-13
 31
0.0
210
0.0
220
0.0
230
1.0
 40
0.636358354079598
 41
0.9219305317359503
 42
6.513795318482858
  0
ELLIPSE
  5
82
330
7E
100
AcDbEntity
  8
중심선
100
AcDbEllipse
 10
20.54032771746488
 20
12.04717430159265
 30
0.0
 11
3.960054785062283
 21
1.540847449632565E-10
 31
0.0
210
0.0
220
0.0
230
1.0
 40
0.3939339440162632
 41
1.131841032648279
 42
5.62031148352944
  0
LINE
  5
83
330
7E
100
AcDbEntity
  8
중심선
100
AcDbLine
 10
2.268634060543552
 20
16.24717430164393
 30
0.0
 11
5.714909304380834
 21
16.24717430164393
 31
0.0
  0
LINE
  5
84
330
7E
100
AcDbEntity
  8
중심선
100
AcDbLine
 10
5.245725140726316
 20
7.84717430164391
 30
0.0
 11
8.692000384563599
 21
7.84717430164391
 31
0.0
  0
LINE
  5
85
330
7E
100
AcDbEntity
  8
중심선
100
AcDbLine
 10
15.74043728645272
 20
16.24717430164393
 30
0.0
 11
8.692000384563599
 21
7.84717430164391
 31
0.0
  0
LINE
  5
86
330
7E
100
AcDbEntity
  8
중심선
100
AcDbLine
 10
0.1404042013395286
 20
13.71084872107135
 30
0.0
 11
3.58671253028996
 21
13.71088815037384
 31
0.0
  0
LINE
  5
87
330
7E
100
AcDbEntity
  8
중심선
100
AcDbLine
 10
2.750260043222114
 20
10.84717430164391
 30
0.0
 11
6.196535287059397
 21
10.84717430164391
 31
0.0
  0
LINE
  5
88
330
7E
100
AcDbEntity
  8
중심선
100
AcDbLine
 10
12.29416204261559
 20
16.24717430164393
 30
0.0
 11
5.245725140726316
 21
7.84717430164391
 31
0.0
  0
LINE
  5
89
330
7E
100
AcDbEntity
  8
중심선
100
AcDbLine
 10
10.72767329541681
 20
16.24717430164393
 30
0.0
 11
6.196535287059397
 21
10.84717430164391
 31
0.0
  0
LINE
  5
8A
330
7E
100
AcDbEntity
  8
중심선
100
AcDbLine
 10
7.28139805157953
 20
16.24717430164393
 30
0.0
 11
2.750260043222114
 21
10.84717430164391
 31
0.0
  0
LINE
  5
8B
330
7E
100
AcDbEntity
  8
중심선
100
AcDbLine
 10
5.714909304380834
 20
16.24717430164393
 30
0.0
 11
3.58671253028996
 21
13.71088815037384
 31
0.0
  0
LINE
  5
8C
330
7E
100
AcDbEntity
  8
중심선
100
AcDbLine
 10
2.268634060543552
 20
16.24717430164393
 30
0.0
 11
0.1404042013395286
 21
13.71084872107135
 31
0.0
  0
LINE
  5
8D
330
7E
100
AcDbEntity
  8
중심선
100
AcDbLine
 10
7.28139805157953
 20
16.24717430164393
 30
0.0
 11
10.72767329541681
 21
16.24717430164393
 31
0.0
  0
LINE
  5
8E
330
7E
100
AcDbEntity
  8
중심선
100
AcDbLine
 10
12.29416204261559
 20
16.24717430164393
 30
0.0
 11
15.74043728645272
 21
16.24717430164393
 31
0.0
  0
LINE
  5
8F
330
7E
100
AcDbEntity
  8
중심선
100
AcDbLine
 10
19.22036997980202
 20
11.08717430171403
 30
0.0
 11
23.66174974927406
 21
11.08717430171406
 31
0.0
  0
LINE
  5
90
330
7E
100
AcDbEntity
  8
중심선
100
AcDbLine
 10
19.22039502424796
 20
13.00717430171391
 30
0.0
 11
19.22036997980202
 21
11.08717430171403
 31
0.0
  0
LINE
  5
91
330
7E
100
AcDbEntity
  8
중심선
100
AcDbLine
 10
19.22039502424796
 20
13.00717430171391
 30
0.0
 11
26.96566020931264
 21
13.00717430171391
 31
0.0
  0
LINE
  5
92
330
7E
100
AcDbEntity
  8
중심선
100
AcDbLine
 10
22.22332737316547
 20
13.45928029700563
 30
0.0
 11
24.52862924686651
 21
15.39360700705356
 31
0.0
  0
ATTDEF
  5
94
330
7E
100
AcDbEntity
  8
FORMAT
 62
     2
100
AcDbText
 10
-9.18129528874128
 20
2.075366912832191
 30
0.0
 40
4.233333333333333
  1
E5077312 [ 3 FLUTE ]
 41
0.75
  7
SLDTEXTSTYLE0
 11
-9.18129528874128
 21
-0.0412997538344756
 31
0.0
100
AcDbAttributeDefinition
  3

  2
AUTOATTR0
 70
     0
 74
     1
  0
ENDBLK
  5
80
330
7E
100
AcDbEntity
  8
0
100
AcDbBlockEnd
  0
BLOCK
  5
E8
330
E7
100
AcDbEntity
  8
0
100
AcDbBlockBegin
  2
_D
 70
     0
 10
0.0
 20
0.0
 30
0.0
  3
_D
  1
_D
  0
LINE
  5
EA
330
E7
100
AcDbEntity
  8
치수문자_일반주서
 62
     0
370
    -2
100
AcDbLine
 10
54.3249081826537
 20
2.03842675613504
 30
0.0
 11
54.3249081826537
 21
30.80577237261103
 31
0.0
  0
LINE
  5
EB
330
E7
100
AcDbEntity
  8
치수문자_일반주서
 62
     0
370
    -2
100
AcDbLine
 10
9.874908182653684
 20
4.38123594094528
 30
0.0
 11
9.874908182653684
 21
30.80577237261103
 31
0.0
  0
LINE
  5
EC
330
E7
100
AcDbEntity
  8
치수문자_일반주서
 62
     0
370
    -2
100
AcDbLine
 10
51.0229081826537
 20
30.80577237261103
 30
0.0
 11
13.17690818265368
 21
30.80577237261103
 31
0.0
  0
SOLID
  5
ED
330
E7
100
AcDbEntity
  8
치수문자_일반주서
 62
     0
100
AcDbTrace
 10
51.0229081826537
 20
30.2554390392777
 30
0.0
 11
51.0229081826537
 21
31.35610570594437
 31
0.0
 12
54.3249081826537
 22
30.80577237261103
 32
0.0
 13
54.3249081826537
 23
30.80577237261103
 33
0.0
  0
SOLID
  5
EE
330
E7
100
AcDbEntity
  8
치수문자_일반주서
 62
     0
100
AcDbTrace
 10
13.17690818265368
 20
31.35610570594437
 30
0.0
 11
13.17690818265368
 21
30.2554390392777
 31
0.0
 12
9.874908182653684
 22
30.80577237261103
 32
0.0
 13
9.874908182653684
 23
30.80577237261103
 33
0.0
  0
MTEXT
  5
EF
330
E7
100
AcDbEntity
  8
치수문자_일반주서
 62
     0
100
AcDbMText
 10
32.09990818265369
 20
35.18077237261103
 30
0.0
 40
3.5
 41
0.0
 71
     2
 72
     1
  1
\A1;44.45 [1 3/4]
  7
SLDTEXTSTYLE0
 73
     1
 44
1.0
  0
POINT
  5
F0
330
E7
100
AcDbEntity
  8
Defpoints
 62
     0
100
AcDbPoint
 10
54.3249081826537
 20
1.97592675613504
 30
0.0
  0
POINT
  5
F1
330
E7
100
AcDbEntity
  8
Defpoints
 62
     0
100
AcDbPoint
 10
9.874908182653684
 20
4.31873594094528
 30
0.0
  0
POINT
  5
F2
330
E7
100
AcDbEntity
  8
Defpoints
 62
     0
100
AcDbPoint
 10
9.874908182653684
 20
30.80577237261103
 30
0.0
  0
ENDBLK
  5
E9
330
E7
100
AcDbEntity
  8
0
100
AcDbBlockEnd
  0
BLOCK
  5
FE
330
FD
100
AcDbEntity
  8
0
100
AcDbBlockBegin
  2
_D_1
 70
     0
 10
0.0
 20
0.0
 30
0.0
  3
_D_1
  1
_D_1
  0
LINE
  5
100
330
FD
100
AcDbEntity
  8
치수문자_일반주서
 62
     0
370
    -2
100
AcDbLine
 10
54.3249081826537
 20
2.03842675613504
 30
0.0
 11
54.3249081826537
 21
43.97693315650731
 31
0.0
  0
LINE
  5
101
330
FD
100
AcDbEntity
  8
치수문자_일반주서
 62
     0
370
    -2
100
AcDbLine
 10
-34.5750918173463
 20
4.019835151814108
 30
0.0
 11
-34.5750918173463
 21
43.97693315650731
 31
0.0
  0
LINE
  5
102
330
FD
100
AcDbEntity
  8
치수문자_일반주서
 62
     0
370
    -2
100
AcDbLine
 10
51.0229081826537
 20
43.97693315650731
 30
0.0
 11
-31.27309181734631
 21
43.97693315650731
 31
0.0
  0
SOLID
  5
103
330
FD
100
AcDbEntity
  8
치수문자_일반주서
 62
     0
100
AcDbTrace
 10
51.0229081826537
 20
43.42659982317398
 30
0.0
 11
51.0229081826537
 21
44.52726648984065
 31
0.0
 12
54.3249081826537
 22
43.97693315650731
 32
0.0
 13
54.3249081826537
 23
43.97693315650731
 33
0.0
  0
SOLID
  5
104
330
FD
100
AcDbEntity
  8
치수문자_일반주서
 62
     0
100
AcDbTrace
 10
-31.27309181734631
 20
44.52726648984065
 30
0.0
 11
-31.27309181734631
 21
43.42659982317398
 31
0.0
 12
-34.5750918173463
 22
43.97693315650731
 32
0.0
 13
-34.5750918173463
 23
43.97693315650731
 33
0.0
  0
MTEXT
  5
105
330
FD
100
AcDbEntity
  8
치수문자_일반주서
 62
     0
100
AcDbMText
 10
13.25916706431774
 20
48.35193315650731
 30
0.0
 40
3.5
 41
0.0
 71
     2
 72
     1
  1
\A1;88.90 [3 1/2]
  7
SLDTEXTSTYLE0
 73
     1
 44
1.0
  0
POINT
  5
106
330
FD
100
AcDbEntity
  8
Defpoints
 62
     0
100
AcDbPoint
 10
54.3249081826537
 20
1.97592675613504
 30
0.0
  0
POINT
  5
107
330
FD
100
AcDbEntity
  8
Defpoints
 62
     0
100
AcDbPoint
 10
-34.5750918173463
 20
3.957335151814108
 30
0.0
  0
POINT
  5
108
330
FD
100
AcDbEntity
  8
Defpoints
 62
     0
100
AcDbPoint
 10
-34.5750918173463
 20
43.97693315650731
 30
0.0
  0
ENDBLK
  5
FF
330
FD
100
AcDbEntity
  8
0
100
AcDbBlockEnd
  0
BLOCK
  5
111
330
110
100
AcDbEntity
  8
0
100
AcDbBlockBegin
  2
_D_2
 70
     0
 10
0.0
 20
0.0
 30
0.0
  3
_D_2
  1
_D_2
  0
LINE
  5
113
330
110
100
AcDbEntity
  8
치수문자_일반주서
 62
     0
370
    -2
100
AcDbLine
 10
-33.82759181734631
 20
4.767335151814089
 30
0.0
 11
-47.57509181734635
 21
4.76733515181404
 31
0.0
  0
LINE
  5
114
330
110
100
AcDbEntity
  8
치수문자_일반주서
 62
     0
370
    -2
100
AcDbLine
 10
-33.82759181734631
 20
-4.757664848185907
 30
0.0
 11
-47.57509181734631
 21
-4.757664848185954
 31
0.0
  0
LINE
  5
115
330
110
100
AcDbEntity
  8
치수문자_일반주서
 62
     0
370
    -2
100
AcDbLine
 10
-47.57509181734633
 20
1.46533515181404
 30
0.0
 11
-47.57509181734633
 21
-1.455664848185955
 31
0.0
  0
SOLID
  5
116
330
110
100
AcDbEntity
  8
치수문자_일반주서
 62
     0
100
AcDbTrace
 10
-47.024758484013
 20
1.465335151814042
 30
0.0
 11
-48.12542515067967
 21
1.465335151814038
 31
0.0
 12
-47.57509181734635
 22
4.76733515181404
 32
0.0
 13
-47.57509181734635
 23
4.76733515181404
 33
0.0
  0
SOLID
  5
117
330
110
100
AcDbEntity
  8
치수문자_일반주서
 62
     0
100
AcDbTrace
 10
-48.12542515067966
 20
-1.455664848185957
 30
0.0
 11
-47.02475848401299
 21
-1.455664848185953
 31
0.0
 12
-47.57509181734631
 22
-4.757664848185954
 32
0.0
 13
-47.57509181734631
 23
-4.757664848185954
 33
0.0
  0
MTEXT
  5
118
330
110
100
AcDbEntity
  8
치수문자_일반주서
 62
     0
100
AcDbMText
 10
-51.95009181734633
 20
-1.035359297548723
 30
0.0
 40
3.5
 41
0.0
 71
     2
 72
     1
  1
\A1;%%c9.53 [3/8]
  7
SLDTEXTSTYLE0
 11
-3.729883127349610E-15
 21
1.0
 31
0.0
 73
     1
 44
1.0
  0
POINT
  5
119
330
110
100
AcDbEntity
  8
Defpoints
 62
     0
100
AcDbPoint
 10
-33.76509181734631
 20
4.767335151814089
 30
0.0
  0
POINT
  5
11A
330
110
100
AcDbEntity
  8
Defpoints
 62
     0
100
AcDbPoint
 10
-33.76509181734631
 20
-4.757664848185907
 30
0.0
  0
POINT
  5
11B
330
110
100
AcDbEntity
  8
Defpoints
 62
     0
100
AcDbPoint
 10
-47.57509181734631
 20
-4.757664848185954
 30
0.0
  0
ENDBLK
  5
112
330
110
100
AcDbEntity
  8
0
100
AcDbBlockEnd
  0
BLOCK
  5
124
330
123
100
AcDbEntity
  8
0
100
AcDbBlockBegin
  2
SW_DOWELSYMBOL_0
 70
     0
 10
0.0
 20
0.0
 30
0.0
  3
SW_DOWELSYMBOL_0
  1
SW_DOWELSYMBOL_0
  0
CIRCLE
  5
126
330
123
100
AcDbEntity
  8
외형선
 62
     0
100
AcDbCircle
 10
0.0
 20
0.0
 30
0.0
 40
3.000000000000004
  0
HATCH
  5
127
330
123
100
AcDbEntity
  8
0
  6
Continuous
 62
     0
370
    30
100
AcDbHatch
 10
0.0
 20
0.0
 30
0.0
210
0.0
220
0.0
230
1.0
  2
SOLID
 70
     1
 71
     0
 91
        1
 92
        0
 93
        3
 72
     2
 10
-0.0000000000000013
 20
-0.0000000000000039
 40
3.000000000000004
 50
0.0
 51
90.0
 73
     1
 72
     1
 10
-0.0000000000000013
 20
3.0
 11
-0.0000000000000013
 21
-0.000000000000004
 72
     1
 10
-0.0000000000000013
 20
-0.0000000000000039
 11
3.000000000000003
 21
-0.0000000000000039
 97
        0
 75
     0
 76
     1
 98
        1
 10
0.0
 20
0.0
  0
HATCH
  5
128
330
123
100
AcDbEntity
  8
0
  6
Continuous
 62
     0
370
    30
100
AcDbHatch
 10
0.0
 20
0.0
 30
0.0
210
0.0
220
0.0
230
1.0
  2
SOLID
 70
     1
 71
     0
 91
        1
 92
        0
 93
        3
 72
     2
 10
-0.0000000000000013
 20
-0.0000000000000039
 40
3.000000000000004
 50
180.0
 51
270.0000000000008
 73
     1
 72
     1
 10
-0.0000000000000013
 20
-3.000000000000008
 11
-0.0000000000000013
 21
-0.000000000000004
 72
     1
 10
-0.0000000000000013
 20
-0.0000000000000039
 11
-3.000000000000006
 21
-0.0000000000000039
 97
        0
 75
     0
 76
     1
 98
        1
 10
0.0
 20
0.0
  0
ENDBLK
  5
125
330
123
100
AcDbEntity
  8
0
100
AcDbBlockEnd
  0
BLOCK
  5
155
330
154
100
AcDbEntity
  8
0
100
AcDbBlockBegin
  2
*D6
 70
     1
 10
0.0
 20
0.0
 30
0.0
  3
*D6
  1
*D6
  0
LINE
  5
157
330
154
100
AcDbEntity
  8
치수문자_일반주서
 62
     0
370
    -2
100
AcDbLine
 10
54.3874081826537
 20
1.989210151814098
 30
0.0
 11
67.40102512456781
 21
1.989210151814099
 31
0.0
  0
LINE
  5
158
330
154
100
AcDbEntity
  8
치수문자_일반주서
 62
     0
370
    -2
100
AcDbLine
 10
54.38740818265369
 20
-1.97953984818591
 30
0.0
 11
67.40102512456781
 21
-1.979539848185912
 31
0.0
  0
LINE
  5
159
330
154
100
AcDbEntity
  8
치수문자_일반주서
 62
     0
370
    -2
100
AcDbLine
 10
67.40102512456781
 20
1.989210151814099
 30
0.0
 11
67.40102512456781
 21
37.4682101518141
 31
0.0
  0
LINE
  5
15A
330
154
100
AcDbEntity
  8
치수문자_일반주서
 62
     0
370
    -2
100
AcDbLine
 10
67.40102512456781
 20
1.989210151814099
 30
0.0
 11
67.40102512456781
 21
-1.979539848185912
 31
0.0
  0
LINE
  5
15B
330
154
100
AcDbEntity
  8
치수문자_일반주서
 62
     0
370
    -2
100
AcDbLine
 10
67.40102512456781
 20
5.291210151814099
 30
0.0
 11
67.40102512456781
 21
8.593210151814098
 31
0.0
  0
LINE
  5
15C
330
154
100
AcDbEntity
  8
치수문자_일반주서
 62
     0
370
    -2
100
AcDbLine
 10
67.40102512456781
 20
-5.281539848185911
 30
0.0
 11
67.40102512456781
 21
-8.58353984818591
 31
0.0
  0
SOLID
  5
15D
330
154
100
AcDbEntity
  8
치수문자_일반주서
 62
     0
100
AcDbTrace
 10
66.85069179123448
 20
5.291210151814099
 30
0.0
 11
67.95135845790114
 21
5.291210151814099
 31
0.0
 12
67.40102512456781
 22
1.989210151814099
 32
0.0
 13
67.40102512456781
 23
1.989210151814099
 33
0.0
  0
SOLID
  5
15E
330
154
100
AcDbEntity
  8
치수문자_일반주서
 62
     0
100
AcDbTrace
 10
67.95135845790114
 20
-5.281539848185911
 30
0.0
 11
66.85069179123448
 21
-5.281539848185911
 31
0.0
 12
67.40102512456781
 22
-1.979539848185912
 32
0.0
 13
67.40102512456781
 23
-1.979539848185912
 33
0.0
  0
MTEXT
  5
15F
330
154
100
AcDbEntity
  8
치수문자_일반주서
 62
     0
100
AcDbMText
 10
64.77602512456781
 20
23.0307101518141
 30
0.0
 40
3.5
 41
0.0
 71
     5
 72
     1
  1
\A1;{%%c3.97 [5/32]}
  7
SLDTEXTSTYLE0
 11
0.0
 21
1.0
 31
0.0
 73
     1
 44
1.0
  0
POINT
  5
160
330
154
100
AcDbEntity
  8
Defpoints
 62
     0
100
AcDbPoint
 10
54.3249081826537
 20
1.989210151814098
 30
0.0
  0
POINT
  5
161
330
154
100
AcDbEntity
  8
Defpoints
 62
     0
100
AcDbPoint
 10
54.32490818265369
 20
-1.97953984818591
 30
0.0
  0
POINT
  5
163
330
154
100
AcDbEntity
  8
Defpoints
 62
     0
100
AcDbPoint
 10
67.40102512456781
 20
-1.979539848185911
 30
0.0
  0
ENDBLK
  5
156
330
154
100
AcDbEntity
  8
0
100
AcDbBlockEnd
  0
BLOCK
  5
169
330
168
100
AcDbEntity
  8
0
100
AcDbBlockBegin
  2
*D7
 70
     1
 10
0.0
 20
0.0
 30
0.0
  3
*D7
  1
*D7
  0
LINE
  5
16B
330
168
100
AcDbEntity
  8
치수문자_일반주서
 62
     0
370
    -2
100
AcDbLine
 10
25.00733982683076
 20
10.12898081445004
 30
0.0
 11
25.78967072029477
 21
15.32036390310106
 31
0.0
  0
LINE
  5
16C
330
168
100
AcDbEntity
  8
치수문자_일반주서
 62
     0
370
    -2
100
AcDbLine
 10
24.00364641064946
 20
3.578280146344611
 30
0.0
 11
24.34188802523845
 21
3.560553654462892
 31
0.0
  0
ARC
  5
16D
330
168
100
AcDbEntity
  8
치수문자_일반주서
 62
     0
370
    -2
100
AcDbCircle
 10
92.18903879736459
 20
0.0048351518140897
 30
0.0
 40
67.94026053795862
100
AcDbArc
 50
171.4301276513066
 51
174.2150638256533
  0
ARC
  5
16E
330
168
100
AcDbEntity
  8
치수문자_일반주서
 62
     0
370
    -2
100
AcDbCircle
 10
92.18903879736459
 20
0.0048351518140897
 30
0.0
 40
67.94026053795862
100
AcDbArc
 50
182.7849361743467
 51
185.5698723486934
  0
ARC
  5
16F
330
168
100
AcDbEntity
  8
치수문자_일반주서
 62
     0
370
    -2
100
AcDbCircle
 10
92.18903879736459
 20
0.0048351518140897
 30
0.0
 40
67.94026053795862
100
AcDbArc
 50
177.0
 51
180.0
  0
SOLID
  5
170
330
168
100
AcDbEntity
  8
치수문자_일반주서
 62
     0
100
AcDbTrace
 10
24.04606455314866
 20
6.895004021635645
 30
0.0
 11
25.14349837342575
 21
6.810706208952726
 31
0.0
 12
24.34188802523845
 22
3.560553654462892
 32
0.0
 13
24.34188802523845
 23
3.560553654462892
 33
0.0
  0
SOLID
  5
171
330
168
100
AcDbEntity
  8
치수문자_일반주서
 62
     0
100
AcDbTrace
 10
24.87919018659603
 20
-3.282816225664106
 30
0.0
 11
23.77884855459283
 21
-3.309563262726929
 31
0.0
 12
24.24877825940597
 22
0.0048351518140897
 32
0.0
 13
24.24877825940597
 23
0.0048351518140897
 33
0.0
  0
MTEXT
  5
172
330
168
100
AcDbEntity
  8
치수문자_일반주서
 62
     0
100
AcDbMText
 10
22.80281372923725
 20
13.11583780550756
 30
0.0
 40
3.5
 41
0.0
 71
     5
 72
     1
  1
\A1;3%%d
  7
SLDTEXTSTYLE0
 11
0.1490154082788589
 21
0.9888348740287657
 31
0.0
 73
     1
 44
1.0
  0
POINT
  5
173
330
168
100
AcDbEntity
  8
Defpoints
 62
     0
100
AcDbPoint
 10
24.25912589016195
 20
1.190556192177477
 30
0.0
  0
POINT
  5
174
330
168
100
AcDbEntity
  8
Defpoints
 62
     0
100
AcDbPoint
 10
23.9412320647273
 20
3.581551143609794
 30
0.0
  0
POINT
  5
175
330
168
100
AcDbEntity
  8
Defpoints
 62
     0
100
AcDbPoint
 10
-37.57509181734629
 20
0.0048351518140897
 30
0.0
  0
POINT
  5
176
330
168
100
AcDbEntity
  8
Defpoints
 62
     0
100
AcDbPoint
 10
57.32490428620234
 20
0.0048351518140897
 30
0.0
  0
POINT
  5
177
330
168
100
AcDbEntity
  8
Defpoints
 62
     0
100
AcDbPoint
 10
20.1294749951536
 20
3.781316866792585
 30
0.0
  0
ENDBLK
  5
16A
330
168
100
AcDbEntity
  8
0
100
AcDbBlockEnd
  0
ENDSEC
  0
SECTION
  2
ENTITIES
  0
LINE
  5
95
330
1F
100
AcDbEntity
  8
0
  6
Continuous
 62
     4
370
    15
100
AcDbLine
 10
-33.76509181734631
 20
4.767335151814088
 30
0.0
 11
-34.5750918173463
 21
3.957335151814108
 31
0.0
  0
LINE
  5
96
330
1F
100
AcDbEntity
  8
0
  6
Continuous
 62
     4
370
    15
100
AcDbLine
 10
-34.5750918173463
 20
-3.947664848185928
 30
0.0
 11
-33.76509181734631
 21
-4.757664848185907
 31
0.0
  0
LINE
  5
97
330
1F
100
AcDbEntity
  8
0
  6
Continuous
 62
     4
370
    15
100
AcDbLine
 10
8.499845057868612
 20
4.767335151814094
 30
0.0
 11
-33.76509181734631
 21
4.767335151814089
 31
0.0
  0
LINE
  5
98
330
1F
100
AcDbEntity
  8
0
  6
Continuous
 62
     4
370
    15
100
AcDbLine
 10
-33.76509181734631
 20
-4.757664848185907
 30
0.0
 11
8.499845057868612
 21
-4.757664848185902
 31
0.0
  0
LINE
  5
99
330
1F
100
AcDbEntity
  8
0
  6
Continuous
 62
     4
370
    15
100
AcDbLine
 10
8.499845057868612
 20
-4.7576648481859
 30
0.0
 11
8.858908182653703
 21
-4.358884848185903
 31
0.0
  0
LINE
  5
9A
330
1F
100
AcDbEntity
  8
0
  6
Continuous
 62
     4
370
    15
100
AcDbLine
 10
8.858908182653703
 20
4.368555151814095
 30
0.0
 11
8.499845057868612
 21
4.767335151814092
 31
0.0
  0
LINE
  5
9B
330
1F
100
AcDbEntity
  8
0
  6
Continuous
 62
     1
370
    15
100
AcDbLine
 10
45.4340944406829
 20
-2.445487652421738
 30
0.0
 11
48.36864217375435
 21
-2.29169452253138
 31
0.0
  0
LINE
  5
9C
330
1F
100
AcDbEntity
  8
0
  6
Continuous
 62
     1
370
    15
100
AcDbLine
 10
28.52375333732485
 20
-3.331721076567468
 30
0.0
 11
32.11872780457433
 21
-3.143316448159688
 31
0.0
  0
LINE
  5
9D
330
1F
100
AcDbEntity
  8
0
  6
Continuous
 62
     1
370
    15
100
AcDbLine
 10
11.76179707732272
 20
-4.210177980593651
 30
0.0
 11
15.74695168317834
 21
-4.001324877601174
 31
0.0
  0
LINE
  5
9E
102
{ACAD_REACTORS
102
}
330
1F
100
AcDbEntity
  8
0
  6
Continuous
 62
     1
370
    15
100
AcDbLine
 10
23.9412320647273
 20
3.581551143609794
 30
0.0
 11
20.1294749951536
 21
3.781316866792585
 31
0.0
  0
LINE
  5
9F
330
1F
100
AcDbEntity
  8
0
  6
Continuous
 62
     1
370
    15
100
AcDbLine
 10
40.26581624538239
 20
2.726015938982597
 30
0.0
 11
36.95208538013768
 21
2.899681214771743
 31
0.0
  0
LINE
  5
A0
102
{ACAD_REACTORS
102
}
330
1F
100
AcDbEntity
  8
0
  6
Continuous
 62
     1
370
    15
100
AcDbLine
 10
54.3249081826537
 20
1.989210151814098
 30
0.0
 11
54.00989899866352
 21
2.005719083600787
 31
0.0
  0
LINE
  5
A1
330
1F
100
AcDbEntity
  8
0
  6
Continuous
 62
     1
370
    15
100
AcDbLine
 10
51.13516092541312
 20
-2.146707418412053
 30
0.0
 11
52.852827872543
 21
-2.056688308165095
 31
0.0
  0
LINE
  5
A2
330
1F
100
AcDbEntity
  8
0
  6
Continuous
 62
     1
370
    15
100
AcDbLine
 10
34.13742222955987
 20
-3.03752115629514
 30
0.0
 11
37.55327092631314
 21
-2.858504111731431
 31
0.0
  0
LINE
  5
A3
330
1F
100
AcDbEntity
  8
0
  6
Continuous
 62
     1
370
    15
100
AcDbLine
 10
17.33793501463496
 20
-3.917944974323198
 30
0.0
 11
21.21187788821057
 21
-3.714920231249737
 31
0.0
  0
LINE
  5
A4
330
1F
100
AcDbEntity
  8
0
  6
Continuous
 62
     1
370
    15
100
AcDbLine
 10
13.01085164548044
 20
4.15438810810136
 30
0.0
 11
9.874908182653686
 21
4.318735940945279
 31
0.0
  0
LINE
  5
A5
330
1F
100
AcDbEntity
  8
0
  6
Continuous
 62
     1
370
    15
100
AcDbLine
 10
29.39502570852486
 20
3.295729930070399
 30
0.0
 11
25.72207459686536
 21
3.488221141247651
 31
0.0
  0
LINE
  5
A6
330
1F
100
AcDbEntity
  8
0
  6
Continuous
 62
     1
370
    15
100
AcDbLine
 10
45.67437296601884
 20
2.442565492127673
 30
0.0
 11
42.60078946003232
 21
2.60364517811741
 31
0.0
  0
LINE
  5
A7
330
1F
100
AcDbEntity
  8
0
  6
Continuous
 62
     4
370
    15
100
AcDbLine
 10
8.858908182653703
 20
-4.358884848185903
 30
0.0
 11
9.874908182653687
 21
-4.309065637317088
 31
0.0
  0
LINE
  5
A8
330
1F
100
AcDbEntity
  8
0
  6
Continuous
 62
     4
370
    15
100
AcDbLine
 10
9.874908182653686
 20
4.31873594094528
 30
0.0
 11
8.858908182653703
 21
4.368555151814095
 31
0.0
  0
LINE
  5
A9
330
1F
100
AcDbEntity
  8
0
  6
Continuous
 62
     1
370
    15
100
AcDbLine
 10
39.77291131877311
 20
-2.742177687955665
 30
0.0
 11
42.97174676400191
 21
-2.574533825979345
 31
0.0
  0
LINE
  5
AA
330
1F
100
AcDbEntity
  8
0
  6
Continuous
 62
     1
370
    15
100
AcDbLine
 10
22.92381357254067
 20
-3.625201483758603
 30
0.0
 11
26.66916395983118
 21
-3.428915987323829
 31
0.0
  0
LINE
  5
AB
330
1F
100
AcDbEntity
  8
0
  6
Continuous
 62
     1
370
    15
100
AcDbLine
 10
9.874908182653686
 20
-4.309065637317088
 30
0.0
 11
10.27286943923796
 21
-4.288209371618818
 31
0.0
  0
LINE
  5
AC
330
1F
100
AcDbEntity
  8
0
  6
Continuous
 62
     1
370
    15
100
AcDbLine
 10
18.48040244910885
 20
3.867741096807421
 30
0.0
 11
14.54914021461039
 21
4.073769820296771
 31
0.0
  0
LINE
  5
AD
330
1F
100
AcDbEntity
  8
0
  6
Continuous
 62
     1
370
    15
100
AcDbLine
 10
34.83850847439977
 20
3.010449086745388
 30
0.0
 11
31.32924641132895
 21
3.194361718393154
 31
0.0
  0
LINE
  5
AE
330
1F
100
AcDbEntity
  8
0
  6
Continuous
 62
     1
370
    15
100
AcDbLine
 10
51.05515458706984
 20
2.160570676561388
 30
0.0
 11
48.27860566851272
 21
2.306083439453696
 31
0.0
  0
LINE
  5
AF
330
1F
100
AcDbEntity
  8
0
  6
Continuous
 62
     4
370
    15
100
AcDbLine
 10
-33.76509181734631
 20
4.767335151814088
 30
0.0
 11
-33.76509181734631
 21
-4.757664848185907
 31
0.0
  0
LINE
  5
B0
330
1F
100
AcDbEntity
  8
0
  6
Continuous
 62
     4
370
    15
100
AcDbLine
 10
-34.5750918173463
 20
-3.947664848185927
 30
0.0
 11
-34.5750918173463
 21
3.957335151814106
 31
0.0
  0
LINE
  5
B1
330
1F
100
AcDbEntity
  8
0
  6
Continuous
 62
     4
370
    15
100
AcDbLine
 10
8.499845057868612
 20
4.767335151814092
 30
0.0
 11
8.499845057868612
 21
-4.757664848185902
 31
0.0
  0
LINE
  5
B2
330
1F
100
AcDbEntity
  8
0
  6
Continuous
 62
     4
370
    15
100
AcDbLine
 10
8.858908182653703
 20
4.368555151814095
 30
0.0
 11
8.858908182653703
 21
-4.358884848185905
 31
0.0
  0
SPLINE
  5
B3
330
1F
100
AcDbEntity
  8
0
  6
Continuous
 62
     1
370
    15
100
AcDbSpline
210
0.0
220
0.0
230
1.0
 70
     8
 71
     3
 72
    11
 73
     7
 74
     0
 42
0.000000001
 43
0.00000001
 40
0.0
 40
0.0
 40
0.0
 40
0.0
 40
0.2974311978315976
 40
0.5737990193847042
 40
0.8581780624689888
 40
0.9999999999999999
 40
0.9999999999999999
 40
0.9999999999999999
 40
0.9999999999999999
 10
9.874908182653769
 20
-3.27067001670124
 30
0.0
 10
10.06055227153426
 20
-3.445193747609016
 30
0.0
 10
10.4186935725504
 20
-3.781881850216668
 30
0.0
 10
10.95761015228792
 20
-4.080730571560345
 30
0.0
 10
11.40046634614836
 20
-4.22379624029882
 30
0.0
 10
11.67077710446509
 20
-4.198233015888857
 30
0.0
 10
11.76072526794564
 20
-4.189726639366384
 30
0.0
  0
SPLINE
  5
B4
330
1F
100
AcDbEntity
  8
0
  6
Continuous
 62
     1
370
    15
100
AcDbSpline
210
0.0
220
0.0
230
1.0
 70
     8
 71
     3
 72
    24
 73
    20
 74
     0
 42
0.000000001
 43
0.00000001
 40
0.0
 40
0.0
 40
0.0
 40
0.0
 40
0.0357516130449536
 40
0.0990105088157139
 40
0.1601645289929131
 40
0.2231083366616031
 40
0.2839630992349341
 40
0.346598312027401
 40
0.4071647564111053
 40
0.4695027406318345
 40
0.5297903704026831
 40
0.5918408303736615
 40
0.6518601356044864
 40
0.7136336921806237
 40
0.7733981034416787
 40
0.8349087945613384
 40
0.894428475073225
 40
0.9556863963982716
 40
1.0
 40
1.0
 40
1.0
 40
1.0
 10
19.29969541525842
 20
3.622961531817001
 30
0.0
 10
19.40484763080025
 20
3.666085563061062
 30
0.0
 10
19.69605615195999
 20
3.785513245115311
 30
0.0
 10
20.17039141835685
 20
3.801530542685418
 30
0.0
 10
20.72756734492043
 20
3.683168563041529
 30
0.0
 10
21.28075157885654
 20
3.403207691357396
 30
0.0
 10
21.84116590335367
 20
2.978411568444623
 30
0.0
 10
22.39753283221547
 20
2.434145185759527
 30
0.0
 10
22.96127959825209
 20
1.785246088734646
 30
0.0
 10
23.52103091765609
 20
1.073262100232249
 30
0.0
 10
24.08825754011762
 20
0.3165151443152988
 30
0.0
 10
24.65155096352292
 20
-0.4366118921310192
 30
0.0
 10
25.22243883578325
 20
-1.166832091843517
 30
0.0
 10
25.7894800225096
 20
-1.827733620832337
 30
0.0
 10
26.36424509866579
 20
-2.402042090828014
 30
0.0
 10
26.93520829590558
 20
-2.855153559985629
 30
0.0
 10
27.51411384672179
 20
-3.169185789737929
 30
0.0
 10
28.04111452803946
 20
-3.334348779296429
 30
0.0
 10
28.38053117057667
 20
-3.322388917877398
 30
0.0
 10
28.52300116486402
 20
-3.317368771029827
 30
0.0
  0
SPLINE
  5
B5
330
1F
100
AcDbEntity
  8
0
  6
Continuous
 62
     1
370
    15
100
AcDbSpline
210
0.0
220
0.0
230
1.0
 70
     8
 71
     3
 72
    22
 73
    18
 74
     0
 42
0.000000001
 43
0.00000001
 40
0.0
 40
0.0
 40
0.0
 40
0.0
 40
0.0639351023045798
 40
0.1301730461268639
 40
0.1983347483122801
 40
0.2645010668598555
 40
0.3325868622088543
 40
0.3987194073527777
 40
0.4667680338147788
 40
0.5329083796427354
 40
0.6009624339516105
 40
0.6671558369396422
 40
0.7352616032081664
 40
0.8015586931840762
 40
0.8697677311905285
 40
0.9362283558323699
 40
1.0
 40
1.0
 40
1.0
 40
1.0
 10
35.86462772527335
 20
2.714765300131324
 30
0.0
 10
36.05928893335172
 20
2.778413637204375
 30
0.0
 10
36.45562273911592
 20
2.908002824036958
 30
0.0
 10
37.06419071523433
 20
2.914733536391553
 30
0.0
 10
37.68327537210912
 20
2.780610383112254
 30
0.0
 10
38.31197534832047
 20
2.495780311949131
 30
0.0
 10
38.93844466948554
 20
2.085751079003236
 30
0.0
 10
39.57473065491797
 20
1.565378283168944
 30
0.0
 10
40.20909830286342
 20
0.973405057375944
 30
0.0
 10
40.85358936671896
 20
0.3329352035495102
 30
0.0
 10
41.49648555039987
 20
-0.3085556424424573
 30
0.0
 10
42.14984213276252
 20
-0.9254747282490462
 30
0.0
 10
42.80196984355636
 20
-1.471537419556826
 30
0.0
 10
43.46490648195162
 20
-1.925512263491197
 30
0.0
 10
44.12713062196858
 20
-2.249049398867896
 30
0.0
 10
44.78497582226122
 20
-2.440670180356673
 30
0.0
 10
45.22054685606589
 20
-2.440589005263337
 30
0.0
 10
45.43383563028017
 20
-2.440549255751064
 30
0.0
  0
SPLINE
  5
B6
330
1F
100
AcDbEntity
  8
0
  6
Continuous
 62
     1
370
    15
100
AcDbSpline
210
0.0
220
0.0
230
1.0
 70
     8
 71
     3
 72
    11
 73
     7
 74
     0
 42
0.000000001
 43
0.00000001
 40
0.0
 40
0.0
 40
0.0
 40
0.0
 40
0.0716874038877532
 40
0.4814602720899154
 40
0.9027888533623862
 40
1.0
 40
1.0
 40
1.0
 40
1.0
 10
52.48411971302227
 20
1.763735253197528
 30
0.0
 10
52.52759699350965
 20
1.782410579073263
 30
0.0
 10
52.81959505952913
 20
1.90783606514021
 30
0.0
 10
53.37246452641473
 20
2.002612448186187
 30
0.0
 10
53.94418824961761
 20
2.022323353123324
 30
0.0
 10
54.26480234640069
 20
1.983251579501961
 30
0.0
 10
54.32490818265375
 20
1.975926756136534
 30
0.0
  0
LINE
  5
B7
330
1F
100
AcDbEntity
  8
0
  6
Continuous
 62
     4
370
    15
100
AcDbLine
 10
9.874908182653686
 20
2.703110594759067
 30
0.0
 11
9.874908182653687
 21
-3.270670016705972
 31
0.0
  0
SPLINE
  5
B8
330
1F
100
AcDbEntity
  8
0
  6
Continuous
 62
     1
370
    15
100
AcDbSpline
210
0.0
220
0.0
230
1.0
 70
     8
 71
     3
 72
    23
 73
    19
 74
     0
 42
0.000000001
 43
0.00000001
 40
0.0
 40
0.0
 40
0.0
 40
0.0
 40
0.0507480028630354
 40
0.118603638879592
 40
0.1843645796313022
 40
0.2520376338785879
 40
0.3176793854186603
 40
0.385227125132852
 40
0.4507990477718073
 40
0.5182725393478861
 40
0.5838175706988347
 40
0.651261192572326
 40
0.7168193139215748
 40
0.7842744564811839
 40
0.8498819842934394
 40
0.9173862384759632
 40
0.9830754962246977
 40
1.0
 40
1.0
 40
1.0
 40
1.0
 10
49.69847220503894
 20
-1.918152003067418
 30
0.0
 10
49.53147972647657
 20
-1.995205523557677
 30
0.0
 10
49.14120002076138
 20
-2.175288037214281
 30
0.0
 10
48.53931475435626
 20
-2.299642780161066
 30
0.0
 10
47.88593082764092
 20
-2.302075716064179
 30
0.0
 10
47.24375762866192
 20
-2.153172029417596
 30
0.0
 10
46.59994171362229
 20
-1.863816231724657
 30
0.0
 10
45.96666779487046
 20
-1.455144673595898
 30
0.0
 10
45.33161136309082
 20
-0.9446442958053151
 30
0.0
 10
44.70660419393094
 20
-0.371495626461728
 30
0.0
 10
44.07966620434671
 20
0.2405950108805837
 30
0.0
 10
43.46234486062576
 20
0.845171245971286
 30
0.0
 10
42.84295036776557
 20
1.417951881875621
 30
0.0
 10
42.23279580926058
 20
1.915024782608856
 30
0.0
 10
41.6203741544286
 20
2.320423130859443
 30
0.0
 10
41.01709970008307
 20
2.589009329077438
 30
0.0
 10
40.56353593645439
 20
2.721229255300587
 30
0.0
 10
40.31582293841635
 20
2.713474343429366
 30
0.0
 10
40.26507570825583
 20
2.711885648848457
 30
0.0
  0
SPLINE
  5
B9
330
1F
100
AcDbEntity
  8
0
  6
Continuous
 62
     1
370
    15
100
AcDbSpline
210
0.0
220
0.0
230
1.0
 70
     8
 71
     3
 72
    25
 73
    21
 74
     0
 42
0.000000001
 43
0.00000001
 40
0.0
 40
0.0
 40
0.0
 40
0.0
 40
0.0304359634945452
 40
0.0891716652175321
 40
0.1495971520767542
 40
0.2085594294852761
 40
0.2692173654030986
 40
0.3284187924460711
 40
0.3893221335716578
 40
0.4487756778704268
 40
0.509937859117131
 40
0.5696544323386545
 40
0.6310866769476752
 40
0.6910772534395028
 40
0.7527909315007545
 40
0.8130653669632707
 40
0.8750706234803205
 40
0.9356381513517402
 40
0.9979445389674271
 40
0.9999999999999999
 40
0.9999999999999999
 40
0.9999999999999999
 40
0.9999999999999999
 10
33.11092188759925
 20
-2.85026845220871
 30
0.0
 10
33.01360821222911
 20
-2.901540203851971
 30
0.0
 10
32.72849739315654
 20
-3.051756820896763
 30
0.0
 10
32.25366540500072
 20
-3.152256398175199
 30
0.0
 10
31.6906536308892
 20
-3.149423957402313
 30
0.0
 10
31.12492307056469
 20
-2.988905380700023
 30
0.0
 10
30.56591658879587
 20
-2.688718037135977
 30
0.0
 10
30.00398792602742
 20
-2.254559957101667
 30
0.0
 10
29.4486770263688
 20
-1.713296773085278
 30
0.0
 10
28.89038758300286
 20
-1.080125788668034
 30
0.0
 10
28.33857685392329
 20
-0.393653362247248
 30
0.0
 10
27.78374396946496
 20
0.326405091767239
 30
0.0
 10
27.23525925894297
 20
1.03616491679452
 30
0.0
 10
26.68371870838811
 20
1.715027079807271
 30
0.0
 10
26.13839835534062
 20
2.321954126573075
 30
0.0
 10
25.59000469898045
 20
2.83767553344566
 30
0.0
 10
25.04763763044069
 20
3.236407537363703
 30
0.0
 10
24.50246064579786
 20
3.483957122033024
 30
0.0
 10
24.13506435047765
 20
3.595226864517358
 30
0.0
 10
23.94710646103715
 20
3.579603325573916
 30
0.0
 10
23.94110383485994
 20
3.579104371983186
 30
0.0
  0
SPLINE
  5
BA
330
1F
100
AcDbEntity
  8
0
  6
Continuous
 62
     1
370
    15
100
AcDbSpline
210
0.0
220
0.0
230
1.0
 70
     8
 71
     3
 72
    21
 73
    17
 74
     0
 42
0.000000001
 43
0.00000001
 40
0.0
 40
0.0
 40
0.0
 40
0.0
 40
0.0058565675451073
 40
0.081223081238791
 40
0.1587507993752205
 40
0.2345418020849702
 40
0.3125059782757161
 40
0.3887276521424805
 40
0.4671346896624543
 40
0.5437927567158797
 40
0.6226485280391669
 40
0.6997489526791855
 40
0.7790596471883744
 40
0.856607157629422
 40
0.9363776128657441
 40
1.0
 40
1.0
 40
1.0
 40
1.0
 10
16.5494132149388
 20
-3.76739583260155
 30
0.0
 10
16.53595567767309
 20
-3.77598070764865
 30
0.0
 10
16.34931689408731
 20
-3.89504191508885
 30
0.0
 10
15.98692820258945
 20
-3.987963571127445
 30
0.0
 10
15.46623425088955
 20
-4.022775331747934
 30
0.0
 10
14.94247292794826
 20
-3.879382689088134
 30
0.0
 10
14.42393398661431
 20
-3.585067290788644
 30
0.0
 10
13.90205488194047
 20
-3.140184540713447
 30
0.0
 10
13.38541039026816
 20
-2.569780873485463
 30
0.0
 10
12.86538406377333
 20
-1.886022190144301
 30
0.0
 10
12.35054349146514
 20
-1.125860866201377
 30
0.0
 10
11.83231251382663
 20
-0.3066187286620325
 30
0.0
 10
11.31919798089289
 20
0.5277318779503992
 30
0.0
 10
10.80273133186493
 20
1.355860146850592
 30
0.0
 10
10.32237684550335
 20
2.092651216266066
 30
0.0
 10
10.01242958417746
 20
2.51549694429904
 30
0.0
 10
9.874908182653702
 20
2.703110594759045
 30
0.0
  0
LINE
  5
BB
330
1F
100
AcDbEntity
  8
0
  6
Continuous
 62
     1
370
    15
100
AcDbLine
 10
54.3249081826537
 20
1.989210151814098
 30
0.0
 11
54.3249081826537
 21
1.97592675613504
 31
0.0
  0
SPLINE
  5
BC
330
1F
100
AcDbEntity
  8
0
  6
Continuous
 62
     4
370
    15
100
AcDbSpline
210
0.0
220
0.0
230
1.0
 70
     8
 71
     3
 72
     8
 73
     4
 74
     0
 42
0.000000001
 43
0.00000001
 40
0.0
 40
0.0
 40
0.0
 40
0.0
 40
1.0
 40
1.0
 40
1.0
 40
1.0
 10
9.874908182653686
 20
2.703110594759067
 30
0.0
 10
9.576485583212156
 20
3.09660352909347
 30
0.0
 10
9.281166674219882
 20
3.436998981120154
 30
0.0
 10
8.984908182653697
 20
3.709403772258747
 30
0.0
  0
SPLINE
  5
BD
330
1F
100
AcDbEntity
  8
0
  6
Continuous
 62
     4
370
    15
100
AcDbSpline
210
0.0
220
0.0
230
1.0
 70
     8
 71
     3
 72
     8
 73
     4
 74
     0
 42
0.000000001
 43
0.00000001
 40
0.0
 40
0.0
 40
0.0
 40
0.0
 40
1.0
 40
1.0
 40
1.0
 40
1.0
 10
8.984908182665249
 20
4.362340717799599
 30
0.0
 10
9.281067049326136
 20
4.345844819158257
 30
0.0
 10
9.576521830623726
 20
4.248275490946679
 30
0.0
 10
9.874908182657633
 20
4.073761204196009
 30
0.0
  0
SPLINE
  5
BE
330
1F
100
AcDbEntity
  8
0
  6
Continuous
 62
     1
370
    15
100
AcDbSpline
210
0.0
220
0.0
230
1.0
 70
     8
 71
     3
 72
    21
 73
    17
 74
     0
 42
0.000000001
 43
0.00000001
 40
0.0
 40
0.0
 40
0.0
 40
0.0
 40
0.0770728230295788
 40
0.1486875304204722
 40
0.2223781715527643
 40
0.2939668962037664
 40
0.3676536144016606
 40
0.4388453255607102
 40
0.5121231372320714
 40
0.5829242793354884
 40
0.6557999397860897
 40
0.7262148901082676
 40
0.7986925818755247
 40
0.8687309903611948
 40
0.9408209440822716
 40
1.0
 40
1.0
 40
1.0
 40
1.0
 10
9.874908182653767
 20
4.073761204198353
 30
0.0
 10
10.06055966380834
 20
3.947840338032741
 30
0.0
 10
10.41871522586921
 20
3.704916024602749
 30
0.0
 10
10.95752969237855
 20
3.149954239854047
 30
0.0
 10
11.48552111536519
 20
2.500839276466662
 30
0.0
 10
12.02105613760227
 20
1.748703834784871
 30
0.0
 10
12.55315242983514
 20
0.9423583654175075
 30
0.0
 10
13.09191374225354
 20
0.0991732319294192
 30
0.0
 10
13.62628129516635
 20
-0.7298491689581011
 30
0.0
 10
14.16735865748361
 20
-1.527516136237839
 30
0.0
 10
14.70405868042508
 20
-2.246173102007092
 30
0.0
 10
15.24755056980697
 20
-2.870697487604826
 30
0.0
 10
15.78668994651113
 20
-3.365581032103182
 30
0.0
 10
16.33275868387672
 20
-3.715411010779248
 30
0.0
 10
16.84741781451807
 20
-3.910879901977315
 30
0.0
 10
17.18514540744159
 20
-3.908722191187828
 30
0.0
 10
17.3374006896409
 20
-3.907749446075965
 30
0.0
  0
SPLINE
  5
BF
330
1F
100
AcDbEntity
  8
0
  6
Continuous
 62
     1
370
    15
100
AcDbSpline
210
0.0
220
0.0
230
1.0
 70
     8
 71
     3
 72
    24
 73
    20
 74
     0
 42
0.000000001
 43
0.00000001
 40
0.0
 40
0.0
 40
0.0
 40
0.0
 40
0.0448156274340381
 40
0.1093704636481241
 40
0.1718256952104113
 40
0.2361058307689126
 40
0.2983053128761776
 40
0.3623212979859187
 40
0.4242814765122132
 40
0.4880503639839445
 40
0.5497860348358921
 40
0.6133229495217406
 40
0.6748504204703327
 40
0.7381718919476894
 40
0.799511477162702
 40
0.8626385453362654
 40
0.9238088859546482
 40
0.9867605018232096
 40
1.0
 40
1.0
 40
1.0
 40
1.0
 10
24.81797734001034
 20
3.320657270005679
 30
0.0
 10
24.95102675588858
 20
3.371084700031126
 30
0.0
 10
25.27572769473259
 20
3.494150508059453
 30
0.0
 10
25.78954827393049
 20
3.506703466427932
 30
0.0
 10
26.36422185008641
 20
3.381277673531308
 30
0.0
 10
26.9352320301846
 20
3.100465289829172
 30
0.0
 10
27.51404353753546
 20
2.679744321248187
 30
0.0
 10
28.08918697984485
 20
2.14572299839049
 30
0.0
 10
28.6723120448032
 20
1.514470137729976
 30
0.0
 10
29.25186541397584
 20
0.8279655545834442
 30
0.0
 10
29.83953968643298
 20
0.106130598186544
 30
0.0
 10
30.42374680123054
 20
-0.6030560081152594
 30
0.0
 10
31.01622929598483
 20
-1.278915826972636
 30
0.0
 10
31.60537479228036
 20
-1.87688386251146
 30
0.0
 10
32.20299768437768
 20
-2.378405065316033
 30
0.0
 10
32.79734269959231
 20
-2.754723327383648
 30
0.0
 10
33.40062184544905
 20
-2.978848389210995
 30
0.0
 10
33.84509078393743
 20
-3.066523781660631
 30
0.0
 10
34.09358092304142
 20
-3.031054205555755
 30
0.0
 10
34.13676029881034
 20
-3.024890765185366
 30
0.0
  0
SPLINE
  5
C0
330
1F
100
AcDbEntity
  8
0
  6
Continuous
 62
     1
370
    15
100
AcDbSpline
210
0.0
220
0.0
230
1.0
 70
     8
 71
     3
 72
    23
 73
    19
 74
     0
 42
0.000000001
 43
0.00000001
 40
0.0
 40
0.0
 40
0.0
 40
0.0
 40
0.0113007436909136
 40
0.0801640372765396
 40
0.1510168287287542
 40
0.2199879914850976
 40
0.2909482201090998
 40
0.3600895136519427
 40
0.4312207602210696
 40
0.5006030811427685
 40
0.5719777183322767
 40
0.6416824281129223
 40
0.7133834729507008
 40
0.783504782793683
 40
0.8556283070975852
 40
0.9262764546419925
 40
0.9989348051070897
 40
1.0
 40
1.0
 40
1.0
 40
1.0
 10
41.39861879049796
 20
2.399007638960965
 30
0.0
 10
41.43345277210672
 20
2.415222221257637
 30
0.0
 10
41.68055443873593
 20
2.530243534474313
 30
0.0
 10
42.1500957603047
 20
2.608685603087469
 30
0.0
 10
42.80189882271917
 20
2.613266292216853
 30
0.0
 10
43.46494169306803
 20
2.451031649375254
 30
0.0
 10
44.12706081813885
 20
2.152035635620414
 30
0.0
 10
44.80047073206364
 20
1.725687243917229
 30
0.0
 10
45.47355045601307
 20
1.206913916128257
 30
0.0
 10
46.15837143968645
 20
0.6197851799349758
 30
0.0
 10
46.84344150891332
 20
0.0110889043135266
 30
0.0
 10
47.54079304140053
 20
-0.5894701998321544
 30
0.0
 10
48.23905232290942
 20
-1.133888730461994
 30
0.0
 10
48.95024861065394
 20
-1.592941065623527
 30
0.0
 10
49.66298394470712
 20
-1.935124381912427
 30
0.0
 10
50.38995090642865
 20
-2.119619231558594
 30
0.0
 10
50.87915878004009
 20
-2.184884188127246
 30
0.0
 10
51.13145772545592
 20
-2.146162890688496
 30
0.0
 10
51.13510306761681
 20
-2.1456034258923
 30
0.0
  0
SPLINE
  5
C1
330
1F
100
AcDbEntity
  8
0
  6
Continuous
 62
     1
370
    15
100
AcDbSpline
210
0.0
220
0.0
230
1.0
 70
     8
 71
     3
 72
    19
 73
    15
 74
     0
 42
0.000000001
 43
0.00000001
 40
0.0
 40
0.0
 40
0.0
 40
0.0
 40
0.047011235859545
 40
0.1374085865919438
 40
0.2304388639810665
 40
0.3205727025868563
 40
0.4133359590626679
 40
0.5031488135885261
 40
0.5955772222540344
 40
0.6851523771393903
 40
0.7773320851312948
 40
0.866744888444864
 40
0.9587539013618065
 40
1.0
 40
1.0
 40
1.0
 40
1.0
 10
52.89340058257006
 20
-1.945024328435356
 30
0.0
 10
52.77649744822325
 20
-1.916636897240284
 30
0.0
 10
52.43480265622167
 20
-1.833663609553382
 30
0.0
 10
51.86426939630908
 20
-1.589250807441473
 30
0.0
 10
51.19132185456173
 20
-1.185063885674357
 30
0.0
 10
50.51699912889369
 20
-0.6814243585247387
 30
0.0
 10
49.85464792292763
 20
-0.1242268647686694
 30
0.0
 10
49.1910983803861
 20
0.4596654798003433
 30
0.0
 10
48.53922943711807
 20
1.020954335275475
 30
0.0
 10
47.88596298896221
 20
1.532413832934428
 30
0.0
 10
47.24371527875905
 20
1.954511440800747
 30
0.0
 10
46.60007625637601
 20
2.257456263125145
 30
0.0
 10
46.07871690977889
 20
2.419595980316471
 30
0.0
 10
45.76923961841261
 20
2.423657713483819
 30
0.0
 10
45.67344793930172
 20
2.42491493089865
 30
0.0
  0
SPLINE
  5
C2
330
1F
100
AcDbEntity
  8
0
  6
Continuous
 62
     1
370
    15
100
AcDbSpline
210
0.0
220
0.0
230
1.0
 70
     8
 71
     3
 72
    25
 73
    21
 74
     0
 42
0.000000001
 43
0.00000001
 40
0.0
 40
0.0
 40
0.0
 40
0.0
 40
0.0039444413617188
 40
0.0643160651676028
 40
0.1264290673098035
 40
0.1869493934108621
 40
0.2492143035320429
 40
0.309903040775601
 40
0.3723401998554843
 40
0.4332171102545621
 40
0.4958469914034431
 40
0.5569291471492271
 40
0.6197693442098478
 40
0.6810725637723367
 40
0.744139434166966
 40
0.8056791337337869
 40
0.8689886142489808
 40
0.9307779174149572
 40
0.9943435305529352
 40
1.0
 40
1.0
 40
1.0
 40
1.0
 10
38.65649073189137
 20
-2.545755073220163
 30
0.0
 10
38.64371400878988
 20
-2.553327100660158
 30
0.0
 10
38.4353832262362
 20
-2.676792749055386
 30
0.0
 10
38.02912806517941
 20
-2.800551207919033
 30
0.0
 10
37.44289142523336
 20
-2.888813411865597
 30
0.0
 10
36.85447657459792
 20
-2.814542672170898
 30
0.0
 10
36.27368846295211
 20
-2.599490022661285
 30
0.0
 10
35.69028380437223
 20
-2.245219844642177
 30
0.0
 10
35.11438119315674
 20
-1.775738950877941
 30
0.0
 10
34.53576608395819
 20
-1.205517324156357
 30
0.0
 10
33.96445138012483
 20
-0.5715201100811977
 30
0.0
 10
33.39035910982888
 20
0.1061013037579096
 30
0.0
 10
32.82337574652757
 20
0.7836168356787901
 30
0.0
 10
32.25356256155766
 20
1.439381313957647
 30
0.0
 10
31.69067729703644
 20
2.031518301583557
 30
0.0
 10
31.12492916827238
 20
2.539729709695933
 30
0.0
 10
30.56586670119941
 20
2.936418387128315
 30
0.0
 10
30.00417789428872
 20
3.188994887942429
 30
0.0
 10
29.61533426788165
 20
3.304420889902452
 30
0.0
 10
29.41137404859277
 20
3.290772961528689
 30
0.0
 10
29.39470747767001
 20
3.289657723630911
 30
0.0
  0
SPLINE
  5
C3
330
1F
100
AcDbEntity
  8
0
  6
Continuous
 62
     1
370
    15
100
AcDbSpline
210
0.0
220
0.0
230
1.0
 70
     8
 71
     3
 72
    25
 73
    21
 74
     0
 42
0.000000001
 43
0.00000001
 40
0.0
 40
0.0
 40
0.0
 40
0.0
 40
0.0267205995200348
 40
0.0829738485746963
 40
0.1408412055886181
 40
0.1973916927365275
 40
0.2555645736021011
 40
0.3124189013566421
 40
0.3709041165425424
 40
0.4280679038877568
 40
0.4868712572475676
 40
0.5443503628233954
 40
0.6034778921321007
 40
0.6612774057461754
 40
0.7207343738382294
 40
0.7788594333407984
 40
0.8386511265251521
 40
0.8971064730767444
 40
0.9572378021043042
 40
1.0
 40
1.0
 40
1.0
 40
1.0
 10
22.05815563265951
 20
-3.459970579788135
 30
0.0
 10
21.97405211307942
 20
-3.505933582389583
 30
0.0
 10
21.71289058139279
 20
-3.64865969207254
 30
0.0
 10
21.2725249485662
 20
-3.731602982560903
 30
0.0
 10
20.74086697901713
 20
-3.706425027767735
 30
0.0
 10
20.20612423475586
 20
-3.515876647111976
 30
0.0
 10
19.67698515301807
 20
-3.180107141528023
 30
0.0
 10
19.14459200191192
 20
-2.703820292335434
 30
0.0
 10
18.61775955035151
 20
-2.113990242079621
 30
0.0
 10
18.0876442725176
 20
-1.424461652641243
 30
0.0
 10
17.5630230000299
 20
-0.6737674180782326
 30
0.0
 10
17.03509260055111
 20
0.1198544552865768
 30
0.0
 10
16.51258457728401
 20
0.911869481612681
 30
0.0
 10
15.98675282073731
 20
1.682758173324349
 30
0.0
 10
15.46627968228849
 20
2.389183753841844
 30
0.0
 10
14.94246375916112
 20
3.013016657731061
 30
0.0
 10
14.42392380833218
 20
3.520666275501889
 30
0.0
 10
13.90210377949958
 20
3.892075647003276
 30
0.0
 10
13.4319262147805
 20
4.110198225206028
 30
0.0
 10
13.13389320138114
 20
4.13036244206587
 30
0.0
 10
13.01003170027875
 20
4.138742621631641
 30
0.0
  0
ELLIPSE
  5
C4
330
1F
100
AcDbEntity
  8
0
  6
Continuous
 62
     1
370
    15
100
AcDbEllipse
 10
49.71501632745963
 20
0.1613926749229548
 30
0.0
 11
3.158996551222921
 21
-2.163617720521902
 31
0.0
210
0.0
220
0.0
230
1.0
 40
0.1646245233453008
 41
6.104059000524728
 42
6.375567113105265
  0
ELLIPSE
  5
C5
330
1F
100
AcDbEntity
  8
0
  6
Continuous
 62
     1
370
    15
100
AcDbEllipse
 10
54.11160090682851
 20
-0.0698445294297901
 30
0.0
 11
2.757779008445027
 21
1.400238808193511
 31
0.0
210
0.0
220
0.0
230
1.0
 40
0.5134284556395001
 41
3.963260955525103
 42
4.532291849077859
  0
SPLINE
  5
C6
330
1F
100
AcDbEntity
  8
0
  6
Continuous
 62
     4
370
    15
100
AcDbSpline
210
0.0
220
0.0
230
1.0
 70
     8
 71
     3
 72
     8
 73
     4
 74
     0
 42
0.000000001
 43
0.00000001
 40
0.0
 40
0.0
 40
0.0
 40
0.0
 40
1.0
 40
1.0
 40
1.0
 40
1.0
 10
8.98490818266525
 20
-2.189271661360606
 30
0.0
 10
9.281067049326275
 20
-2.601135247780515
 30
0.0
 10
9.576521830623587
 20
-2.966944544164607
 30
0.0
 10
9.874908182657634
 20
-3.270670016705029
 30
0.0
  0
LINE
  5
C7
330
1F
100
AcDbEntity
  8
0
  6
Continuous
 62
     4
370
    15
100
AcDbLine
 10
8.984908182653697
 20
-3.834470878660725
 30
0.0
 11
8.984908182653697
 21
-2.189271661344539
 31
0.0
  0
SPLINE
  5
C8
330
1F
100
AcDbEntity
  8
0
  6
Continuous
 62
     4
370
    15
100
AcDbSpline
210
0.0
220
0.0
230
1.0
 70
     8
 71
     3
 72
     8
 73
     4
 74
     0
 42
0.000000001
 43
0.00000001
 40
0.0
 40
0.0
 40
0.0
 40
0.0
 40
1.0
 40
1.0
 40
1.0
 40
1.0
 10
9.874908182653687
 20
-4.259227481101228
 30
0.0
 10
9.576485583212158
 20
-4.199030760774495
 30
0.0
 10
9.281166674219884
 20
-4.055275347264854
 30
0.0
 10
8.9849081826537
 20
-3.834470878660771
 30
0.0
  0
LINE
  5
C9
330
1F
100
AcDbEntity
  8
0
  6
Continuous
 62
     4
370
    15
100
AcDbLine
 10
8.984908182653697
 20
3.709403772258707
 30
0.0
 11
8.984908182653696
 21
4.362340717800242
 31
0.0
  0
SPLINE
  5
CA
330
1F
100
AcDbEntity
  8
0
  6
Continuous
 62
     1
370
    15
100
AcDbSpline
210
0.0
220
0.0
230
1.0
 70
     8
 71
     3
 72
    24
 73
    20
 74
     0
 42
0.000000001
 43
0.00000001
 40
0.0
 40
0.0
 40
0.0
 40
0.0
 40
0.0445390470111239
 40
0.1066251341388898
 40
0.166614830476029
 40
0.2283618699959179
 40
0.288030773229789
 40
0.3494474810865538
 40
0.4087996855289154
 40
0.4698899475398968
 40
0.5289348215691415
 40
0.5897085708417507
 40
0.648450874987646
 40
0.7089126625882042
 40
0.7673626455324715
 40
0.8275232772296475
 40
0.8856872347942036
 40
0.9455529167039469
 40
1.0
 40
1.0
 40
1.0
 40
1.0
 10
13.77145443437765
 20
3.925865559558084
 30
0.0
 10
13.90173031525605
 20
3.974896298232409
 30
0.0
 10
14.21360684171725
 20
4.092274406631832
 30
0.0
 10
14.70411340903841
 20
4.083012882520763
 30
0.0
 10
15.24753242653104
 20
3.92586007766405
 30
0.0
 10
15.78670695037038
 20
3.606714669365111
 30
0.0
 10
16.33270976490294
 20
3.140552162274121
 30
0.0
 10
16.87441262514242
 20
2.555003906501176
 30
0.0
 10
17.42304147197582
 20
1.864393840561047
 30
0.0
 10
17.96741912185179
 20
1.111605609658362
 30
0.0
 10
18.51880635539489
 20
0.3140672097436234
 30
0.0
 10
19.06597218560664
 20
-0.4788651657129717
 30
0.0
 10
19.62022193023208
 20
-1.248999794238064
 30
0.0
 10
20.17031180356096
 20
-1.948969144022985
 30
0.0
 10
20.72759194340626
 20
-2.562601963187628
 30
0.0
 10
21.28073419589385
 20
-3.053583901601117
 30
0.0
 10
21.84121022977135
 20
-3.406583083700788
 30
0.0
 10
22.38649006519981
 20
-3.613194629762144
 30
0.0
 10
22.75030231510866
 20
-3.618383926039933
 30
0.0
 10
22.92358581358103
 20
-3.620855583918002
 30
0.0
  0
SPLINE
  5
CB
330
1F
100
AcDbEntity
  8
0
  6
Continuous
 62
     1
370
    15
100
AcDbSpline
210
0.0
220
0.0
230
1.0
 70
     8
 71
     3
 72
    24
 73
    20
 74
     0
 42
0.000000001
 43
0.00000001
 40
0.0
 40
0.0
 40
0.0
 40
0.0
 40
0.0101931747678081
 40
0.0744505727405821
 40
0.1405815696791983
 40
0.2046427455714948
 40
0.2705707136797945
 40
0.3344551357216121
 40
0.4001998668397684
 40
0.4639307894799117
 40
0.5295159724000185
 40
0.5931204906912451
 40
0.6585740145711316
 40
0.722079657635749
 40
0.7874297044499668
 40
0.850866676766859
 40
0.9161439478851309
 40
0.9795485399439162
 40
1.0
 40
1.0
 40
1.0
 40
1.0
 10
30.33903207925108
 20
3.018674847493703
 30
0.0
 10
30.36954385361784
 20
3.033654278240348
 30
0.0
 10
30.59240072879975
 20
3.14306348820874
 30
0.0
 10
31.01643281985436
 20
3.206587218103012
 30
0.0
 10
31.60532503545683
 20
3.190701089570553
 30
0.0
 10
32.2029987138878
 20
3.005375592420361
 30
0.0
 10
32.79739058013205
 20
2.681928562777543
 30
0.0
 10
33.40043445306431
 20
2.226681820955511
 30
0.0
 10
34.00042509979928
 20
1.672867641260348
 30
0.0
 10
34.60924149441402
 20
1.038568497109011
 30
0.0
 10
35.21519251631958
 20
0.3681504378480527
 30
0.0
 10
35.83019218110709
 20
-0.3160099437452993
 30
0.0
 10
36.4425257812437
 20
-0.9660576044724776
 30
0.0
 10
37.06413188681243
 20
-1.560250969661289
 30
0.0
 10
37.68330353501121
 20
-2.056041080531867
 30
0.0
 10
38.31192142161348
 20
-2.440271988563388
 30
0.0
 10
38.93863606444705
 20
-2.672223416968488
 30
0.0
 10
39.4272778553639
 20
-2.767964855788062
 30
0.0
 10
39.70443407481189
 20
-2.733700108974943
 30
0.0
 10
39.77202906895222
 20
-2.725343358530498
 30
0.0
  0
SPLINE
  5
CC
330
1F
100
AcDbEntity
  8
0
  6
Continuous
 62
     1
370
    15
100
AcDbSpline
210
0.0
220
0.0
230
1.0
 70
     8
 71
     3
 72
    18
 73
    14
 74
     0
 42
0.000000001
 43
0.00000001
 40
0.0
 40
0.0
 40
0.0
 40
0.0
 40
0.0846084397966025
 40
0.1832679064443755
 40
0.2797536835401476
 40
0.37899447503321
 40
0.4762051722016273
 40
0.5761818757575077
 40
0.6742968953598525
 40
0.7751922300013543
 40
0.8744261788805079
 40
0.9764585537391859
 40
1.0
 40
1.0
 40
1.0
 40
1.0
 10
46.93045895344977
 20
2.083951408475538
 30
0.0
 10
47.13171235276293
 20
2.150640571691983
 30
0.0
 10
47.56764154901812
 20
2.295094048846115
 30
0.0
 10
48.23913463830307
 20
2.331582549218116
 30
0.0
 10
48.95020017853923
 20
2.227176567054377
 30
0.0
 10
49.66309615746733
 20
1.972627385483073
 30
0.0
 10
50.38955560233869
 20
1.58698518447432
 30
0.0
 10
51.11867550690847
 20
1.102159750377393
 30
0.0
 10
51.86219889246842
 20
0.5469470983906299
 30
0.0
 10
52.60953645346157
 20
-0.0304502507883716
 30
0.0
 10
53.37212652366716
 20
-0.5931417380821179
 30
0.0
 10
53.94420388493932
 20
-0.9667617070159836
 30
0.0
 10
54.26480481481384
 20
-1.145679513258782
 30
0.0
 10
54.32490818265374
 20
-1.179221408243084
 30
0.0
  0
SPLINE
  5
CD
330
1F
100
AcDbEntity
  8
0
  6
Continuous
 62
     1
370
    15
100
AcDbSpline
210
0.0
220
0.0
230
1.0
 70
     8
 71
     3
 72
    12
 73
     8
 74
     0
 42
0.000000001
 43
0.00000001
 40
0.0
 40
0.0
 40
0.0
 40
0.0
 40
0.1718037920292683
 40
0.4923361038660268
 40
0.7204303715797077
 40
0.94978516522264
 40
1.0
 40
1.0
 40
1.0
 40
1.0
 10
52.79939577392648
 20
-1.856590389038693
 30
0.0
 10
52.83746747397796
 20
-1.789754377943519
 30
0.0
 10
52.94656909652949
 20
-1.598223207927558
 30
0.0
 10
53.19146790129493
 20
-1.311371826143406
 30
0.0
 10
53.50485853325495
 20
-1.059351157173565
 30
0.0
 10
53.73453336249319
 20
-0.9201451258960419
 30
0.0
 10
53.84128554951871
 20
-0.8990474705548612
 30
0.0
 10
53.86045981914125
 20
-0.8952580200228655
 30
0.0
  0
SPLINE
  5
CE
330
1F
100
AcDbEntity
  8
0
  6
Continuous
 62
     1
370
    15
100
AcDbSpline
210
0.0
220
0.0
230
1.0
 70
     8
 71
     3
 72
     8
 73
     4
 74
     0
 42
0.000000001
 43
0.00000001
 40
0.0
 40
0.0
 40
0.0
 40
0.0
 40
1.0
 40
1.0
 40
1.0
 40
1.0
 10
52.79939577392634
 20
-1.856590389038711
 30
0.0
 10
52.83080012940833
 20
-1.886071654728865
 30
0.0
 10
52.86212935230317
 20
-1.91554936409345
 30
0.0
 10
52.8934005825701
 20
-1.94502432843544
 30
0.0
  0
SPLINE
  5
CF
330
1F
100
AcDbEntity
  8
0
  6
Continuous
 62
     1
370
    15
100
AcDbSpline
210
0.0
220
0.0
230
1.0
 70
     8
 71
     3
 72
    11
 73
     7
 74
     0
 42
0.000000001
 43
0.00000001
 40
0.0
 40
0.0
 40
0.0
 40
0.0
 40
0.1893903817268413
 40
0.553566912066313
 40
0.9283505020896855
 40
1.0
 40
1.0
 40
1.0
 40
1.0
 10
52.89340058257015
 20
1.55367553235157
 30
0.0
 10
52.77649057196749
 20
1.618011163732847
 30
0.0
 10
52.43477568143889
 20
1.80605702157866
 30
0.0
 10
51.86450427145174
 20
2.026577434670112
 30
0.0
 10
51.36871227550887
 20
2.158334866932757
 30
0.0
 10
51.09800379223218
 20
2.150434264579776
 30
0.0
 10
51.05455690751176
 20
2.149166271218442
 30
0.0
  0
SPLINE
  5
D0
330
1F
100
AcDbEntity
  8
0
  6
Continuous
 62
     1
370
    15
100
AcDbSpline
210
0.0
220
0.0
230
1.0
 70
     8
 71
     3
 72
    24
 73
    20
 74
     0
 42
0.000000001
 43
0.00000001
 40
0.0
 40
0.0
 40
0.0
 40
0.0
 40
0.0083525421707128
 40
0.072997407035976
 40
0.135835015363005
 40
0.2004909228320991
 40
0.2633758873662216
 40
0.3280788684375094
 40
0.3910421713015191
 40
0.4558242340694282
 40
0.5188931550286835
 40
0.5837824768499692
 40
0.6469835465597193
 40
0.7120076080441894
 40
0.7753643493017773
 40
0.8405474382591512
 40
0.9040804836093909
 40
0.9694438943431248
 40
1.0
 40
1.0
 40
1.0
 40
1.0
 10
44.16796003121568
 20
-2.239010638891191
 30
0.0
 10
44.14069643053909
 20
-2.254334278107643
 30
0.0
 10
43.90242500189157
 20
-2.388255892185564
 30
0.0
 10
43.46256700914765
 20
-2.51898875080639
 30
0.0
 10
42.84289271336841
 20
-2.60474834159067
 30
0.0
 10
42.23279904236329
 20
-2.530996066495899
 30
0.0
 10
41.62041658670884
 20
-2.314446572855286
 30
0.0
 10
41.01692239542236
 20
-1.966053511676623
 30
0.0
 10
40.41111903627972
 20
-1.499304192098058
 30
0.0
 10
39.81385756040465
 20
-0.9465486779625455
 30
0.0
 10
39.21419670074947
 20
-0.3277436854414337
 30
0.0
 10
38.62278410162092
 20
0.3141226942617756
 30
0.0
 10
38.02888193067774
 20
0.9560694402265522
 30
0.0
 10
37.44295427388463
 20
1.553980557874455
 30
0.0
 10
36.85446641968093
 20
2.085900465395318
 30
0.0
 10
36.27366408909415
 20
2.517920199966916
 30
0.0
 10
35.69038908812968
 20
2.824593314768753
 30
0.0
 10
35.2132444832131
 20
2.987917623442579
 30
0.0
 10
34.92833089864497
 20
2.991408404128991
 30
0.0
 10
34.83756887313922
 20
2.99252042666093
 30
0.0
  0
SPLINE
  5
D1
330
1F
100
AcDbEntity
  8
0
  6
Continuous
 62
     1
370
    15
100
AcDbSpline
210
0.0
220
0.0
230
1.0
 70
     8
 71
     3
 72
    25
 73
    21
 74
     0
 42
0.000000001
 43
0.00000001
 40
0.0
 40
0.0
 40
0.0
 40
0.0
 40
0.0358955453939044
 40
0.0933384452325961
 40
0.1524312700537191
 40
0.2101459739552343
 40
0.2695179944936013
 40
0.3275133437709846
 40
0.3871737069883007
 40
0.4454582997568241
 40
0.5054158698892363
 40
0.5639972595212781
 40
0.624259839659211
 40
0.6831457714564909
 40
0.7437213523460403
 40
0.8029184331414788
 40
0.8638138365656048
 40
0.9233289778738145
 40
0.9845513330348407
 40
1.0
 40
1.0
 40
1.0
 40
1.0
 10
27.57191752600436
 20
-3.162854524971528
 30
0.0
 10
27.45831201573117
 20
-3.220268432442549
 30
0.0
 10
27.16290595399306
 20
-3.369560630102911
 30
0.0
 10
26.68379684946507
 20
-3.449692793116709
 30
0.0
 10
26.1383812556445
 20
-3.411601585341909
 30
0.0
 10
25.58999651642597
 20
-3.214229361159212
 30
0.0
 10
25.04768918335282
 20
-2.876055635016529
 30
0.0
 10
24.50226596621647
 20
-2.40329786733078
 30
0.0
 10
23.96284635600861
 20
-1.823680445792353
 30
0.0
 10
23.42026813479183
 20
-1.152061667989772
 30
0.0
 10
22.88359402447129
 20
-0.4274737267873144
 30
0.0
 10
22.34373514182612
 20
0.3310375744551231
 30
0.0
 10
21.80968984824316
 20
1.079290875236037
 30
0.0
 10
21.27243012532366
 20
1.797355191661657
 30
0.0
 10
20.74088979576994
 20
2.44353555843141
 30
0.0
 10
20.2061261075017
 20
2.999365925995658
 30
0.0
 10
19.6769534657993
 20
3.436210767747849
 30
0.0
 10
19.14471478223691
 20
3.726444963122609
 30
0.0
 10
18.746944031944
 20
3.865169050484492
 30
0.0
 10
18.52445913504962
 20
3.855042457844301
 30
0.0
 10
18.47963000689162
 20
3.85300202127711
 30
0.0
  0
SPLINE
  5
D2
330
1F
100
AcDbEntity
  8
0
  6
Continuous
 62
     1
370
    15
100
AcDbSpline
210
0.0
220
0.0
230
1.0
 70
     8
 71
     3
 72
    10
 73
     6
 74
     0
 42
0.000000001
 43
0.00000001
 40
0.0
 40
0.0
 40
0.0
 40
0.0
 40
0.1678479667853942
 40
0.6307800449696578
 40
1.0
 40
1.0
 40
1.0
 40
1.0
 10
10.99731868054899
 20
-4.07017577003772
 30
0.0
 10
10.93415143392011
 20
-4.105955577970677
 30
0.0
 10
10.69676614154941
 20
-4.240417670596515
 30
0.0
 10
10.32244231709722
 20
-4.309414789245401
 30
0.0
 10
10.01244970568785
 20
-4.274651642674326
 30
0.0
 10
9.874908182653702
 20
-4.259227481101227
 30
0.0
  0
ELLIPSE
  5
D3
330
1F
100
AcDbEntity
  8
0
  6
Continuous
 62
     1
370
    15
100
AcDbEllipse
 10
49.71501632745963
 20
-0.1227917103673937
 30
0.0
 11
3.110090176513687
 21
1.963717690948809
 31
0.0
210
0.0
220
0.0
230
1.0
 40
0.3352728068329054
 41
5.783168615334424
 42
6.054676727915091
  0
LINE
  5
D4
330
1F
100
AcDbEntity
  8
0
  6
Continuous
 62
     1
370
    15
100
AcDbLine
 10
52.76000672128603
 20
1.100590951619138
 30
0.0
 11
54.3249081826537
 21
0.0048351518140999
 31
0.0
  0
LINE
  5
D5
330
1F
100
AcDbEntity
  8
0
  6
Continuous
 62
     1
370
    15
100
AcDbLine
 10
54.3249081826537
 20
0.004835151814098
 30
0.0
 11
54.3249081826537
 21
-1.179221408242189
 31
0.0
  0
SPLINE
  5
D6
330
1F
100
AcDbEntity
  8
0
  6
Continuous
 62
     1
370
    15
100
AcDbSpline
210
0.0
220
0.0
230
1.0
 70
     8
 71
     3
 72
    15
 73
    11
 74
     0
 42
0.000000001
 43
0.00000001
 40
0.0
 40
0.0
 40
0.0
 40
0.0
 40
0.049870166496986
 40
0.2440818128047995
 40
0.3822849255961539
 40
0.5212517954469161
 40
0.640203010282976
 40
0.743048765961082
 40
0.8461200328479878
 40
1.0
 40
1.0
 40
1.0
 40
1.0
 10
52.86258876175523
 20
1.443077154043517
 30
0.0
 10
52.88128969302957
 20
1.408687112489413
 30
0.0
 10
52.97281850729277
 20
1.240370375759338
 30
0.0
 10
53.19172227263196
 20
1.047540055010276
 30
0.0
 10
53.50682100606908
 20
0.9365595879272763
 30
0.0
 10
53.79276663784766
 20
0.9672334382608548
 30
0.0
 10
54.02950917100363
 20
1.11673252998035
 30
0.0
 10
54.18974858625645
 20
1.33299500993719
 30
0.0
 10
54.30301813125754
 20
1.622210544110154
 30
0.0
 10
54.31670909655695
 20
1.843439644811117
 30
0.0
 10
54.3249081826537
 20
1.97592675613504
 30
0.0
  0
LINE
  5
D7
330
1F
100
AcDbEntity
  8
0
  6
Continuous
 62
     1
370
    15
100
AcDbLine
 10
54.3249081826537
 20
0.0048351518141029
 30
0.0
 11
54.3249081826537
 21
1.97592675613504
 31
0.0
  0
LINE
  5
D8
330
1F
100
AcDbEntity
  8
0
  6
Continuous
 62
     1
370
    15
100
AcDbLine
 10
54.3249081826537
 20
-1.179221408242189
 30
0.0
 11
54.3249081826537
 21
-1.713684008820638
 31
0.0
  0
LINE
  5
D9
330
1F
100
AcDbEntity
  8
0
  6
Continuous
 62
     8
370
    15
100
AcDbLine
 10
9.874908182653686
 20
4.318735940945279
 30
0.0
 11
9.874908182653686
 21
4.073761204196093
 31
0.0
  0
LINE
  5
DA
330
1F
100
AcDbEntity
  8
0
  6
Continuous
 62
     8
370
    15
100
AcDbLine
 10
9.874908182653687
 20
-4.259227481101228
 30
0.0
 11
9.874908182653687
 21
-4.309065637317088
 31
0.0
  0
LINE
  5
DB
102
{ACAD_REACTORS
102
}
330
1F
100
AcDbEntity
  8
중심선
100
AcDbLine
 10
-37.57509181734629
 20
0.0048351518140897
 30
0.0
 11
57.32490428620234
 21
0.0048351518140897
 31
0.0
  0
CIRCLE
  5
DC
330
1F
100
AcDbEntity
  8
외형선
100
AcDbCircle
 10
-0.0000000000000013
 20
-0.0000000000000039
 30
0.0
 40
3.000000000000004
  0
INSERT
  5
DD
330
1F
100
AcDbEntity
  8
0
  6
Continuous
 62
     7
100
AcDbBlockReference
 66
     1
  2
블럭10
 10
-16.63945112874702
 20
-52.04717430164393
 30
0.0
  0
ATTRIB
  5
DE
330
DD
100
AcDbEntity
  8
FORMAT
 62
     2
100
AcDbText
 10
-25.8207464174883
 20
-49.97180738881174
 30
0.0
 40
4.233333333333333
  1
E5077312 [ 3 FLUTE ]
 41
0.75
  7
SLDTEXTSTYLE0
 11
-25.8207464174883
 21
-52.08847405547841
 31
0.0
100
AcDbAttribute
  2
AUTOATTR0
 70
     0
 74
     1
  0
SEQEND
  5
DF
330
DD
100
AcDbEntity
  8
0
  6
Continuous
 62
     7
  0
HATCH
  5
E0
330
1F
100
AcDbEntity
  8
중심선
100
AcDbHatch
 10
0.0
 20
0.0
 30
0.0
210
0.0
220
0.0
230
1.0
  2
SOLID
 70
     1
 71
     0
 91
        1
 92
        0
 93
        4
 72
     1
 10
-10.92454182436617
 20
-35.8
 11
-14.37081706820345
 21
-35.8
 72
     1
 10
-14.37081706820345
 20
-35.8
 11
-16.49904692740747
 21
-38.33632558057259
 72
     1
 10
-16.49904692740747
 20
-38.33632558057259
 11
-13.05273859845704
 21
-38.3362861512701
 72
     1
 10
-13.05273859845704
 20
-38.3362861512701
 11
-10.92454182436617
 21
-35.8
 97
        0
 75
     0
 76
     1
 98
        1
 10
0.0
 20
0.0
  0
HATCH
  5
E1
330
1F
100
AcDbEntity
  8
중심선
100
AcDbHatch
 10
0.0
 20
0.0
 30
0.0
210
0.0
220
0.0
230
1.0
  2
SOLID
 70
     1
 71
     0
 91
        1
 92
        0
 93
        4
 72
     1
 10
-5.911777833330217
 20
-35.8
 11
-9.358053077167499
 21
-35.8
 72
     1
 10
-9.358053077167499
 20
-35.8
 11
-13.88919108552489
 21
-41.20000000000002
 72
     1
 10
-13.88919108552489
 20
-41.20000000000002
 11
-10.44291584168761
 21
-41.20000000000002
 72
     1
 10
-10.44291584168761
 20
-41.20000000000002
 11
-5.911777833330217
 21
-35.8
 97
        0
 75
     0
 76
     1
 98
        1
 10
0.0
 20
0.0
  0
HATCH
  5
E2
330
1F
100
AcDbEntity
  8
중심선
100
AcDbHatch
 10
0.0
 20
0.0
 30
0.0
210
0.0
220
0.0
230
1.0
  2
SOLID
 70
     1
 71
     0
 91
        1
 92
        0
 93
        4
 72
     1
 10
-0.8990138422943217
 20
-35.80000000000003
 11
-4.345289086131437
 21
-35.8
 72
     1
 10
-4.345289086131437
 20
-35.8
 11
-11.39372598802069
 21
-44.20000000000002
 72
     1
 10
-11.39372598802069
 20
-44.20000000000002
 11
-7.947450744183405
 21
-44.20000000000002
 72
     1
 10
-7.947450744183405
 20
-44.20000000000002
 11
-0.8990138422943215
 21
-35.80000000000003
 97
        0
 75
     0
 76
     1
 98
        1
 10
0.0
 20
0.0
  0
HATCH
  5
E3
330
1F
100
AcDbEntity
  8
중심선
100
AcDbHatch
 10
0.0
 20
0.0
 30
0.0
210
0.0
220
0.0
230
1.0
  2
SOLID
 70
     1
 71
     0
 91
        1
 92
        0
 93
        6
 72
     3
 10
3.900876588717877
 20
-40.00000000005127
 11
3.960054785062284
 21
1.540850780301639E-10
 40
0.3939339440162633
 50
17.09539180608433
 51
320.0019657685079
 73
     0
 72
     1
 10
5.583876244418473
 20
-38.5878940046383
 11
7.889178118119511
 21
-36.65356729459038
 72
     3
 10
3.900876588665031
 20
-40.00000000000015
 11
6.600054785286829
 21
-1.249000902703301E-13
 40
0.6363583540795982
 50
39.99873849337408
 51
368.4976242363725
 73
     1
 72
     1
 10
10.32620908056564
 20
-39.03999999993002
 11
2.580943895500953
 21
-39.03999999992999
 72
     1
 10
2.580943895500953
 20
-39.03999999992999
 11
2.58091885105502
 21
-40.95999999992991
 72
     1
 10
2.58091885105502
 20
-40.95999999992991
 11
7.022298620527057
 21
-40.95999999992988
 97
        0
 75
     0
 76
     1
 98
        1
 10
0.0
 20
0.0
  0
POINT
  5
E4
330
1F
100
AcDbEntity
  8
치수문자_일반주서
100
AcDbPoint
 10
-0.0000000000000013
 20
-0.0000000000000039
 30
0.0
  0
DIMENSION
  5
E5
330
1F
100
AcDbEntity
  8
치수문자_일반주서
100
AcDbDimension
  2
_D
 10
9.874908182653684
 20
30.80577237261103
 30
0.0
 11
32.09990818265369
 21
30.80577237261103
 31
0.0
 70
   160
  1
<>
 71
     2
 42
44.45000000000002
  3
SLDDIMSTYLE0
100
AcDbAlignedDimension
 13
54.3249081826537
 23
1.97592675613504
 33
0.0
 14
9.874908182653684
 24
4.31873594094528
 34
0.0
 50
0.0000000000000059
100
AcDbRotatedDimension
1001
ACAD
1000
DSTYLE
1002
{
1070
   171
1070
     6
1070
   273
1070
     7
1002
}
  0
DIMENSION
  5
FB
330
1F
100
AcDbEntity
  8
치수문자_일반주서
100
AcDbDimension
  2
_D_1
 10
-34.5750918173463
 20
43.97693315650731
 30
0.0
 11
13.25916706431774
 21
43.97693315650731
 31
0.0
 70
   160
  1
<>
 71
     2
 42
88.9
  3
SLDDIMSTYLE1
100
AcDbAlignedDimension
 13
54.3249081826537
 23
1.97592675613504
 33
0.0
 14
-34.5750918173463
 24
3.957335151814108
 34
0.0
 50
0.0000000000000046
100
AcDbRotatedDimension
1001
ACAD
1000
DSTYLE
1002
{
1070
   171
1070
     6
1070
   273
1070
     7
1002
}
  0
DIMENSION
  5
10F
330
1F
100
AcDbEntity
  8
치수문자_일반주서
100
AcDbDimension
  2
_D_2
 10
-47.57509181734631
 20
-4.757664848185954
 30
0.0
 11
-47.57509181734633
 21
-1.035359297548707
 31
0.0
 70
   160
  1
%%c<>
 71
     2
 42
9.524999999999995
  3
SLDDIMSTYLE0
100
AcDbAlignedDimension
 13
-33.76509181734631
 23
4.767335151814089
 33
0.0
 14
-33.76509181734631
 24
-4.757664848185907
 34
0.0
 50
90.0000000000002
100
AcDbRotatedDimension
1001
ACAD
1000
DSTYLE
1002
{
1070
   171
1070
     6
1070
   273
1070
     7
1002
}
  0
INSERT
  5
129
330
1F
100
AcDbEntity
  8
외형선
100
AcDbBlockReference
  2
SW_DOWELSYMBOL_0
 10
-0.0000000000000013
 20
-0.0000000000000039
 30
0.0
  0
DIMENSION
  5
151
102
{ACAD_REACTORS
102
}
102
{ACAD_XDICTIONARY
360
152
102
}
330
1F
100
AcDbEntity
  8
치수문자_일반주서
100
AcDbDimension
  2
*D6
 10
67.40102512456781
 20
-1.979539848185912
 30
0.0
 11
67.40102512456781
 21
23.0307101518141
 31
0.0
 70
   160
  1
{%%c<>[]}
 71
     5
 42
3.968750000000008
  3
SLDDIMSTYLE0
100
AcDbAlignedDimension
 13
54.3249081826537
 23
1.989210151814098
 33
0.0
 14
54.32490818265369
 24
-1.97953984818591
 34
0.0
 50
90.0
100
AcDbRotatedDimension
1001
ACAD
1000
DSTYLE
1002
{
1070
   283
1070
     1
1070
   170
1070
     1
1070
   171
1070
     6
1070
   273
1070
     7
1002
}
  0
DIMENSION
  5
165
102
{ACAD_REACTORS
102
}
102
{ACAD_XDICTIONARY
360
166
102
}
330
1F
100
AcDbEntity
  8
치수문자_일반주서
100
AcDbDimension
  2
*D7
 10
20.1294749951536
 20
3.781316866792585
 30
0.0
 11
22.80281372923725
 21
13.11583780550756
 31
0.0
 70
    34
  1
<>
 71
     5
 42
0.0523598775598298
  3
SLDDIMSTYLE0
100
AcDb2LineAngularDimension
 13
-37.57509181734629
 23
0.0048351518140897
 33
0.0
 14
57.32490428620234
 24
0.0048351518140897
 34
0.0
 15
23.9412320647273
 25
3.581551143609794
 35
0.0
 16
24.25912589016195
 26
1.190556192177477
 36
0.0
1001
ACAD
1000
DSTYLE
1002
{
1070
   171
1070
     6
1070
   273
1070
     7
1002
}
  0
ENDSEC
  0
SECTION
  2
OBJECTS
  0
DICTIONARY
  5
C
330
0
100
AcDbDictionary
281
     1
  3
ACAD_GROUP
350
D
  3
ACAD_IMAGE_VARS
350
14D
  3
ACAD_LAYOUT
350
1A
  3
ACAD_MLINESTYLE
350
17
  3
ACAD_PLOTSETTINGS
350
19
  3
ACAD_PLOTSTYLENAME
350
E
  3
ACAD_SCALELIST
350
47
  3
APPDATA
350
14B
  3
DWGPROPS
350
179
  0
DICTIONARY
  5
152
330
151
100
AcDbDictionary
280
     1
281
     1
  0
DICTIONARY
  5
166
330
165
100
AcDbDictionary
280
     1
281
     1
  0
DICTIONARY
  5
D
102
{ACAD_REACTORS
330
C
102
}
330
C
100
AcDbDictionary
281
     1
  0
RASTERVARIABLES
  5
14D
102
{ACAD_REACTORS
330
C
102
}
330
C
100
AcDbRasterVariables
 90
        0
 70
     1
 71
     1
 72
     1
  0
DICTIONARY
  5
1A
102
{ACAD_REACTORS
330
C
102
}
330
C
100
AcDbDictionary
281
     1
  3
Layout1
350
1E
  3
Layout2
350
26
  3
Model
350
22
  0
DICTIONARY
  5
17
102
{ACAD_REACTORS
330
C
102
}
330
C
100
AcDbDictionary
281
     1
  3
Standard
350
18
  0
DICTIONARY
  5
19
102
{ACAD_REACTORS
330
C
102
}
330
C
100
AcDbDictionary
281
     1
  0
ACDBDICTIONARYWDFLT
  5
E
102
{ACAD_REACTORS
330
C
102
}
330
C
100
AcDbDictionary
281
     1
  3
Normal
350
F
100
AcDbDictionaryWithDefault
340
F
  0
DICTIONARY
  5
47
102
{ACAD_REACTORS
330
C
102
}
330
C
100
AcDbDictionary
281
     1
  3
A0
350
48
  3
A1
350
49
  3
A2
350
4A
  3
A3
350
4B
  3
A4
350
4C
  3
A5
350
4D
  3
A6
350
4E
  3
A7
350
4F
  3
A8
350
50
  3
A9
350
51
  3
B0
350
52
  3
B1
350
53
  3
B2
350
54
  3
B3
350
55
  3
B4
350
56
  3
B5
350
57
  3
B6
350
58
  3
B7
350
59
  3
B8
350
5A
  3
B9
350
5B
  3
C0
350
5C
  3
C1
350
5D
  3
C2
350
5E
  3
C3
350
5F
  3
C4
350
60
  3
C5
350
61
  3
C6
350
62
  3
C7
350
63
  3
C8
350
64
  3
C9
350
65
  3
D0
350
66
  3
D1
350
67
  3
D2
350
68
  0
DICTIONARY
  5
14B
102
{ACAD_REACTORS
330
C
102
}
330
C
100
AcDbDictionary
281
     1
  0
XRECORD
  5
179
102
{ACAD_REACTORS
330
C
102
}
330
C
100
AcDbXrecord
280
     1
  1
DWGPROPS COOKIE
  2

  3

  4

  6

  7

  8
12015048
  9

300
=
301
=
302
=
303
=
304
=
305
=
306
=
307
=
308
=
309
=
 40
0.0
 41
2458333.348936435
 42
2458340.081899398
  1

 90
        0
  0
LAYOUT
  5
1E
102
{ACAD_REACTORS
330
1A
102
}
330
1A
100
AcDbPlotSettings
  1

  2
none_device
  4

  6

 40
0.0
 41
0.0
 42
0.0
 43
0.0
 44
0.0
 45
0.0
 46
0.0
 47
0.0
 48
0.0
 49
0.0
140
0.0
141
0.0
142
1.0
143
1.0
 70
   688
 72
     1
 73
     0
 74
     5
  7

 75
    16
147
1.0
148
0.0
149
0.0
100
AcDbLayout
  1
Layout1
 70
     1
 71
     1
 10
0.0
 20
0.0
 11
420.0
 21
297.0
 12
0.0
 22
0.0
 32
0.0
 14
1.000000000000000E+20
 24
1.000000000000000E+20
 34
1.000000000000000E+20
 15
-1.000000000000000E+20
 25
-1.000000000000000E+20
 35
-1.000000000000000E+20
146
0.0
 13
0.0
 23
0.0
 33
0.0
 16
1.0
 26
0.0
 36
0.0
 17
0.0
 27
1.0
 37
0.0
 76
     0
330
1B
  0
LAYOUT
  5
26
102
{ACAD_REACTORS
330
1A
102
}
330
1A
100
AcDbPlotSettings
  1

  2
none_device
  4

  6

 40
0.0
 41
0.0
 42
0.0
 43
0.0
 44
0.0
 45
0.0
 46
0.0
 47
0.0
 48
0.0
 49
0.0
140
0.0
141
0.0
142
1.0
143
1.0
 70
   688
 72
     1
 73
     0
 74
     5
  7

 75
    16
147
1.0
148
0.0
149
0.0
100
AcDbLayout
  1
Layout2
 70
     1
 71
     2
 10
0.0
 20
0.0
 11
0.0
 21
0.0
 12
0.0
 22
0.0
 32
0.0
 14
0.0
 24
0.0
 34
0.0
 15
0.0
 25
0.0
 35
0.0
146
0.0
 13
0.0
 23
0.0
 33
0.0
 16
1.0
 26
0.0
 36
0.0
 17
0.0
 27
1.0
 37
0.0
 76
     0
330
23
  0
LAYOUT
  5
22
102
{ACAD_REACTORS
330
1A
102
}
330
1A
100
AcDbPlotSettings
  1

  2
none_device
  4
ANSI_A_(11.00_x_8.50_Inches)
  6

 40
6.35
 41
19.05
 42
6.35000508
 43
19.05000254
 44
279.4
 45
215.9
 46
130.6698205506549
 47
104.377714125836
 48
0.0
 49
0.0
140
0.0
141
0.0
142
0.0914796403028641
143
1.0
 70
  1696
 72
     0
 73
     0
 74
     0
  7

 75
     0
147
0.0235690232323232
148
0.0
149
0.0
100
AcDbLayout
  1
Model
 70
     1
 71
     0
 10
0.0
 20
0.0
 11
420.0
 21
297.0
 12
0.0
 22
0.0
 32
0.0
 14
-51.95009181734636
 24
-49.97180738881174
 34
0.0
 15
67.95135845790114
 25
48.35193315650731
 35
0.0
146
0.0
 13
0.0
 23
0.0
 33
0.0
 16
1.0
 26
0.0
 36
0.0
 17
0.0
 27
1.0
 37
0.0
 76
     0
330
1F
331
29
  0
MLINESTYLE
  5
18
102
{ACAD_REACTORS
330
17
102
}
330
17
100
AcDbMlineStyle
  2
Standard
 70
     0
  3

 62
   256
 51
90.0
 52
90.0
 71
     2
 49
0.5
 62
   256
  6
BYLAYER
 49
-0.5
 62
   256
  6
BYLAYER
  0
ACDBPLACEHOLDER
  5
F
102
{ACAD_REACTORS
330
E
102
}
330
E
  0
SCALE
  5
48
102
{ACAD_REACTORS
330
47
102
}
330
47
100
AcDbScale
 70
     0
300
1:1
140
1.0
141
1.0
290
     1
  0
SCALE
  5
49
102
{ACAD_REACTORS
330
47
102
}
330
47
100
AcDbScale
 70
     0
300
1:2
140
1.0
141
2.0
290
     0
  0
SCALE
  5
4A
102
{ACAD_REACTORS
330
47
102
}
330
47
100
AcDbScale
 70
     0
300
1:4
140
1.0
141
4.0
290
     0
  0
SCALE
  5
4B
102
{ACAD_REACTORS
330
47
102
}
330
47
100
AcDbScale
 70
     0
300
1:5
140
1.0
141
5.0
290
     0
  0
SCALE
  5
4C
102
{ACAD_REACTORS
330
47
102
}
330
47
100
AcDbScale
 70
     0
300
1:8
140
1.0
141
8.0
290
     0
  0
SCALE
  5
4D
102
{ACAD_REACTORS
330
47
102
}
330
47
100
AcDbScale
 70
     0
300
1:10
140
1.0
141
10.0
290
     0
  0
SCALE
  5
4E
102
{ACAD_REACTORS
330
47
102
}
330
47
100
AcDbScale
 70
     0
300
1:16
140
1.0
141
16.0
290
     0
  0
SCALE
  5
4F
102
{ACAD_REACTORS
330
47
102
}
330
47
100
AcDbScale
 70
     0
300
1:20
140
1.0
141
20.0
290
     0
  0
SCALE
  5
50
102
{ACAD_REACTORS
330
47
102
}
330
47
100
AcDbScale
 70
     0
300
1:30
140
1.0
141
30.0
290
     0
  0
SCALE
  5
51
102
{ACAD_REACTORS
330
47
102
}
330
47
100
AcDbScale
 70
     0
300
1:40
140
1.0
141
40.0
290
     0
  0
SCALE
  5
52
102
{ACAD_REACTORS
330
47
102
}
330
47
100
AcDbScale
 70
     0
300
1:50
140
1.0
141
50.0
290
     0
  0
SCALE
  5
53
102
{ACAD_REACTORS
330
47
102
}
330
47
100
AcDbScale
 70
     0
300
1:100
140
1.0
141
100.0
290
     0
  0
SCALE
  5
54
102
{ACAD_REACTORS
330
47
102
}
330
47
100
AcDbScale
 70
     0
300
2:1
140
2.0
141
1.0
290
     0
  0
SCALE
  5
55
102
{ACAD_REACTORS
330
47
102
}
330
47
100
AcDbScale
 70
     0
300
4:1
140
4.0
141
1.0
290
     0
  0
SCALE
  5
56
102
{ACAD_REACTORS
330
47
102
}
330
47
100
AcDbScale
 70
     0
300
8:1
140
8.0
141
1.0
290
     0
  0
SCALE
  5
57
102
{ACAD_REACTORS
330
47
102
}
330
47
100
AcDbScale
 70
     0
300
10:1
140
10.0
141
1.0
290
     0
  0
SCALE
  5
58
102
{ACAD_REACTORS
330
47
102
}
330
47
100
AcDbScale
 70
     0
300
100:1
140
100.0
141
1.0
290
     0
  0
SCALE
  5
59
102
{ACAD_REACTORS
330
47
102
}
330
47
100
AcDbScale
 70
     0
300
1/128" = 1'-0"
140
0.0078125
141
12.0
290
     0
  0
SCALE
  5
5A
102
{ACAD_REACTORS
330
47
102
}
330
47
100
AcDbScale
 70
     0
300
1/64" = 1'-0"
140
0.015625
141
12.0
290
     0
  0
SCALE
  5
5B
102
{ACAD_REACTORS
330
47
102
}
330
47
100
AcDbScale
 70
     0
300
1/32" = 1'-0"
140
0.03125
141
12.0
290
     0
  0
SCALE
  5
5C
102
{ACAD_REACTORS
330
47
102
}
330
47
100
AcDbScale
 70
     0
300
1/16" = 1'-0"
140
0.0625
141
12.0
290
     0
  0
SCALE
  5
5D
102
{ACAD_REACTORS
330
47
102
}
330
47
100
AcDbScale
 70
     0
300
3/32" = 1'-0"
140
0.09375
141
12.0
290
     0
  0
SCALE
  5
5E
102
{ACAD_REACTORS
330
47
102
}
330
47
100
AcDbScale
 70
     0
300
1/8" = 1'-0"
140
0.125
141
12.0
290
     0
  0
SCALE
  5
5F
102
{ACAD_REACTORS
330
47
102
}
330
47
100
AcDbScale
 70
     0
300
3/16" = 1'-0"
140
0.1875
141
12.0
290
     0
  0
SCALE
  5
60
102
{ACAD_REACTORS
330
47
102
}
330
47
100
AcDbScale
 70
     0
300
1/4" = 1'-0"
140
0.25
141
12.0
290
     0
  0
SCALE
  5
61
102
{ACAD_REACTORS
330
47
102
}
330
47
100
AcDbScale
 70
     0
300
3/8" = 1'-0"
140
0.375
141
12.0
290
     0
  0
SCALE
  5
62
102
{ACAD_REACTORS
330
47
102
}
330
47
100
AcDbScale
 70
     0
300
1/2" = 1'-0"
140
0.5
141
12.0
290
     0
  0
SCALE
  5
63
102
{ACAD_REACTORS
330
47
102
}
330
47
100
AcDbScale
 70
     0
300
3/4" = 1'-0"
140
0.75
141
12.0
290
     0
  0
SCALE
  5
64
102
{ACAD_REACTORS
330
47
102
}
330
47
100
AcDbScale
 70
     0
300
1" = 1'-0"
140
1.0
141
12.0
290
     0
  0
SCALE
  5
65
102
{ACAD_REACTORS
330
47
102
}
330
47
100
AcDbScale
 70
     0
300
1-1/2" = 1'-0"
140
1.5
141
12.0
290
     0
  0
SCALE
  5
66
102
{ACAD_REACTORS
330
47
102
}
330
47
100
AcDbScale
 70
     0
300
3" = 1'-0"
140
3.0
141
12.0
290
     0
  0
SCALE
  5
67
102
{ACAD_REACTORS
330
47
102
}
330
47
100
AcDbScale
 70
     0
300
6" = 1'-0"
140
6.0
141
12.0
290
     0
  0
SCALE
  5
68
102
{ACAD_REACTORS
330
47
102
}
330
47
100
AcDbScale
 70
     0
300
1'-0" = 1'-0"
140
12.0
141
12.0
290
     0
  0
ENDSEC
  0
EOF
