  0
SECTION
  2
HEADER
  9
$ACADVER
  1
AC1015
  9
$ACADMAINTVER
 70
     6
  9
$DWGCODEPAGE
  3
ANSI_949
  9
$INSBASE
 10
0.0
 20
0.0
 30
0.0
  9
$EXTMIN
 10
-58.30009181734641
 20
-49.97180738881174
 30
0.0
  9
$EXTMAX
 10
83.47294483256286
 20
85.39342037401389
 30
0.0
  9
$LIMMIN
 10
0.0
 20
0.0
  9
$LIMMAX
 10
420.0
 20
297.0
  9
$ORTHOMODE
 70
     1
  9
$REGENMODE
 70
     1
  9
$FILLMODE
 70
     1
  9
$QTEXTMODE
 70
     0
  9
$MIRRTEXT
 70
     1
  9
$LTSCALE
 40
1.0
  9
$ATTMODE
 70
     1
  9
$TEXTSIZE
 40
3.5
  9
$TRACEWID
 40
1.0
  9
$TEXTSTYLE
  7
Standard
  9
$CLAYER
  8
0
  9
$CELTYPE
  6
ByLayer
  9
$CECOLOR
 62
   256
  9
$CELTSCALE
 40
1.0
  9
$DISPSILH
 70
     0
  9
$DIMSCALE
 40
1.0
  9
$DIMASZ
 40
3.302
  9
$DIMEXO
 40
1.0
  9
$DIMDLI
 40
3.75
  9
$DIMRND
 40
0.0
  9
$DIMDLE
 40
0.0
  9
$DIMEXE
 40
1.0
  9
$DIMTP
 40
0.0
  9
$DIMTM
 40
0.0
  9
$DIMTXT
 40
3.5
  9
$DIMCEN
 40
2.5
  9
$DIMTSZ
 40
0.0
  9
$DIMTOL
 70
     0
  9
$DIMLIM
 70
     0
  9
$DIMTIH
 70
     1
  9
$DIMTOH
 70
     1
  9
$DIMSE1
 70
     0
  9
$DIMSE2
 70
     0
  9
$DIMTAD
 70
     1
  9
$DIMZIN
 70
     0
  9
$DIMBLK
  1

  9
$DIMASO
 70
     1
  9
$DIMSHO
 70
     1
  9
$DIMPOST
  1

  9
$DIMAPOST
  1

  9
$DIMALT
 70
     0
  9
$DIMALTD
 70
     3
  9
$DIMALTF
 40
0.0393700787401575
  9
$DIMLFAC
 40
1.0
  9
$DIMTOFL
 70
     1
  9
$DIMTVP
 40
0.0
  9
$DIMTIX
 70
     0
  9
$DIMSOXD
 70
     0
  9
$DIMSAH
 70
     0
  9
$DIMBLK1
  1

  9
$DIMBLK2
  1

  9
$DIMSTYLE
  2
ISO-25
  9
$DIMCLRD
 70
     0
  9
$DIMCLRE
 70
     0
  9
$DIMCLRT
 70
     0
  9
$DIMTFAC
 40
1.0
  9
$DIMGAP
 40
1.524
  9
$DIMJUST
 70
     0
  9
$DIMSD1
 70
     0
  9
$DIMSD2
 70
     0
  9
$DIMTOLJ
 70
     0
  9
$DIMTZIN
 70
     0
  9
$DIMALTZ
 70
     0
  9
$DIMALTTZ
 70
     0
  9
$DIMUPT
 70
     0
  9
$DIMDEC
 70
     2
  9
$DIMTDEC
 70
     2
  9
$DIMALTU
 70
     2
  9
$DIMALTTD
 70
     3
  9
$DIMTXSTY
  7
Standard
  9
$DIMAUNIT
 70
     0
  9
$DIMADEC
 70
     2
  9
$DIMALTRND
 40
0.0
  9
$DIMAZIN
 70
     0
  9
$DIMDSEP
 70
    44
  9
$DIMATFIT
 70
     3
  9
$DIMFRAC
 70
     0
  9
$DIMLDRBLK
  1

  9
$DIMLUNIT
 70
     2
  9
$DIMLWD
 70
    -2
  9
$DIMLWE
 70
    -2
  9
$DIMTMOVE
 70
     0
  9
$LUNITS
 70
     2
  9
$LUPREC
 70
     2
  9
$SKETCHINC
 40
1.0
  9
$FILLETRAD
 40
10.0
  9
$AUNITS
 70
     0
  9
$AUPREC
 70
     2
  9
$MENU
  1
.
  9
$ELEVATION
 40
0.0
  9
$PELEVATION
 40
0.0
  9
$THICKNESS
 40
0.0
  9
$LIMCHECK
 70
     0
  9
$CHAMFERA
 40
0.0
  9
$CHAMFERB
 40
0.0
  9
$CHAMFERC
 40
0.0
  9
$CHAMFERD
 40
0.0
  9
$SKPOLY
 70
     0
  9
$TDCREATE
 40
2458333.724064305
  9
$TDUCREATE
 40
2458333.349064305
  9
$TDUPDATE
 40
2458340.458092095
  9
$TDUUPDATE
 40
2458340.083092095
  9
$TDINDWG
 40
0.0011757986
  9
$TDUSRTIMER
 40
2458340.081916377
  9
$USRTIMER
 70
     1
  9
$ANGBASE
 50
0.0
  9
$ANGDIR
 70
     0
  9
$PDMODE
 70
     0
  9
$PDSIZE
 40
-1.0
  9
$PLINEWID
 40
0.0
  9
$SPLFRAME
 70
     0
  9
$SPLINETYPE
 70
     6
  9
$SPLINESEGS
 70
     8
  9
$HANDSEED
  5
176
  9
$SURFTAB1
 70
     6
  9
$SURFTAB2
 70
     6
  9
$SURFTYPE
 70
     6
  9
$SURFU
 70
     6
  9
$SURFV
 70
     6
  9
$UCSBASE
  2

  9
$UCSNAME
  2

  9
$UCSORG
 10
0.0
 20
0.0
 30
0.0
  9
$UCSXDIR
 10
1.0
 20
0.0
 30
0.0
  9
$UCSYDIR
 10
0.0
 20
1.0
 30
0.0
  9
$UCSORTHOREF
  2

  9
$UCSORTHOVIEW
 70
     0
  9
$UCSORGTOP
 10
0.0
 20
0.0
 30
0.0
  9
$UCSORGBOTTOM
 10
0.0
 20
0.0
 30
0.0
  9
$UCSORGLEFT
 10
0.0
 20
0.0
 30
0.0
  9
$UCSORGRIGHT
 10
0.0
 20
0.0
 30
0.0
  9
$UCSORGFRONT
 10
0.0
 20
0.0
 30
0.0
  9
$UCSORGBACK
 10
0.0
 20
0.0
 30
0.0
  9
$PUCSBASE
  2

  9
$PUCSNAME
  2

  9
$PUCSORG
 10
0.0
 20
0.0
 30
0.0
  9
$PUCSXDIR
 10
1.0
 20
0.0
 30
0.0
  9
$PUCSYDIR
 10
0.0
 20
1.0
 30
0.0
  9
$PUCSORTHOREF
  2

  9
$PUCSORTHOVIEW
 70
     0
  9
$PUCSORGTOP
 10
0.0
 20
0.0
 30
0.0
  9
$PUCSORGBOTTOM
 10
0.0
 20
0.0
 30
0.0
  9
$PUCSORGLEFT
 10
0.0
 20
0.0
 30
0.0
  9
$PUCSORGRIGHT
 10
0.0
 20
0.0
 30
0.0
  9
$PUCSORGFRONT
 10
0.0
 20
0.0
 30
0.0
  9
$PUCSORGBACK
 10
0.0
 20
0.0
 30
0.0
  9
$USERI1
 70
     0
  9
$USERI2
 70
     0
  9
$USERI3
 70
     0
  9
$USERI4
 70
     0
  9
$USERI5
 70
     0
  9
$USERR1
 40
0.0
  9
$USERR2
 40
0.0
  9
$USERR3
 40
0.0
  9
$USERR4
 40
0.0
  9
$USERR5
 40
0.0
  9
$WORLDVIEW
 70
     1
  9
$SHADEDGE
 70
     3
  9
$SHADEDIF
 70
    70
  9
$TILEMODE
 70
     1
  9
$MAXACTVP
 70
    64
  9
$PINSBASE
 10
0.0
 20
0.0
 30
0.0
  9
$PLIMCHECK
 70
     0
  9
$PEXTMIN
 10
1.000000000000000E+20
 20
1.000000000000000E+20
 30
1.000000000000000E+20
  9
$PEXTMAX
 10
-1.000000000000000E+20
 20
-1.000000000000000E+20
 30
-1.000000000000000E+20
  9
$PLIMMIN
 10
0.0
 20
0.0
  9
$PLIMMAX
 10
0.0
 20
0.0
  9
$UNITMODE
 70
     0
  9
$VISRETAIN
 70
     1
  9
$PLINEGEN
 70
     0
  9
$PSLTSCALE
 70
     1
  9
$TREEDEPTH
 70
  3020
  9
$CMLSTYLE
  2
Standard
  9
$CMLJUST
 70
     0
  9
$CMLSCALE
 40
20.0
  9
$PROXYGRAPHICS
 70
     1
  9
$MEASUREMENT
 70
     1
  9
$CELWEIGHT
370
    -1
  9
$ENDCAPS
280
     0
  9
$JOINSTYLE
280
     0
  9
$LWDISPLAY
290
     1
  9
$INSUNITS
 70
     4
  9
$HYPERLINKBASE
  1

  9
$STYLESHEET
  1

  9
$XEDIT
290
     1
  9
$CEPSNTYPE
380
     0
  9
$PSTYLEMODE
290
     1
  9
$FINGERPRINTGUID
  2
{15FDCD8A-7F11-4882-88E0-0590EE837330}
  9
$VERSIONGUID
  2
{FAEB1C32-E019-11D5-929B-00C0DF256EC4}
  9
$EXTNAMES
290
     1
  9
$PSVPSCALE
 40
0.0
  9
$OLESTARTUP
290
     0
  0
ENDSEC
  0
SECTION
  2
CLASSES
  0
CLASS
  1
ACDBDICTIONARYWDFLT
  2
AcDbDictionaryWithDefault
  3
ObjectDBX Classes
 90
        0
280
     0
281
     0
  0
CLASS
  1
VISUALSTYLE
  2
AcDbVisualStyle
  3
ObjectDBX Classes
 90
     4095
280
     0
281
     0
  0
CLASS
  1
MATERIAL
  2
AcDbMaterial
  3
ObjectDBX Classes
 90
     1153
280
     0
281
     0
  0
CLASS
  1
SCALE
  2
AcDbScale
  3
ObjectDBX Classes
 90
     1153
280
     0
281
     0
  0
CLASS
  1
SUN
  2
AcDbSun
  3
SCENEOE
 90
     1153
280
     0
281
     0
  0
CLASS
  1
ACDBPLACEHOLDER
  2
AcDbPlaceHolder
  3
ObjectDBX Classes
 90
        0
280
     0
281
     0
  0
CLASS
  1
LAYOUT
  2
AcDbLayout
  3
ObjectDBX Classes
 90
        0
280
     0
281
     0
  0
CLASS
  1
TABLESTYLE
  2
AcDbTableStyle
  3
ObjectDBX Classes
 90
     4095
280
     0
281
     0
  0
CLASS
  1
MLEADERSTYLE
  2
AcDbMLeaderStyle
  3
ACDB_MLEADERSTYLE_CLASS
 90
     4095
280
     0
281
     0
  0
CLASS
  1
RASTERVARIABLES
  2
AcDbRasterVariables
  3
ISM
 90
        0
280
     0
281
     0
  0
CLASS
  1
DIMASSOC
  2
AcDbDimAssoc
  3
"AcDbDimAssoc|Product Desc:     AcDim ARX App For Dimension|Company:          Autodesk, Inc.|WEB Address:      www.autodesk.com"
 90
        0
280
     0
281
     0
  0
ENDSEC
  0
SECTION
  2
TABLES
  0
TABLE
  2
VPORT
  5
8
330
0
100
AcDbSymbolTable
 70
     1
  0
VPORT
  5
29
330
8
100
AcDbSymbolTableRecord
100
AcDbViewportTableRecord
  2
*Active
 70
     0
 10
0.0
 20
0.0
 11
1.0
 21
1.0
 12
10.42969590147879
 22
17.43803944554835
 13
0.0
 23
0.0
 14
10.0
 24
10.0
 15
10.0
 25
10.0
 16
0.0
 26
0.0
 36
1.0
 17
0.0
 27
0.0
 37
0.0
 40
145.3783425992768
 41
1.444267515923567
 42
50.0
 43
0.0
 44
0.0
 50
0.0
 51
0.0
 71
    16
 72
  2000
 73
     1
 74
     3
 75
     0
 76
     0
 77
     0
 78
     0
281
     0
 65
     1
110
0.0
120
0.0
130
0.0
111
1.0
121
0.0
131
0.0
112
0.0
122
1.0
132
0.0
 79
     0
146
0.0
  0
ENDTAB
  0
TABLE
  2
LTYPE
  5
5
330
0
100
AcDbSymbolTable
 70
     6
  0
LTYPE
  5
14
330
5
100
AcDbSymbolTableRecord
100
AcDbLinetypeTableRecord
  2
ByBlock
 70
     0
  3

 72
    65
 73
     0
 40
0.0
  0
LTYPE
  5
15
330
5
100
AcDbSymbolTableRecord
100
AcDbLinetypeTableRecord
  2
ByLayer
 70
     0
  3

 72
    65
 73
     0
 40
0.0
  0
LTYPE
  5
16
330
5
100
AcDbSymbolTableRecord
100
AcDbLinetypeTableRecord
  2
Continuous
 70
     0
  3
Solid line
 72
    65
 73
     0
 40
0.0
  0
LTYPE
  5
6A
330
5
100
AcDbSymbolTableRecord
100
AcDbLinetypeTableRecord
  2
HIDDEN
 70
     0
  3
Hidden __ __ __ __ __ __ __ __ __ __ __ __ __ __
 72
    65
 73
     2
 40
1.905
 49
1.27
 74
     0
 49
-0.635
 74
     0
  0
LTYPE
  5
6B
330
5
100
AcDbSymbolTableRecord
100
AcDbLinetypeTableRecord
  2
PHANTOM
 70
     0
  3
Phantom ______  __  __  ______  __  __  ______
 72
    65
 73
     6
 40
12.7
 49
6.35
 74
     0
 49
-1.27
 74
     0
 49
1.27
 74
     0
 49
-1.27
 74
     0
 49
1.27
 74
     0
 49
-1.27
 74
     0
  0
LTYPE
  5
6C
330
5
100
AcDbSymbolTableRecord
100
AcDbLinetypeTableRecord
  2
CENTER
 70
     0
  3
Center ____ _ ____ _ ____ _ ____ _ ____ _ ____
 72
    65
 73
     4
 40
10.16
 49
6.35
 74
     0
 49
-1.27
 74
     0
 49
1.27
 74
     0
 49
-1.27
 74
     0
  0
LTYPE
  5
6D
330
5
100
AcDbSymbolTableRecord
100
AcDbLinetypeTableRecord
  2
CENTERX2
 70
     0
  3
Center (2x) ________  __  ________  __  _____
 72
    65
 73
     4
 40
20.32
 49
12.7
 74
     0
 49
-2.54
 74
     0
 49
2.54
 74
     0
 49
-2.54
 74
     0
  0
LTYPE
  5
6E
330
5
100
AcDbSymbolTableRecord
100
AcDbLinetypeTableRecord
  2
DOT2
 70
     0
  3
Dot (.5x) ........................................
 72
    65
 73
     2
 40
0.635
 49
0.0
 74
     0
 49
-0.635
 74
     0
  0
ENDTAB
  0
TABLE
  2
LAYER
  5
2
330
0
100
AcDbSymbolTable
 70
    17
  0
LAYER
  5
10
330
2
100
AcDbSymbolTableRecord
100
AcDbLayerTableRecord
  2
0
 70
     0
 62
     7
  6
Continuous
370
    -3
390
F
  0
LAYER
  5
6F
330
2
100
AcDbSymbolTableRecord
100
AcDbLayerTableRecord
  2
FORMAT
 70
     0
 62
     2
  6
Continuous
370
    -3
390
F
  0
LAYER
  5
70
330
2
100
AcDbSymbolTableRecord
100
AcDbLayerTableRecord
  2
외형선
 70
     0
 62
   100
  6
Continuous
370
    30
390
F
  0
LAYER
  5
71
330
2
100
AcDbSymbolTableRecord
100
AcDbLayerTableRecord
  2
숨은선
 70
     0
 62
     2
  6
HIDDEN
370
    15
390
F
  0
LAYER
  5
72
330
2
100
AcDbSymbolTableRecord
100
AcDbLayerTableRecord
  2
중심선
 70
     0
 62
     1
  6
CENTERX2
370
    -3
390
F
  0
LAYER
  5
73
330
2
100
AcDbSymbolTableRecord
100
AcDbLayerTableRecord
  2
파단선
 70
     0
 62
     4
  6
Continuous
370
    -3
390
F
  0
LAYER
  5
74
330
2
100
AcDbSymbolTableRecord
100
AcDbLayerTableRecord
  2
해칭선
 70
     0
 62
     4
  6
Continuous
370
    -3
390
F
  0
LAYER
  5
75
330
2
100
AcDbSymbolTableRecord
100
AcDbLayerTableRecord
  2
가는실선
 70
     0
 62
     4
  6
Continuous
370
    -3
390
F
  0
LAYER
  5
76
330
2
100
AcDbSymbolTableRecord
100
AcDbLayerTableRecord
  2
치수_보조선
 70
     0
 62
     4
  6
Continuous
370
    -3
390
F
  0
LAYER
  5
77
330
2
100
AcDbSymbolTableRecord
100
AcDbLayerTableRecord
  2
치수문자_일반주서
 70
     0
 62
     7
  6
Continuous
370
    15
390
F
  0
LAYER
  5
78
330
2
100
AcDbSymbolTableRecord
100
AcDbLayerTableRecord
  2
개별주서
 70
     0
 62
   100
  6
Continuous
370
    30
390
F
  0
LAYER
  5
79
330
2
100
AcDbSymbolTableRecord
100
AcDbLayerTableRecord
  2
중간선
 70
     0
 62
     2
  6
Continuous
370
    15
390
F
  0
LAYER
  5
7A
330
2
100
AcDbSymbolTableRecord
100
AcDbLayerTableRecord
  2
윤곽선
 70
     0
 62
     3
  6
Continuous
370
    40
390
F
  0
LAYER
  5
7B
330
2
100
AcDbSymbolTableRecord
100
AcDbLayerTableRecord
  2
중심마크
 70
     0
 62
   100
  6
Continuous
370
    30
390
F
  0
LAYER
  5
7C
330
2
100
AcDbSymbolTableRecord
100
AcDbLayerTableRecord
  2
가상선
 70
     0
 62
     4
  6
PHANTOM
370
    -3
390
F
  0
LAYER
  5
7D
330
2
100
AcDbSymbolTableRecord
100
AcDbLayerTableRecord
  2
특수지정선
 70
     0
 62
     5
  6
CENTERX2
370
    60
390
F
  0
LAYER
  5
14B
330
2
100
AcDbSymbolTableRecord
100
AcDbLayerTableRecord
  2
Defpoints
 70
     0
 62
     7
  6
Continuous
290
     0
370
    -3
390
F
  0
ENDTAB
  0
TABLE
  2
STYLE
  5
3
330
0
100
AcDbSymbolTable
 70
     2
  0
STYLE
  5
11
330
3
100
AcDbSymbolTableRecord
100
AcDbTextStyleTableRecord
  2
Standard
 70
     0
 40
0.0
 41
1.0
 50
0.0
 71
     0
 42
3.5
  3
txt
  4

  0
STYLE
  5
93
330
3
100
AcDbSymbolTableRecord
100
AcDbTextStyleTableRecord
  2
SLDTEXTSTYLE0
 70
     0
 40
0.0
 41
0.75
 50
0.0
 71
     0
 42
3.5
  3
TXT
  4

  0
ENDTAB
  0
TABLE
  2
VIEW
  5
6
330
0
100
AcDbSymbolTable
 70
     0
  0
ENDTAB
  0
TABLE
  2
UCS
  5
7
330
0
100
AcDbSymbolTable
 70
     0
  0
ENDTAB
  0
TABLE
  2
APPID
  5
9
330
0
100
AcDbSymbolTable
 70
     2
  0
APPID
  5
12
330
9
100
AcDbSymbolTableRecord
100
AcDbRegAppTableRecord
  2
ACAD
 70
     0
  0
APPID
  5
161
330
9
100
AcDbSymbolTableRecord
100
AcDbRegAppTableRecord
  2
PE_DIMMEASUREMENT
 70
     0
  0
ENDTAB
  0
TABLE
  2
DIMSTYLE
  5
A
330
0
100
AcDbSymbolTable
 70
     3
100
AcDbDimStyleTable
  0
DIMSTYLE
105
27
330
A
100
AcDbSymbolTableRecord
100
AcDbDimStyleTableRecord
  2
ISO-25
 70
     0
 41
2.5
 42
0.625
 43
3.75
 44
1.25
 73
     0
 74
     0
 77
     1
 78
     8
140
2.5
141
2.5
143
0.03937007874016
147
0.625
171
     3
172
     1
178
     0
271
     2
272
     2
274
     3
278
    44
283
     0
284
     8
340
11
  0
DIMSTYLE
105
E3
102
{ACAD_REACTORS
330
E2
330
10C
330
14E
330
162
102
}
330
A
100
AcDbSymbolTableRecord
100
AcDbDimStyleTableRecord
  2
SLDDIMSTYLE0
 70
     0
 41
3.302
 44
0.0
 45
0.000000001
 73
     0
 74
     0
 77
     1
 78
     4
 79
     1
140
3.5
143
0.0393700787401575
147
0.875
148
0.000000001
170
     1
172
     1
173
     1
178
     0
271
     2
272
     2
276
     2
284
    12
289
     0
340
93
  0
DIMSTYLE
105
F9
102
{ACAD_REACTORS
330
F8
102
}
330
A
100
AcDbSymbolTableRecord
100
AcDbDimStyleTableRecord
  2
SLDDIMSTYLE1
 70
     0
 41
3.302
 44
0.0
 45
0.000000001
 73
     0
 74
     0
 77
     1
 78
     4
 79
     1
140
3.5
143
0.0393700787401575
147
0.875
148
0.000000001
170
     1
173
     1
178
     0
271
     2
272
     2
276
     2
284
    12
340
93
  0
ENDTAB
  0
TABLE
  2
BLOCK_RECORD
  5
1
330
0
100
AcDbSymbolTable
 70
     8
  0
BLOCK_RECORD
  5
1F
330
1
100
AcDbSymbolTableRecord
100
AcDbBlockTableRecord
  2
*Model_Space
340
22
  0
BLOCK_RECORD
  5
1B
330
1
100
AcDbSymbolTableRecord
100
AcDbBlockTableRecord
  2
*Paper_Space
340
1E
  0
BLOCK_RECORD
  5
23
330
1
100
AcDbSymbolTableRecord
100
AcDbBlockTableRecord
  2
*Paper_Space0
340
26
  0
BLOCK_RECORD
  5
7E
330
1
100
AcDbSymbolTableRecord
100
AcDbBlockTableRecord
  2
블럭10
340
0
102
{BLKREFS
331
DA
102
}
  0
BLOCK_RECORD
  5
E4
330
1
100
AcDbSymbolTableRecord
100
AcDbBlockTableRecord
  2
_D
340
0
  0
BLOCK_RECORD
  5
FA
330
1
100
AcDbSymbolTableRecord
100
AcDbBlockTableRecord
  2
_D_1
340
0
  0
BLOCK_RECORD
  5
10D
330
1
100
AcDbSymbolTableRecord
100
AcDbBlockTableRecord
  2
_D_2
340
0
  0
BLOCK_RECORD
  5
120
330
1
100
AcDbSymbolTableRecord
100
AcDbBlockTableRecord
  2
SW_DOWELSYMBOL_0
340
0
102
{BLKREFS
331
126
102
}
  0
BLOCK_RECORD
  5
151
330
1
100
AcDbSymbolTableRecord
100
AcDbBlockTableRecord
  2
*D6
340
0
  0
BLOCK_RECORD
  5
165
330
1
100
AcDbSymbolTableRecord
100
AcDbBlockTableRecord
  2
*D7
340
0
  0
ENDTAB
  0
ENDSEC
  0
SECTION
  2
BLOCKS
  0
BLOCK
  5
20
330
1F
100
AcDbEntity
  8
0
100
AcDbBlockBegin
  2
*Model_Space
 70
     0
 10
0.0
 20
0.0
 30
0.0
  3
*Model_Space
  1
*Model_Space
  0
ENDBLK
  5
21
330
1F
100
AcDbEntity
  8
0
100
AcDbBlockEnd
  0
BLOCK
  5
1C
330
1B
100
AcDbEntity
 67
     1
  8
0
100
AcDbBlockBegin
  2
*Paper_Space
 70
     0
 10
0.0
 20
0.0
 30
0.0
  3
*Paper_Space
  1
*Paper_Space
  0
ENDBLK
  5
1D
330
1B
100
AcDbEntity
 67
     1
  8
0
100
AcDbBlockEnd
  0
BLOCK
  5
24
330
23
100
AcDbEntity
  8
0
100
AcDbBlockBegin
  2
*Paper_Space0
 70
     0
 10
0.0
 20
0.0
 30
0.0
  3
*Paper_Space0
  1
*Paper_Space0
  0
ENDBLK
  5
25
330
23
100
AcDbEntity
  8
0
100
AcDbBlockEnd
  0
BLOCK
  5
7F
330
7E
100
AcDbEntity
  8
0
100
AcDbBlockBegin
  2
블럭10
 70
     2
 10
0.0
 20
0.0
 30
0.0
  3
블럭10
  1
블럭10
  0
ELLIPSE
  5
81
330
7E
100
AcDbEntity
  8
중심선
100
AcDbEllipse
 10
20.54032771741204
 20
12.0471743016438
 30
0.0
 11
6.600054785286829
 21
-1.261213355974178E-13
 31
0.0
210
0.0
220
0.0
230
1.0
 40
0.636358354079598
 41
0.9219305317359503
 42
6.513795318482858
  0
ELLIPSE
  5
82
330
7E
100
AcDbEntity
  8
중심선
100
AcDbEllipse
 10
20.54032771746488
 20
12.04717430159265
 30
0.0
 11
3.960054785062283
 21
1.540847449632565E-10
 31
0.0
210
0.0
220
0.0
230
1.0
 40
0.3939339440162632
 41
1.131841032648279
 42
5.62031148352944
  0
LINE
  5
83
330
7E
100
AcDbEntity
  8
중심선
100
AcDbLine
 10
2.268634060543552
 20
16.24717430164393
 30
0.0
 11
5.714909304380834
 21
16.24717430164393
 31
0.0
  0
LINE
  5
84
330
7E
100
AcDbEntity
  8
중심선
100
AcDbLine
 10
5.245725140726316
 20
7.84717430164391
 30
0.0
 11
8.692000384563599
 21
7.84717430164391
 31
0.0
  0
LINE
  5
85
330
7E
100
AcDbEntity
  8
중심선
100
AcDbLine
 10
15.74043728645272
 20
16.24717430164393
 30
0.0
 11
8.692000384563599
 21
7.84717430164391
 31
0.0
  0
LINE
  5
86
330
7E
100
AcDbEntity
  8
중심선
100
AcDbLine
 10
0.1404042013395286
 20
13.71084872107135
 30
0.0
 11
3.58671253028996
 21
13.71088815037384
 31
0.0
  0
LINE
  5
87
330
7E
100
AcDbEntity
  8
중심선
100
AcDbLine
 10
2.750260043222114
 20
10.84717430164391
 30
0.0
 11
6.196535287059397
 21
10.84717430164391
 31
0.0
  0
LINE
  5
88
330
7E
100
AcDbEntity
  8
중심선
100
AcDbLine
 10
12.29416204261559
 20
16.24717430164393
 30
0.0
 11
5.245725140726316
 21
7.84717430164391
 31
0.0
  0
LINE
  5
89
330
7E
100
AcDbEntity
  8
중심선
100
AcDbLine
 10
10.72767329541681
 20
16.24717430164393
 30
0.0
 11
6.196535287059397
 21
10.84717430164391
 31
0.0
  0
LINE
  5
8A
330
7E
100
AcDbEntity
  8
중심선
100
AcDbLine
 10
7.28139805157953
 20
16.24717430164393
 30
0.0
 11
2.750260043222114
 21
10.84717430164391
 31
0.0
  0
LINE
  5
8B
330
7E
100
AcDbEntity
  8
중심선
100
AcDbLine
 10
5.714909304380834
 20
16.24717430164393
 30
0.0
 11
3.58671253028996
 21
13.71088815037384
 31
0.0
  0
LINE
  5
8C
330
7E
100
AcDbEntity
  8
중심선
100
AcDbLine
 10
2.268634060543552
 20
16.24717430164393
 30
0.0
 11
0.1404042013395286
 21
13.71084872107135
 31
0.0
  0
LINE
  5
8D
330
7E
100
AcDbEntity
  8
중심선
100
AcDbLine
 10
7.28139805157953
 20
16.24717430164393
 30
0.0
 11
10.72767329541681
 21
16.24717430164393
 31
0.0
  0
LINE
  5
8E
330
7E
100
AcDbEntity
  8
중심선
100
AcDbLine
 10
12.29416204261559
 20
16.24717430164393
 30
0.0
 11
15.74043728645272
 21
16.24717430164393
 31
0.0
  0
LINE
  5
8F
330
7E
100
AcDbEntity
  8
중심선
100
AcDbLine
 10
19.22036997980202
 20
11.08717430171403
 30
0.0
 11
23.66174974927406
 21
11.08717430171406
 31
0.0
  0
LINE
  5
90
330
7E
100
AcDbEntity
  8
중심선
100
AcDbLine
 10
19.22039502424796
 20
13.00717430171391
 30
0.0
 11
19.22036997980202
 21
11.08717430171403
 31
0.0
  0
LINE
  5
91
330
7E
100
AcDbEntity
  8
중심선
100
AcDbLine
 10
19.22039502424796
 20
13.00717430171391
 30
0.0
 11
26.96566020931264
 21
13.00717430171391
 31
0.0
  0
LINE
  5
92
330
7E
100
AcDbEntity
  8
중심선
100
AcDbLine
 10
22.22332737316547
 20
13.45928029700563
 30
0.0
 11
24.52862924686651
 21
15.39360700705356
 31
0.0
  0
ATTDEF
  5
94
330
7E
100
AcDbEntity
  8
FORMAT
 62
     2
100
AcDbText
 10
-9.18129528874128
 20
2.075366912832191
 30
0.0
 40
4.233333333333333
  1
E5077316 [ 3 FLUTE ]
 41
0.75
  7
SLDTEXTSTYLE0
 11
-9.18129528874128
 21
-0.0412997538344756
 31
0.0
100
AcDbAttributeDefinition
  3

  2
AUTOATTR0
 70
     0
 74
     1
  0
ENDBLK
  5
80
330
7E
100
AcDbEntity
  8
0
100
AcDbBlockEnd
  0
BLOCK
  5
E5
330
E4
100
AcDbEntity
  8
0
100
AcDbBlockBegin
  2
_D
 70
     0
 10
0.0
 20
0.0
 30
0.0
  3
_D
  1
_D
  0
LINE
  5
E7
330
E4
100
AcDbEntity
  8
치수문자_일반주서
 62
     0
370
    -2
100
AcDbLine
 10
60.6749081826537
 20
3.221081718727606
 30
0.0
 11
60.6749081826537
 21
60.67225255153843
 31
0.0
  0
LINE
  5
E8
330
E4
100
AcDbEntity
  8
치수문자_일반주서
 62
     0
370
    -2
100
AcDbLine
 10
9.874908182653684
 20
5.904650339392592
 30
0.0
 11
9.874908182653684
 21
60.67225255153843
 31
0.0
  0
LINE
  5
E9
330
E4
100
AcDbEntity
  8
치수문자_일반주서
 62
     0
370
    -2
100
AcDbLine
 10
57.3729081826537
 20
60.67225255153843
 30
0.0
 11
13.17690818265368
 21
60.67225255153843
 31
0.0
  0
SOLID
  5
EA
330
E4
100
AcDbEntity
  8
치수문자_일반주서
 62
     0
100
AcDbTrace
 10
57.3729081826537
 20
60.1219192182051
 30
0.0
 11
57.3729081826537
 21
61.22258588487177
 31
0.0
 12
60.6749081826537
 22
60.67225255153843
 32
0.0
 13
60.6749081826537
 23
60.67225255153843
 33
0.0
  0
SOLID
  5
EB
330
E4
100
AcDbEntity
  8
치수문자_일반주서
 62
     0
100
AcDbTrace
 10
13.17690818265368
 20
61.22258588487177
 30
0.0
 11
13.17690818265368
 21
60.1219192182051
 31
0.0
 12
9.874908182653684
 22
60.67225255153843
 32
0.0
 13
9.874908182653684
 23
60.67225255153843
 33
0.0
  0
MTEXT
  5
EC
330
E4
100
AcDbEntity
  8
치수문자_일반주서
 62
     0
100
AcDbMText
 10
35.27490818265369
 20
65.04725255153843
 30
0.0
 40
3.5
 41
0.0
 71
     2
 72
     1
  1
\A1;50.80 [2.00]
  7
SLDTEXTSTYLE0
 73
     1
 44
1.0
  0
POINT
  5
ED
330
E4
100
AcDbEntity
  8
Defpoints
 62
     0
100
AcDbPoint
 10
60.6749081826537
 20
3.158581718727606
 30
0.0
  0
POINT
  5
EE
330
E4
100
AcDbEntity
  8
Defpoints
 62
     0
100
AcDbPoint
 10
9.874908182653684
 20
5.842150339392592
 30
0.0
  0
POINT
  5
EF
330
E4
100
AcDbEntity
  8
Defpoints
 62
     0
100
AcDbPoint
 10
9.874908182653684
 20
60.67225255153843
 30
0.0
  0
ENDBLK
  5
E6
330
E4
100
AcDbEntity
  8
0
100
AcDbBlockEnd
  0
BLOCK
  5
FB
330
FA
100
AcDbEntity
  8
0
100
AcDbBlockBegin
  2
_D_1
 70
     0
 10
0.0
 20
0.0
 30
0.0
  3
_D_1
  1
_D_1
  0
LINE
  5
FD
330
FA
100
AcDbEntity
  8
치수문자_일반주서
 62
     0
370
    -2
100
AcDbLine
 10
60.6749081826537
 20
3.221081718727606
 30
0.0
 11
60.6749081826537
 21
81.01842037401389
 31
0.0
  0
LINE
  5
FE
330
FA
100
AcDbEntity
  8
치수문자_일반주서
 62
     0
370
    -2
100
AcDbLine
 10
-40.9250918173463
 20
5.607335151814106
 30
0.0
 11
-40.9250918173463
 21
81.01842037401389
 31
0.0
  0
LINE
  5
FF
330
FA
100
AcDbEntity
  8
치수문자_일반주서
 62
     0
370
    -2
100
AcDbLine
 10
57.3729081826537
 20
81.01842037401389
 30
0.0
 11
-37.6230918173463
 21
81.01842037401389
 31
0.0
  0
SOLID
  5
100
330
FA
100
AcDbEntity
  8
치수문자_일반주서
 62
     0
100
AcDbTrace
 10
57.3729081826537
 20
80.46808704068056
 30
0.0
 11
57.3729081826537
 21
81.56875370734721
 31
0.0
 12
60.6749081826537
 22
81.01842037401389
 32
0.0
 13
60.6749081826537
 23
81.01842037401389
 33
0.0
  0
SOLID
  5
101
330
FA
100
AcDbEntity
  8
치수문자_일반주서
 62
     0
100
AcDbTrace
 10
-37.6230918173463
 20
81.56875370734721
 30
0.0
 11
-37.6230918173463
 21
80.46808704068056
 31
0.0
 12
-40.9250918173463
 22
81.01842037401389
 32
0.0
 13
-40.9250918173463
 23
81.01842037401389
 33
0.0
  0
MTEXT
  5
102
330
FA
100
AcDbEntity
  8
치수문자_일반주서
 62
     0
100
AcDbMText
 10
13.74263261884118
 20
85.39342037401389
 30
0.0
 40
3.5
 41
0.0
 71
     2
 72
     1
  1
\A1;101.60 [4.00]
  7
SLDTEXTSTYLE0
 73
     1
 44
1.0
  0
POINT
  5
103
330
FA
100
AcDbEntity
  8
Defpoints
 62
     0
100
AcDbPoint
 10
60.6749081826537
 20
3.158581718727606
 30
0.0
  0
POINT
  5
104
330
FA
100
AcDbEntity
  8
Defpoints
 62
     0
100
AcDbPoint
 10
-40.9250918173463
 20
5.544835151814106
 30
0.0
  0
POINT
  5
105
330
FA
100
AcDbEntity
  8
Defpoints
 62
     0
100
AcDbPoint
 10
-40.9250918173463
 20
81.01842037401389
 30
0.0
  0
ENDBLK
  5
FC
330
FA
100
AcDbEntity
  8
0
100
AcDbBlockEnd
  0
BLOCK
  5
10E
330
10D
100
AcDbEntity
  8
0
100
AcDbBlockBegin
  2
_D_2
 70
     0
 10
0.0
 20
0.0
 30
0.0
  3
_D_2
  1
_D_2
  0
LINE
  5
110
330
10D
100
AcDbEntity
  8
치수문자_일반주서
 62
     0
370
    -2
100
AcDbLine
 10
-40.17759181734632
 20
6.354835151814086
 30
0.0
 11
-53.9250918173463
 21
6.354835151814036
 31
0.0
  0
LINE
  5
111
330
10D
100
AcDbEntity
  8
치수문자_일반주서
 62
     0
370
    -2
100
AcDbLine
 10
-40.17759181734632
 20
-6.345164848185906
 30
0.0
 11
-53.92509181734626
 21
-6.345164848185959
 31
0.0
  0
LINE
  5
112
330
10D
100
AcDbEntity
  8
치수문자_일반주서
 62
     0
370
    -2
100
AcDbLine
 10
-53.9250918173463
 20
6.354835151814036
 30
0.0
 11
-53.92509181734642
 21
40.52133515181404
 31
0.0
  0
LINE
  5
113
330
10D
100
AcDbEntity
  8
치수문자_일반주서
 62
     0
370
    -2
100
AcDbLine
 10
-53.9250918173463
 20
6.354835151814036
 30
0.0
 11
-53.92509181734626
 21
-6.345164848185959
 31
0.0
  0
LINE
  5
114
330
10D
100
AcDbEntity
  8
치수문자_일반주서
 62
     0
370
    -2
100
AcDbLine
 10
-53.92509181734631
 20
9.656835151814036
 30
0.0
 11
-53.92509181734633
 21
12.95883515181404
 31
0.0
  0
LINE
  5
115
330
10D
100
AcDbEntity
  8
치수문자_일반주서
 62
     0
370
    -2
100
AcDbLine
 10
-53.92509181734624
 20
-9.647164848185959
 30
0.0
 11
-53.92509181734623
 21
-12.94916484818596
 31
0.0
  0
SOLID
  5
116
330
10D
100
AcDbEntity
  8
치수문자_일반주서
 62
     0
100
AcDbTrace
 10
-54.47542515067965
 20
9.656835151814034
 30
0.0
 11
-53.37475848401298
 21
9.656835151814038
 31
0.0
 12
-53.9250918173463
 22
6.354835151814036
 32
0.0
 13
-53.9250918173463
 23
6.354835151814036
 33
0.0
  0
SOLID
  5
117
330
10D
100
AcDbEntity
  8
치수문자_일반주서
 62
     0
100
AcDbTrace
 10
-53.37475848401291
 20
-9.647164848185957
 30
0.0
 11
-54.47542515067958
 21
-9.64716484818596
 31
0.0
 12
-53.92509181734626
 22
-6.345164848185959
 32
0.0
 13
-53.92509181734626
 23
-6.345164848185959
 33
0.0
  0
MTEXT
  5
118
330
10D
100
AcDbEntity
  8
치수문자_일반주서
 62
     0
100
AcDbMText
 10
-58.30009181734637
 20
26.74008515181402
 30
0.0
 40
3.5
 41
0.0
 71
     2
 72
     1
  1
\A1;%%c12.70 [0.50]
  7
SLDTEXTSTYLE0
 11
-3.356894814614648E-15
 21
1.0
 31
0.0
 73
     1
 44
1.0
  0
POINT
  5
119
330
10D
100
AcDbEntity
  8
Defpoints
 62
     0
100
AcDbPoint
 10
-40.11509181734632
 20
6.354835151814086
 30
0.0
  0
POINT
  5
11A
330
10D
100
AcDbEntity
  8
Defpoints
 62
     0
100
AcDbPoint
 10
-40.11509181734632
 20
-6.345164848185906
 30
0.0
  0
POINT
  5
11B
330
10D
100
AcDbEntity
  8
Defpoints
 62
     0
100
AcDbPoint
 10
-53.92509181734627
 20
-6.345164848185954
 30
0.0
  0
ENDBLK
  5
10F
330
10D
100
AcDbEntity
  8
0
100
AcDbBlockEnd
  0
BLOCK
  5
121
330
120
100
AcDbEntity
  8
0
100
AcDbBlockBegin
  2
SW_DOWELSYMBOL_0
 70
     0
 10
0.0
 20
0.0
 30
0.0
  3
SW_DOWELSYMBOL_0
  1
SW_DOWELSYMBOL_0
  0
CIRCLE
  5
123
330
120
100
AcDbEntity
  8
외형선
 62
     0
100
AcDbCircle
 10
0.0
 20
0.0
 30
0.0
 40
3.000000000000004
  0
HATCH
  5
124
330
120
100
AcDbEntity
  8
0
  6
Continuous
 62
     0
370
    30
100
AcDbHatch
 10
0.0
 20
0.0
 30
0.0
210
0.0
220
0.0
230
1.0
  2
SOLID
 70
     1
 71
     0
 91
        1
 92
        0
 93
        3
 72
     2
 10
-0.0000000000000013
 20
-0.0000000000000039
 40
3.000000000000004
 50
0.0
 51
90.0
 73
     1
 72
     1
 10
-0.0000000000000013
 20
3.0
 11
-0.0000000000000013
 21
-0.000000000000004
 72
     1
 10
-0.0000000000000013
 20
-0.0000000000000039
 11
3.000000000000003
 21
-0.0000000000000039
 97
        0
 75
     0
 76
     1
 98
        1
 10
0.0
 20
0.0
  0
HATCH
  5
125
330
120
100
AcDbEntity
  8
0
  6
Continuous
 62
     0
370
    30
100
AcDbHatch
 10
0.0
 20
0.0
 30
0.0
210
0.0
220
0.0
230
1.0
  2
SOLID
 70
     1
 71
     0
 91
        1
 92
        0
 93
        3
 72
     2
 10
-0.0000000000000013
 20
-0.0000000000000039
 40
3.000000000000004
 50
180.0
 51
270.0000000000008
 73
     1
 72
     1
 10
-0.0000000000000013
 20
-3.000000000000008
 11
-0.0000000000000013
 21
-0.000000000000004
 72
     1
 10
-0.0000000000000013
 20
-0.0000000000000039
 11
-3.000000000000006
 21
-0.0000000000000039
 97
        0
 75
     0
 76
     1
 98
        1
 10
0.0
 20
0.0
  0
ENDBLK
  5
122
330
120
100
AcDbEntity
  8
0
100
AcDbBlockEnd
  0
BLOCK
  5
152
330
151
100
AcDbEntity
  8
0
100
AcDbBlockBegin
  2
*D6
 70
     1
 10
0.0
 20
0.0
 30
0.0
  3
*D6
  1
*D6
  0
LINE
  5
154
330
151
100
AcDbEntity
  8
치수문자_일반주서
 62
     0
370
    -2
100
AcDbLine
 10
60.7374081826537
 20
3.179114159171552
 30
0.0
 11
82.92261149922952
 21
3.179114159171551
 31
0.0
  0
LINE
  5
155
330
151
100
AcDbEntity
  8
치수문자_일반주서
 62
     0
370
    -2
100
AcDbLine
 10
60.73740818265368
 20
-3.170164848185911
 30
0.0
 11
82.92261149922952
 21
-3.170164848185912
 31
0.0
  0
LINE
  5
156
330
151
100
AcDbEntity
  8
치수문자_일반주서
 62
     0
370
    -2
100
AcDbLine
 10
82.92261149922952
 20
3.179114159171551
 30
0.0
 11
82.92261149922952
 21
36.47061415917155
 31
0.0
  0
LINE
  5
157
330
151
100
AcDbEntity
  8
치수문자_일반주서
 62
     0
370
    -2
100
AcDbLine
 10
82.92261149922952
 20
3.179114159171551
 30
0.0
 11
82.92261149922952
 21
-3.170164848185912
 31
0.0
  0
LINE
  5
158
330
151
100
AcDbEntity
  8
치수문자_일반주서
 62
     0
370
    -2
100
AcDbLine
 10
82.92261149922952
 20
6.48111415917155
 30
0.0
 11
82.92261149922952
 21
9.78311415917155
 31
0.0
  0
LINE
  5
159
330
151
100
AcDbEntity
  8
치수문자_일반주서
 62
     0
370
    -2
100
AcDbLine
 10
82.92261149922952
 20
-6.472164848185912
 30
0.0
 11
82.92261149922952
 21
-9.774164848185912
 31
0.0
  0
SOLID
  5
15A
330
151
100
AcDbEntity
  8
치수문자_일반주서
 62
     0
100
AcDbTrace
 10
82.37227816589619
 20
6.48111415917155
 30
0.0
 11
83.47294483256285
 21
6.48111415917155
 31
0.0
 12
82.92261149922952
 22
3.179114159171551
 32
0.0
 13
82.92261149922952
 23
3.179114159171551
 33
0.0
  0
SOLID
  5
15B
330
151
100
AcDbEntity
  8
치수문자_일반주서
 62
     0
100
AcDbTrace
 10
83.47294483256285
 20
-6.472164848185912
 30
0.0
 11
82.37227816589619
 21
-6.472164848185912
 31
0.0
 12
82.92261149922952
 22
-3.170164848185912
 32
0.0
 13
82.92261149922952
 23
-3.170164848185912
 33
0.0
  0
MTEXT
  5
15C
330
151
100
AcDbEntity
  8
치수문자_일반주서
 62
     0
100
AcDbMText
 10
80.29761149922952
 20
23.12686415917155
 30
0.0
 40
3.5
 41
0.0
 71
     5
 72
     1
  1
\A1;{%%c6.35 [0.25]}
  7
SLDTEXTSTYLE0
 11
0.0
 21
1.0
 31
0.0
 73
     1
 44
1.0
  0
POINT
  5
15D
330
151
100
AcDbEntity
  8
Defpoints
 62
     0
100
AcDbPoint
 10
60.6749081826537
 20
3.179114159171552
 30
0.0
  0
POINT
  5
15E
330
151
100
AcDbEntity
  8
Defpoints
 62
     0
100
AcDbPoint
 10
60.67490818265368
 20
-3.170164848185911
 30
0.0
  0
POINT
  5
160
330
151
100
AcDbEntity
  8
Defpoints
 62
     0
100
AcDbPoint
 10
82.92261149922952
 20
-3.170164848185912
 30
0.0
  0
ENDBLK
  5
153
330
151
100
AcDbEntity
  8
0
100
AcDbBlockEnd
  0
BLOCK
  5
166
330
165
100
AcDbEntity
  8
0
100
AcDbBlockBegin
  2
*D7
 70
     1
 10
0.0
 20
0.0
 30
0.0
  3
*D7
  1
*D7
  0
LINE
  5
168
330
165
100
AcDbEntity
  8
치수문자_일반주서
 62
     0
370
    -2
100
AcDbLine
 10
31.38623626935363
 20
11.32236062178469
 30
0.0
 11
32.04219006715755
 21
16.53122082485663
 31
0.0
  0
LINE
  5
169
330
165
100
AcDbEntity
  8
치수문자_일반주서
 62
     0
370
    -2
100
AcDbLine
 10
20.85092783155614
 20
5.266921524226588
 30
0.0
 11
30.80056734661146
 21
4.745483012575742
 31
0.0
  0
ARC
  5
16A
330
165
100
AcDbEntity
  8
치수문자_일반주서
 62
     0
370
    -2
100
AcDbCircle
 10
121.2575171661907
 20
0.0048351518140883
 30
0.0
 40
90.58108805264833
100
AcDbArc
 50
172.8225023586783
 51
174.9112511793391
  0
ARC
  5
16B
330
165
100
AcDbEntity
  8
치수문자_일반주서
 62
     0
370
    -2
100
AcDbCircle
 10
121.2575171661907
 20
0.0048351518140883
 30
0.0
 40
90.58108805264833
100
AcDbArc
 50
182.0887488206609
 51
184.1774976413217
  0
ARC
  5
16C
330
165
100
AcDbEntity
  8
치수문자_일반주서
 62
     0
370
    -2
100
AcDbCircle
 10
121.2575171661907
 20
0.0048351518140883
 30
0.0
 40
90.58108805264833
100
AcDbArc
 50
177.0
 51
180.0
  0
SOLID
  5
16D
330
165
100
AcDbEntity
  8
치수문자_일반주서
 62
     0
100
AcDbTrace
 10
30.48449140295883
 20
8.078074613060547
 30
0.0
 11
31.58241710817837
 21
8.000445643408167
 31
0.0
 12
30.80056734661146
 22
4.745483012575742
 32
0.0
 13
30.80056734661146
 23
4.745483012575742
 33
0.0
  0
SOLID
  5
16E
330
165
100
AcDbEntity
  8
치수문자_일반주서
 62
     0
100
AcDbTrace
 10
31.28685579536428
 20
-3.286585520767542
 30
0.0
 11
30.1863719728069
 21
-3.306647110948602
 31
0.0
 12
30.67642911354241
 22
0.0048351518140883
 32
0.0
 13
30.67642911354241
 23
0.0048351518140883
 33
0.0
  0
MTEXT
  5
16F
330
165
100
AcDbEntity
  8
치수문자_일반주서
 62
     0
100
AcDbMText
 10
29.10978306671962
 20
14.25476762222262
 30
0.0
 40
3.5
 41
0.0
 71
     5
 72
     1
  1
\A1;3%%d
  7
SLDTEXTSTYLE0
 11
0.1249435805340794
 21
0.9921638482041786
 31
0.0
 73
     1
 44
1.0
  0
POINT
  5
170
330
165
100
AcDbEntity
  8
Defpoints
 62
     0
100
AcDbPoint
 10
30.69022505199219
 20
1.585693116040276
 30
0.0
  0
POINT
  5
171
330
165
100
AcDbEntity
  8
Defpoints
 62
     0
100
AcDbPoint
 10
20.78851348563398
 20
5.270192521491772
 30
0.0
  0
POINT
  5
172
330
165
100
AcDbEntity
  8
Defpoints
 62
     0
100
AcDbPoint
 10
-43.92509181734628
 20
0.0048351518140893
 30
0.0
  0
POINT
  5
173
330
165
100
AcDbEntity
  8
Defpoints
 62
     0
100
AcDbPoint
 10
63.67490428620231
 20
0.0048351518140893
 30
0.0
  0
POINT
  5
174
330
165
100
AcDbEntity
  8
Defpoints
 62
     0
100
AcDbPoint
 10
14.9119812292024
 20
5.578168526936511
 30
0.0
  0
ENDBLK
  5
167
330
165
100
AcDbEntity
  8
0
100
AcDbBlockEnd
  0
ENDSEC
  0
SECTION
  2
ENTITIES
  0
LINE
  5
95
330
1F
100
AcDbEntity
  8
0
  6
Continuous
 62
     1
370
    15
100
AcDbLine
 10
37.38862365568971
 20
-4.390547307997131
 30
0.0
 11
42.5119065552492
 21
-4.122047428592436
 31
0.0
  0
LINE
  5
96
330
1F
100
AcDbEntity
  8
0
  6
Continuous
 62
     1
370
    15
100
AcDbLine
 10
10.43572546645655
 20
-5.803088847336745
 30
0.0
 11
16.42799832270186
 21
-5.489047134082881
 31
0.0
  0
LINE
  5
97
330
1F
100
AcDbEntity
  8
0
  6
Continuous
 62
     1
370
    15
100
AcDbLine
 10
29.4942073883388
 20
4.813946436933101
 30
0.0
 11
23.88018003942386
 21
5.108165143123992
 31
0.0
  0
LINE
  5
98
330
1F
100
AcDbEntity
  8
0
  6
Continuous
 62
     1
370
    15
100
AcDbLine
 10
55.44240939620753
 20
3.45405879331295
 30
0.0
 11
51.00494262973825
 21
3.686616572185903
 31
0.0
  0
LINE
  5
99
330
1F
100
AcDbEntity
  8
0
  6
Continuous
 62
     4
370
    15
100
AcDbLine
 10
-40.11509181734632
 20
6.354835151814085
 30
0.0
 11
-40.9250918173463
 21
5.544835151814105
 31
0.0
  0
LINE
  5
9A
330
1F
100
AcDbEntity
  8
0
  6
Continuous
 62
     4
370
    15
100
AcDbLine
 10
-40.9250918173463
 20
-5.535164848185928
 30
0.0
 11
-40.11509181734632
 21
-6.345164848185907
 31
0.0
  0
LINE
  5
9B
330
1F
100
AcDbEntity
  8
0
  6
Continuous
 62
     4
370
    15
100
AcDbLine
 10
8.4426694010557
 20
6.354835151814092
 30
0.0
 11
-40.11509181734632
 21
6.354835151814086
 31
0.0
  0
LINE
  5
9C
330
1F
100
AcDbEntity
  8
0
  6
Continuous
 62
     4
370
    15
100
AcDbLine
 10
-40.11509181734632
 20
-6.345164848185906
 30
0.0
 11
8.3549081826537
 21
-6.345164848185901
 31
0.0
  0
LINE
  5
9D
330
1F
100
AcDbEntity
  8
0
  6
Continuous
 62
     1
370
    15
100
AcDbLine
 10
46.4534243352733
 20
-3.91548123473675
 30
0.0
 11
51.14257861604267
 21
-3.66973307216606
 31
0.0
  0
LINE
  5
9E
330
1F
100
AcDbEntity
  8
0
  6
Continuous
 62
     1
370
    15
100
AcDbLine
 10
19.3937945624228
 20
-5.333616339353113
 30
0.0
 11
25.14337459472166
 21
-5.032293618050212
 31
0.0
  0
LINE
  5
9F
330
1F
100
AcDbEntity
  8
0
  6
Continuous
 62
     1
370
    15
100
AcDbLine
 10
12.06343325462069
 20
5.727454600465544
 30
0.0
 11
9.874908182653686
 21
5.842150339392592
 31
0.0
  0
LINE
  5
A0
330
1F
100
AcDbEntity
  8
0
  6
Continuous
 62
     1
370
    15
100
AcDbLine
 10
38.17833818698035
 20
4.358830426772834
 30
0.0
 11
32.8799084690875
 21
4.636509361974869
 31
0.0
  0
LINE
  5
A1
330
1F
100
AcDbEntity
  8
0
  6
Continuous
 62
     1
370
    15
100
AcDbLine
 10
60.6749081826537
 20
3.179835151814099
 30
0.0
 11
60.17349005420339
 21
3.206113362418438
 31
0.0
  0
LINE
  5
A2
330
1F
100
AcDbEntity
  8
0
  6
Continuous
 62
     1
370
    15
100
AcDbLine
 10
55.57707318285777
 20
-3.437331059676568
 30
0.0
 11
59.20960655808639
 21
-3.246958052309306
 31
0.0
  0
LINE
  5
A3
330
1F
100
AcDbEntity
  8
0
  6
Continuous
 62
     1
370
    15
100
AcDbLine
 10
28.37370831138205
 20
-4.862999001616908
 30
0.0
 11
33.84232174014291
 21
-4.576401116058133
 31
0.0
  0
LINE
  5
A4
102
{ACAD_REACTORS
102
}
330
1F
100
AcDbEntity
  8
0
  6
Continuous
 62
     1
370
    15
100
AcDbLine
 10
20.78851348563398
 20
5.270192521491772
 30
0.0
 11
14.9119812292024
 21
5.578168526936511
 31
0.0
  0
LINE
  5
A5
330
1F
100
AcDbEntity
  8
0
  6
Continuous
 62
     1
370
    15
100
AcDbLine
 10
46.83057727432642
 20
3.9053857903791
 30
0.0
 11
41.91632611049256
 21
4.162930780714733
 31
0.0
  0
LINE
  5
A6
330
1F
100
AcDbEntity
  8
0
  6
Continuous
 62
     4
370
    15
100
AcDbLine
 10
9.874908182653686
 20
5.842150339392592
 30
0.0
 11
8.858908182653703
 21
5.892555151814096
 31
0.0
  0
LINE
  5
A7
330
1F
100
AcDbEntity
  8
0
  6
Continuous
 62
     4
370
    15
100
AcDbLine
 10
8.858908182653703
 20
5.892555151814096
 30
0.0
 11
8.4426694010557
 21
6.35483515181409
 31
0.0
  0
LINE
  5
A8
330
1F
100
AcDbEntity
  8
0
  6
Continuous
 62
     1
370
    15
100
AcDbLine
 10
9.8749081826537
 20
-5.782869389099118
 30
0.0
 11
10.43417252510274
 21
-5.773456961096818
 31
0.0
  0
SPLINE
  5
A9
330
1F
100
AcDbEntity
  8
0
  6
Continuous
 62
     1
370
    15
100
AcDbSpline
210
0.0
220
0.0
230
1.0
 70
     8
 71
     3
 72
    24
 73
    20
 74
     0
 42
0.000000001
 43
0.00000001
 40
0.0
 40
0.0
 40
0.0
 40
0.0
 40
0.0254653064902638
 40
0.091856589906958
 40
0.1561624005376378
 40
0.2223426792442899
 40
0.2864620788104513
 40
0.3524492825212395
 40
0.4164041109183391
 40
0.4822204115672817
 40
0.5460368807423497
 40
0.6095903744010146
 40
0.6749786597109575
 40
0.7386431840338966
 40
0.8041564522150334
 40
0.8677568692705717
 40
0.9332019312732812
 40
0.9967763163793965
 40
1.0
 40
1.0
 40
1.0
 40
1.0
 10
22.33553537423436
 20
4.829519607603583
 30
0.0
 10
22.45731584151023
 20
4.88237242296768
 30
0.0
 10
22.89659343062994
 20
5.073019230544261
 30
0.0
 10
23.64929695875184
 20
5.14578086041107
 30
0.0
 10
24.60216913555497
 20
5.041124384998373
 30
0.0
 10
25.55037465553508
 20
4.680559010356724
 30
0.0
 10
26.51200799015655
 20
4.095379942167416
 30
0.0
 10
27.46879720141582
 20
3.322121776942163
 30
0.0
 10
28.43956596082682
 20
2.387886197544082
 30
0.0
 10
29.40552389707013
 20
1.357524884983707
 30
0.0
 10
30.37539346510758
 20
0.2774560788436282
 30
0.0
 10
31.34880192582901
 20
-0.7974924029263408
 30
0.0
 10
32.32775513370576
 20
-1.813823232671282
 30
0.0
 10
33.32260428151586
 20
-2.728467917843571
 30
0.0
 10
34.31471267592924
 20
-3.474470571747251
 30
0.0
 10
35.32204994871958
 20
-4.034721510560452
 30
0.0
 10
36.32655681878193
 20
-4.335180272642984
 30
0.0
 10
37.01859332873978
 20
-4.446151310613629
 30
0.0
 10
37.3712966557634
 20
-4.387546473960297
 30
0.0
 10
37.38831816491676
 20
-4.38471819680186
 30
0.0
  0
SPLINE
  5
AA
330
1F
100
AcDbEntity
  8
0
  6
Continuous
 62
     1
370
    15
100
AcDbSpline
210
0.0
220
0.0
230
1.0
 70
     8
 71
     3
 72
    18
 73
    14
 74
     0
 42
0.000000001
 43
0.00000001
 40
0.0
 40
0.0
 40
0.0
 40
0.0
 40
0.0126596924434097
 40
0.1088270102542203
 40
0.2077474326829211
 40
0.3045093890347822
 40
0.4040326318120546
 40
0.5015496660011499
 40
0.6018406267614426
 40
0.700280028798838
 40
0.8015065880996819
 40
0.899421153738753
 40
0.9999999999999999
 40
0.9999999999999999
 40
0.9999999999999999
 40
0.9999999999999999
 10
48.86609576012429
 20
3.338695723895829
 30
0.0
 10
48.91398761344646
 20
3.360331163353263
 30
0.0
 10
49.32568222892657
 20
3.546316739402107
 30
0.0
 10
50.11894041378152
 20
3.684361894189538
 30
0.0
 10
51.2384845350136
 20
3.713643941991707
 30
0.0
 10
52.37956940336063
 20
3.471992241117805
 30
0.0
 10
53.52345341306205
 20
3.008671378318602
 30
0.0
 10
54.68931538004407
 20
2.342299436850443
 30
0.0
 10
55.85958391883652
 20
1.532571578908992
 30
0.0
 10
57.05305963870524
 20
0.6256848958218547
 30
0.0
 10
58.24628568080102
 20
-0.2893196403742731
 30
0.0
 10
59.45610872470456
 20
-1.171152343452345
 30
0.0
 10
60.26502247791482
 20
-1.64802075301287
 30
0.0
 10
60.67490818265349
 20
-1.889655344271345
 30
0.0
  0
LINE
  5
AB
330
1F
100
AcDbEntity
  8
0
  6
Continuous
 62
     4
370
    15
100
AcDbLine
 10
9.874908182653687
 20
0.007568328268023
 30
0.0
 11
9.874908182653687
 21
-5.782869389099115
 31
0.0
  0
SPLINE
  5
AC
330
1F
100
AcDbEntity
  8
0
  6
Continuous
 62
     1
370
    15
100
AcDbSpline
210
0.0
220
0.0
230
1.0
 70
     8
 71
     3
 72
    11
 73
     7
 74
     0
 42
0.000000001
 43
0.00000001
 40
0.0
 40
0.0
 40
0.0
 40
0.0
 40
0.2450823138808608
 40
0.4957004400139646
 40
0.7720340884930503
 40
1.0
 40
1.0
 40
1.0
 40
1.0
 10
59.33243306858518
 20
1.888468425641896
 30
0.0
 10
59.01140783020848
 20
2.097905953772763
 30
0.0
 10
58.36210617559667
 20
2.521511693436116
 30
0.0
 10
57.35825114217713
 20
3.016778427484105
 30
0.0
 10
56.38126670984185
 20
3.361597259749794
 30
0.0
 10
55.73399279207061
 20
3.411958300017393
 30
0.0
 10
55.44139608890577
 20
3.434723738181486
 30
0.0
  0
SPLINE
  5
AD
330
1F
100
AcDbEntity
  8
0
  6
Continuous
 62
     1
370
    15
100
AcDbSpline
210
0.0
220
0.0
230
1.0
 70
     8
 71
     3
 72
    24
 73
    20
 74
     0
 42
0.000000001
 43
0.00000001
 40
0.0
 40
0.0
 40
0.0
 40
0.0
 40
0.0336456290232328
 40
0.0982853783666303
 40
0.1611278001470989
 40
0.2257883841475572
 40
0.2886822930051434
 40
0.3533941261309064
 40
0.4163705735541582
 40
0.4811658416863206
 40
0.5442531597775658
 40
0.6091611578100368
 40
0.6723860618926251
 40
0.7374344130162239
 40
0.8008206044920699
 40
0.8660338080619808
 40
0.9296014768429459
 40
0.9950003757957582
 40
1.0
 40
1.0
 40
1.0
 40
1.0
 10
44.42428752832151
 20
-3.571717926721746
 30
0.0
 10
44.24887754875049
 20
-3.660471061696381
 30
0.0
 10
43.73647113187192
 20
-3.919736104599373
 30
0.0
 10
42.90288822193091
 20
-4.11543716976681
 30
0.0
 10
41.91391552684929
 20
-4.151663930085659
 30
0.0
 10
40.93981658766002
 20
-3.942772002639851
 30
0.0
 10
39.96218568468807
 20
-3.507793227320353
 30
0.0
 10
38.9985868721375
 20
-2.873690399922235
 30
0.0
 10
38.03133027391754
 20
-2.064000981800084
 30
0.0
 10
37.07763858029708
 20
-1.135104938926367
 30
0.0
 10
36.12005172192688
 20
-0.1204622298093806
 30
0.0
 10
35.17563217928895
 20
0.9096380141389026
 30
0.0
 10
34.22711759873232
 20
1.918166320210155
 30
0.0
 10
33.29134679699108
 20
2.836342242240502
 30
0.0
 10
32.35140153333797
 20
3.629173906835046
 30
0.0
 10
31.4236352311826
 20
4.250646512132287
 30
0.0
 10
30.4921569546736
 20
4.646738258793478
 30
0.0
 10
29.85154940766538
 20
4.828148950708139
 30
0.0
 10
29.51749520511837
 20
4.807114453717364
 30
0.0
 10
29.49377105009801
 20
4.805620607318848
 30
0.0
  0
SPLINE
  5
AE
330
1F
100
AcDbEntity
  8
0
  6
Continuous
 62
     1
370
    15
100
AcDbSpline
210
0.0
220
0.0
230
1.0
 70
     8
 71
     3
 72
    19
 73
    15
 74
     0
 42
0.000000001
 43
0.00000001
 40
0.0
 40
0.0
 40
0.0
 40
0.0
 40
0.0040577326878982
 40
0.1128341257809464
 40
0.2190616772751011
 40
0.328340285592952
 40
0.4350740084971693
 40
0.544872610034494
 40
0.6521284466653675
 40
0.7624634823158429
 40
0.8208561761018097
 40
0.879249079458974
 40
0.9396244147878462
 40
1.0
 40
1.0
 40
1.0
 40
1.0
 10
17.90156107424567
 20
-5.071257132176937
 30
0.0
 10
17.89041376981064
 20
-5.078108622894465
 30
0.0
 10
17.58043860695874
 20
-5.268629296598349
 30
0.0
 10
16.98286321876075
 20
-5.435819586315046
 30
0.0
 10
16.10095209163013
 20
-5.534628287280088
 30
0.0
 10
15.22956913998574
 20
-5.363652568710668
 30
0.0
 10
14.35301063631877
 20
-4.957136715057954
 30
0.0
 10
13.48627194599676
 20
-4.329178585903857
 30
0.0
 10
12.61455931269087
 20
-3.497969982461386
 30
0.0
 10
11.88300974280558
 20
-2.660105542009056
 30
0.0
 10
11.28420578618135
 20
-1.907942515305671
 30
0.0
 10
10.81829821662108
 20
-1.294079736350819
 30
0.0
 10
10.34838479424602
 20
-0.6533816126118226
 30
0.0
 10
10.03273393758826
 20
-0.2127486226421871
 30
0.0
 10
9.8749081826537
 20
0.0075683282680059
 30
0.0
  0
ELLIPSE
  5
AF
330
1F
100
AcDbEntity
  8
0
  6
Continuous
 62
     1
370
    15
100
AcDbEllipse
 10
54.47150376884154
 20
-0.1958449070043077
 30
0.0
 11
4.890295576379232
 21
3.087743246104024
 31
0.0
210
0.0
220
0.0
230
1.0
 40
0.335272806832906
 41
5.614898375587659
 42
5.839273239641527
  0
LINE
  5
B0
330
1F
100
AcDbEntity
  8
0
  6
Continuous
 62
     1
370
    15
100
AcDbLine
 10
58.95129628949964
 20
1.211721192348482
 30
0.0
 11
60.6749081826537
 21
0.0048351518141046
 31
0.0
  0
LINE
  5
B1
330
1F
100
AcDbEntity
  8
0
  6
Continuous
 62
     1
370
    15
100
AcDbLine
 10
60.67490818265368
 20
0.0048351518140986
 30
0.0
 11
60.6749081826537
 21
-1.889655344275963
 31
0.0
  0
SPLINE
  5
B2
330
1F
100
AcDbEntity
  8
0
  6
Continuous
 62
     4
370
    15
100
AcDbSpline
210
0.0
220
0.0
230
1.0
 70
     8
 71
     3
 72
     8
 73
     4
 74
     0
 42
0.000000001
 43
0.00000001
 40
0.0
 40
0.0
 40
0.0
 40
0.0
 40
1.0
 40
1.0
 40
1.0
 40
1.0
 10
9.874908182653687
 20
0.007568328268023
 30
0.0
 10
9.53415826215652
 20
0.4845390373041774
 30
0.0
 10
9.197744705882844
 20
0.9595258387704445
 30
0.0
 10
8.858908182653703
 20
1.427730304737351
 30
0.0
  0
SPLINE
  5
B3
330
1F
100
AcDbEntity
  8
0
  6
Continuous
 62
     4
370
    15
100
AcDbSpline
210
0.0
220
0.0
230
1.0
 70
     8
 71
     3
 72
     8
 73
     4
 74
     0
 42
0.000000001
 43
0.00000001
 40
0.0
 40
0.0
 40
0.0
 40
0.0
 40
1.0
 40
1.0
 40
1.0
 40
1.0
 10
8.858908182653703
 20
1.42773030473735
 30
0.0
 10
8.711499730848972
 20
1.647820473442976
 30
0.0
 10
8.574366230531838
 20
1.883538200117701
 30
0.0
 10
8.442669401055703
 20
2.130824444525224
 30
0.0
  0
SPLINE
  5
B4
330
1F
100
AcDbEntity
  8
0
  6
Continuous
 62
     4
370
    15
100
AcDbSpline
210
0.0
220
0.0
230
1.0
 70
     8
 71
     3
 72
     8
 73
     4
 74
     0
 42
0.000000001
 43
0.00000001
 40
0.0
 40
0.0
 40
0.0
 40
0.0
 40
0.0001595024737626
 40
0.0001595024737626
 40
0.0001595024737626
 40
0.0001595024737626
 10
8.442669401055701
 20
2.130824444525224
 30
0.0
 10
8.413414615934974
 20
2.172657602004107
 30
0.0
 10
8.38416000188376
 20
2.214337277620743
 30
0.0
 10
8.354908182653698
 20
2.255851321712961
 30
0.0
  0
SPLINE
  5
B5
330
1F
100
AcDbEntity
  8
0
  6
Continuous
 62
     4
370
    15
100
AcDbSpline
210
0.0
220
0.0
230
1.0
 70
     8
 71
     3
 72
     8
 73
     4
 74
     0
 42
0.000000001
 43
0.00000001
 40
0.0
 40
0.0
 40
0.0
 40
0.0
 40
0.0001575782724877
 40
0.0001575782724877
 40
0.0001575782724877
 40
0.0001575782724877
 10
8.354908182653698
 20
5.390404622349799
 30
0.0
 10
8.384161789442661
 20
5.367291535315664
 30
0.0
 10
8.413416336169748
 20
5.343796226666043
 30
0.0
 10
8.442669401055719
 20
5.319925297525419
 30
0.0
  0
SPLINE
  5
B6
330
1F
100
AcDbEntity
  8
0
  6
Continuous
 62
     4
370
    15
100
AcDbSpline
210
0.0
220
0.0
230
1.0
 70
     8
 71
     3
 72
     8
 73
     4
 74
     0
 42
0.000000001
 43
0.00000001
 40
0.0
 40
0.0
 40
0.0
 40
0.0
 40
1.0
 40
1.0
 40
1.0
 40
1.0
 10
8.442669401055698
 20
5.319925297525439
 30
0.0
 10
8.584112780534825
 20
5.0792525001447
 30
0.0
 10
8.722885149280135
 20
4.835109471463073
 30
0.0
 10
8.858908182653703
 20
4.58704552027561
 30
0.0
  0
SPLINE
  5
B7
330
1F
100
AcDbEntity
  8
0
  6
Continuous
 62
     4
370
    15
100
AcDbSpline
210
0.0
220
0.0
230
1.0
 70
     8
 71
     3
 72
     8
 73
     4
 74
     0
 42
0.000000001
 43
0.00000001
 40
0.0
 40
0.0
 40
0.0
 40
0.0
 40
1.0
 40
1.0
 40
1.0
 40
1.0
 10
8.858908182654705
 20
4.587045520273325
 30
0.0
 10
9.197342852147605
 20
4.281093793739329
 30
0.0
 10
9.534547481123901
 20
3.935690405608359
 30
0.0
 10
9.874908182653687
 20
3.556367861139306
 30
0.0
  0
SPLINE
  5
B8
330
1F
100
AcDbEntity
  8
0
  6
Continuous
 62
     1
370
    15
100
AcDbSpline
210
0.0
220
0.0
230
1.0
 70
     8
 71
     3
 72
    18
 73
    14
 74
     0
 42
0.000000001
 43
0.00000001
 40
0.0
 40
0.0
 40
0.0
 40
0.0
 40
0.096288310763475
 40
0.1909742926304755
 40
0.2884013555552553
 40
0.3831164512315837
 40
0.4806003703408349
 40
0.5749063047661046
 40
0.6719681471460728
 40
0.7658823349989896
 40
0.8625397139122265
 40
0.9560844891675138
 40
1.0
 40
1.0
 40
1.0
 40
1.0
 10
9.8749081826537
 20
3.556367861139293
 30
0.0
 10
10.17220849379283
 20
3.211112461572938
 30
0.0
 10
10.76186175667002
 20
2.526347040035935
 30
0.0
 10
11.65809869003665
 20
1.356716812124475
 30
0.0
 10
12.55432458976975
 20
0.1568065267685782
 30
0.0
 10
13.46397727896771
 20
-1.050145505591726
 30
0.0
 10
14.36908081169446
 20
-2.183271266786007
 30
0.0
 10
15.28642381993006
 20
-3.213038207196812
 30
0.0
 10
16.19765857812139
 20
-4.072445573359471
 30
0.0
 10
17.12140519739039
 20
-4.744762983348084
 30
0.0
 10
18.03933255473462
 20
-5.169770931398848
 30
0.0
 10
18.7991056154571
 20
-5.362305186852256
 30
0.0
 10
19.24853470030781
 20
-5.31630777943459
 30
0.0
 10
19.39211731901117
 20
-5.301612628557143
 30
0.0
  0
SPLINE
  5
B9
330
1F
100
AcDbEntity
  8
0
  6
Continuous
 62
     1
370
    15
100
AcDbSpline
210
0.0
220
0.0
230
1.0
 70
     8
 71
     3
 72
    23
 73
    19
 74
     0
 42
0.000000001
 43
0.00000001
 40
0.0
 40
0.0
 40
0.0
 40
0.0
 40
0.0131052870284699
 40
0.0811644508618149
 40
0.1474294442123595
 40
0.2156186960219623
 40
0.2818169635516009
 40
0.3499352232033573
 40
0.416106395471172
 40
0.4841941578540622
 40
0.5503832038106037
 40
0.6184871982450415
 40
0.6847329230083092
 40
0.752892295914658
 40
0.8192460265168658
 40
0.8875126615376241
 40
0.9540414067986975
 40
0.9999999999999999
 40
0.9999999999999999
 40
0.9999999999999999
 40
0.9999999999999999
 10
31.14979554255274
 20
4.334633166808661
 30
0.0
 10
31.21335574238345
 20
4.364339133601363
 30
0.0
 10
31.60700059004833
 20
4.548315911585016
 30
0.0
 10
32.3280790786922
 20
4.656790760363978
 30
0.0
 10
33.32252405655538
 20
4.632312453788419
 30
0.0
 10
34.31470130139815
 20
4.345685548224173
 30
0.0
 10
35.32217063504092
 20
3.833800333410751
 30
0.0
 10
36.32607432308844
 20
3.128109141885904
 30
0.0
 10
37.34581726427467
 20
2.257933720945002
 30
0.0
 10
38.36260656241315
 20
1.287044851319956
 30
0.0
 10
39.39557799354492
 20
0.2535388847465352
 30
0.0
 10
40.42620356127244
 20
-0.7657188495301444
 30
0.0
 10
41.47356443206099
 20
-1.730167707962971
 30
0.0
 10
42.51898498319534
 20
-2.566977053448272
 30
0.0
 10
43.58183085418006
 20
-3.244832045455769
 30
0.0
 10
44.64367286922971
 20
-3.701228336909146
 30
0.0
 10
45.60321860511725
 20
-3.933097854222202
 30
0.0
 10
46.20578304738945
 20
-3.900901870939648
 30
0.0
 10
46.45197088024693
 20
-3.887747660709189
 30
0.0
  0
SPLINE
  5
BA
330
1F
100
AcDbEntity
  8
0
  6
Continuous
 62
     1
370
    15
100
AcDbSpline
210
0.0
220
0.0
230
1.0
 70
     8
 71
     3
 72
    10
 73
     6
 74
     0
 42
0.000000001
 43
0.00000001
 40
0.0
 40
0.0
 40
0.0
 40
0.0
 40
0.1807901730336838
 40
0.5848971587856743
 40
1.0
 40
1.0
 40
1.0
 40
1.0
 10
57.73408891655237
 20
2.808038359042664
 30
0.0
 10
57.90954411539913
 20
2.876747770012034
 30
0.0
 10
58.4771814243171
 20
3.099038277197589
 30
0.0
 10
59.45640545835155
 20
3.246183965785409
 30
0.0
 10
60.26512227027953
 20
3.188042602166272
 30
0.0
 10
60.67490818265349
 20
3.158581718719899
 30
0.0
  0
SPLINE
  5
BB
330
1F
100
AcDbEntity
  8
0
  6
Continuous
 62
     1
370
    15
100
AcDbSpline
210
0.0
220
0.0
230
1.0
 70
     8
 71
     3
 72
    14
 73
    10
 74
     0
 42
0.000000001
 43
0.00000001
 40
0.0
 40
0.0
 40
0.0
 40
0.0
 40
0.0715921770178768
 40
0.2468112309327893
 40
0.4229329226808312
 40
0.5765604744284519
 40
0.7217944625107376
 40
0.9257360411752248
 40
1.0
 40
1.0
 40
1.0
 40
1.0
 10
59.12232379558656
 20
1.598548020666474
 30
0.0
 10
59.17458510430273
 20
1.57846575532105
 30
0.0
 10
59.3547539226245
 20
1.509232930782337
 30
0.0
 10
59.69356334359143
 20
1.517531979830537
 30
0.0
 10
60.08055184457761
 20
1.682420412013366
 30
0.0
 10
60.37731931536869
 20
1.993732509549962
 30
0.0
 10
60.58746651576472
 20
2.420097073649007
 30
0.0
 10
60.6667952159082
 20
2.824670069568223
 30
0.0
 10
60.6731988119574
 20
3.088227826480074
 30
0.0
 10
60.6749081826537
 20
3.158581718727841
 30
0.0
  0
LINE
  5
BC
330
1F
100
AcDbEntity
  8
0
  6
Continuous
 62
     4
370
    15
100
AcDbLine
 10
-40.11509181734632
 20
6.354835151814085
 30
0.0
 11
-40.11509181734632
 21
-6.345164848185906
 31
0.0
  0
LINE
  5
BD
330
1F
100
AcDbEntity
  8
0
  6
Continuous
 62
     4
370
    15
100
AcDbLine
 10
-40.9250918173463
 20
-5.535164848185927
 30
0.0
 11
-40.9250918173463
 21
5.544835151814105
 31
0.0
  0
LINE
  5
BE
330
1F
100
AcDbEntity
  8
0
  6
Continuous
 62
     4
370
    15
100
AcDbLine
 10
8.354908182653698
 20
2.25585132171296
 30
0.0
 11
8.354908182653698
 21
5.390404622349799
 31
0.0
  0
LINE
  5
BF
330
1F
100
AcDbEntity
  8
0
  6
Continuous
 62
     4
370
    15
100
AcDbLine
 10
8.442669401055701
 20
2.130824444525225
 30
0.0
 11
8.4426694010557
 21
-5.661735935754917
 31
0.0
  0
SPLINE
  5
C0
330
1F
100
AcDbEntity
  8
0
  6
Continuous
 62
     4
370
    15
100
AcDbSpline
210
0.0
220
0.0
230
1.0
 70
     8
 71
     3
 72
     8
 73
     4
 74
     0
 42
0.000000001
 43
0.00000001
 40
0.0
 40
0.0
 40
0.0
 40
0.0
 40
0.0001575782724877
 40
0.0001575782724877
 40
0.0001575782724877
 40
0.0001575782724877
 10
8.3549081826537
 20
-5.601470839344192
 30
0.0
 10
8.384161789442661
 20
-5.62195725818304
 30
0.0
 10
8.41341633616975
 20
-5.642047511160466
 30
0.0
 10
8.44266940105572
 20
-5.661735935754931
 30
0.0
  0
LINE
  5
C1
330
1F
100
AcDbEntity
  8
0
  6
Continuous
 62
     4
370
    15
100
AcDbLine
 10
8.3549081826537
 20
-6.345164848185901
 30
0.0
 11
8.3549081826537
 21
-5.601470839344192
 31
0.0
  0
SPLINE
  5
C2
330
1F
100
AcDbEntity
  8
0
  6
Continuous
 62
     4
370
    15
100
AcDbSpline
210
0.0
220
0.0
230
1.0
 70
     8
 71
     3
 72
     8
 73
     4
 74
     0
 42
0.000000001
 43
0.00000001
 40
0.0
 40
0.0
 40
0.0
 40
0.0
 40
0.0001595024737626
 40
0.0001595024737626
 40
0.0001595024737626
 40
0.0001595024737626
 10
8.442669401055703
 20
-6.240051248086515
 30
0.0
 10
8.413414615934975
 20
-6.248095571512119
 30
0.0
 10
8.384160001883762
 20
-6.255682449824312
 30
0.0
 10
8.3549081826537
 20
-6.262809614724063
 30
0.0
  0
LINE
  5
C3
330
1F
100
AcDbEntity
  8
0
  6
Continuous
 62
     4
370
    15
100
AcDbLine
 10
8.4426694010557
 20
6.354835151814092
 30
0.0
 11
8.442669401055698
 21
5.319925297525439
 31
0.0
  0
LINE
  5
C4
330
1F
100
AcDbEntity
  8
0
  6
Continuous
 62
     4
370
    15
100
AcDbLine
 10
8.858908182653703
 20
1.42773030473735
 30
0.0
 11
8.858908182654705
 21
-5.488058002158004
 31
0.0
  0
SPLINE
  5
C5
330
1F
100
AcDbEntity
  8
0
  6
Continuous
 62
     4
370
    15
100
AcDbSpline
210
0.0
220
0.0
230
1.0
 70
     8
 71
     3
 72
     8
 73
     4
 74
     0
 42
0.000000001
 43
0.00000001
 40
0.0
 40
0.0
 40
0.0
 40
0.0
 40
1.0
 40
1.0
 40
1.0
 40
1.0
 10
8.4426694010557
 20
-5.661735935754917
 30
0.0
 10
8.584112780534827
 20
-5.611609252533947
 30
0.0
 10
8.722885149280136
 20
-5.554177822098802
 30
0.0
 10
8.858908182653705
 20
-5.488058002156839
 30
0.0
  0
SPLINE
  5
C6
330
1F
100
AcDbEntity
  8
0
  6
Continuous
 62
     1
370
    15
100
AcDbSpline
210
0.0
220
0.0
230
1.0
 70
     8
 71
     3
 72
    23
 73
    19
 74
     0
 42
0.000000001
 43
0.00000001
 40
0.0
 40
0.0
 40
0.0
 40
0.0
 40
0.0126495794685049
 40
0.0784557385238322
 40
0.1461776625816458
 40
0.2118238160553024
 40
0.2793782735843712
 40
0.3449114606050271
 40
0.4123469728451837
 40
0.4778176455775171
 40
0.5451864573183678
 40
0.6106414447029789
 40
0.6779920214495169
 40
0.7434698952664275
 40
0.8108421804227844
 40
0.876373700554449
 40
0.9437993840946496
 40
1.0
 40
1.0
 40
1.0
 40
1.0
 10
53.29281236821037
 20
-3.064986877950783
 30
0.0
 10
53.2259058115413
 20
-3.101536960373713
 30
0.0
 10
52.81093523258822
 20
-3.328229374673934
 30
0.0
 10
52.04440059115154
 20
-3.562143685053238
 30
0.0
 10
51.0040663187294
 20
-3.717450246149284
 30
0.0
 10
49.96205159865431
 20
-3.617649260721145
 30
0.0
 10
48.93734480205348
 20
-3.291098392065175
 30
0.0
 10
47.9101400350069
 20
-2.745517388778961
 30
0.0
 10
46.89962569538606
 20
-2.024802237966385
 30
0.0
 10
45.88618932924286
 20
-1.158748498981266
 30
0.0
 10
44.88875588104598
 20
-0.2137483194319363
 30
0.0
 10
43.88809661001479
 20
0.7711035102866894
 30
0.0
 10
42.90270496942192
 20
1.72166621521369
 30
0.0
 10
41.9139716608619
 20
2.598802769870884
 30
0.0
 10
40.93977879294621
 20
3.339087248120757
 30
0.0
 10
39.96227984369222
 20
3.904987890052081
 30
0.0
 10
39.04395773158803
 20
4.265565663983482
 30
0.0
 10
38.44836647108711
 20
4.320133192509547
 30
0.0
 10
38.17761020144127
 20
4.344939635194895
 30
0.0
  0
SPLINE
  5
C7
330
1F
100
AcDbEntity
  8
0
  6
Continuous
 62
     1
370
    15
100
AcDbSpline
210
0.0
220
0.0
230
1.0
 70
     8
 71
     3
 72
    24
 73
    20
 74
     0
 42
0.000000001
 43
0.00000001
 40
0.0
 40
0.0
 40
0.0
 40
0.0
 40
0.0549827657935536
 40
0.1137067241759603
 40
0.1741199693732034
 40
0.2330722015373684
 40
0.2937196445625032
 40
0.3529135136687372
 40
0.4138089594777712
 40
0.4732569049927455
 40
0.5344132078246936
 40
0.5941267070267668
 40
0.6555557232018281
 40
0.7155453385349055
 40
0.777257969438223
 40
0.8375334336660094
 40
0.8995397190193567
 40
0.9601100352058085
 40
1.0
 40
1.0
 40
1.0
 40
1.0
 10
26.74727614311591
 20
-4.574496986069427
 30
0.0
 10
26.46625157399333
 20
-4.700302656316676
 30
0.0
 10
25.88508067968309
 20
-4.960474192617473
 30
0.0
 10
25.00150444799213
 20
-5.073664653460763
 30
0.0
 10
24.10204757046343
 20
-4.968980257422244
 30
0.0
 10
23.19810699252038
 20
-4.620128626634382
 30
0.0
 10
22.30491702132505
 20
-4.053961589414304
 30
0.0
 10
21.40701045265995
 20
-3.284301549279593
 30
0.0
 10
20.51968104458086
 20
-2.358205554890118
 30
0.0
 10
19.62751990402225
 20
-1.301998610588894
 30
0.0
 10
18.7457430510506
 20
-0.1799871249043166
 30
0.0
 10
17.85904296274898
 20
0.9754894469030883
 30
0.0
 10
16.98253918388062
 20
2.094005093355931
 30
0.0
 10
16.10103858330786
 20
3.1433548706932
 30
0.0
 10
15.22955506394272
 20
4.058615965722572
 30
0.0
 10
14.35298251615566
 20
4.816322713958475
 30
0.0
 10
13.48640211645246
 20
5.357150238921295
 30
0.0
 10
12.7198533453561
 20
5.669062417687728
 30
0.0
 10
12.24891195134546
 20
5.690112861897279
 30
0.0
 10
12.0619143096523
 20
5.698471403902381
 30
0.0
  0
LINE
  5
C8
102
{ACAD_REACTORS
102
}
330
1F
100
AcDbEntity
  8
0
  6
Continuous
 62
     1
370
    15
100
AcDbLine
 10
60.6749081826537
 20
3.179835151814099
 30
0.0
 11
60.6749081826537
 21
3.179114159171552
 31
0.0
  0
SPLINE
  5
C9
330
1F
100
AcDbEntity
  8
0
  6
Continuous
 62
     1
370
    15
100
AcDbSpline
210
0.0
220
0.0
230
1.0
 70
     8
 71
     3
 72
    23
 73
    19
 74
     0
 42
0.000000001
 43
0.00000001
 40
0.0
 40
0.0
 40
0.0
 40
0.0
 40
0.0639879520054415
 40
0.1265462693683031
 40
0.1909327321761312
 40
0.2532311824739092
 40
0.3173493424006126
 40
0.3794027409881117
 40
0.4432677752243929
 40
0.5050922003793376
 40
0.5687205461997891
 40
0.630334079660568
 40
0.6937445133952223
 40
0.7551631083357233
 40
0.8183720110937908
 40
0.8796125644926055
 40
0.9426370609762196
 40
1.0
 40
1.0
 40
1.0
 40
1.0
 10
13.46582976259357
 20
5.334188165250955
 30
0.0
 10
13.7701829938796
 20
5.428775709987476
 30
0.0
 10
14.37208952131713
 20
5.615837501152416
 30
0.0
 10
15.28649292151394
 20
5.575811921286551
 30
0.0
 10
16.19762762386583
 20
5.3027712965617
 30
0.0
 10
17.12146028463324
 20
4.783215775614098
 30
0.0
 10
18.03913949278944
 20
4.058634200639728
 30
0.0
 10
18.96972700137131
 20
3.148932040325955
 30
0.0
 10
19.89432641597876
 20
2.115146709763858
 30
0.0
 10
20.83201672382989
 20
0.9873642215571864
 30
0.0
 10
21.7640265396888
 20
-0.1595403996569185
 30
0.0
 10
22.7092070587924
 20
-1.292208829384871
 30
0.0
 10
23.64908395110854
 20
-2.33544042417108
 30
0.0
 10
24.60223275174283
 20
-3.258554447090285
 30
0.0
 10
25.5503372276217
 20
-4.002014475497524
 30
0.0
 10
26.51209345495749
 20
-4.537650946408306
 30
0.0
 10
27.44928914998342
 20
-4.849882643386275
 30
0.0
 10
28.07514001640525
 20
-4.854125888517002
 30
0.0
 10
28.37334925175631
 20
-4.85614773581918
 30
0.0
  0
SPLINE
  5
CA
330
1F
100
AcDbEntity
  8
0
  6
Continuous
 62
     1
370
    15
100
AcDbSpline
210
0.0
220
0.0
230
1.0
 70
     8
 71
     3
 72
    22
 73
    18
 74
     0
 42
0.000000001
 43
0.00000001
 40
0.0
 40
0.0
 40
0.0
 40
0.0
 40
0.0275110188597851
 40
0.0965401211966837
 40
0.1675632754362174
 40
0.2367049215808231
 40
0.3078398446552348
 40
0.3771638588672214
 40
0.4484821941580192
 40
0.5180627708264741
 40
0.5896411394669475
 40
0.6595495021868228
 40
0.7314592208830796
 40
0.8017998531906004
 40
0.8741477891995798
 40
0.9450373216587183
 40
1.0
 40
1.0
 40
1.0
 40
1.0
 10
40.0298569140886
 20
3.836685955696937
 30
0.0
 10
40.16542214456754
 20
3.893788529150392
 30
0.0
 10
40.64114003226906
 20
4.094169670609944
 30
0.0
 10
41.47384382683913
 20
4.196709878506231
 30
0.0
 10
42.51889948219744
 20
4.133093628178393
 30
0.0
 10
43.58189805973821
 20
3.811755525608898
 30
0.0
 10
44.64348707704182
 20
3.277115464629051
 30
0.0
 10
45.72324048280414
 20
2.549013112283182
 30
0.0
 10
46.80269326063183
 20
1.686431792468129
 30
0.0
 10
47.90099300694713
 20
0.7295668201092211
 30
0.0
 10
48.99982999608502
 20
-0.2450479118175905
 30
0.0
 10
50.11844886237235
 20
-1.189876190007842
 30
0.0
 10
51.23862615135938
 20
-2.027987406190867
 30
0.0
 10
52.37948780142576
 20
-2.719349814840066
 30
0.0
 10
53.5236394068657
 20
-3.196989204056012
 30
0.0
 10
54.59194590764771
 20
-3.451244297988141
 30
0.0
 10
55.27675870959626
 20
-3.425087851778948
 30
0.0
 10
55.57583288173917
 20
-3.413664704498472
 30
0.0
  0
SPLINE
  5
CB
330
1F
100
AcDbEntity
  8
0
  6
Continuous
 62
     4
370
    15
100
AcDbSpline
210
0.0
220
0.0
230
1.0
 70
     8
 71
     3
 72
     8
 73
     4
 74
     0
 42
0.000000001
 43
0.00000001
 40
0.0
 40
0.0
 40
0.0
 40
0.0
 40
1.0
 40
1.0
 40
1.0
 40
1.0
 10
8.858908182654705
 20
-5.488058002158004
 30
0.0
 10
9.197342852147607
 20
-5.640320917327492
 30
0.0
 10
9.534547481123903
 20
-5.739113010820187
 30
0.0
 10
9.874908182653689
 20
-5.782869389099117
 30
0.0
  0
SPLINE
  5
CC
330
1F
100
AcDbEntity
  8
0
  6
Continuous
 62
     1
370
    15
100
AcDbSpline
210
0.0
220
0.0
230
1.0
 70
     8
 71
     3
 72
    20
 73
    16
 74
     0
 42
0.000000001
 43
0.00000001
 40
0.0
 40
0.0
 40
0.0
 40
0.0
 40
0.0743389556888176
 40
0.1503570472369481
 40
0.2341752327450395
 40
0.3204420870134672
 40
0.4038945833457444
 40
0.4897808110981426
 40
0.5729542634487218
 40
0.658549081693263
 40
0.7415203004411831
 40
0.8269034550732471
 40
0.9097318937223012
 40
0.9949647115095832
 40
1.0
 40
1.0
 40
1.0
 40
1.0
 10
59.33243306858495
 20
-3.225692174832888
 30
0.0
 10
59.01141682739163
 20
-3.20040371626403
 30
0.0
 10
58.3621333703711
 20
-3.149255594470339
 30
0.0
 10
57.35813470622888
 20
-2.828447389234137
 30
0.0
 10
56.30871621577747
 20
-2.311145762855447
 30
0.0
 10
55.23450751144763
 20
-1.595693984462895
 30
0.0
 10
54.15861794513863
 20
-0.7458383354557956
 30
0.0
 10
53.10235224466685
 20
0.166722401975446
 30
0.0
 10
52.04401568151229
 20
1.097074419482392
 30
0.0
 10
51.0041593079207
 20
1.967862132544418
 30
0.0
 10
49.96205426237275
 20
2.735756025968952
 30
0.0
 10
48.93723649209549
 20
3.346101731382019
 30
0.0
 10
47.91055973004604
 20
3.738355817222133
 30
0.0
 10
47.21175728149719
 20
3.919558420232415
 30
0.0
 10
46.85039360084373
 20
3.899970359670538
 30
0.0
 10
46.83023620021709
 20
3.898877708678246
 30
0.0
  0
SPLINE
  5
CD
330
1F
100
AcDbEntity
  8
0
  6
Continuous
 62
     1
370
    15
100
AcDbSpline
210
0.0
220
0.0
230
1.0
 70
     8
 71
     3
 72
    24
 73
    20
 74
     0
 42
0.000000001
 43
0.00000001
 40
0.0
 40
0.0
 40
0.0
 40
0.0
 40
0.0262909250678554
 40
0.086810783271407
 40
0.1490760732468992
 40
0.2097503182433078
 40
0.2721734075356999
 40
0.3330213654215516
 40
0.3956222052128228
 40
0.4566608575285265
 40
0.519456929666334
 40
0.5807044888694762
 40
0.6437146717963931
 40
0.7051864411034477
 40
0.7684265423185612
 40
0.8301372667920872
 40
0.893622524417717
 40
0.9555861925068998
 40
1.0
 40
1.0
 40
1.0
 40
1.0
 10
35.5752163781133
 20
-4.071401857483032
 30
0.0
 10
35.43946360717734
 20
-4.143848837736882
 30
0.0
 10
34.99121751671844
 20
-4.383063665106134
 30
0.0
 10
34.22732511464321
 20
-4.567166099326855
 30
0.0
 10
33.29129832970204
 20
-4.606935328270407
 30
0.0
 10
32.35139236175817
 20
-4.396084620712617
 30
0.0
 10
31.42372374736055
 20
-3.963049251841796
 30
0.0
 10
30.49181877958327
 20
-3.316697414289165
 30
0.0
 10
29.57182634910299
 20
-2.499819938866083
 30
0.0
 10
28.64753309668718
 20
-1.537908834309685
 30
0.0
 10
27.73479079539146
 20
-0.4933614815857668
 30
0.0
 10
26.81767027485204
 20
0.6007643625509017
 30
0.0
 10
25.91178899733157
 20
1.673664911861439
 30
0.0
 10
25.00142974666901
 20
2.69155011685975
 30
0.0
 10
24.10207461035656
 20
3.587951035183721
 30
0.0
 10
23.19807276588386
 20
4.337250230177928
 30
0.0
 10
22.30502898698224
 20
4.879762798187521
 30
0.0
 10
21.49840130683468
 20
5.202675843192236
 30
0.0
 10
20.99664218940952
 20
5.231979890366491
 30
0.0
 10
20.78715204380073
 20
5.244214663779206
 30
0.0
  0
ELLIPSE
  5
CE
330
1F
100
AcDbEntity
  8
0
  6
Continuous
 62
     1
370
    15
100
AcDbEllipse
 10
54.47150376884154
 20
0.2510056868325896
 30
0.0
 11
4.967195799306331
 21
-3.402065395899429
 31
0.0
210
0.0
220
0.0
230
1.0
 40
0.1646245233453012
 41
6.071159200655952
 42
6.160163624831819
  0
ELLIPSE
  5
CF
330
1F
100
AcDbEntity
  8
0
  6
Continuous
 62
     1
370
    15
100
AcDbEllipse
 10
60.33361654133337
 20
-0.1146523381761251
 30
0.0
 11
4.412446413512058
 21
2.240382093109618
 31
0.0
210
0.0
220
0.0
230
1.0
 40
0.5134284556394978
 41
4.149383338854104
 42
4.53229184907786
  0
LINE
  5
D0
330
1F
100
AcDbEntity
  8
0
  6
Continuous
 62
     4
370
    15
100
AcDbLine
 10
9.060030617345861
 20
-5.550404121587249
 30
0.0
 11
8.858908182653703
 21
-5.654385877084556
 31
0.0
  0
SPLINE
  5
D1
330
1F
100
AcDbEntity
  8
0
  6
Continuous
 62
     4
370
    15
100
AcDbSpline
210
0.0
220
0.0
230
1.0
 70
     8
 71
     3
 72
     8
 73
     4
 74
     0
 42
0.000000001
 43
0.00000001
 40
0.0
 40
0.0
 40
0.0
 40
0.0
 40
1.0
 40
1.0
 40
1.0
 40
1.0
 10
8.858908182653705
 20
-5.654385877084554
 30
0.0
 10
8.711499730848974
 20
-5.863071546314509
 30
0.0
 10
8.574366230531838
 20
-6.058072853074453
 30
0.0
 10
8.442669401055705
 20
-6.240051248086512
 30
0.0
  0
SPLINE
  5
D2
330
1F
100
AcDbEntity
  8
0
  6
Continuous
 62
     1
370
    15
100
AcDbSpline
210
0.0
220
0.0
230
1.0
 70
     8
 71
     3
 72
    12
 73
     8
 74
     0
 42
0.000000001
 43
0.00000001
 40
0.0
 40
0.0
 40
0.0
 40
0.0
 40
0.1614656906013044
 40
0.3533329956507984
 40
0.5526703306766418
 40
0.8274555971569856
 40
1.0
 40
1.0
 40
1.0
 40
1.0
 10
58.56821550118748
 20
-2.461548029485822
 30
0.0
 10
58.62823702257789
 20
-2.388820630614068
 30
0.0
 10
58.75958123494532
 20
-2.229672333452295
 30
0.0
 10
58.99948179369538
 20
-1.992857665583524
 30
0.0
 10
59.31234954550582
 20
-1.738472318853208
 30
0.0
 10
59.64452463570564
 20
-1.522336515041466
 30
0.0
 10
59.85512434166618
 20
-1.460766810931172
 30
0.0
 10
59.93635704988076
 20
-1.437018089222189
 30
0.0
  0
SPLINE
  5
D3
330
1F
100
AcDbEntity
  8
0
  6
Continuous
 62
     1
370
    15
100
AcDbSpline
210
0.0
220
0.0
230
1.0
 70
     8
 71
     3
 72
     8
 73
     4
 74
     0
 42
0.000000001
 43
0.00000001
 40
0.0
 40
0.0
 40
0.0
 40
0.0
 40
1.0
 40
1.0
 40
1.0
 40
1.0
 10
58.56821550118749
 20
-2.461548029485811
 30
0.0
 10
58.82588476853075
 20
-2.716682702308558
 30
0.0
 10
59.07892599930856
 20
-2.971154010235906
 30
0.0
 10
59.33243306858517
 20
-3.225692174832896
 30
0.0
  0
LINE
  5
D4
330
1F
100
AcDbEntity
  8
0
  6
Continuous
 62
     4
370
    15
100
AcDbLine
 10
8.858908182653703
 20
5.892555151814096
 30
0.0
 11
8.858908182654705
 21
4.587045520273325
 31
0.0
  0
LINE
  5
D5
330
1F
100
AcDbEntity
  8
0
  6
Continuous
 62
     1
370
    15
100
AcDbLine
 10
60.6749081826537
 20
0.0048351518141037
 30
0.0
 11
60.6749081826537
 21
3.158581718727606
 31
0.0
  0
LINE
  5
D6
330
1F
100
AcDbEntity
  8
0
  6
Continuous
 62
     1
370
    15
100
AcDbLine
 10
60.6749081826537
 20
-1.889655344271466
 30
0.0
 11
60.67490818265368
 21
-2.744795505201482
 31
0.0
  0
LINE
  5
D7
330
1F
100
AcDbEntity
  8
0
  6
Continuous
 62
     4
370
    15
100
AcDbLine
 10
9.874908182653686
 20
5.842150339392592
 30
0.0
 11
9.874908182653686
 21
3.556367861139306
 31
0.0
  0
LINE
  5
D8
102
{ACAD_REACTORS
102
}
330
1F
100
AcDbEntity
  8
중심선
100
AcDbLine
 10
-43.92509181734628
 20
0.0048351518140893
 30
0.0
 11
63.67490428620231
 21
0.0048351518140893
 31
0.0
  0
CIRCLE
  5
D9
330
1F
100
AcDbEntity
  8
외형선
100
AcDbCircle
 10
-0.0000000000000013
 20
-0.0000000000000039
 30
0.0
 40
3.000000000000004
  0
INSERT
  5
DA
330
1F
100
AcDbEntity
  8
0
  6
Continuous
 62
     7
100
AcDbBlockReference
 66
     1
  2
블럭10
 10
-16.63945112874702
 20
-52.04717430164393
 30
0.0
  0
ATTRIB
  5
DB
330
DA
100
AcDbEntity
  8
FORMAT
 62
     2
100
AcDbText
 10
-25.8207464174883
 20
-49.97180738881174
 30
0.0
 40
4.233333333333333
  1
E5077316 [ 3 FLUTE ]
 41
0.75
  7
SLDTEXTSTYLE0
 11
-25.8207464174883
 21
-52.08847405547841
 31
0.0
100
AcDbAttribute
  2
AUTOATTR0
 70
     0
 74
     1
  0
SEQEND
  5
DC
330
DA
100
AcDbEntity
  8
0
  6
Continuous
 62
     7
  0
HATCH
  5
DD
330
1F
100
AcDbEntity
  8
중심선
100
AcDbHatch
 10
0.0
 20
0.0
 30
0.0
210
0.0
220
0.0
230
1.0
  2
SOLID
 70
     1
 71
     0
 91
        1
 92
        0
 93
        4
 72
     1
 10
-10.92454182436617
 20
-35.8
 11
-14.37081706820345
 21
-35.8
 72
     1
 10
-14.37081706820345
 20
-35.8
 11
-16.49904692740747
 21
-38.33632558057259
 72
     1
 10
-16.49904692740747
 20
-38.33632558057259
 11
-13.05273859845704
 21
-38.3362861512701
 72
     1
 10
-13.05273859845704
 20
-38.3362861512701
 11
-10.92454182436617
 21
-35.8
 97
        0
 75
     0
 76
     1
 98
        1
 10
0.0
 20
0.0
  0
HATCH
  5
DE
330
1F
100
AcDbEntity
  8
중심선
100
AcDbHatch
 10
0.0
 20
0.0
 30
0.0
210
0.0
220
0.0
230
1.0
  2
SOLID
 70
     1
 71
     0
 91
        1
 92
        0
 93
        4
 72
     1
 10
-5.911777833330217
 20
-35.8
 11
-9.358053077167499
 21
-35.8
 72
     1
 10
-9.358053077167499
 20
-35.8
 11
-13.88919108552489
 21
-41.20000000000002
 72
     1
 10
-13.88919108552489
 20
-41.20000000000002
 11
-10.44291584168761
 21
-41.20000000000002
 72
     1
 10
-10.44291584168761
 20
-41.20000000000002
 11
-5.911777833330217
 21
-35.8
 97
        0
 75
     0
 76
     1
 98
        1
 10
0.0
 20
0.0
  0
HATCH
  5
DF
330
1F
100
AcDbEntity
  8
중심선
100
AcDbHatch
 10
0.0
 20
0.0
 30
0.0
210
0.0
220
0.0
230
1.0
  2
SOLID
 70
     1
 71
     0
 91
        1
 92
        0
 93
        4
 72
     1
 10
-0.8990138422943217
 20
-35.80000000000003
 11
-4.345289086131437
 21
-35.8
 72
     1
 10
-4.345289086131437
 20
-35.8
 11
-11.39372598802069
 21
-44.20000000000002
 72
     1
 10
-11.39372598802069
 20
-44.20000000000002
 11
-7.947450744183405
 21
-44.20000000000002
 72
     1
 10
-7.947450744183405
 20
-44.20000000000002
 11
-0.8990138422943215
 21
-35.80000000000003
 97
        0
 75
     0
 76
     1
 98
        1
 10
0.0
 20
0.0
  0
HATCH
  5
E0
330
1F
100
AcDbEntity
  8
중심선
100
AcDbHatch
 10
0.0
 20
0.0
 30
0.0
210
0.0
220
0.0
230
1.0
  2
SOLID
 70
     1
 71
     0
 91
        1
 92
        0
 93
        6
 72
     3
 10
3.900876588717877
 20
-40.00000000005127
 11
3.960054785062284
 21
1.540850780301639E-10
 40
0.3939339440162633
 50
17.09539180608433
 51
320.0019657685079
 73
     0
 72
     1
 10
5.583876244418473
 20
-38.5878940046383
 11
7.889178118119511
 21
-36.65356729459038
 72
     3
 10
3.900876588665031
 20
-40.00000000000015
 11
6.600054785286829
 21
-1.249000902703301E-13
 40
0.6363583540795982
 50
39.99873849337408
 51
368.4976242363725
 73
     1
 72
     1
 10
10.32620908056564
 20
-39.03999999993002
 11
2.580943895500953
 21
-39.03999999992999
 72
     1
 10
2.580943895500953
 20
-39.03999999992999
 11
2.58091885105502
 21
-40.95999999992991
 72
     1
 10
2.58091885105502
 20
-40.95999999992991
 11
7.022298620527057
 21
-40.95999999992988
 97
        0
 75
     0
 76
     1
 98
        1
 10
0.0
 20
0.0
  0
POINT
  5
E1
330
1F
100
AcDbEntity
  8
치수문자_일반주서
100
AcDbPoint
 10
-0.0000000000000013
 20
-0.0000000000000039
 30
0.0
  0
DIMENSION
  5
E2
330
1F
100
AcDbEntity
  8
치수문자_일반주서
100
AcDbDimension
  2
_D
 10
9.874908182653684
 20
60.67225255153843
 30
0.0
 11
35.27490818265369
 21
60.67225255153843
 31
0.0
 70
   160
  1
<>
 71
     2
 42
50.80000000000001
  3
SLDDIMSTYLE0
100
AcDbAlignedDimension
 13
60.6749081826537
 23
3.158581718727606
 33
0.0
 14
9.874908182653684
 24
5.842150339392592
 34
0.0
100
AcDbRotatedDimension
  0
DIMENSION
  5
F8
330
1F
100
AcDbEntity
  8
치수문자_일반주서
100
AcDbDimension
  2
_D_1
 10
-40.9250918173463
 20
81.01842037401389
 30
0.0
 11
13.74263261884118
 21
81.01842037401389
 31
0.0
 70
   160
  1
<>
 71
     2
 42
101.6
  3
SLDDIMSTYLE1
100
AcDbAlignedDimension
 13
60.6749081826537
 23
3.158581718727606
 33
0.0
 14
-40.9250918173463
 24
5.544835151814106
 34
0.0
 50
0.000000000000004
100
AcDbRotatedDimension
  0
DIMENSION
  5
10C
330
1F
100
AcDbEntity
  8
치수문자_일반주서
100
AcDbDimension
  2
_D_2
 10
-53.92509181734626
 20
-6.345164848185959
 30
0.0
 11
-53.92509181734637
 21
26.74008515181404
 31
0.0
 70
   160
  1
%%c<>
 71
     2
 42
12.69999999999999
  3
SLDDIMSTYLE0
100
AcDbAlignedDimension
 13
-40.11509181734632
 23
6.354835151814086
 33
0.0
 14
-40.11509181734632
 24
-6.345164848185906
 34
0.0
 50
90.0000000000002
100
AcDbRotatedDimension
  0
INSERT
  5
126
330
1F
100
AcDbEntity
  8
외형선
100
AcDbBlockReference
  2
SW_DOWELSYMBOL_0
 10
-0.0000000000000013
 20
-0.0000000000000039
 30
0.0
  0
DIMENSION
  5
14E
102
{ACAD_REACTORS
102
}
102
{ACAD_XDICTIONARY
360
14F
102
}
330
1F
100
AcDbEntity
  8
치수문자_일반주서
100
AcDbDimension
  2
*D6
 10
82.92261149922952
 20
-3.170164848185912
 30
0.0
 11
82.92261149922952
 21
23.12686415917155
 31
0.0
 70
   160
  1
{%%c<>[]}
 71
     5
 42
6.349279007357463
  3
SLDDIMSTYLE0
100
AcDbAlignedDimension
 13
60.6749081826537
 23
3.179114159171552
 33
0.0
 14
60.67490818265368
 24
-3.170164848185911
 34
0.0
 50
90.0
100
AcDbRotatedDimension
1001
ACAD
1000
DSTYLE
1002
{
1070
   283
1070
     1
1070
   170
1070
     1
1002
}
  0
DIMENSION
  5
162
102
{ACAD_REACTORS
102
}
102
{ACAD_XDICTIONARY
360
163
102
}
330
1F
100
AcDbEntity
  8
치수문자_일반주서
100
AcDbDimension
  2
*D7
 10
14.9119812292024
 20
5.578168526936511
 30
0.0
 11
29.10978306671962
 21
14.25476762222262
 31
0.0
 70
    34
  1
<>
 71
     5
 42
0.05235987755983
  3
SLDDIMSTYLE0
100
AcDb2LineAngularDimension
 13
-43.92509181734628
 23
0.0048351518140893
 33
0.0
 14
63.67490428620231
 24
0.0048351518140893
 34
0.0
 15
20.78851348563398
 25
5.270192521491772
 35
0.0
 16
30.69022505199219
 26
1.585693116040276
 36
0.0
  0
ENDSEC
  0
SECTION
  2
OBJECTS
  0
DICTIONARY
  5
C
330
0
100
AcDbDictionary
281
     1
  3
ACAD_GROUP
350
D
  3
ACAD_IMAGE_VARS
350
14A
  3
ACAD_LAYOUT
350
1A
  3
ACAD_MLINESTYLE
350
17
  3
ACAD_PLOTSETTINGS
350
19
  3
ACAD_PLOTSTYLENAME
350
E
  3
ACAD_SCALELIST
350
47
  3
APPDATA
350
148
  3
DWGPROPS
350
175
  0
DICTIONARY
  5
14F
330
14E
100
AcDbDictionary
280
     1
281
     1
  0
DICTIONARY
  5
163
330
162
100
AcDbDictionary
280
     1
281
     1
  0
DICTIONARY
  5
D
102
{ACAD_REACTORS
330
C
102
}
330
C
100
AcDbDictionary
281
     1
  0
RASTERVARIABLES
  5
14A
102
{ACAD_REACTORS
330
C
102
}
330
C
100
AcDbRasterVariables
 90
        0
 70
     1
 71
     1
 72
     1
  0
DICTIONARY
  5
1A
102
{ACAD_REACTORS
330
C
102
}
330
C
100
AcDbDictionary
281
     1
  3
Layout1
350
1E
  3
Layout2
350
26
  3
Model
350
22
  0
DICTIONARY
  5
17
102
{ACAD_REACTORS
330
C
102
}
330
C
100
AcDbDictionary
281
     1
  3
Standard
350
18
  0
DICTIONARY
  5
19
102
{ACAD_REACTORS
330
C
102
}
330
C
100
AcDbDictionary
281
     1
  0
ACDBDICTIONARYWDFLT
  5
E
102
{ACAD_REACTORS
330
C
102
}
330
C
100
AcDbDictionary
281
     1
  3
Normal
350
F
100
AcDbDictionaryWithDefault
340
F
  0
DICTIONARY
  5
47
102
{ACAD_REACTORS
330
C
102
}
330
C
100
AcDbDictionary
281
     1
  3
A0
350
48
  3
A1
350
49
  3
A2
350
4A
  3
A3
350
4B
  3
A4
350
4C
  3
A5
350
4D
  3
A6
350
4E
  3
A7
350
4F
  3
A8
350
50
  3
A9
350
51
  3
B0
350
52
  3
B1
350
53
  3
B2
350
54
  3
B3
350
55
  3
B4
350
56
  3
B5
350
57
  3
B6
350
58
  3
B7
350
59
  3
B8
350
5A
  3
B9
350
5B
  3
C0
350
5C
  3
C1
350
5D
  3
C2
350
5E
  3
C3
350
5F
  3
C4
350
60
  3
C5
350
61
  3
C6
350
62
  3
C7
350
63
  3
C8
350
64
  3
C9
350
65
  3
D0
350
66
  3
D1
350
67
  3
D2
350
68
  0
DICTIONARY
  5
148
102
{ACAD_REACTORS
330
C
102
}
330
C
100
AcDbDictionary
281
     1
  0
XRECORD
  5
175
102
{ACAD_REACTORS
330
C
102
}
330
C
100
AcDbXrecord
280
     1
  1
DWGPROPS COOKIE
  2

  3

  4

  6

  7

  8
12015048
  9

300
=
301
=
302
=
303
=
304
=
305
=
306
=
307
=
308
=
309
=
 40
0.0
 41
2458333.349064305
 42
2458340.083092095
  1

 90
        0
  0
LAYOUT
  5
1E
102
{ACAD_REACTORS
330
1A
102
}
330
1A
100
AcDbPlotSettings
  1

  2
none_device
  4

  6

 40
0.0
 41
0.0
 42
0.0
 43
0.0
 44
0.0
 45
0.0
 46
0.0
 47
0.0
 48
0.0
 49
0.0
140
0.0
141
0.0
142
1.0
143
1.0
 70
   688
 72
     1
 73
     0
 74
     5
  7

 75
    16
147
1.0
148
0.0
149
0.0
100
AcDbLayout
  1
Layout1
 70
     1
 71
     1
 10
0.0
 20
0.0
 11
420.0
 21
297.0
 12
0.0
 22
0.0
 32
0.0
 14
1.000000000000000E+20
 24
1.000000000000000E+20
 34
1.000000000000000E+20
 15
-1.000000000000000E+20
 25
-1.000000000000000E+20
 35
-1.000000000000000E+20
146
0.0
 13
0.0
 23
0.0
 33
0.0
 16
1.0
 26
0.0
 36
0.0
 17
0.0
 27
1.0
 37
0.0
 76
     0
330
1B
  0
LAYOUT
  5
26
102
{ACAD_REACTORS
330
1A
102
}
330
1A
100
AcDbPlotSettings
  1

  2
none_device
  4

  6

 40
0.0
 41
0.0
 42
0.0
 43
0.0
 44
0.0
 45
0.0
 46
0.0
 47
0.0
 48
0.0
 49
0.0
140
0.0
141
0.0
142
1.0
143
1.0
 70
   688
 72
     1
 73
     0
 74
     5
  7

 75
    16
147
1.0
148
0.0
149
0.0
100
AcDbLayout
  1
Layout2
 70
     1
 71
     2
 10
0.0
 20
0.0
 11
0.0
 21
0.0
 12
0.0
 22
0.0
 32
0.0
 14
0.0
 24
0.0
 34
0.0
 15
0.0
 25
0.0
 35
0.0
146
0.0
 13
0.0
 23
0.0
 33
0.0
 16
1.0
 26
0.0
 36
0.0
 17
0.0
 27
1.0
 37
0.0
 76
     0
330
23
  0
LAYOUT
  5
22
102
{ACAD_REACTORS
330
1A
102
}
330
1A
100
AcDbPlotSettings
  1

  2
none_device
  4
ANSI_A_(11.00_x_8.50_Inches)
  6

 40
6.35
 41
19.05
 42
6.35000508
 43
19.05000254
 44
279.4
 45
215.9
 46
130.928189324021
 47
101.644118882377
 48
0.0
 49
0.0
140
0.0
141
0.0
142
0.082661012558327
143
1.0
 70
  1696
 72
     0
 73
     0
 74
     0
  7

 75
     0
147
0.0235690232323232
148
0.0
149
0.0
100
AcDbLayout
  1
Model
 70
     1
 71
     0
 10
0.0
 20
0.0
 11
420.0
 21
297.0
 12
0.0
 22
0.0
 32
0.0
 14
-58.30009181734641
 24
-49.97180738881174
 34
0.0
 15
83.47294483256286
 25
85.39342037401389
 35
0.0
146
0.0
 13
0.0
 23
0.0
 33
0.0
 16
1.0
 26
0.0
 36
0.0
 17
0.0
 27
1.0
 37
0.0
 76
     0
330
1F
331
29
  0
MLINESTYLE
  5
18
102
{ACAD_REACTORS
330
17
102
}
330
17
100
AcDbMlineStyle
  2
Standard
 70
     0
  3

 62
   256
 51
90.0
 52
90.0
 71
     2
 49
0.5
 62
   256
  6
BYLAYER
 49
-0.5
 62
   256
  6
BYLAYER
  0
ACDBPLACEHOLDER
  5
F
102
{ACAD_REACTORS
330
E
102
}
330
E
  0
SCALE
  5
48
102
{ACAD_REACTORS
330
47
102
}
330
47
100
AcDbScale
 70
     0
300
1:1
140
1.0
141
1.0
290
     1
  0
SCALE
  5
49
102
{ACAD_REACTORS
330
47
102
}
330
47
100
AcDbScale
 70
     0
300
1:2
140
1.0
141
2.0
290
     0
  0
SCALE
  5
4A
102
{ACAD_REACTORS
330
47
102
}
330
47
100
AcDbScale
 70
     0
300
1:4
140
1.0
141
4.0
290
     0
  0
SCALE
  5
4B
102
{ACAD_REACTORS
330
47
102
}
330
47
100
AcDbScale
 70
     0
300
1:5
140
1.0
141
5.0
290
     0
  0
SCALE
  5
4C
102
{ACAD_REACTORS
330
47
102
}
330
47
100
AcDbScale
 70
     0
300
1:8
140
1.0
141
8.0
290
     0
  0
SCALE
  5
4D
102
{ACAD_REACTORS
330
47
102
}
330
47
100
AcDbScale
 70
     0
300
1:10
140
1.0
141
10.0
290
     0
  0
SCALE
  5
4E
102
{ACAD_REACTORS
330
47
102
}
330
47
100
AcDbScale
 70
     0
300
1:16
140
1.0
141
16.0
290
     0
  0
SCALE
  5
4F
102
{ACAD_REACTORS
330
47
102
}
330
47
100
AcDbScale
 70
     0
300
1:20
140
1.0
141
20.0
290
     0
  0
SCALE
  5
50
102
{ACAD_REACTORS
330
47
102
}
330
47
100
AcDbScale
 70
     0
300
1:30
140
1.0
141
30.0
290
     0
  0
SCALE
  5
51
102
{ACAD_REACTORS
330
47
102
}
330
47
100
AcDbScale
 70
     0
300
1:40
140
1.0
141
40.0
290
     0
  0
SCALE
  5
52
102
{ACAD_REACTORS
330
47
102
}
330
47
100
AcDbScale
 70
     0
300
1:50
140
1.0
141
50.0
290
     0
  0
SCALE
  5
53
102
{ACAD_REACTORS
330
47
102
}
330
47
100
AcDbScale
 70
     0
300
1:100
140
1.0
141
100.0
290
     0
  0
SCALE
  5
54
102
{ACAD_REACTORS
330
47
102
}
330
47
100
AcDbScale
 70
     0
300
2:1
140
2.0
141
1.0
290
     0
  0
SCALE
  5
55
102
{ACAD_REACTORS
330
47
102
}
330
47
100
AcDbScale
 70
     0
300
4:1
140
4.0
141
1.0
290
     0
  0
SCALE
  5
56
102
{ACAD_REACTORS
330
47
102
}
330
47
100
AcDbScale
 70
     0
300
8:1
140
8.0
141
1.0
290
     0
  0
SCALE
  5
57
102
{ACAD_REACTORS
330
47
102
}
330
47
100
AcDbScale
 70
     0
300
10:1
140
10.0
141
1.0
290
     0
  0
SCALE
  5
58
102
{ACAD_REACTORS
330
47
102
}
330
47
100
AcDbScale
 70
     0
300
100:1
140
100.0
141
1.0
290
     0
  0
SCALE
  5
59
102
{ACAD_REACTORS
330
47
102
}
330
47
100
AcDbScale
 70
     0
300
1/128" = 1'-0"
140
0.0078125
141
12.0
290
     0
  0
SCALE
  5
5A
102
{ACAD_REACTORS
330
47
102
}
330
47
100
AcDbScale
 70
     0
300
1/64" = 1'-0"
140
0.015625
141
12.0
290
     0
  0
SCALE
  5
5B
102
{ACAD_REACTORS
330
47
102
}
330
47
100
AcDbScale
 70
     0
300
1/32" = 1'-0"
140
0.03125
141
12.0
290
     0
  0
SCALE
  5
5C
102
{ACAD_REACTORS
330
47
102
}
330
47
100
AcDbScale
 70
     0
300
1/16" = 1'-0"
140
0.0625
141
12.0
290
     0
  0
SCALE
  5
5D
102
{ACAD_REACTORS
330
47
102
}
330
47
100
AcDbScale
 70
     0
300
3/32" = 1'-0"
140
0.09375
141
12.0
290
     0
  0
SCALE
  5
5E
102
{ACAD_REACTORS
330
47
102
}
330
47
100
AcDbScale
 70
     0
300
1/8" = 1'-0"
140
0.125
141
12.0
290
     0
  0
SCALE
  5
5F
102
{ACAD_REACTORS
330
47
102
}
330
47
100
AcDbScale
 70
     0
300
3/16" = 1'-0"
140
0.1875
141
12.0
290
     0
  0
SCALE
  5
60
102
{ACAD_REACTORS
330
47
102
}
330
47
100
AcDbScale
 70
     0
300
1/4" = 1'-0"
140
0.25
141
12.0
290
     0
  0
SCALE
  5
61
102
{ACAD_REACTORS
330
47
102
}
330
47
100
AcDbScale
 70
     0
300
3/8" = 1'-0"
140
0.375
141
12.0
290
     0
  0
SCALE
  5
62
102
{ACAD_REACTORS
330
47
102
}
330
47
100
AcDbScale
 70
     0
300
1/2" = 1'-0"
140
0.5
141
12.0
290
     0
  0
SCALE
  5
63
102
{ACAD_REACTORS
330
47
102
}
330
47
100
AcDbScale
 70
     0
300
3/4" = 1'-0"
140
0.75
141
12.0
290
     0
  0
SCALE
  5
64
102
{ACAD_REACTORS
330
47
102
}
330
47
100
AcDbScale
 70
     0
300
1" = 1'-0"
140
1.0
141
12.0
290
     0
  0
SCALE
  5
65
102
{ACAD_REACTORS
330
47
102
}
330
47
100
AcDbScale
 70
     0
300
1-1/2" = 1'-0"
140
1.5
141
12.0
290
     0
  0
SCALE
  5
66
102
{ACAD_REACTORS
330
47
102
}
330
47
100
AcDbScale
 70
     0
300
3" = 1'-0"
140
3.0
141
12.0
290
     0
  0
SCALE
  5
67
102
{ACAD_REACTORS
330
47
102
}
330
47
100
AcDbScale
 70
     0
300
6" = 1'-0"
140
6.0
141
12.0
290
     0
  0
SCALE
  5
68
102
{ACAD_REACTORS
330
47
102
}
330
47
100
AcDbScale
 70
     0
300
1'-0" = 1'-0"
140
12.0
141
12.0
290
     0
  0
ENDSEC
  0
EOF
