  0
SECTION
  2
HEADER
  9
$ACADVER
  1
AC1015
  9
$ACADMAINTVER
 70
     6
  9
$DWGCODEPAGE
  3
ANSI_949
  9
$INSBASE
 10
0.0
 20
0.0
 30
0.0
  9
$EXTMIN
 10
-73.99723096760003
 20
-49.97180738881174
 30
0.0
  9
$EXTMAX
 10
50.58641565529149
 20
51.09735785208007
 30
0.0
  9
$LIMMIN
 10
0.0
 20
0.0
  9
$LIMMAX
 10
420.0
 20
297.0
  9
$ORTHOMODE
 70
     0
  9
$REGENMODE
 70
     1
  9
$FILLMODE
 70
     1
  9
$QTEXTMODE
 70
     0
  9
$MIRRTEXT
 70
     1
  9
$LTSCALE
 40
1.0
  9
$ATTMODE
 70
     1
  9
$TEXTSIZE
 40
3.5
  9
$TRACEWID
 40
1.0
  9
$TEXTSTYLE
  7
Standard
  9
$CLAYER
  8
0
  9
$CELTYPE
  6
ByLayer
  9
$CECOLOR
 62
   256
  9
$CELTSCALE
 40
1.0
  9
$DISPSILH
 70
     0
  9
$DIMSCALE
 40
1.0
  9
$DIMASZ
 40
3.302
  9
$DIMEXO
 40
1.0
  9
$DIMDLI
 40
3.75
  9
$DIMRND
 40
0.0
  9
$DIMDLE
 40
0.0
  9
$DIMEXE
 40
1.0
  9
$DIMTP
 40
0.0
  9
$DIMTM
 40
0.0
  9
$DIMTXT
 40
3.5
  9
$DIMCEN
 40
2.5
  9
$DIMTSZ
 40
0.0
  9
$DIMTOL
 70
     0
  9
$DIMLIM
 70
     0
  9
$DIMTIH
 70
     1
  9
$DIMTOH
 70
     1
  9
$DIMSE1
 70
     0
  9
$DIMSE2
 70
     0
  9
$DIMTAD
 70
     1
  9
$DIMZIN
 70
     0
  9
$DIMBLK
  1

  9
$DIMASO
 70
     1
  9
$DIMSHO
 70
     1
  9
$DIMPOST
  1

  9
$DIMAPOST
  1

  9
$DIMALT
 70
     0
  9
$DIMALTD
 70
     3
  9
$DIMALTF
 40
0.0393700787401575
  9
$DIMLFAC
 40
1.0
  9
$DIMTOFL
 70
     1
  9
$DIMTVP
 40
0.0
  9
$DIMTIX
 70
     0
  9
$DIMSOXD
 70
     0
  9
$DIMSAH
 70
     0
  9
$DIMBLK1
  1

  9
$DIMBLK2
  1

  9
$DIMSTYLE
  2
ISO-25
  9
$DIMCLRD
 70
     0
  9
$DIMCLRE
 70
     0
  9
$DIMCLRT
 70
     0
  9
$DIMTFAC
 40
1.0
  9
$DIMGAP
 40
1.524
  9
$DIMJUST
 70
     0
  9
$DIMSD1
 70
     0
  9
$DIMSD2
 70
     0
  9
$DIMTOLJ
 70
     0
  9
$DIMTZIN
 70
     0
  9
$DIMALTZ
 70
     0
  9
$DIMALTTZ
 70
     0
  9
$DIMUPT
 70
     0
  9
$DIMDEC
 70
     2
  9
$DIMTDEC
 70
     2
  9
$DIMALTU
 70
     2
  9
$DIMALTTD
 70
     3
  9
$DIMTXSTY
  7
Standard
  9
$DIMAUNIT
 70
     0
  9
$DIMADEC
 70
     2
  9
$DIMALTRND
 40
0.0
  9
$DIMAZIN
 70
     0
  9
$DIMDSEP
 70
    44
  9
$DIMATFIT
 70
     3
  9
$DIMFRAC
 70
     0
  9
$DIMLDRBLK
  1

  9
$DIMLUNIT
 70
     2
  9
$DIMLWD
 70
    -2
  9
$DIMLWE
 70
    -2
  9
$DIMTMOVE
 70
     0
  9
$LUNITS
 70
     2
  9
$LUPREC
 70
     2
  9
$SKETCHINC
 40
1.0
  9
$FILLETRAD
 40
10.0
  9
$AUNITS
 70
     0
  9
$AUPREC
 70
     2
  9
$MENU
  1
.
  9
$ELEVATION
 40
0.0
  9
$PELEVATION
 40
0.0
  9
$THICKNESS
 40
0.0
  9
$LIMCHECK
 70
     0
  9
$CHAMFERA
 40
0.0
  9
$CHAMFERB
 40
0.0
  9
$CHAMFERC
 40
0.0
  9
$CHAMFERD
 40
0.0
  9
$SKPOLY
 70
     0
  9
$TDCREATE
 40
2458333.72418375
  9
$TDUCREATE
 40
2458333.34918375
  9
$TDUPDATE
 40
2458340.461139005
  9
$TDUUPDATE
 40
2458340.086139005
  9
$TDINDWG
 40
0.0027769792
  9
$TDUSRTIMER
 40
2458340.08311169
  9
$USRTIMER
 70
     1
  9
$ANGBASE
 50
0.0
  9
$ANGDIR
 70
     0
  9
$PDMODE
 70
     0
  9
$PDSIZE
 40
-1.0
  9
$PLINEWID
 40
0.0
  9
$SPLFRAME
 70
     0
  9
$SPLINETYPE
 70
     6
  9
$SPLINESEGS
 70
     8
  9
$HANDSEED
  5
184
  9
$SURFTAB1
 70
     6
  9
$SURFTAB2
 70
     6
  9
$SURFTYPE
 70
     6
  9
$SURFU
 70
     6
  9
$SURFV
 70
     6
  9
$UCSBASE
  2

  9
$UCSNAME
  2

  9
$UCSORG
 10
0.0
 20
0.0
 30
0.0
  9
$UCSXDIR
 10
1.0
 20
0.0
 30
0.0
  9
$UCSYDIR
 10
0.0
 20
1.0
 30
0.0
  9
$UCSORTHOREF
  2

  9
$UCSORTHOVIEW
 70
     0
  9
$UCSORGTOP
 10
0.0
 20
0.0
 30
0.0
  9
$UCSORGBOTTOM
 10
0.0
 20
0.0
 30
0.0
  9
$UCSORGLEFT
 10
0.0
 20
0.0
 30
0.0
  9
$UCSORGRIGHT
 10
0.0
 20
0.0
 30
0.0
  9
$UCSORGFRONT
 10
0.0
 20
0.0
 30
0.0
  9
$UCSORGBACK
 10
0.0
 20
0.0
 30
0.0
  9
$PUCSBASE
  2

  9
$PUCSNAME
  2

  9
$PUCSORG
 10
0.0
 20
0.0
 30
0.0
  9
$PUCSXDIR
 10
1.0
 20
0.0
 30
0.0
  9
$PUCSYDIR
 10
0.0
 20
1.0
 30
0.0
  9
$PUCSORTHOREF
  2

  9
$PUCSORTHOVIEW
 70
     0
  9
$PUCSORGTOP
 10
0.0
 20
0.0
 30
0.0
  9
$PUCSORGBOTTOM
 10
0.0
 20
0.0
 30
0.0
  9
$PUCSORGLEFT
 10
0.0
 20
0.0
 30
0.0
  9
$PUCSORGRIGHT
 10
0.0
 20
0.0
 30
0.0
  9
$PUCSORGFRONT
 10
0.0
 20
0.0
 30
0.0
  9
$PUCSORGBACK
 10
0.0
 20
0.0
 30
0.0
  9
$USERI1
 70
     0
  9
$USERI2
 70
     0
  9
$USERI3
 70
     0
  9
$USERI4
 70
     0
  9
$USERI5
 70
     0
  9
$USERR1
 40
0.0
  9
$USERR2
 40
0.0
  9
$USERR3
 40
0.0
  9
$USERR4
 40
0.0
  9
$USERR5
 40
0.0
  9
$WORLDVIEW
 70
     1
  9
$SHADEDGE
 70
     3
  9
$SHADEDIF
 70
    70
  9
$TILEMODE
 70
     1
  9
$MAXACTVP
 70
    64
  9
$PINSBASE
 10
0.0
 20
0.0
 30
0.0
  9
$PLIMCHECK
 70
     0
  9
$PEXTMIN
 10
1.000000000000000E+20
 20
1.000000000000000E+20
 30
1.000000000000000E+20
  9
$PEXTMAX
 10
-1.000000000000000E+20
 20
-1.000000000000000E+20
 30
-1.000000000000000E+20
  9
$PLIMMIN
 10
0.0
 20
0.0
  9
$PLIMMAX
 10
0.0
 20
0.0
  9
$UNITMODE
 70
     0
  9
$VISRETAIN
 70
     1
  9
$PLINEGEN
 70
     0
  9
$PSLTSCALE
 70
     1
  9
$TREEDEPTH
 70
  3020
  9
$CMLSTYLE
  2
Standard
  9
$CMLJUST
 70
     0
  9
$CMLSCALE
 40
20.0
  9
$PROXYGRAPHICS
 70
     1
  9
$MEASUREMENT
 70
     1
  9
$CELWEIGHT
370
    -1
  9
$ENDCAPS
280
     0
  9
$JOINSTYLE
280
     0
  9
$LWDISPLAY
290
     1
  9
$INSUNITS
 70
     4
  9
$HYPERLINKBASE
  1

  9
$STYLESHEET
  1

  9
$XEDIT
290
     1
  9
$CEPSNTYPE
380
     0
  9
$PSTYLEMODE
290
     1
  9
$FINGERPRINTGUID
  2
{2160F214-8DA5-4877-896F-0764D4092B8B}
  9
$VERSIONGUID
  2
{FAEB1C32-E019-11D5-929B-00C0DF256EC4}
  9
$EXTNAMES
290
     1
  9
$PSVPSCALE
 40
0.0
  9
$OLESTARTUP
290
     0
  0
ENDSEC
  0
SECTION
  2
CLASSES
  0
CLASS
  1
ACDBDICTIONARYWDFLT
  2
AcDbDictionaryWithDefault
  3
ObjectDBX Classes
 90
        0
280
     0
281
     0
  0
CLASS
  1
VISUALSTYLE
  2
AcDbVisualStyle
  3
ObjectDBX Classes
 90
     4095
280
     0
281
     0
  0
CLASS
  1
MATERIAL
  2
AcDbMaterial
  3
ObjectDBX Classes
 90
     1153
280
     0
281
     0
  0
CLASS
  1
SCALE
  2
AcDbScale
  3
ObjectDBX Classes
 90
     1153
280
     0
281
     0
  0
CLASS
  1
SUN
  2
AcDbSun
  3
SCENEOE
 90
     1153
280
     0
281
     0
  0
CLASS
  1
ACDBPLACEHOLDER
  2
AcDbPlaceHolder
  3
ObjectDBX Classes
 90
        0
280
     0
281
     0
  0
CLASS
  1
LAYOUT
  2
AcDbLayout
  3
ObjectDBX Classes
 90
        0
280
     0
281
     0
  0
CLASS
  1
TABLESTYLE
  2
AcDbTableStyle
  3
ObjectDBX Classes
 90
     4095
280
     0
281
     0
  0
CLASS
  1
MLEADERSTYLE
  2
AcDbMLeaderStyle
  3
ACDB_MLEADERSTYLE_CLASS
 90
     4095
280
     0
281
     0
  0
CLASS
  1
RASTERVARIABLES
  2
AcDbRasterVariables
  3
ISM
 90
        0
280
     0
281
     0
  0
CLASS
  1
DICTIONARYVAR
  2
AcDbDictionaryVar
  3
ObjectDBX Classes
 90
        0
280
     0
281
     0
  0
CLASS
  1
DIMASSOC
  2
AcDbDimAssoc
  3
"AcDbDimAssoc|Product Desc:     AcDim ARX App For Dimension|Company:          Autodesk, Inc.|WEB Address:      www.autodesk.com"
 90
        0
280
     0
281
     0
  0
ENDSEC
  0
SECTION
  2
TABLES
  0
TABLE
  2
VPORT
  5
8
330
0
100
AcDbSymbolTable
 70
     1
  0
VPORT
  5
29
330
8
100
AcDbSymbolTableRecord
100
AcDbViewportTableRecord
  2
*Active
 70
     0
 10
0.0
 20
0.0
 11
1.0
 21
1.0
 12
-11.47624613951702
 22
-5.056220929301933
 13
0.0
 23
0.0
 14
10.0
 24
10.0
 15
10.0
 25
10.0
 16
0.0
 26
0.0
 36
1.0
 17
0.0
 27
0.0
 37
0.0
 40
152.385571099828
 41
1.444267515923567
 42
50.0
 43
0.0
 44
0.0
 50
0.0
 51
0.0
 71
    16
 72
  2000
 73
     1
 74
     3
 75
     0
 76
     0
 77
     0
 78
     0
281
     0
 65
     1
110
0.0
120
0.0
130
0.0
111
1.0
121
0.0
131
0.0
112
0.0
122
1.0
132
0.0
 79
     0
146
0.0
  0
ENDTAB
  0
TABLE
  2
LTYPE
  5
5
330
0
100
AcDbSymbolTable
 70
     6
  0
LTYPE
  5
14
330
5
100
AcDbSymbolTableRecord
100
AcDbLinetypeTableRecord
  2
ByBlock
 70
     0
  3

 72
    65
 73
     0
 40
0.0
  0
LTYPE
  5
15
330
5
100
AcDbSymbolTableRecord
100
AcDbLinetypeTableRecord
  2
ByLayer
 70
     0
  3

 72
    65
 73
     0
 40
0.0
  0
LTYPE
  5
16
330
5
100
AcDbSymbolTableRecord
100
AcDbLinetypeTableRecord
  2
Continuous
 70
     0
  3
Solid line
 72
    65
 73
     0
 40
0.0
  0
LTYPE
  5
6A
330
5
100
AcDbSymbolTableRecord
100
AcDbLinetypeTableRecord
  2
HIDDEN
 70
     0
  3
Hidden __ __ __ __ __ __ __ __ __ __ __ __ __ __
 72
    65
 73
     2
 40
1.905
 49
1.27
 74
     0
 49
-0.635
 74
     0
  0
LTYPE
  5
6B
330
5
100
AcDbSymbolTableRecord
100
AcDbLinetypeTableRecord
  2
PHANTOM
 70
     0
  3
Phantom ______  __  __  ______  __  __  ______
 72
    65
 73
     6
 40
12.7
 49
6.35
 74
     0
 49
-1.27
 74
     0
 49
1.27
 74
     0
 49
-1.27
 74
     0
 49
1.27
 74
     0
 49
-1.27
 74
     0
  0
LTYPE
  5
6C
330
5
100
AcDbSymbolTableRecord
100
AcDbLinetypeTableRecord
  2
CENTER
 70
     0
  3
Center ____ _ ____ _ ____ _ ____ _ ____ _ ____
 72
    65
 73
     4
 40
10.16
 49
6.35
 74
     0
 49
-1.27
 74
     0
 49
1.27
 74
     0
 49
-1.27
 74
     0
  0
LTYPE
  5
6D
330
5
100
AcDbSymbolTableRecord
100
AcDbLinetypeTableRecord
  2
CENTERX2
 70
     0
  3
Center (2x) ________  __  ________  __  _____
 72
    65
 73
     4
 40
20.32
 49
12.7
 74
     0
 49
-2.54
 74
     0
 49
2.54
 74
     0
 49
-2.54
 74
     0
  0
LTYPE
  5
6E
330
5
100
AcDbSymbolTableRecord
100
AcDbLinetypeTableRecord
  2
DOT2
 70
     0
  3
Dot (.5x) ........................................
 72
    65
 73
     2
 40
0.635
 49
0.0
 74
     0
 49
-0.635
 74
     0
  0
ENDTAB
  0
TABLE
  2
LAYER
  5
2
330
0
100
AcDbSymbolTable
 70
    17
  0
LAYER
  5
10
330
2
100
AcDbSymbolTableRecord
100
AcDbLayerTableRecord
  2
0
 70
     0
 62
     7
  6
Continuous
370
    -3
390
F
  0
LAYER
  5
6F
330
2
100
AcDbSymbolTableRecord
100
AcDbLayerTableRecord
  2
FORMAT
 70
     0
 62
     2
  6
Continuous
370
    -3
390
F
  0
LAYER
  5
70
330
2
100
AcDbSymbolTableRecord
100
AcDbLayerTableRecord
  2
외형선
 70
     0
 62
   100
  6
Continuous
370
    30
390
F
  0
LAYER
  5
71
330
2
100
AcDbSymbolTableRecord
100
AcDbLayerTableRecord
  2
숨은선
 70
     0
 62
     2
  6
HIDDEN
370
    15
390
F
  0
LAYER
  5
72
330
2
100
AcDbSymbolTableRecord
100
AcDbLayerTableRecord
  2
중심선
 70
     0
 62
     1
  6
CENTERX2
370
    -3
390
F
  0
LAYER
  5
73
330
2
100
AcDbSymbolTableRecord
100
AcDbLayerTableRecord
  2
파단선
 70
     0
 62
     4
  6
Continuous
370
    -3
390
F
  0
LAYER
  5
74
330
2
100
AcDbSymbolTableRecord
100
AcDbLayerTableRecord
  2
해칭선
 70
     0
 62
     4
  6
Continuous
370
    -3
390
F
  0
LAYER
  5
75
330
2
100
AcDbSymbolTableRecord
100
AcDbLayerTableRecord
  2
가는실선
 70
     0
 62
     4
  6
Continuous
370
    -3
390
F
  0
LAYER
  5
76
330
2
100
AcDbSymbolTableRecord
100
AcDbLayerTableRecord
  2
치수_보조선
 70
     0
 62
     4
  6
Continuous
370
    -3
390
F
  0
LAYER
  5
77
330
2
100
AcDbSymbolTableRecord
100
AcDbLayerTableRecord
  2
치수문자_일반주서
 70
     0
 62
     7
  6
Continuous
370
    15
390
F
  0
LAYER
  5
78
330
2
100
AcDbSymbolTableRecord
100
AcDbLayerTableRecord
  2
개별주서
 70
     0
 62
   100
  6
Continuous
370
    30
390
F
  0
LAYER
  5
79
330
2
100
AcDbSymbolTableRecord
100
AcDbLayerTableRecord
  2
중간선
 70
     0
 62
     2
  6
Continuous
370
    15
390
F
  0
LAYER
  5
7A
330
2
100
AcDbSymbolTableRecord
100
AcDbLayerTableRecord
  2
윤곽선
 70
     0
 62
     3
  6
Continuous
370
    40
390
F
  0
LAYER
  5
7B
330
2
100
AcDbSymbolTableRecord
100
AcDbLayerTableRecord
  2
중심마크
 70
     0
 62
   100
  6
Continuous
370
    30
390
F
  0
LAYER
  5
7C
330
2
100
AcDbSymbolTableRecord
100
AcDbLayerTableRecord
  2
가상선
 70
     0
 62
     4
  6
PHANTOM
370
    -3
390
F
  0
LAYER
  5
7D
330
2
100
AcDbSymbolTableRecord
100
AcDbLayerTableRecord
  2
특수지정선
 70
     0
 62
     5
  6
CENTERX2
370
    60
390
F
  0
LAYER
  5
13A
330
2
100
AcDbSymbolTableRecord
100
AcDbLayerTableRecord
  2
Defpoints
 70
     0
 62
     7
  6
Continuous
290
     0
370
    -3
390
F
  0
ENDTAB
  0
TABLE
  2
STYLE
  5
3
330
0
100
AcDbSymbolTable
 70
     2
  0
STYLE
  5
11
330
3
100
AcDbSymbolTableRecord
100
AcDbTextStyleTableRecord
  2
Standard
 70
     0
 40
0.0
 41
1.0
 50
0.0
 71
     0
 42
3.5
  3
txt
  4

  0
STYLE
  5
93
330
3
100
AcDbSymbolTableRecord
100
AcDbTextStyleTableRecord
  2
SLDTEXTSTYLE0
 70
     0
 40
0.0
 41
0.75
 50
0.0
 71
     0
 42
3.5
  3
TXT
  4

  0
ENDTAB
  0
TABLE
  2
VIEW
  5
6
330
0
100
AcDbSymbolTable
 70
     0
  0
ENDTAB
  0
TABLE
  2
UCS
  5
7
330
0
100
AcDbSymbolTable
 70
     0
  0
ENDTAB
  0
TABLE
  2
APPID
  5
9
330
0
100
AcDbSymbolTable
 70
     2
  0
APPID
  5
12
330
9
100
AcDbSymbolTableRecord
100
AcDbRegAppTableRecord
  2
ACAD
 70
     0
  0
APPID
  5
159
330
9
100
AcDbSymbolTableRecord
100
AcDbRegAppTableRecord
  2
PE_DIMMEASUREMENT
 70
     0
  0
ENDTAB
  0
TABLE
  2
DIMSTYLE
  5
A
330
0
100
AcDbSymbolTable
 70
     4
100
AcDbDimStyleTable
  0
DIMSTYLE
105
27
330
A
100
AcDbSymbolTableRecord
100
AcDbDimStyleTableRecord
  2
ISO-25
 70
     0
 41
2.5
 42
0.625
 43
3.75
 44
1.25
 73
     0
 74
     0
 77
     1
 78
     8
140
2.5
141
2.5
143
0.03937007874016
147
0.625
171
     3
172
     1
178
     0
271
     2
272
     2
274
     3
278
    44
283
     0
284
     8
340
11
  0
DIMSTYLE
105
D5
102
{ACAD_REACTORS
330
D4
330
147
330
16C
102
}
330
A
100
AcDbSymbolTableRecord
100
AcDbDimStyleTableRecord
  2
SLDDIMSTYLE0
 70
     0
 41
3.302
 44
0.0
 45
0.000000001
 73
     0
 74
     0
 77
     1
 78
     4
 79
     1
140
3.5
143
0.0393700787401575
147
0.875
148
0.000000001
170
     1
172
     1
173
     1
178
     0
271
     2
272
     2
276
     2
284
    12
289
     0
340
93
  0
DIMSTYLE
105
EB
102
{ACAD_REACTORS
330
EA
330
15A
102
}
330
A
100
AcDbSymbolTableRecord
100
AcDbDimStyleTableRecord
  2
SLDDIMSTYLE1
 70
     0
 41
3.302
 44
0.0
 45
0.000000001
 73
     0
 74
     0
 77
     1
 78
     4
 79
     1
140
3.5
143
0.0393700787401575
147
0.875
148
0.000000001
170
     1
173
     1
178
     0
271
     2
272
     2
276
     2
284
    12
340
93
  0
DIMSTYLE
105
FF
330
A
100
AcDbSymbolTableRecord
100
AcDbDimStyleTableRecord
  2
SLDDIMSTYLE2
 70
     0
 41
3.302
 44
0.0
 45
0.000000001
 73
     0
 74
     0
 77
     1
 78
     8
 79
     2
140
3.5
143
0.0393700787401575
147
0.875
148
0.000000001
170
     1
172
     1
173
     1
178
     0
271
     2
272
     2
276
     2
284
    12
289
     0
340
93
341
100
343
100
344
100
  0
ENDTAB
  0
TABLE
  2
BLOCK_RECORD
  5
1
330
0
100
AcDbSymbolTable
 70
    10
  0
BLOCK_RECORD
  5
1F
330
1
100
AcDbSymbolTableRecord
100
AcDbBlockTableRecord
  2
*Model_Space
340
22
  0
BLOCK_RECORD
  5
1B
330
1
100
AcDbSymbolTableRecord
100
AcDbBlockTableRecord
  2
*Paper_Space
340
1E
  0
BLOCK_RECORD
  5
23
330
1
100
AcDbSymbolTableRecord
100
AcDbBlockTableRecord
  2
*Paper_Space0
340
26
  0
BLOCK_RECORD
  5
7E
330
1
100
AcDbSymbolTableRecord
100
AcDbBlockTableRecord
  2
블럭10
340
0
102
{BLKREFS
331
CC
102
}
  0
BLOCK_RECORD
  5
D6
330
1
100
AcDbSymbolTableRecord
100
AcDbBlockTableRecord
  2
_D
340
0
  0
BLOCK_RECORD
  5
EC
330
1
100
AcDbSymbolTableRecord
100
AcDbBlockTableRecord
  2
_D_1
340
0
  0
BLOCK_RECORD
  5
100
330
1
100
AcDbSymbolTableRecord
100
AcDbBlockTableRecord
  2
_NONE
340
0
  0
BLOCK_RECORD
  5
103
330
1
100
AcDbSymbolTableRecord
100
AcDbBlockTableRecord
  2
_D_2
340
0
  0
BLOCK_RECORD
  5
10F
330
1
100
AcDbSymbolTableRecord
100
AcDbBlockTableRecord
  2
SW_DOWELSYMBOL_0
340
0
102
{BLKREFS
331
115
102
}
  0
BLOCK_RECORD
  5
14A
330
1
100
AcDbSymbolTableRecord
100
AcDbBlockTableRecord
  2
*D7
340
0
  0
BLOCK_RECORD
  5
15D
330
1
100
AcDbSymbolTableRecord
100
AcDbBlockTableRecord
  2
*D8
340
0
  0
BLOCK_RECORD
  5
16F
330
1
100
AcDbSymbolTableRecord
100
AcDbBlockTableRecord
  2
*D9
340
0
  0
ENDTAB
  0
ENDSEC
  0
SECTION
  2
BLOCKS
  0
BLOCK
  5
20
330
1F
100
AcDbEntity
  8
0
100
AcDbBlockBegin
  2
*Model_Space
 70
     0
 10
0.0
 20
0.0
 30
0.0
  3
*Model_Space
  1
*Model_Space
  0
ENDBLK
  5
21
330
1F
100
AcDbEntity
  8
0
100
AcDbBlockEnd
  0
BLOCK
  5
1C
330
1B
100
AcDbEntity
 67
     1
  8
0
100
AcDbBlockBegin
  2
*Paper_Space
 70
     0
 10
0.0
 20
0.0
 30
0.0
  3
*Paper_Space
  1
*Paper_Space
  0
ENDBLK
  5
1D
330
1B
100
AcDbEntity
 67
     1
  8
0
100
AcDbBlockEnd
  0
BLOCK
  5
24
330
23
100
AcDbEntity
  8
0
100
AcDbBlockBegin
  2
*Paper_Space0
 70
     0
 10
0.0
 20
0.0
 30
0.0
  3
*Paper_Space0
  1
*Paper_Space0
  0
ENDBLK
  5
25
330
23
100
AcDbEntity
  8
0
100
AcDbBlockEnd
  0
BLOCK
  5
7F
330
7E
100
AcDbEntity
  8
0
100
AcDbBlockBegin
  2
블럭10
 70
     2
 10
0.0
 20
0.0
 30
0.0
  3
블럭10
  1
블럭10
  0
ELLIPSE
  5
81
330
7E
100
AcDbEntity
  8
중심선
100
AcDbEllipse
 10
20.54032771741204
 20
12.0471743016438
 30
0.0
 11
6.600054785286829
 21
-1.261213355974178E-13
 31
0.0
210
0.0
220
0.0
230
1.0
 40
0.636358354079598
 41
0.9219305317359503
 42
6.513795318482858
  0
ELLIPSE
  5
82
330
7E
100
AcDbEntity
  8
중심선
100
AcDbEllipse
 10
20.54032771746488
 20
12.04717430159265
 30
0.0
 11
3.960054785062283
 21
1.540847449632565E-10
 31
0.0
210
0.0
220
0.0
230
1.0
 40
0.3939339440162632
 41
1.131841032648279
 42
5.62031148352944
  0
LINE
  5
83
330
7E
100
AcDbEntity
  8
중심선
100
AcDbLine
 10
2.268634060543552
 20
16.24717430164393
 30
0.0
 11
5.714909304380834
 21
16.24717430164393
 31
0.0
  0
LINE
  5
84
330
7E
100
AcDbEntity
  8
중심선
100
AcDbLine
 10
5.245725140726316
 20
7.84717430164391
 30
0.0
 11
8.692000384563599
 21
7.84717430164391
 31
0.0
  0
LINE
  5
85
330
7E
100
AcDbEntity
  8
중심선
100
AcDbLine
 10
15.74043728645272
 20
16.24717430164393
 30
0.0
 11
8.692000384563599
 21
7.84717430164391
 31
0.0
  0
LINE
  5
86
330
7E
100
AcDbEntity
  8
중심선
100
AcDbLine
 10
0.1404042013395286
 20
13.71084872107135
 30
0.0
 11
3.58671253028996
 21
13.71088815037384
 31
0.0
  0
LINE
  5
87
330
7E
100
AcDbEntity
  8
중심선
100
AcDbLine
 10
2.750260043222114
 20
10.84717430164391
 30
0.0
 11
6.196535287059397
 21
10.84717430164391
 31
0.0
  0
LINE
  5
88
330
7E
100
AcDbEntity
  8
중심선
100
AcDbLine
 10
12.29416204261559
 20
16.24717430164393
 30
0.0
 11
5.245725140726316
 21
7.84717430164391
 31
0.0
  0
LINE
  5
89
330
7E
100
AcDbEntity
  8
중심선
100
AcDbLine
 10
10.72767329541681
 20
16.24717430164393
 30
0.0
 11
6.196535287059397
 21
10.84717430164391
 31
0.0
  0
LINE
  5
8A
330
7E
100
AcDbEntity
  8
중심선
100
AcDbLine
 10
7.28139805157953
 20
16.24717430164393
 30
0.0
 11
2.750260043222114
 21
10.84717430164391
 31
0.0
  0
LINE
  5
8B
330
7E
100
AcDbEntity
  8
중심선
100
AcDbLine
 10
5.714909304380834
 20
16.24717430164393
 30
0.0
 11
3.58671253028996
 21
13.71088815037384
 31
0.0
  0
LINE
  5
8C
330
7E
100
AcDbEntity
  8
중심선
100
AcDbLine
 10
2.268634060543552
 20
16.24717430164393
 30
0.0
 11
0.1404042013395286
 21
13.71084872107135
 31
0.0
  0
LINE
  5
8D
330
7E
100
AcDbEntity
  8
중심선
100
AcDbLine
 10
7.28139805157953
 20
16.24717430164393
 30
0.0
 11
10.72767329541681
 21
16.24717430164393
 31
0.0
  0
LINE
  5
8E
330
7E
100
AcDbEntity
  8
중심선
100
AcDbLine
 10
12.29416204261559
 20
16.24717430164393
 30
0.0
 11
15.74043728645272
 21
16.24717430164393
 31
0.0
  0
LINE
  5
8F
330
7E
100
AcDbEntity
  8
중심선
100
AcDbLine
 10
19.22036997980202
 20
11.08717430171403
 30
0.0
 11
23.66174974927406
 21
11.08717430171406
 31
0.0
  0
LINE
  5
90
330
7E
100
AcDbEntity
  8
중심선
100
AcDbLine
 10
19.22039502424796
 20
13.00717430171391
 30
0.0
 11
19.22036997980202
 21
11.08717430171403
 31
0.0
  0
LINE
  5
91
330
7E
100
AcDbEntity
  8
중심선
100
AcDbLine
 10
19.22039502424796
 20
13.00717430171391
 30
0.0
 11
26.96566020931264
 21
13.00717430171391
 31
0.0
  0
LINE
  5
92
330
7E
100
AcDbEntity
  8
중심선
100
AcDbLine
 10
22.22332737316547
 20
13.45928029700563
 30
0.0
 11
24.52862924686651
 21
15.39360700705356
 31
0.0
  0
ATTDEF
  5
94
330
7E
100
AcDbEntity
  8
FORMAT
 62
     2
100
AcDbText
 10
-9.18129528874128
 20
2.075366912832191
 30
0.0
 40
4.233333333333333
  1
E5077508 [ 3 FLUTE ]
 41
0.75
  7
SLDTEXTSTYLE0
 11
-9.18129528874128
 21
-0.0412997538344756
 31
0.0
100
AcDbAttributeDefinition
  3

  2
AUTOATTR0
 70
     0
 74
     1
  0
ENDBLK
  5
80
330
7E
100
AcDbEntity
  8
0
100
AcDbBlockEnd
  0
BLOCK
  5
D7
330
D6
100
AcDbEntity
  8
0
100
AcDbBlockBegin
  2
_D
 70
     0
 10
0.0
 20
0.0
 30
0.0
  3
_D
  1
_D
  0
LINE
  5
D9
330
D6
100
AcDbEntity
  8
치수문자_일반주서
 62
     0
370
    -2
100
AcDbLine
 10
28.9249081826537
 20
1.654835151814095
 30
0.0
 11
28.9249081826537
 21
34.58974868808102
 31
0.0
  0
LINE
  5
DA
330
D6
100
AcDbEntity
  8
치수문자_일반주서
 62
     0
370
    -2
100
AcDbLine
 10
9.874908182653705
 20
3.242621789327472
 30
0.0
 11
9.874908182653705
 21
34.58974868808102
 31
0.0
  0
LINE
  5
DB
330
D6
100
AcDbEntity
  8
치수문자_일반주서
 62
     0
370
    -2
100
AcDbLine
 10
9.874908182653705
 20
34.58974868808102
 30
0.0
 11
-21.66659181734629
 21
34.58974868808102
 31
0.0
  0
LINE
  5
DC
330
D6
100
AcDbEntity
  8
치수문자_일반주서
 62
     0
370
    -2
100
AcDbLine
 10
28.9249081826537
 20
34.58974868808102
 30
0.0
 11
9.874908182653705
 21
34.58974868808102
 31
0.0
  0
LINE
  5
DD
330
D6
100
AcDbEntity
  8
치수문자_일반주서
 62
     0
370
    -2
100
AcDbLine
 10
32.22690818265369
 20
34.58974868808102
 30
0.0
 11
35.52890818265369
 21
34.58974868808102
 31
0.0
  0
LINE
  5
DE
330
D6
100
AcDbEntity
  8
치수문자_일반주서
 62
     0
370
    -2
100
AcDbLine
 10
6.572908182653705
 20
34.58974868808102
 30
0.0
 11
3.270908182653706
 21
34.58974868808102
 31
0.0
  0
SOLID
  5
DF
330
D6
100
AcDbEntity
  8
치수문자_일반주서
 62
     0
100
AcDbTrace
 10
32.22690818265369
 20
35.14008202141435
 30
0.0
 11
32.22690818265369
 21
34.03941535474768
 31
0.0
 12
28.9249081826537
 22
34.58974868808102
 32
0.0
 13
28.9249081826537
 23
34.58974868808102
 33
0.0
  0
SOLID
  5
E0
330
D6
100
AcDbEntity
  8
치수문자_일반주서
 62
     0
100
AcDbTrace
 10
6.572908182653705
 20
34.03941535474768
 30
0.0
 11
6.572908182653705
 21
35.14008202141435
 31
0.0
 12
9.874908182653705
 22
34.58974868808102
 32
0.0
 13
9.874908182653705
 23
34.58974868808102
 33
0.0
  0
MTEXT
  5
E1
330
D6
100
AcDbEntity
  8
치수문자_일반주서
 62
     0
100
AcDbMText
 10
-9.197841817346294
 20
38.96474868808102
 30
0.0
 40
3.5
 41
0.0
 71
     2
 72
     1
  1
\A1;19.05 [3/4]
  7
SLDTEXTSTYLE0
 73
     1
 44
1.0
  0
POINT
  5
180
330
D6
100
AcDbEntity
  8
Defpoints
 62
     0
100
AcDbPoint
 10
28.9249081826537
 20
1.592335151814095
 30
0.0
  0
POINT
  5
181
330
D6
100
AcDbEntity
  8
Defpoints
 62
     0
100
AcDbPoint
 10
9.874908182653705
 20
3.180121789327472
 30
0.0
  0
POINT
  5
182
330
D6
100
AcDbEntity
  8
Defpoints
 62
     0
100
AcDbPoint
 10
9.874908182653705
 20
34.58974868808102
 30
0.0
  0
ENDBLK
  5
D8
330
D6
100
AcDbEntity
  8
0
100
AcDbBlockEnd
  0
BLOCK
  5
ED
330
EC
100
AcDbEntity
  8
0
100
AcDbBlockBegin
  2
_D_1
 70
     0
 10
0.0
 20
0.0
 30
0.0
  3
_D_1
  1
_D_1
  0
LINE
  5
EF
330
EC
100
AcDbEntity
  8
치수문자_일반주서
 62
     0
370
    -2
100
AcDbLine
 10
28.9249081826537
 20
1.64420843527085
 30
0.0
 11
28.92490818265369
 21
46.72235785208007
 31
0.0
  0
LINE
  5
F0
330
EC
100
AcDbEntity
  8
치수문자_일반주서
 62
     0
370
    -2
100
AcDbLine
 10
-47.27509181734631
 20
2.432335151814074
 30
0.0
 11
-47.27509181734631
 21
46.72235785208007
 31
0.0
  0
LINE
  5
F1
330
EC
100
AcDbEntity
  8
치수문자_일반주서
 62
     0
370
    -2
100
AcDbLine
 10
25.62290818265369
 20
46.72235785208007
 30
0.0
 11
-43.97309181734631
 21
46.72235785208007
 31
0.0
  0
SOLID
  5
F2
330
EC
100
AcDbEntity
  8
치수문자_일반주서
 62
     0
100
AcDbTrace
 10
25.62290818265369
 20
46.17202451874673
 30
0.0
 11
25.62290818265369
 21
47.2726911854134
 31
0.0
 12
28.92490818265369
 22
46.72235785208007
 32
0.0
 13
28.92490818265369
 23
46.72235785208007
 33
0.0
  0
SOLID
  5
F3
330
EC
100
AcDbEntity
  8
치수문자_일반주서
 62
     0
100
AcDbTrace
 10
-43.97309181734631
 20
47.2726911854134
 30
0.0
 11
-43.97309181734631
 21
46.17202451874673
 31
0.0
 12
-47.27509181734631
 22
46.72235785208007
 32
0.0
 13
-47.27509181734631
 23
46.72235785208007
 33
0.0
  0
MTEXT
  5
F4
330
EC
100
AcDbEntity
  8
치수문자_일반주서
 62
     0
100
AcDbMText
 10
-5.211047733493277
 20
51.09735785208007
 30
0.0
 40
3.5
 41
0.0
 71
     2
 72
     1
  1
\A1;76.20 [3]
  7
SLDTEXTSTYLE0
 73
     1
 44
1.0
  0
POINT
  5
F5
330
EC
100
AcDbEntity
  8
Defpoints
 62
     0
100
AcDbPoint
 10
28.9249081826537
 20
1.58170843527085
 30
0.0
  0
POINT
  5
F6
330
EC
100
AcDbEntity
  8
Defpoints
 62
     0
100
AcDbPoint
 10
-47.27509181734631
 20
2.369835151814074
 30
0.0
  0
POINT
  5
F7
330
EC
100
AcDbEntity
  8
Defpoints
 62
     0
100
AcDbPoint
 10
-47.27509181734631
 20
46.72235785208007
 30
0.0
  0
ENDBLK
  5
EE
330
EC
100
AcDbEntity
  8
0
100
AcDbBlockEnd
  0
BLOCK
  5
101
330
100
100
AcDbEntity
  8
0
100
AcDbBlockBegin
  2
_NONE
 70
     0
 10
0.0
 20
0.0
 30
0.0
  3
_NONE
  1
_NONE
  0
ENDBLK
  5
102
330
100
100
AcDbEntity
  8
0
100
AcDbBlockEnd
  0
BLOCK
  5
104
330
103
100
AcDbEntity
  8
0
100
AcDbBlockBegin
  2
_D_2
 70
     0
 10
0.0
 20
0.0
 30
0.0
  3
_D_2
  1
_D_2
  0
LINE
  5
106
330
103
100
AcDbEntity
  8
치수문자_일반주서
100
AcDbLine
 10
-71.06797353338904
 20
-8.584531279254621
 30
0.0
 11
-71.06797353338904
 21
-9.295468764819121
 31
0.0
  0
LINE
  5
107
330
103
100
AcDbEntity
  8
치수문자_일반주서
100
AcDbLine
 10
-71.06797353338904
 20
-9.295468764819121
 30
0.0
 11
-65.51172354232973
 21
-9.29546876481908
 31
0.0
  0
LINE
  5
108
330
103
100
AcDbEntity
  8
치수문자_일반주서
100
AcDbLine
 10
-65.51172354232973
 20
-9.29546876481908
 30
0.0
 11
-65.51172354232973
 21
-8.58453127925458
 31
0.0
  0
LINE
  5
109
330
103
100
AcDbEntity
  8
치수문자_일반주서
100
AcDbLine
 10
-71.06797353338912
 20
2.244201582882638
 30
0.0
 11
-71.06797353338912
 21
2.955139068447138
 31
0.0
  0
LINE
  5
10A
330
103
100
AcDbEntity
  8
치수문자_일반주서
100
AcDbLine
 10
-71.06797353338912
 20
2.955139068447138
 30
0.0
 11
-65.51172354232982
 21
2.955139068447177
 31
0.0
  0
LINE
  5
10B
330
103
100
AcDbEntity
  8
치수문자_일반주서
100
AcDbLine
 10
-65.51172354232982
 20
2.955139068447177
 30
0.0
 11
-65.51172354232982
 21
2.244201582882677
 31
0.0
  0
MTEXT
  5
10C
330
103
100
AcDbEntity
  8
치수문자_일반주서
100
AcDbMText
 10
-70.02346045690865
 20
-7.695859378643242
 30
0.0
 40
3.5
 41
0.0
 71
     1
 72
     1
  1
0.00
  7
SLDTEXTSTYLE0
 11
-7.044195017643634E-15
 21
1.0
 31
0.0
 73
     1
 44
1.0
  0
MTEXT
  5
10D
330
103
100
AcDbEntity
  8
치수문자_일반주서
100
AcDbMText
 10
-64.78682890654818
 20
-7.102439260549716
 30
0.0
 40
3.5
 41
0.0
 71
     1
 72
     1
  1
%%c
  7
SLDTEXTSTYLE0
 11
-7.044195017643634E-15
 21
1.0
 31
0.0
 73
     1
 44
1.0
  0
MTEXT
  5
10E
330
103
100
AcDbEntity
  8
치수문자_일반주서
100
AcDbMText
 10
-64.78682890654821
 20
-1.824001862175636
 30
0.0
 40
3.5
 41
0.0
 71
     1
 72
     1
  1
0
  7
SLDTEXTSTYLE0
 11
-7.044195017643634E-15
 21
1.0
 31
0.0
 73
     1
 44
1.0
  0
ENDBLK
  5
105
330
103
100
AcDbEntity
  8
0
100
AcDbBlockEnd
  0
BLOCK
  5
110
330
10F
100
AcDbEntity
  8
0
100
AcDbBlockBegin
  2
SW_DOWELSYMBOL_0
 70
     0
 10
0.0
 20
0.0
 30
0.0
  3
SW_DOWELSYMBOL_0
  1
SW_DOWELSYMBOL_0
  0
CIRCLE
  5
112
330
10F
100
AcDbEntity
  8
외형선
 62
     0
100
AcDbCircle
 10
0.0
 20
0.0
 30
0.0
 40
3.000000000000004
  0
HATCH
  5
113
330
10F
100
AcDbEntity
  8
0
  6
Continuous
 62
     0
370
    30
100
AcDbHatch
 10
0.0
 20
0.0
 30
0.0
210
0.0
220
0.0
230
1.0
  2
SOLID
 70
     1
 71
     0
 91
        1
 92
        0
 93
        3
 72
     2
 10
-0.0000000000000013
 20
-0.0000000000000039
 40
3.000000000000004
 50
0.0
 51
90.0
 73
     1
 72
     1
 10
-0.0000000000000013
 20
3.0
 11
-0.0000000000000013
 21
-0.000000000000004
 72
     1
 10
-0.0000000000000013
 20
-0.0000000000000039
 11
3.000000000000003
 21
-0.0000000000000039
 97
        0
 75
     0
 76
     1
 98
        1
 10
0.0
 20
0.0
  0
HATCH
  5
114
330
10F
100
AcDbEntity
  8
0
  6
Continuous
 62
     0
370
    30
100
AcDbHatch
 10
0.0
 20
0.0
 30
0.0
210
0.0
220
0.0
230
1.0
  2
SOLID
 70
     1
 71
     0
 91
        1
 92
        0
 93
        3
 72
     2
 10
-0.0000000000000013
 20
-0.0000000000000039
 40
3.000000000000004
 50
180.0
 51
270.0000000000008
 73
     1
 72
     1
 10
-0.0000000000000013
 20
-3.000000000000008
 11
-0.0000000000000013
 21
-0.000000000000004
 72
     1
 10
-0.0000000000000013
 20
-0.0000000000000039
 11
-3.000000000000006
 21
-0.0000000000000039
 97
        0
 75
     0
 76
     1
 98
        1
 10
0.0
 20
0.0
  0
ENDBLK
  5
111
330
10F
100
AcDbEntity
  8
0
100
AcDbBlockEnd
  0
BLOCK
  5
14B
330
14A
100
AcDbEntity
  8
0
100
AcDbBlockBegin
  2
*D7
 70
     1
 10
0.0
 20
0.0
 30
0.0
  3
*D7
  1
*D7
  0
LINE
  5
14D
330
14A
100
AcDbEntity
  8
치수문자_일반주서
 62
     0
370
    -2
100
AcDbLine
 10
28.9874081826537
 20
1.592335151814095
 30
0.0
 11
50.03608232195815
 21
1.592335151814094
 31
0.0
  0
LINE
  5
14E
330
14A
100
AcDbEntity
  8
치수문자_일반주서
 62
     0
370
    -2
100
AcDbLine
 10
28.9874081826537
 20
-1.582664848185912
 30
0.0
 11
50.03608232195815
 21
-1.58266484818591
 31
0.0
  0
LINE
  5
14F
330
14A
100
AcDbEntity
  8
치수문자_일반주서
 62
     0
370
    -2
100
AcDbLine
 10
50.03608232195815
 20
1.592335151814094
 30
0.0
 11
50.03608232195815
 21
35.34143233117585
 31
0.0
  0
LINE
  5
150
330
14A
100
AcDbEntity
  8
치수문자_일반주서
 62
     0
370
    -2
100
AcDbLine
 10
50.03608232195815
 20
1.592335151814094
 30
0.0
 11
50.03608232195815
 21
-1.58266484818591
 31
0.0
  0
LINE
  5
151
330
14A
100
AcDbEntity
  8
치수문자_일반주서
 62
     0
370
    -2
100
AcDbLine
 10
50.03608232195815
 20
4.894335151814094
 30
0.0
 11
50.03608232195815
 21
8.196335151814093
 31
0.0
  0
LINE
  5
152
330
14A
100
AcDbEntity
  8
치수문자_일반주서
 62
     0
370
    -2
100
AcDbLine
 10
50.03608232195815
 20
-4.88466484818591
 30
0.0
 11
50.03608232195815
 21
-8.18666484818591
 31
0.0
  0
SOLID
  5
153
330
14A
100
AcDbEntity
  8
치수문자_일반주서
 62
     0
100
AcDbTrace
 10
49.48574898862482
 20
4.894335151814094
 30
0.0
 11
50.58641565529149
 21
4.894335151814094
 31
0.0
 12
50.03608232195815
 22
1.592335151814094
 32
0.0
 13
50.03608232195815
 23
1.592335151814094
 33
0.0
  0
SOLID
  5
154
330
14A
100
AcDbEntity
  8
치수문자_일반주서
 62
     0
100
AcDbTrace
 10
50.58641565529149
 20
-4.88466484818591
 30
0.0
 11
49.48574898862482
 21
-4.88466484818591
 31
0.0
 12
50.03608232195815
 22
-1.58266484818591
 32
0.0
 13
50.03608232195815
 23
-1.58266484818591
 33
0.0
  0
MTEXT
  5
155
330
14A
100
AcDbEntity
  8
치수문자_일반주서
 62
     0
100
AcDbMText
 10
47.41108232195815
 20
23.09143233117585
 30
0.0
 40
3.5
 41
0.0
 71
     5
 72
     1
  1
\A1;{%%c3.18 [1/8]}
  7
SLDTEXTSTYLE0
 11
0.0
 21
1.0
 31
0.0
 73
     1
 44
1.0
  0
POINT
  5
156
330
14A
100
AcDbEntity
  8
Defpoints
 62
     0
100
AcDbPoint
 10
28.9249081826537
 20
1.592335151814095
 30
0.0
  0
POINT
  5
157
330
14A
100
AcDbEntity
  8
Defpoints
 62
     0
100
AcDbPoint
 10
28.9249081826537
 20
-1.582664848185912
 30
0.0
  0
POINT
  5
17F
330
14A
100
AcDbEntity
  8
Defpoints
 62
     0
100
AcDbPoint
 10
50.03608232195815
 20
-1.582664848185913
 30
0.0
  0
ENDBLK
  5
14C
330
14A
100
AcDbEntity
  8
0
100
AcDbBlockEnd
  0
BLOCK
  5
15E
330
15D
100
AcDbEntity
  8
0
100
AcDbBlockBegin
  2
*D8
 70
     1
 10
0.0
 20
0.0
 30
0.0
  3
*D8
  1
*D8
  0
LINE
  5
160
330
15D
100
AcDbEntity
  8
치수문자_일반주서
 62
     0
370
    -2
100
AcDbLine
 10
-46.52759181734629
 20
-3.170164848185907
 30
0.0
 11
-69.62223096760003
 21
-3.170164848185906
 31
0.0
  0
LINE
  5
161
330
15D
100
AcDbEntity
  8
치수문자_일반주서
 62
     0
370
    -2
100
AcDbLine
 10
-46.52759181734629
 20
3.179835151814085
 30
0.0
 11
-69.62223096760003
 21
3.179835151814087
 31
0.0
  0
LINE
  5
162
330
15D
100
AcDbEntity
  8
치수문자_일반주서
 62
     0
370
    -2
100
AcDbLine
 10
-69.62223096760003
 20
6.481835151814087
 30
0.0
 11
-69.62223096760003
 21
35.15883515181409
 31
0.0
  0
LINE
  5
163
330
15D
100
AcDbEntity
  8
치수문자_일반주서
 62
     0
370
    -2
100
AcDbLine
 10
-69.62223096760003
 20
-6.472164848185905
 30
0.0
 11
-69.62223096760003
 21
-9.774164848185904
 31
0.0
  0
SOLID
  5
164
330
15D
100
AcDbEntity
  8
치수문자_일반주서
 62
     0
100
AcDbTrace
 10
-69.0718976342667
 20
-6.472164848185905
 30
0.0
 11
-70.17256430093336
 21
-6.472164848185905
 31
0.0
 12
-69.62223096760003
 22
-3.170164848185906
 32
0.0
 13
-69.62223096760003
 23
-3.170164848185906
 33
0.0
  0
SOLID
  5
165
330
15D
100
AcDbEntity
  8
치수문자_일반주서
 62
     0
100
AcDbTrace
 10
-70.17256430093336
 20
6.481835151814087
 30
0.0
 11
-69.0718976342667
 21
6.481835151814087
 31
0.0
 12
-69.62223096760003
 22
3.179835151814087
 32
0.0
 13
-69.62223096760003
 23
3.179835151814087
 33
0.0
  0
MTEXT
  5
166
330
15D
100
AcDbEntity
  8
치수문자_일반주서
 62
     0
100
AcDbMText
 10
-72.24723096760003
 20
22.47133515181408
 30
0.0
 40
3.5
 41
0.0
 71
     5
 72
     1
  1
\A1;{%%c6.35 [1/4]}
  7
SLDTEXTSTYLE0
 11
0.0
 21
1.0
 31
0.0
 73
     1
 44
1.0
  0
POINT
  5
167
330
15D
100
AcDbEntity
  8
Defpoints
 62
     0
100
AcDbPoint
 10
-46.46509181734629
 20
-3.170164848185907
 30
0.0
  0
POINT
  5
168
330
15D
100
AcDbEntity
  8
Defpoints
 62
     0
100
AcDbPoint
 10
-46.46509181734629
 20
3.179835151814085
 30
0.0
  0
POINT
  5
169
330
15D
100
AcDbEntity
  8
Defpoints
 62
     0
100
AcDbPoint
 10
-69.62223096760003
 20
3.179835151814087
 30
0.0
  0
ENDBLK
  5
15F
330
15D
100
AcDbEntity
  8
0
100
AcDbBlockEnd
  0
BLOCK
  5
170
330
16F
100
AcDbEntity
  8
0
100
AcDbBlockBegin
  2
*D9
 70
     1
 10
0.0
 20
0.0
 30
0.0
  3
*D9
  1
*D9
  0
LINE
  5
172
330
16F
100
AcDbEntity
  8
치수문자_일반주서
 62
     0
370
    -2
100
AcDbLine
 10
16.12600309892293
 20
9.298085038234284
 30
0.0
 11
17.6360725528001
 21
14.3262248776249
 31
0.0
  0
LINE
  5
173
330
16F
100
AcDbEntity
  8
치수문자_일반주서
 62
     0
370
    -2
100
AcDbLine
 10
13.52232892430188
 20
2.939886225979414
 30
0.0
 11
14.88358150397433
 21
2.820792057062655
 31
0.0
  0
ARC
  5
174
330
16F
100
AcDbEntity
  8
치수문자_일반주서
 62
     0
370
    -2
100
AcDbCircle
 10
47.07011621328745
 20
0.0048351518140874
 30
0.0
 40
32.30948204298601
100
AcDbArc
 50
163.2837431290915
 51
169.1418715645457
  0
ARC
  5
175
330
16F
100
AcDbEntity
  8
치수문자_일반주서
 62
     0
370
    -2
100
AcDbCircle
 10
47.07011621328745
 20
0.0048351518140874
 30
0.0
 40
32.30948204298601
100
AcDbArc
 50
185.8581284354543
 51
191.7162568709085
  0
ARC
  5
176
330
16F
100
AcDbEntity
  8
치수문자_일반주서
 62
     0
370
    -2
100
AcDbCircle
 10
47.07011621328745
 20
0.0048351518140874
 30
0.0
 40
32.30948204298601
100
AcDbArc
 50
175.0
 51
180.0
  0
SOLID
  5
177
330
16F
100
AcDbEntity
  8
치수문자_일반주서
 62
     0
100
AcDbTrace
 10
14.79401049855574
 20
6.16714048673433
 30
0.0
 11
15.88415436793135
 21
6.015306843644592
 31
0.0
 12
14.88358150397433
 22
2.820792057062655
 32
0.0
 13
14.88358150397433
 23
2.820792057062655
 33
0.0
  0
SOLID
  5
178
330
16F
100
AcDbEntity
  8
치수문자_일반주서
 62
     0
100
AcDbTrace
 10
15.47897924348697
 20
-3.264729212685847
 30
0.0
 11
14.3797505267202
 21
-3.320972784286561
 31
0.0
 12
14.76063417030144
 22
0.0048351518140874
 32
0.0
 13
14.76063417030144
 23
0.0048351518140874
 33
0.0
  0
MTEXT
  5
179
330
16F
100
AcDbEntity
  8
치수문자_일반주서
 62
     0
100
AcDbMText
 10
14.36696790616621
 20
12.56718968486818
 30
0.0
 40
3.5
 41
0.0
 71
     5
 72
     1
  1
\A1;5%%d
  7
SLDTEXTSTYLE0
 11
0.2876322769289843
 21
0.9577409217886892
 31
0.0
 73
     1
 44
1.0
  0
POINT
  5
17A
330
16F
100
AcDbEntity
  8
Defpoints
 62
     0
100
AcDbPoint
 10
14.77430269402386
 20
0.9445473497699433
 30
0.0
  0
POINT
  5
17B
330
16F
100
AcDbEntity
  8
Defpoints
 62
     0
100
AcDbPoint
 10
13.46006675567115
 20
2.945333459901143
 30
0.0
  0
POINT
  5
17C
330
16F
100
AcDbEntity
  8
Defpoints
 62
     0
100
AcDbPoint
 10
-50.27509181734629
 20
0.0048351518140884
 30
0.0
  0
POINT
  5
17D
330
16F
100
AcDbEntity
  8
Defpoints
 62
     0
100
AcDbPoint
 10
31.92490428620233
 20
0.0048351518140884
 30
0.0
  0
POINT
  5
17E
330
16F
100
AcDbEntity
  8
Defpoints
 62
     0
100
AcDbPoint
 10
10.34919786488542
 20
3.217499221560359
 30
0.0
  0
ENDBLK
  5
171
330
16F
100
AcDbEntity
  8
0
100
AcDbBlockEnd
  0
ENDSEC
  0
SECTION
  2
ENTITIES
  0
LINE
  5
95
330
1F
100
AcDbEntity
  8
0
  6
Continuous
 62
     1
370
    15
100
AcDbLine
 10
26.31299341661624
 20
-1.811177780310149
 30
0.0
 11
28.22312572250926
 21
-1.644062857709877
 31
0.0
  0
LINE
  5
96
330
1F
100
AcDbEntity
  8
0
  6
Continuous
 62
     1
370
    15
100
AcDbLine
 10
12.60149237558396
 20
-3.010778681324378
 30
0.0
 11
15.62772268545069
 21
-2.746017835992495
 31
0.0
  0
LINE
  5
97
330
1F
100
AcDbEntity
  8
0
  6
Continuous
 62
     1
370
    15
100
AcDbLine
 10
22.09256722823853
 20
2.190087530669314
 30
0.0
 11
19.40001200106008
 21
2.425655588964897
 31
0.0
  0
LINE
  5
98
330
1F
100
AcDbEntity
  8
0
  6
Continuous
 62
     1
370
    15
100
AcDbLine
 10
17.12245756511178
 20
-2.615245479045364
 30
0.0
 11
19.94654284138167
 21
-2.368170032541271
 31
0.0
  0
LINE
  5
99
102
{ACAD_REACTORS
102
}
330
1F
100
AcDbEntity
  8
0
  6
Continuous
 62
     1
370
    15
100
AcDbLine
 10
13.46006675567115
 20
2.945333459901143
 30
0.0
 11
10.34919786488542
 21
3.217499221560359
 31
0.0
  0
LINE
  5
9A
330
1F
100
AcDbEntity
  8
0
  6
Continuous
 62
     1
370
    15
100
AcDbLine
 10
26.35257286937616
 20
1.817385330513286
 30
0.0
 11
23.98998103588303
 21
2.024085332482863
 31
0.0
  0
LINE
  5
9B
330
1F
100
AcDbEntity
  8
0
  6
Continuous
 62
     4
370
    15
100
AcDbLine
 10
-46.46509181734629
 20
3.179835151814085
 30
0.0
 11
-47.27509181734631
 21
2.369835151814074
 31
0.0
  0
LINE
  5
9C
330
1F
100
AcDbEntity
  8
0
  6
Continuous
 62
     4
370
    15
100
AcDbLine
 10
-47.27509181734631
 20
-2.360164848185897
 30
0.0
 11
-46.46509181734629
 21
-3.170164848185908
 31
0.0
  0
LINE
  5
9D
102
{ACAD_REACTORS
102
}
330
1F
100
AcDbEntity
  8
0
  6
Continuous
 62
     4
370
    15
100
AcDbLine
 10
9.131422380605729
 20
3.179835151814092
 30
0.0
 11
-46.46509181734629
 21
3.179835151814085
 31
0.0
  0
LINE
  5
9E
102
{ACAD_REACTORS
102
}
330
1F
100
AcDbEntity
  8
0
  6
Continuous
 62
     4
370
    15
100
AcDbLine
 10
-46.46509181734629
 20
-3.170164848185907
 30
0.0
 11
9.366908182653702
 21
-3.1701648481859
 31
0.0
  0
LINE
  5
9F
330
1F
100
AcDbEntity
  8
0
  6
Continuous
 62
     1
370
    15
100
AcDbLine
 10
21.68617165237881
 20
-2.215972232835939
 30
0.0
 11
24.23135199610668
 21
-1.993297806130736
 31
0.0
  0
LINE
  5
A0
330
1F
100
AcDbEntity
  8
0
  6
Continuous
 62
     1
370
    15
100
AcDbLine
 10
9.874908182653707
 20
-3.249323888354755
 30
0.0
 11
11.28798524569892
 21
-3.125695664649792
 31
0.0
  0
LINE
  5
A1
330
1F
100
AcDbEntity
  8
0
  6
Continuous
 62
     1
370
    15
100
AcDbLine
 10
17.79019427302192
 20
2.566496390511296
 30
0.0
 11
14.85865235329791
 21
2.822973075138171
 31
0.0
  0
LINE
  5
A2
102
{ACAD_REACTORS
102
}
330
1F
100
AcDbEntity
  8
0
  6
Continuous
 62
     1
370
    15
100
AcDbLine
 10
28.9249081826537
 20
1.592335151814095
 30
0.0
 11
28.67029272500211
 21
1.614611117917074
 31
0.0
  0
LINE
  5
A3
330
1F
100
AcDbEntity
  8
0
  6
Continuous
 62
     4
370
    15
100
AcDbLine
 10
9.3669081826537
 20
-3.274304848185904
 30
0.0
 11
9.874908182653707
 21
-3.249323888354755
 31
0.0
  0
SPLINE
  5
A4
330
1F
100
AcDbEntity
  8
0
  6
Continuous
 62
     1
370
    15
100
AcDbSpline
210
0.0
220
0.0
230
1.0
 70
     8
 71
     3
 72
    14
 73
    10
 74
     0
 42
0.000000001
 43
0.00000001
 40
0.0
 40
0.0
 40
0.0
 40
0.0
 40
0.1649412332465823
 40
0.324300898156042
 40
0.4882833597400794
 40
0.647490838136163
 40
0.8113903033310359
 40
0.9692561502576024
 40
1.0
 40
1.0
 40
1.0
 40
1.0
 10
9.87490818265533
 20
-0.9660996691503315
 30
0.0
 10
10.02118576028355
 20
-1.168607707082816
 30
0.0
 10
10.30879092044384
 20
-1.566770963732793
 30
0.0
 10
10.74641531818032
 20
-2.079685392785764
 30
0.0
 10
11.18248110462234
 20
-2.496195848310345
 30
0.0
 10
11.62633577633786
 20
-2.807025372817281
 30
0.0
 10
12.06892664856125
 20
-2.979120684764334
 30
0.0
 10
12.39513175178797
 20
-3.041667963657773
 30
0.0
 10
12.57180167219413
 20
-3.006330908134843
 30
0.0
 10
12.60059930870431
 20
-3.00057088018017
 30
0.0
  0
SPLINE
  5
A5
330
1F
100
AcDbEntity
  8
0
  6
Continuous
 62
     1
370
    15
100
AcDbSpline
210
0.0
220
0.0
230
1.0
 70
     8
 71
     3
 72
    23
 73
    19
 74
     0
 42
0.000000001
 43
0.00000001
 40
0.0
 40
0.0
 40
0.0
 40
0.0
 40
0.0007500895878941
 40
0.0675074769455313
 40
0.1362125729603756
 40
0.2027453513932366
 40
0.2712146285573305
 40
0.3376053816244576
 40
0.4059226435902847
 40
0.4722729828359973
 40
0.5405412803368571
 40
0.6069820931710338
 40
0.6753354723586908
 40
0.7420101297992631
 40
0.8105931885748355
 40
0.8776961838127868
 40
0.9447965914892488
 40
1.0
 40
1.0
 40
1.0
 40
1.0
 10
18.5573858798022
 20
2.315257757670898
 30
0.0
 10
18.55916401523798
 20
2.316102849242019
 30
0.0
 10
18.7191948153897
 20
2.392160430462976
 30
0.0
 10
19.04654728201213
 20
2.436671190960797
 30
0.0
 10
19.53489252931151
 20
2.431837865505098
 30
0.0
 10
20.03307155790297
 20
2.28827753733171
 30
0.0
 10
20.53077031587809
 20
2.035957405023561
 30
0.0
 10
21.03821448647371
 20
1.680100456777126
 30
0.0
 10
21.5459247146486
 20
1.248731987398705
 30
0.0
 10
22.06392376374602
 20
0.7584355543388734
 30
0.0
 10
22.58296951985542
 20
0.2457930168404446
 30
0.0
 10
23.11301005277389
 20
-0.2684532328422782
 30
0.0
 10
23.64500413485275
 20
-0.7459524852593651
 30
0.0
 10
24.18880342436088
 20
-1.166094933437926
 30
0.0
 10
24.73564507590487
 20
-1.498559457204962
 30
0.0
 10
25.29030038681063
 20
-1.721870627564339
 30
0.0
 10
25.81379016158331
 20
-1.833723209037923
 30
0.0
 10
26.15714988724575
 20
-1.811387432253625
 30
0.0
 10
26.31212973818408
 20
-1.801305890657725
 30
0.0
  0
LINE
  5
A6
330
1F
100
AcDbEntity
  8
0
  6
Continuous
 62
     4
370
    15
100
AcDbLine
 10
9.874908182653707
 20
3.040919096107178
 30
0.0
 11
9.874908182653707
 21
-0.9660996691446292
 31
0.0
  0
SPLINE
  5
A7
330
1F
100
AcDbEntity
  8
0
  6
Continuous
 62
     1
370
    15
100
AcDbSpline
210
0.0
220
0.0
230
1.0
 70
     8
 71
     3
 72
    20
 73
    16
 74
     0
 42
0.000000001
 43
0.00000001
 40
0.0
 40
0.0
 40
0.0
 40
0.0
 40
0.0671239147679321
 40
0.1356424277459685
 40
0.2144443548781726
 40
0.2955364441680194
 40
0.3742135660562887
 40
0.4551716058104777
 40
0.5338323321677162
 40
0.6147672108200861
 40
0.6935205120764554
 40
0.7745450595223293
 40
0.8534979495646376
 40
0.9347233728244431
 40
1.0
 40
1.0
 40
1.0
 40
1.0
 10
28.27941618683195
 20
-1.632568699548678
 30
0.0
 10
28.13258077311017
 20
-1.626758120377079
 30
0.0
 10
27.83585922364208
 20
-1.61501623869198
 30
0.0
 10
27.37184437908257
 20
-1.486441926869671
 30
0.0
 10
26.88165545864379
 20
-1.261361032508229
 30
0.0
 10
26.37486471911032
 20
-0.93087967214114
 30
0.0
 10
25.86863731976561
 20
-0.5248278627395158
 30
0.0
 10
25.37238760500438
 20
-0.0746590387704097
 30
0.0
 10
24.87644695314572
 20
0.3999757043060913
 30
0.0
 10
24.38973752527907
 20
0.8626595657881504
 30
0.0
 10
23.90306307363373
 20
1.293663128927247
 30
0.0
 10
23.42491402771584
 20
1.661658251841379
 30
0.0
 10
22.94663933785925
 20
1.947262738533703
 30
0.0
 10
22.50329836996939
 20
2.132781498437517
 30
0.0
 10
22.21868704666679
 20
2.166937564504505
 30
0.0
 10
22.09187334552093
 20
2.182156414915217
 30
0.0
  0
SPLINE
  5
A8
330
1F
100
AcDbEntity
  8
0
  6
Continuous
 62
     1
370
    15
100
AcDbSpline
210
0.0
220
0.0
230
1.0
 70
     8
 71
     3
 72
    23
 73
    19
 74
     0
 42
0.000000001
 43
0.00000001
 40
0.0
 40
0.0
 40
0.0
 40
0.0
 40
0.0268904630629645
 40
0.0892165199766698
 40
0.1533202441403451
 40
0.2161691727879989
 40
0.2808097651294435
 40
0.3442016471680074
 40
0.4093997699999874
 40
0.4733570206706112
 40
0.5391358784868318
 40
0.6036780039642706
 40
0.670057800269723
 40
0.7352004230425017
 40
0.8021972448969189
 40
0.8679575296170488
 40
0.9355891390078429
 40
1.0
 40
1.0
 40
1.0
 40
1.0
 10
16.35885348760723
 20
-2.501456534850581
 30
0.0
 10
16.29683191217727
 20
-2.53769517037337
 30
0.0
 10
16.09105824772325
 20
-2.657926828060925
 30
0.0
 10
15.74139720656682
 20
-2.747451452644154
 30
0.0
 10
15.3124586772389
 20
-2.763151921483516
 30
0.0
 10
14.88219576440496
 20
-2.650885143921658
 30
0.0
 10
14.45693934770709
 20
-2.423914213324704
 30
0.0
 10
14.03007890415223
 20
-2.084916617358481
 30
0.0
 10
13.60812582935753
 20
-1.652539509144067
 30
0.0
 10
13.18446148212886
 20
-1.137336708589687
 30
0.0
 10
12.7655518008422
 20
-0.5674704897564
 30
0.0
 10
12.34487660174354
 20
0.0424210226357551
 30
0.0
 10
11.92880440697173
 20
0.6587600552189714
 30
0.0
 10
11.51091350684598
 20
1.265217992182977
 30
0.0
 10
11.09750060611032
 20
1.828852853978698
 30
0.0
 10
10.68225104244396
 20
2.331875417860786
 30
0.0
 10
10.27523257476862
 20
2.751960302452197
 30
0.0
 10
10.0061619445105
 20
2.946178607054165
 30
0.0
 10
9.874908182653698
 20
3.040919096107185
 30
0.0
  0
ELLIPSE
  5
A9
330
1F
100
AcDbEntity
  8
0
  6
Continuous
 62
     1
370
    15
100
AcDbEllipse
 10
25.67627733605314
 20
0.2245965046108762
 30
0.0
 11
2.656436627230111
 21
-1.818671213643396
 31
0.0
210
0.0
220
0.0
230
1.0
 40
0.1638145549350023
 41
6.086313879445511
 42
6.165593967793938
  0
ELLIPSE
  5
AA
330
1F
100
AcDbEntity
  8
0
  6
Continuous
 62
     1
370
    15
100
AcDbEllipse
 10
28.63713818975807
 20
-0.0959142073339394
 30
0.0
 11
2.229875587610696
 21
1.127411490021694
 31
0.0
210
0.0
220
0.0
230
1.0
 40
0.511164120852866
 41
4.284412744240839
 42
4.584755499614549
  0
SPLINE
  5
AB
330
1F
100
AcDbEntity
  8
0
  6
Continuous
 62
     4
370
    15
100
AcDbSpline
210
0.0
220
0.0
230
1.0
 70
     8
 71
     3
 72
     8
 73
     4
 74
     0
 42
0.000000001
 43
0.00000001
 40
0.0
 40
0.0
 40
0.0
 40
0.0
 40
1.0
 40
1.0
 40
1.0
 40
1.0
 10
9.874908182653707
 20
-2.527509046712155
 30
0.0
 10
9.704492333974402
 20
-2.365817756471758
 30
0.0
 10
9.536376083350037
 20
-2.179522107190607
 30
0.0
 10
9.366908182653702
 20
-1.970259398749212
 30
0.0
  0
SPLINE
  5
AC
330
1F
100
AcDbEntity
  8
0
  6
Continuous
 62
     4
370
    15
100
AcDbSpline
210
0.0
220
0.0
230
1.0
 70
    24
 71
     3
 72
     9
 73
     5
 74
     0
 42
0.000000001
 43
0.00000001
 40
0.0
 40
0.0
 40
0.0
 40
0.0
 40
0.5
 40
1.0
 40
1.0
 40
1.0
 40
1.0
 10
9.366908182653702
 20
-1.970259398749215
 30
0.0
 10
9.366908182653702
 20
-1.956706913847896
 30
0.0
 10
9.366908182653702
 20
-1.929429417475619
 30
0.0
 10
9.366908182653702
 20
-1.90199999118583
 30
0.0
 10
9.366908182653702
 20
-1.888289362322811
 30
0.0
  0
SPLINE
  5
AD
330
1F
100
AcDbEntity
  8
0
  6
Continuous
 62
     4
370
    15
100
AcDbSpline
210
0.0
220
0.0
230
1.0
 70
     8
 71
     3
 72
     8
 73
     4
 74
     0
 42
0.000000001
 43
0.00000001
 40
0.0
 40
0.0
 40
0.0
 40
0.0
 40
1.0
 40
1.0
 40
1.0
 40
1.0
 10
9.366908182653702
 20
-1.888289362322781
 30
0.0
 10
9.239220951250214
 20
-1.729146153195884
 30
0.0
 10
9.112414106178248
 20
-1.559924173677093
 30
0.0
 10
8.984908182653697
 20
-1.381476550812922
 30
0.0
  0
SPLINE
  5
AE
330
1F
100
AcDbEntity
  8
0
  6
Continuous
 62
     4
370
    15
100
AcDbSpline
210
0.0
220
0.0
230
1.0
 70
     8
 71
     3
 72
     8
 73
     4
 74
     0
 42
0.000000001
 43
0.00000001
 40
0.0
 40
0.0
 40
0.0
 40
0.0
 40
1.0
 40
1.0
 40
1.0
 40
1.0
 10
8.984908182684096
 20
0.3219069690918184
 30
0.0
 10
9.11254766552919
 20
0.1375482233715125
 30
0.0
 10
9.239453235858893
 20
-0.0475201776889986
 30
0.0
 10
9.366908182653702
 20
-0.232414442572393
 30
0.0
  0
SPLINE
  5
AF
330
1F
100
AcDbEntity
  8
0
  6
Continuous
 62
     4
370
    15
100
AcDbSpline
210
0.0
220
0.0
230
1.0
 70
     8
 71
     3
 72
     8
 73
     4
 74
     0
 42
0.000000001
 43
0.00000001
 40
0.0
 40
0.0
 40
0.0
 40
0.0
 40
1.0
 40
1.0
 40
1.0
 40
1.0
 10
9.3669081826537
 20
-0.2154307603869467
 30
0.0
 10
9.536129232684832
 20
-0.4718246418177836
 30
0.0
 10
9.704779344392914
 20
-0.7233624972850262
 30
0.0
 10
9.874908182653707
 20
-0.9660996691446289
 30
0.0
  0
SPLINE
  5
B0
330
1F
100
AcDbEntity
  8
0
  6
Continuous
 62
     1
370
    15
100
AcDbSpline
210
0.0
220
0.0
230
1.0
 70
     8
 71
     3
 72
    24
 73
    20
 74
     0
 42
0.000000001
 43
0.00000001
 40
0.0
 40
0.0
 40
0.0
 40
0.0
 40
0.04201339849191
 40
0.1046375301876699
 40
0.165573645635967
 40
0.2282671594130614
 40
0.2893577085817
 40
0.3522066519292781
 40
0.413511672739179
 40
0.4765779299831933
 40
0.5381624694294359
 40
0.6015137225731166
 40
0.6634230976816423
 40
0.7271059978502612
 40
0.789391066029985
 40
0.8534584773442511
 40
0.9161549990043578
 40
0.9806437854300722
 40
1.0
 40
1.0
 40
1.0
 40
1.0
 10
25.21775998303045
 20
-1.675024060576607
 30
0.0
 10
25.10562043009023
 20
-1.732876938077143
 30
0.0
 10
24.82632843569768
 20
-1.87696388255681
 30
0.0
 10
24.38985037046507
 20
-1.989735456685072
 30
0.0
 10
23.90302715964162
 20
-2.016152659205377
 30
0.0
 10
23.42494282419608
 20
-1.923855661268219
 30
0.0
 10
22.94656095702732
 20
-1.719622593641218
 30
0.0
 10
22.47615113866602
 20
-1.415720129580885
 30
0.0
 10
22.00527731529873
 20
-1.022852829943669
 30
0.0
 10
21.54186873050385
 20
-0.5672447289191138
 30
0.0
 10
21.07778824365113
 20
-0.064724381793977
 30
0.0
 10
20.62071155369103
 20
0.4513096091799213
 30
0.0
 10
20.16280228931731
 20
0.9629381215194782
 30
0.0
 10
19.7115222744512
 20
1.436671734497343
 30
0.0
 10
19.25925846040494
 20
1.855336152579503
 30
0.0
 10
18.81319630728321
 20
2.194201283237828
 30
0.0
 10
18.36628564936577
 20
2.430638389549841
 30
0.0
 10
18.02601283137541
 20
2.552010955162513
 30
0.0
 10
17.83356475593438
 20
2.553959098797507
 30
0.0
 10
17.78913674952288
 20
2.554408841605835
 30
0.0
  0
SPLINE
  5
B1
330
1F
100
AcDbEntity
  8
0
  6
Continuous
 62
     1
370
    15
100
AcDbSpline
210
0.0
220
0.0
230
1.0
 70
     8
 71
     3
 72
    13
 73
     9
 74
     0
 42
0.000000001
 43
0.00000001
 40
0.0
 40
0.0
 40
0.0
 40
0.0
 40
0.0080644897917183
 40
0.203908734054033
 40
0.4053274271548912
 40
0.6030286052055572
 40
0.806355718324481
 40
1.0
 40
1.0
 40
1.0
 40
1.0
 10
11.9438279378443
 20
-2.912824567056754
 30
0.0
 10
11.9381348590579
 20
-2.916649221440175
 30
0.0
 10
11.79418669641093
 20
-3.013354711019744
 30
0.0
 10
11.51116059597139
 20
-3.099942124861661
 30
0.0
 10
11.09743506626693
 20
-3.153089839491099
 30
0.0
 10
10.68226896282845
 20
-3.064388086322372
 30
0.0
 10
10.27522829311085
 20
-2.86495040966745
 30
0.0
 10
10.00616054068975
 20
-2.638145443510211
 30
0.0
 10
9.874908182653698
 20
-2.527509046712148
 30
0.0
  0
SPLINE
  5
B2
330
1F
100
AcDbEntity
  8
0
  6
Continuous
 62
     4
370
    15
100
AcDbSpline
210
0.0
220
0.0
230
1.0
 70
     8
 71
     3
 72
     8
 73
     4
 74
     0
 42
0.000000001
 43
0.00000001
 40
0.0
 40
0.0
 40
0.0
 40
0.0
 40
1.0
 40
1.0
 40
1.0
 40
1.0
 10
9.874908182653707
 20
3.040919096107178
 30
0.0
 10
9.704492333974402
 20
3.145137145897398
 30
0.0
 10
9.536376083350037
 20
3.21812501159968
 30
0.0
 10
9.366908182653702
 20
3.259279092572884
 30
0.0
  0
LINE
  5
B3
330
1F
100
AcDbEntity
  8
0
  6
Continuous
 62
     4
370
    15
100
AcDbLine
 10
9.3669081826537
 20
3.259279092572885
 30
0.0
 11
9.3669081826537
 21
-0.2154307603869467
 31
0.0
  0
SPLINE
  5
B4
330
1F
100
AcDbEntity
  8
0
  6
Continuous
 62
     1
370
    15
100
AcDbSpline
210
0.0
220
0.0
230
1.0
 70
     8
 71
     3
 72
    24
 73
    20
 74
     0
 42
0.000000001
 43
0.00000001
 40
0.0
 40
0.0
 40
0.0
 40
0.0
 40
0.0648578209592018
 40
0.1275208701639121
 40
0.1920016850852288
 40
0.2546048918512552
 40
0.319053071118996
 40
0.3811287245744861
 40
0.445032621629776
 40
0.5066050308158915
 40
0.5699894958500835
 40
0.6310864456608904
 40
0.693979947124336
 40
0.7546302308354312
 40
0.817061791667702
 40
0.8773057786903017
 40
0.9393171899816112
 40
0.9991900021225788
 40
0.9999999999999999
 40
0.9999999999999999
 40
0.9999999999999999
 40
0.9999999999999999
 10
9.87490818265533
 20
3.180121789328629
 30
0.0
 10
10.0211853808179
 20
3.203104985959204
 30
0.0
 10
10.30878979488793
 20
3.248293633837504
 30
0.0
 10
10.74641969533354
 20
3.147876539336361
 30
0.0
 10
11.18246434695085
 20
2.930704244563303
 30
0.0
 10
11.62639701304121
 20
2.590009677186575
 30
0.0
 10
12.06869405689199
 20
2.150772773984638
 30
0.0
 10
12.51791261015788
 20
1.624124634554348
 30
0.0
 10
12.96441446718799
 20
1.044804781908501
 30
0.0
 10
13.41798137651497
 20
0.4267930712412424
 30
0.0
 10
13.86901731432703
 20
-0.1897823635412449
 30
0.0
 10
14.32735431821767
 20
-0.7901500894426695
 30
0.0
 10
14.78331830860227
 20
-1.335564026524213
 30
0.0
 10
15.24677676744155
 20
-1.813424471471947
 30
0.0
 10
15.70815395739969
 20
-2.19189694223241
 30
0.0
 10
16.17716463141502
 20
-2.4675991422417
 30
0.0
 10
16.64487240131124
 20
-2.604070785152385
 30
0.0
 10
16.96149164554576
 20
-2.649459590525028
 30
0.0
 10
17.12026624068123
 20
-2.614884129222025
 30
0.0
 10
17.12238557373468
 20
-2.614422613839697
 30
0.0
  0
SPLINE
  5
B5
330
1F
100
AcDbEntity
  8
0
  6
Continuous
 62
     1
370
    15
100
AcDbSpline
210
0.0
220
0.0
230
1.0
 70
     8
 71
     3
 72
    18
 73
    14
 74
     0
 42
0.000000001
 43
0.00000001
 40
0.0
 40
0.0
 40
0.0
 40
0.0
 40
0.0182755106439915
 40
0.114898660848128
 40
0.2091487991332165
 40
0.3060966204155894
 40
0.4009522495751032
 40
0.4958042210026157
 40
0.5933165145682516
 40
0.6897445026234997
 40
0.7888758691243479
 40
0.892818129745052
 40
1.0
 40
1.0
 40
1.0
 40
1.0
 10
23.00776179306657
 20
1.897113554214598
 30
0.0
 10
23.04148436298927
 20
1.91111174226481
 30
0.0
 10
23.25349912963276
 20
1.999118752990851
 30
0.0
 10
23.64532970123789
 20
2.044450477477966
 30
0.0
 10
24.18870575691891
 20
2.019900456737335
 30
0.0
 10
24.73570368480528
 20
1.864862824388884
 30
0.0
 10
25.2901660646029
 20
1.603147880184824
 30
0.0
 10
25.85235881935645
 20
1.250869667984492
 30
0.0
 10
26.42457461956185
 20
0.8310441316363485
 30
0.0
 10
27.01235982006966
 20
0.3681930636433886
 30
0.0
 10
27.62080031634908
 20
-0.1060918760289307
 30
0.0
 10
28.2588050305242
 20
-0.570568726797821
 30
0.0
 10
28.70061400857481
 20
-0.817201481651656
 30
0.0
 10
28.92490818265375
 20
-0.9424100962317371
 30
0.0
  0
SPLINE
  5
B6
330
1F
100
AcDbEntity
  8
0
  6
Continuous
 62
     1
370
    15
100
AcDbSpline
210
0.0
220
0.0
230
1.0
 70
     8
 71
     3
 72
    12
 73
     8
 74
     0
 42
0.000000001
 43
0.00000001
 40
0.0
 40
0.0
 40
0.0
 40
0.0
 40
0.2249287716139544
 40
0.4545307698026428
 40
0.718591957710642
 40
0.99032736072806
 40
1.0
 40
1.0
 40
1.0
 40
1.0
 10
28.27941618683213
 20
0.9506884100991088
 30
0.0
 10
28.13258688551579
 20
1.053317453491064
 30
0.0
 10
27.83587768785279
 20
1.260707809835143
 30
0.0
 10
27.37176398800679
 20
1.526307141648207
 30
0.0
 10
26.88201199802246
 20
1.720126144804416
 30
0.0
 10
26.53505665155119
 20
1.819018619445771
 30
0.0
 10
26.35847200362862
 20
1.815555709092724
 30
0.0
 10
26.35240238462831
 20
1.815436680928484
 30
0.0
  0
SPLINE
  5
B7
330
1F
100
AcDbEntity
  8
0
  6
Continuous
 62
     1
370
    15
100
AcDbSpline
210
0.0
220
0.0
230
1.0
 70
     8
 71
     3
 72
    25
 73
    21
 74
     0
 42
0.000000001
 43
0.00000001
 40
0.0
 40
0.0
 40
0.0
 40
0.0
 40
0.0217072414638684
 40
0.0792162381851232
 40
0.1383727018156659
 40
0.1962306881941717
 40
0.2557443327876222
 40
0.3139845274635436
 40
0.3738895967783749
 40
0.4325482399520495
 40
0.4928822898252975
 40
0.5519880546095384
 40
0.6127807571372157
 40
0.6723600290847829
 40
0.7336386243292641
 40
0.7937177244189156
 40
0.8555095274090369
 40
0.9161076522747411
 40
0.9784324147100694
 40
1.0
 40
1.0
 40
1.0
 40
1.0
 10
20.78940353424307
 20
-2.090421217945748
 30
0.0
 10
20.73217671133056
 20
-2.123715260479026
 30
0.0
 10
20.52333886143789
 20
-2.245215212826806
 30
0.0
 10
20.16297878738532
 20
-2.350532646438416
 30
0.0
 10
19.71147868948615
 20
-2.39416637283001
 30
0.0
 10
19.25925919767164
 20
-2.313823180670169
 30
0.0
 10
18.81323915673558
 20
-2.121589148946122
 30
0.0
 10
18.36611620862783
 20
-1.820052013310181
 30
0.0
 10
17.92498014830375
 20
-1.427381721877883
 30
0.0
 10
17.48257995064406
 20
-0.95465060704375
 30
0.0
 10
17.04589225334258
 20
-0.4299487065189194
 30
0.0
 10
16.60785121836089
 20
0.1313493378068172
 30
0.0
 10
16.17528502980554
 20
0.6958472005823453
 30
0.0
 10
15.74125586461586
 20
1.246757109497675
 30
0.0
 10
15.31249363151404
 20
1.751453778166642
 30
0.0
 10
14.88219535512035
 20
2.194014752182622
 30
0.0
 10
14.45690419041076
 20
2.550530707911193
 30
0.0
 10
14.03021807881053
 20
2.79964924799818
 30
0.0
 10
13.69845091638764
 20
2.928607128712056
 30
0.0
 10
13.50787731691657
 20
2.931153361461485
 30
0.0
 10
13.45888342805722
 20
2.931807963382642
 30
0.0
  0
ELLIPSE
  5
B8
330
1F
100
AcDbEntity
  8
0
  6
Continuous
 62
     1
370
    15
100
AcDbEllipse
 10
25.67627733605314
 20
-0.1743159444044585
 30
0.0
 11
2.615842514172545
 21
1.648833435648063
 31
0.0
210
0.0
220
0.0
230
1.0
 40
0.3337249961586604
 41
5.624507741478491
 42
5.846575938345666
  0
LINE
  5
B9
330
1F
100
AcDbEntity
  8
0
  6
Continuous
 62
     1
370
    15
100
AcDbLine
 10
28.08168837885606
 20
0.5952640148009194
 30
0.0
 11
28.9249081826537
 21
0.0048351518140962
 31
0.0
  0
LINE
  5
BA
330
1F
100
AcDbEntity
  8
0
  6
Continuous
 62
     1
370
    15
100
AcDbLine
 10
28.9249081826537
 20
0.004835151814095
 30
0.0
 11
28.9249081826537
 21
-0.9424100962309337
 31
0.0
  0
LINE
  5
BB
330
1F
100
AcDbEntity
  8
0
  6
Continuous
 62
     4
370
    15
100
AcDbLine
 10
-46.46509181734629
 20
3.179835151814085
 30
0.0
 11
-46.46509181734629
 21
-3.170164848185907
 31
0.0
  0
LINE
  5
BC
330
1F
100
AcDbEntity
  8
0
  6
Continuous
 62
     4
370
    15
100
AcDbLine
 10
-47.27509181734631
 20
-2.360164848185896
 30
0.0
 11
-47.27509181734631
 21
2.369835151814076
 31
0.0
  0
LINE
  5
BD
330
1F
100
AcDbEntity
  8
0
  6
Continuous
 62
     4
370
    15
100
AcDbLine
 10
9.366908182653702
 20
3.158777854225045
 30
0.0
 11
9.131422380605729
 21
3.166723520770174
 31
0.0
  0
LINE
  5
BE
330
1F
100
AcDbEntity
  8
0
  6
Continuous
 62
     4
370
    15
100
AcDbLine
 10
8.984908182653697
 20
-1.381476550809766
 30
0.0
 11
8.984908182653697
 21
0.3219069691357261
 31
0.0
  0
SPLINE
  5
BF
330
1F
100
AcDbEntity
  8
0
  6
Continuous
 62
     4
370
    15
100
AcDbSpline
210
0.0
220
0.0
230
1.0
 70
     8
 71
     3
 72
     9
 73
     5
 74
     0
 42
0.000000001
 43
0.00000001
 40
0.0
 40
0.0
 40
0.0
 40
0.0
 40
0.5545051847036768
 40
1.0
 40
1.0
 40
1.0
 40
1.0
 10
9.708028794388689
 20
3.112650951681486
 30
0.0
 10
9.738839760512484
 20
3.128972426877154
 30
0.0
 10
9.794404554086524
 20
3.158406732715775
 30
0.0
 10
9.850097336734574
 20
3.173429309332382
 30
0.0
 10
9.874908182653707
 20
3.180121789327472
 30
0.0
  0
SPLINE
  5
C0
330
1F
100
AcDbEntity
  8
0
  6
Continuous
 62
     1
370
    15
100
AcDbSpline
210
0.0
220
0.0
230
1.0
 70
     8
 71
     3
 72
    11
 73
     7
 74
     0
 42
0.000000001
 43
0.00000001
 40
0.0
 40
0.0
 40
0.0
 40
0.0
 40
0.1193093709100504
 40
0.5319189969627534
 40
0.8157378957769527
 40
0.9999999999999999
 40
0.9999999999999999
 40
0.9999999999999999
 40
0.9999999999999999
 10
27.88459306240322
 20
-1.231138816831081
 30
0.0
 10
27.90619184213673
 20
-1.204891425951045
 30
0.0
 10
28.00248604906983
 20
-1.087872236902403
 30
0.0
 10
28.18420020248938
 20
-0.9206287723816257
 30
0.0
 10
28.40295552435885
 20
-0.7733224792347928
 30
0.0
 10
28.51180553236778
 20
-0.7388200046187489
 30
0.0
 10
28.55465480715202
 20
-0.7252379567842875
 30
0.0
  0
SPLINE
  5
C1
330
1F
100
AcDbEntity
  8
0
  6
Continuous
 62
     1
370
    15
100
AcDbSpline
210
0.0
220
0.0
230
1.0
 70
     8
 71
     3
 72
     8
 73
     4
 74
     0
 42
0.000000001
 43
0.00000001
 40
0.0
 40
0.0
 40
0.0
 40
0.0
 40
1.0
 40
1.0
 40
1.0
 40
1.0
 10
27.88459306240322
 20
-1.231138816831083
 30
0.0
 10
28.0172445074095
 20
-1.365112627968674
 30
0.0
 10
28.14782830540627
 20
-1.49876097342955
 30
0.0
 10
28.27941618683194
 20
-1.632568699548652
 30
0.0
  0
SPLINE
  5
C2
330
1F
100
AcDbEntity
  8
0
  6
Continuous
 62
     1
370
    15
100
AcDbSpline
210
0.0
220
0.0
230
1.0
 70
     8
 71
     3
 72
    24
 73
    20
 74
     0
 42
0.000000001
 43
0.00000001
 40
0.0
 40
0.0
 40
0.0
 40
0.0
 40
0.0252036943534732
 40
0.0914205557614543
 40
0.1552756653896966
 40
0.2210061767290461
 40
0.2844335205168338
 40
0.3497216811637097
 40
0.412758236791779
 40
0.4776410279881079
 40
0.5403431972015662
 40
0.604878935365294
 40
0.6672979549996796
 40
0.7315381073914777
 40
0.7937471147794201
 40
0.8577667734991652
 40
0.9198429853352856
 40
0.9837205078807301
 40
1.0
 40
1.0
 40
1.0
 40
1.0
 10
14.14797528088342
 20
2.716322510325959
 30
0.0
 10
14.20647181162555
 20
2.740392834802229
 30
0.0
 10
14.41865440976225
 20
2.827702354197188
 30
0.0
 10
14.78347702838322
 20
2.844655893742202
 30
0.0
 10
15.24674007233835
 20
2.765628409981733
 30
0.0
 10
15.70813824226931
 20
2.556723400910123
 30
0.0
 10
16.17725994581111
 20
2.234732772495467
 30
0.0
 10
16.64449896742829
 20
1.819883723665499
 30
0.0
 10
17.11979008309187
 20
1.325494871289376
 30
0.0
 10
17.59350384983449
 20
0.7856043243448904
 30
0.0
 10
18.07563509696642
 20
0.2165005543571536
 30
0.0
 10
18.55651869952429
 20
-0.3427255843734057
 30
0.0
 10
19.0461673435775
 20
-0.8749667117342548
 30
0.0
 10
19.53498688188596
 20
-1.343990393526512
 30
0.0
 10
20.03306379666243
 20
-1.734467829360342
 30
0.0
 10
20.53070330861572
 20
-2.023113724483975
 30
0.0
 10
21.03848292367925
 20
-2.189256340632753
 30
0.0
 10
21.42163001465658
 20
-2.24790695724476
 30
0.0
 10
21.64068959919559
 20
-2.211937301723811
 30
0.0
 10
21.68517951433365
 20
-2.204632043088176
 30
0.0
  0
SPLINE
  5
C3
330
1F
100
AcDbEntity
  8
0
  6
Continuous
 62
     1
370
    15
100
AcDbSpline
210
0.0
220
0.0
230
1.0
 70
     8
 71
     3
 72
    10
 73
     6
 74
     0
 42
0.000000001
 43
0.00000001
 40
0.0
 40
0.0
 40
0.0
 40
0.0
 40
0.1104331500092596
 40
0.5483915632791074
 40
0.9999999999999999
 40
0.9999999999999999
 40
0.9999999999999999
 40
0.9999999999999999
 10
27.45252204134389
 20
1.468350889693116
 30
0.0
 10
27.50569996406127
 20
1.48853272129867
 30
0.0
 10
27.76977215767776
 20
1.588752140767168
 30
0.0
 10
28.25917473346935
 20
1.648846480394146
 30
0.0
 10
28.70073849712657
 20
1.604315553001271
 30
0.0
 10
28.92490818265375
 20
1.58170843527219
 30
0.0
  0
LINE
  5
C4
330
1F
100
AcDbEntity
  8
0
  6
Continuous
 62
     4
370
    15
100
AcDbLine
 10
9.874908182653707
 20
-2.527509046712155
 30
0.0
 11
9.874908182653707
 21
-3.249323888354755
 31
0.0
  0
LINE
  5
C5
330
1F
100
AcDbEntity
  8
0
  6
Continuous
 62
     1
370
    15
100
AcDbLine
 10
28.9249081826537
 20
1.592335151814095
 30
0.0
 11
28.9249081826537
 21
1.58170843527085
 31
0.0
  0
SPLINE
  5
C6
330
1F
100
AcDbEntity
  8
0
  6
Continuous
 62
     1
370
    15
100
AcDbSpline
210
0.0
220
0.0
230
1.0
 70
     8
 71
     3
 72
    14
 73
    10
 74
     0
 42
0.000000001
 43
0.00000001
 40
0.0
 40
0.0
 40
0.0
 40
0.0
 40
0.0185837585770974
 40
0.2054943249493065
 40
0.3934843569057531
 40
0.5549803897881153
 40
0.7043580916863016
 40
0.9110965617990168
 40
0.9999999999999999
 40
0.9999999999999999
 40
0.9999999999999999
 40
0.9999999999999999
 10
28.20078186779718
 20
0.8093397774574431
 30
0.0
 10
28.20687078622231
 20
0.8059805397932789
 30
0.0
 10
28.27420044810161
 20
0.7688349713509256
 30
0.0
 10
28.42806806712728
 20
0.7824700919862134
 30
0.0
 10
28.62234541609657
 20
0.8516688310462754
 30
0.0
 10
28.77314573522218
 20
1.003601147380604
 30
0.0
 10
28.87816453477566
 20
1.20888545794159
 30
0.0
 10
28.92020161668968
 20
1.409435828002358
 30
0.0
 10
28.92382006677838
 20
1.541880552206266
 30
0.0
 10
28.9249081826537
 20
1.58170843527085
 30
0.0
  0
LINE
  5
C7
330
1F
100
AcDbEntity
  8
0
  6
Continuous
 62
     4
370
    15
100
AcDbLine
 10
9.3669081826537
 20
-1.97025939874921
 30
0.0
 11
9.3669081826537
 21
-3.274304848185904
 31
0.0
  0
LINE
  5
C8
330
1F
100
AcDbEntity
  8
0
  6
Continuous
 62
     1
370
    15
100
AcDbLine
 10
28.9249081826537
 20
0.0048351518140998
 30
0.0
 11
28.9249081826537
 21
1.58170843527085
 31
0.0
  0
LINE
  5
C9
330
1F
100
AcDbEntity
  8
0
  6
Continuous
 62
     1
370
    15
100
AcDbLine
 10
28.9249081826537
 20
-0.9424100962317032
 30
0.0
 11
28.9249081826537
 21
-1.369980176693693
 31
0.0
  0
LINE
  5
CA
102
{ACAD_REACTORS
102
}
330
1F
100
AcDbEntity
  8
중심선
100
AcDbLine
 10
-50.27509181734629
 20
0.0048351518140884
 30
0.0
 11
31.92490428620234
 21
0.0048351518140884
 31
0.0
  0
CIRCLE
  5
CB
330
1F
100
AcDbEntity
  8
외형선
100
AcDbCircle
 10
-0.0000000000000013
 20
-0.0000000000000039
 30
0.0
 40
3.000000000000004
  0
INSERT
  5
CC
330
1F
100
AcDbEntity
  8
0
  6
Continuous
 62
     7
100
AcDbBlockReference
 66
     1
  2
블럭10
 10
-16.63945112874702
 20
-52.04717430164393
 30
0.0
  0
ATTRIB
  5
CD
330
CC
100
AcDbEntity
  8
FORMAT
 62
     2
100
AcDbText
 10
-25.8207464174883
 20
-49.97180738881174
 30
0.0
 40
4.233333333333333
  1
E5077508 [ 3 FLUTE ]
 41
0.75
  7
SLDTEXTSTYLE0
 11
-25.8207464174883
 21
-52.08847405547841
 31
0.0
100
AcDbAttribute
  2
AUTOATTR0
 70
     0
 74
     1
  0
SEQEND
  5
CE
330
CC
100
AcDbEntity
  8
0
  6
Continuous
 62
     7
  0
HATCH
  5
CF
330
1F
100
AcDbEntity
  8
중심선
100
AcDbHatch
 10
0.0
 20
0.0
 30
0.0
210
0.0
220
0.0
230
1.0
  2
SOLID
 70
     1
 71
     0
 91
        1
 92
        0
 93
        4
 72
     1
 10
-10.92454182436617
 20
-35.8
 11
-14.37081706820345
 21
-35.8
 72
     1
 10
-14.37081706820345
 20
-35.8
 11
-16.49904692740747
 21
-38.33632558057259
 72
     1
 10
-16.49904692740747
 20
-38.33632558057259
 11
-13.05273859845704
 21
-38.3362861512701
 72
     1
 10
-13.05273859845704
 20
-38.3362861512701
 11
-10.92454182436617
 21
-35.8
 97
        0
 75
     0
 76
     1
 98
        1
 10
0.0
 20
0.0
  0
HATCH
  5
D0
330
1F
100
AcDbEntity
  8
중심선
100
AcDbHatch
 10
0.0
 20
0.0
 30
0.0
210
0.0
220
0.0
230
1.0
  2
SOLID
 70
     1
 71
     0
 91
        1
 92
        0
 93
        4
 72
     1
 10
-5.911777833330217
 20
-35.8
 11
-9.358053077167499
 21
-35.8
 72
     1
 10
-9.358053077167499
 20
-35.8
 11
-13.88919108552489
 21
-41.20000000000002
 72
     1
 10
-13.88919108552489
 20
-41.20000000000002
 11
-10.44291584168761
 21
-41.20000000000002
 72
     1
 10
-10.44291584168761
 20
-41.20000000000002
 11
-5.911777833330217
 21
-35.8
 97
        0
 75
     0
 76
     1
 98
        1
 10
0.0
 20
0.0
  0
HATCH
  5
D1
330
1F
100
AcDbEntity
  8
중심선
100
AcDbHatch
 10
0.0
 20
0.0
 30
0.0
210
0.0
220
0.0
230
1.0
  2
SOLID
 70
     1
 71
     0
 91
        1
 92
        0
 93
        4
 72
     1
 10
-0.8990138422943217
 20
-35.80000000000003
 11
-4.345289086131437
 21
-35.8
 72
     1
 10
-4.345289086131437
 20
-35.8
 11
-11.39372598802069
 21
-44.20000000000002
 72
     1
 10
-11.39372598802069
 20
-44.20000000000002
 11
-7.947450744183405
 21
-44.20000000000002
 72
     1
 10
-7.947450744183405
 20
-44.20000000000002
 11
-0.8990138422943215
 21
-35.80000000000003
 97
        0
 75
     0
 76
     1
 98
        1
 10
0.0
 20
0.0
  0
HATCH
  5
D2
330
1F
100
AcDbEntity
  8
중심선
100
AcDbHatch
 10
0.0
 20
0.0
 30
0.0
210
0.0
220
0.0
230
1.0
  2
SOLID
 70
     1
 71
     0
 91
        1
 92
        0
 93
        6
 72
     3
 10
3.900876588717877
 20
-40.00000000005127
 11
3.960054785062284
 21
1.540850780301639E-10
 40
0.3939339440162633
 50
17.09539180608433
 51
320.0019657685079
 73
     0
 72
     1
 10
5.583876244418473
 20
-38.5878940046383
 11
7.889178118119511
 21
-36.65356729459038
 72
     3
 10
3.900876588665031
 20
-40.00000000000015
 11
6.600054785286829
 21
-1.249000902703301E-13
 40
0.6363583540795982
 50
39.99873849337408
 51
368.4976242363725
 73
     1
 72
     1
 10
10.32620908056564
 20
-39.03999999993002
 11
2.580943895500953
 21
-39.03999999992999
 72
     1
 10
2.580943895500953
 20
-39.03999999992999
 11
2.58091885105502
 21
-40.95999999992991
 72
     1
 10
2.58091885105502
 20
-40.95999999992991
 11
7.022298620527057
 21
-40.95999999992988
 97
        0
 75
     0
 76
     1
 98
        1
 10
0.0
 20
0.0
  0
POINT
  5
D3
330
1F
100
AcDbEntity
  8
치수문자_일반주서
100
AcDbPoint
 10
-0.0000000000000013
 20
-0.0000000000000039
 30
0.0
  0
DIMENSION
  5
D4
330
1F
100
AcDbEntity
  8
치수문자_일반주서
100
AcDbDimension
  2
_D
 10
9.874908182653705
 20
34.58974868808102
 30
0.0
 11
-9.197841817346294
 21
34.58974868808102
 31
0.0
 70
   160
  1
<>
 71
     2
 42
19.04999999999999
  3
SLDDIMSTYLE0
100
AcDbAlignedDimension
 13
28.9249081826537
 23
1.592335151814095
 33
0.0
 14
9.874908182653705
 24
3.180121789327472
 34
0.0
100
AcDbRotatedDimension
1001
ACAD
1000
DSTYLE
1002
{
1070
   171
1070
     6
1070
   273
1070
     7
1002
}
  0
DIMENSION
  5
EA
330
1F
100
AcDbEntity
  8
치수문자_일반주서
100
AcDbDimension
  2
_D_1
 10
-47.27509181734631
 20
46.72235785208007
 30
0.0
 11
-5.211047733493277
 21
46.72235785208007
 31
0.0
 70
   160
  1
<>
 71
     2
 42
76.2
  3
SLDDIMSTYLE1
100
AcDbAlignedDimension
 13
28.9249081826537
 23
1.58170843527085
 33
0.0
 14
-47.27509181734631
 24
2.369835151814074
 34
0.0
 50
0.0000000000000053
100
AcDbRotatedDimension
1001
ACAD
1000
DSTYLE
1002
{
1070
   171
1070
     6
1070
   273
1070
     7
1002
}
  0
INSERT
  5
115
330
1F
100
AcDbEntity
  8
외형선
100
AcDbBlockReference
  2
SW_DOWELSYMBOL_0
 10
-0.0000000000000013
 20
-0.0000000000000039
 30
0.0
  0
DIMENSION
  5
147
102
{ACAD_REACTORS
102
}
102
{ACAD_XDICTIONARY
360
148
102
}
330
1F
100
AcDbEntity
  8
치수문자_일반주서
100
AcDbDimension
  2
*D7
 10
50.03608232195815
 20
-1.58266484818591
 30
0.0
 11
50.03608232195815
 21
23.09143233117585
 31
0.0
 70
   160
  1
{%%c<>[]}
 71
     5
 42
3.175000000000006
  3
SLDDIMSTYLE0
100
AcDbAlignedDimension
 13
28.9249081826537
 23
1.592335151814095
 33
0.0
 14
28.9249081826537
 24
-1.582664848185912
 34
0.0
 50
90.0
100
AcDbRotatedDimension
1001
ACAD
1000
DSTYLE
1002
{
1070
   171
1070
     6
1070
   273
1070
     7
1070
   283
1070
     1
1070
   170
1070
     1
1002
}
  0
DIMENSION
  5
15A
102
{ACAD_REACTORS
102
}
102
{ACAD_XDICTIONARY
360
15B
102
}
330
1F
100
AcDbEntity
  8
치수문자_일반주서
100
AcDbDimension
  2
*D8
 10
-69.62223096760003
 20
3.179835151814087
 30
0.0
 11
-72.24723096760003
 21
22.47133515181408
 31
0.0
 70
    32
  1
{%%c<>[]}
 71
     5
 42
6.349999999999993
  3
SLDDIMSTYLE1
100
AcDbAlignedDimension
 13
-46.46509181734629
 23
-3.170164848185907
 33
0.0
 14
-46.46509181734629
 24
3.179835151814085
 34
0.0
 50
90.0
100
AcDbRotatedDimension
1001
ACAD
1000
DSTYLE
1002
{
1070
   171
1070
     6
1070
   273
1070
     7
1070
   283
1070
     1
1070
   170
1070
     1
1002
}
  0
DIMENSION
  5
16C
102
{ACAD_REACTORS
102
}
102
{ACAD_XDICTIONARY
360
16D
102
}
330
1F
100
AcDbEntity
  8
치수문자_일반주서
100
AcDbDimension
  2
*D9
 10
10.34919786488542
 20
3.217499221560359
 30
0.0
 11
14.36696790616621
 21
12.56718968486818
 31
0.0
 70
    34
  1
<>
 71
     5
 42
0.0872664625997164
  3
SLDDIMSTYLE0
100
AcDb2LineAngularDimension
 13
-50.27509181734629
 23
0.0048351518140884
 33
0.0
 14
31.92490428620233
 24
0.0048351518140884
 34
0.0
 15
13.46006675567115
 25
2.945333459901143
 35
0.0
 16
14.77430269402386
 26
0.9445473497699433
 36
0.0
1001
ACAD
1000
DSTYLE
1002
{
1070
   171
1070
     6
1070
   273
1070
     7
1002
}
  0
ENDSEC
  0
SECTION
  2
OBJECTS
  0
DICTIONARY
  5
C
330
0
100
AcDbDictionary
281
     1
  3
ACAD_DETAILVIEWSTYLE
350
140
  3
ACAD_GROUP
350
D
  3
ACAD_IMAGE_VARS
350
139
  3
ACAD_LAYOUT
350
1A
  3
ACAD_MLINESTYLE
350
17
  3
ACAD_PLOTSETTINGS
350
19
  3
ACAD_PLOTSTYLENAME
350
E
  3
ACAD_SCALELIST
350
47
  3
ACAD_SECTIONVIEWSTYLE
350
141
  3
AcDbVariableDictionary
350
13B
  3
APPDATA
350
137
  3
DWGPROPS
350
183
  0
DICTIONARY
  5
148
330
147
100
AcDbDictionary
280
     1
281
     1
  0
DICTIONARY
  5
15B
330
15A
100
AcDbDictionary
280
     1
281
     1
  0
DICTIONARY
  5
16D
330
16C
100
AcDbDictionary
280
     1
281
     1
  0
DICTIONARY
  5
140
102
{ACAD_REACTORS
330
C
102
}
330
C
100
AcDbDictionary
281
     1
  0
DICTIONARY
  5
D
102
{ACAD_REACTORS
330
C
102
}
330
C
100
AcDbDictionary
281
     1
  0
RASTERVARIABLES
  5
139
102
{ACAD_REACTORS
330
C
102
}
330
C
100
AcDbRasterVariables
 90
        0
 70
     1
 71
     1
 72
     1
  0
DICTIONARY
  5
1A
102
{ACAD_REACTORS
330
C
102
}
330
C
100
AcDbDictionary
281
     1
  3
Layout1
350
1E
  3
Layout2
350
26
  3
Model
350
22
  0
DICTIONARY
  5
17
102
{ACAD_REACTORS
330
C
102
}
330
C
100
AcDbDictionary
281
     1
  3
Standard
350
18
  0
DICTIONARY
  5
19
102
{ACAD_REACTORS
330
C
102
}
330
C
100
AcDbDictionary
281
     1
  0
ACDBDICTIONARYWDFLT
  5
E
102
{ACAD_REACTORS
330
C
102
}
330
C
100
AcDbDictionary
281
     1
  3
Normal
350
F
100
AcDbDictionaryWithDefault
340
F
  0
DICTIONARY
  5
47
102
{ACAD_REACTORS
330
C
102
}
330
C
100
AcDbDictionary
281
     1
  3
A0
350
48
  3
A1
350
49
  3
A2
350
4A
  3
A3
350
4B
  3
A4
350
4C
  3
A5
350
4D
  3
A6
350
4E
  3
A7
350
4F
  3
A8
350
50
  3
A9
350
51
  3
B0
350
52
  3
B1
350
53
  3
B2
350
54
  3
B3
350
55
  3
B4
350
56
  3
B5
350
57
  3
B6
350
58
  3
B7
350
59
  3
B8
350
5A
  3
B9
350
5B
  3
C0
350
5C
  3
C1
350
5D
  3
C2
350
5E
  3
C3
350
5F
  3
C4
350
60
  3
C5
350
61
  3
C6
350
62
  3
C7
350
63
  3
C8
350
64
  3
C9
350
65
  3
D0
350
66
  3
D1
350
67
  3
D2
350
68
  0
DICTIONARY
  5
141
102
{ACAD_REACTORS
330
C
102
}
330
C
100
AcDbDictionary
281
     1
  0
DICTIONARY
  5
13B
102
{ACAD_REACTORS
330
C
102
}
330
C
100
AcDbDictionary
281
     1
  0
DICTIONARY
  5
137
102
{ACAD_REACTORS
330
C
102
}
330
C
100
AcDbDictionary
281
     1
  0
XRECORD
  5
183
102
{ACAD_REACTORS
330
C
102
}
330
C
100
AcDbXrecord
280
     1
  1
DWGPROPS COOKIE
  2

  3

  4

  6

  7

  8
12015048
  9

300
=
301
=
302
=
303
=
304
=
305
=
306
=
307
=
308
=
309
=
 40
0.0
 41
2458333.34918375
 42
2458340.086139005
  1

 90
        0
  0
LAYOUT
  5
1E
102
{ACAD_REACTORS
330
1A
102
}
330
1A
100
AcDbPlotSettings
  1

  2
none_device
  4

  6

 40
0.0
 41
0.0
 42
0.0
 43
0.0
 44
0.0
 45
0.0
 46
0.0
 47
0.0
 48
0.0
 49
0.0
140
0.0
141
0.0
142
1.0
143
1.0
 70
   688
 72
     1
 73
     0
 74
     5
  7

 75
    16
147
1.0
148
0.0
149
0.0
100
AcDbLayout
  1
Layout1
 70
     1
 71
     1
 10
0.0
 20
0.0
 11
420.0
 21
297.0
 12
0.0
 22
0.0
 32
0.0
 14
1.000000000000000E+20
 24
1.000000000000000E+20
 34
1.000000000000000E+20
 15
-1.000000000000000E+20
 25
-1.000000000000000E+20
 35
-1.000000000000000E+20
146
0.0
 13
0.0
 23
0.0
 33
0.0
 16
1.0
 26
0.0
 36
0.0
 17
0.0
 27
1.0
 37
0.0
 76
     0
330
1B
  0
LAYOUT
  5
26
102
{ACAD_REACTORS
330
1A
102
}
330
1A
100
AcDbPlotSettings
  1

  2
none_device
  4

  6

 40
0.0
 41
0.0
 42
0.0
 43
0.0
 44
0.0
 45
0.0
 46
0.0
 47
0.0
 48
0.0
 49
0.0
140
0.0
141
0.0
142
1.0
143
1.0
 70
   688
 72
     1
 73
     0
 74
     5
  7

 75
    16
147
1.0
148
0.0
149
0.0
100
AcDbLayout
  1
Layout2
 70
     1
 71
     2
 10
0.0
 20
0.0
 11
0.0
 21
0.0
 12
0.0
 22
0.0
 32
0.0
 14
0.0
 24
0.0
 34
0.0
 15
0.0
 25
0.0
 35
0.0
146
0.0
 13
0.0
 23
0.0
 33
0.0
 16
1.0
 26
0.0
 36
0.0
 17
0.0
 27
1.0
 37
0.0
 76
     0
330
23
  0
LAYOUT
  5
22
102
{ACAD_REACTORS
330
1A
102
}
330
1A
100
AcDbPlotSettings
  1

  2
none_device
  4
ANSI_A_(11.00_x_8.50_Inches)
  6

 40
6.35
 41
19.05
 42
6.35000508
 43
19.05000254
 44
279.4
 45
215.9
 46
137.3992146264037
 47
102.6373716920067
 48
0.0
 49
0.0
140
0.0
141
0.0
142
0.078859966311608
143
1.0
 70
  1696
 72
     0
 73
     0
 74
     0
  7

 75
     0
147
0.0235690232323232
148
0.0
149
0.0
100
AcDbLayout
  1
Model
 70
     1
 71
     0
 10
0.0
 20
0.0
 11
420.0
 21
297.0
 12
0.0
 22
0.0
 32
0.0
 14
-73.99723096760003
 24
-49.97180738881174
 34
0.0
 15
50.58641565529149
 25
51.09735785208007
 35
0.0
146
0.0
 13
0.0
 23
0.0
 33
0.0
 16
1.0
 26
0.0
 36
0.0
 17
0.0
 27
1.0
 37
0.0
 76
     0
330
1F
331
29
  0
MLINESTYLE
  5
18
102
{ACAD_REACTORS
330
17
102
}
330
17
100
AcDbMlineStyle
  2
Standard
 70
     0
  3

 62
   256
 51
90.0
 52
90.0
 71
     2
 49
0.5
 62
   256
  6
BYLAYER
 49
-0.5
 62
   256
  6
BYLAYER
  0
ACDBPLACEHOLDER
  5
F
102
{ACAD_REACTORS
330
E
102
}
330
E
  0
SCALE
  5
48
102
{ACAD_REACTORS
330
47
102
}
330
47
100
AcDbScale
 70
     0
300
1:1
140
1.0
141
1.0
290
     1
  0
SCALE
  5
49
102
{ACAD_REACTORS
330
47
102
}
330
47
100
AcDbScale
 70
     0
300
1:2
140
1.0
141
2.0
290
     0
  0
SCALE
  5
4A
102
{ACAD_REACTORS
330
47
102
}
330
47
100
AcDbScale
 70
     0
300
1:4
140
1.0
141
4.0
290
     0
  0
SCALE
  5
4B
102
{ACAD_REACTORS
330
47
102
}
330
47
100
AcDbScale
 70
     0
300
1:5
140
1.0
141
5.0
290
     0
  0
SCALE
  5
4C
102
{ACAD_REACTORS
330
47
102
}
330
47
100
AcDbScale
 70
     0
300
1:8
140
1.0
141
8.0
290
     0
  0
SCALE
  5
4D
102
{ACAD_REACTORS
330
47
102
}
330
47
100
AcDbScale
 70
     0
300
1:10
140
1.0
141
10.0
290
     0
  0
SCALE
  5
4E
102
{ACAD_REACTORS
330
47
102
}
330
47
100
AcDbScale
 70
     0
300
1:16
140
1.0
141
16.0
290
     0
  0
SCALE
  5
4F
102
{ACAD_REACTORS
330
47
102
}
330
47
100
AcDbScale
 70
     0
300
1:20
140
1.0
141
20.0
290
     0
  0
SCALE
  5
50
102
{ACAD_REACTORS
330
47
102
}
330
47
100
AcDbScale
 70
     0
300
1:30
140
1.0
141
30.0
290
     0
  0
SCALE
  5
51
102
{ACAD_REACTORS
330
47
102
}
330
47
100
AcDbScale
 70
     0
300
1:40
140
1.0
141
40.0
290
     0
  0
SCALE
  5
52
102
{ACAD_REACTORS
330
47
102
}
330
47
100
AcDbScale
 70
     0
300
1:50
140
1.0
141
50.0
290
     0
  0
SCALE
  5
53
102
{ACAD_REACTORS
330
47
102
}
330
47
100
AcDbScale
 70
     0
300
1:100
140
1.0
141
100.0
290
     0
  0
SCALE
  5
54
102
{ACAD_REACTORS
330
47
102
}
330
47
100
AcDbScale
 70
     0
300
2:1
140
2.0
141
1.0
290
     0
  0
SCALE
  5
55
102
{ACAD_REACTORS
330
47
102
}
330
47
100
AcDbScale
 70
     0
300
4:1
140
4.0
141
1.0
290
     0
  0
SCALE
  5
56
102
{ACAD_REACTORS
330
47
102
}
330
47
100
AcDbScale
 70
     0
300
8:1
140
8.0
141
1.0
290
     0
  0
SCALE
  5
57
102
{ACAD_REACTORS
330
47
102
}
330
47
100
AcDbScale
 70
     0
300
10:1
140
10.0
141
1.0
290
     0
  0
SCALE
  5
58
102
{ACAD_REACTORS
330
47
102
}
330
47
100
AcDbScale
 70
     0
300
100:1
140
100.0
141
1.0
290
     0
  0
SCALE
  5
59
102
{ACAD_REACTORS
330
47
102
}
330
47
100
AcDbScale
 70
     0
300
1/128" = 1'-0"
140
0.0078125
141
12.0
290
     0
  0
SCALE
  5
5A
102
{ACAD_REACTORS
330
47
102
}
330
47
100
AcDbScale
 70
     0
300
1/64" = 1'-0"
140
0.015625
141
12.0
290
     0
  0
SCALE
  5
5B
102
{ACAD_REACTORS
330
47
102
}
330
47
100
AcDbScale
 70
     0
300
1/32" = 1'-0"
140
0.03125
141
12.0
290
     0
  0
SCALE
  5
5C
102
{ACAD_REACTORS
330
47
102
}
330
47
100
AcDbScale
 70
     0
300
1/16" = 1'-0"
140
0.0625
141
12.0
290
     0
  0
SCALE
  5
5D
102
{ACAD_REACTORS
330
47
102
}
330
47
100
AcDbScale
 70
     0
300
3/32" = 1'-0"
140
0.09375
141
12.0
290
     0
  0
SCALE
  5
5E
102
{ACAD_REACTORS
330
47
102
}
330
47
100
AcDbScale
 70
     0
300
1/8" = 1'-0"
140
0.125
141
12.0
290
     0
  0
SCALE
  5
5F
102
{ACAD_REACTORS
330
47
102
}
330
47
100
AcDbScale
 70
     0
300
3/16" = 1'-0"
140
0.1875
141
12.0
290
     0
  0
SCALE
  5
60
102
{ACAD_REACTORS
330
47
102
}
330
47
100
AcDbScale
 70
     0
300
1/4" = 1'-0"
140
0.25
141
12.0
290
     0
  0
SCALE
  5
61
102
{ACAD_REACTORS
330
47
102
}
330
47
100
AcDbScale
 70
     0
300
3/8" = 1'-0"
140
0.375
141
12.0
290
     0
  0
SCALE
  5
62
102
{ACAD_REACTORS
330
47
102
}
330
47
100
AcDbScale
 70
     0
300
1/2" = 1'-0"
140
0.5
141
12.0
290
     0
  0
SCALE
  5
63
102
{ACAD_REACTORS
330
47
102
}
330
47
100
AcDbScale
 70
     0
300
3/4" = 1'-0"
140
0.75
141
12.0
290
     0
  0
SCALE
  5
64
102
{ACAD_REACTORS
330
47
102
}
330
47
100
AcDbScale
 70
     0
300
1" = 1'-0"
140
1.0
141
12.0
290
     0
  0
SCALE
  5
65
102
{ACAD_REACTORS
330
47
102
}
330
47
100
AcDbScale
 70
     0
300
1-1/2" = 1'-0"
140
1.5
141
12.0
290
     0
  0
SCALE
  5
66
102
{ACAD_REACTORS
330
47
102
}
330
47
100
AcDbScale
 70
     0
300
3" = 1'-0"
140
3.0
141
12.0
290
     0
  0
SCALE
  5
67
102
{ACAD_REACTORS
330
47
102
}
330
47
100
AcDbScale
 70
     0
300
6" = 1'-0"
140
6.0
141
12.0
290
     0
  0
SCALE
  5
68
102
{ACAD_REACTORS
330
47
102
}
330
47
100
AcDbScale
 70
     0
300
1'-0" = 1'-0"
140
12.0
141
12.0
290
     0
  0
ENDSEC
  0
EOF
