  0
SECTION
  2
HEADER
  9
$ACADVER
  1
AC1015
  9
$ACADMAINTVER
 70
     6
  9
$DWGCODEPAGE
  3
ANSI_949
  9
$INSBASE
 10
0.0
 20
0.0
 30
0.0
  9
$EXTMIN
 10
-68.36700000000006
 20
-49.98438634254138
 30
0.0
  9
$EXTMAX
 10
43.54061914053123
 20
56.33415484508772
 30
0.0
  9
$LIMMIN
 10
0.0
 20
0.0
  9
$LIMMAX
 10
420.0
 20
297.0
  9
$ORTHOMODE
 70
     1
  9
$REGENMODE
 70
     1
  9
$FILLMODE
 70
     1
  9
$QTEXTMODE
 70
     0
  9
$MIRRTEXT
 70
     1
  9
$LTSCALE
 40
1.0
  9
$ATTMODE
 70
     1
  9
$TEXTSIZE
 40
3.5
  9
$TRACEWID
 40
1.0
  9
$TEXTSTYLE
  7
Standard
  9
$CLAYER
  8
0
  9
$CELTYPE
  6
ByLayer
  9
$CECOLOR
 62
   256
  9
$CELTSCALE
 40
1.0
  9
$DISPSILH
 70
     0
  9
$DIMSCALE
 40
1.0
  9
$DIMASZ
 40
3.302
  9
$DIMEXO
 40
1.0
  9
$DIMDLI
 40
3.75
  9
$DIMRND
 40
0.0
  9
$DIMDLE
 40
0.0
  9
$DIMEXE
 40
1.0
  9
$DIMTP
 40
0.0
  9
$DIMTM
 40
0.0
  9
$DIMTXT
 40
3.5
  9
$DIMCEN
 40
2.5
  9
$DIMTSZ
 40
0.0
  9
$DIMTOL
 70
     0
  9
$DIMLIM
 70
     0
  9
$DIMTIH
 70
     1
  9
$DIMTOH
 70
     1
  9
$DIMSE1
 70
     0
  9
$DIMSE2
 70
     0
  9
$DIMTAD
 70
     1
  9
$DIMZIN
 70
     0
  9
$DIMBLK
  1

  9
$DIMASO
 70
     1
  9
$DIMSHO
 70
     1
  9
$DIMPOST
  1

  9
$DIMAPOST
  1

  9
$DIMALT
 70
     0
  9
$DIMALTD
 70
     3
  9
$DIMALTF
 40
0.0393700787401575
  9
$DIMLFAC
 40
1.0
  9
$DIMTOFL
 70
     1
  9
$DIMTVP
 40
0.0
  9
$DIMTIX
 70
     0
  9
$DIMSOXD
 70
     0
  9
$DIMSAH
 70
     0
  9
$DIMBLK1
  1

  9
$DIMBLK2
  1

  9
$DIMSTYLE
  2
ISO-25
  9
$DIMCLRD
 70
     0
  9
$DIMCLRE
 70
     0
  9
$DIMCLRT
 70
     0
  9
$DIMTFAC
 40
1.0
  9
$DIMGAP
 40
1.524
  9
$DIMJUST
 70
     0
  9
$DIMSD1
 70
     0
  9
$DIMSD2
 70
     0
  9
$DIMTOLJ
 70
     0
  9
$DIMTZIN
 70
     0
  9
$DIMALTZ
 70
     0
  9
$DIMALTTZ
 70
     0
  9
$DIMUPT
 70
     0
  9
$DIMDEC
 70
     2
  9
$DIMTDEC
 70
     2
  9
$DIMALTU
 70
     2
  9
$DIMALTTD
 70
     3
  9
$DIMTXSTY
  7
Standard
  9
$DIMAUNIT
 70
     0
  9
$DIMADEC
 70
     2
  9
$DIMALTRND
 40
0.0
  9
$DIMAZIN
 70
     0
  9
$DIMDSEP
 70
    44
  9
$DIMATFIT
 70
     3
  9
$DIMFRAC
 70
     0
  9
$DIMLDRBLK
  1

  9
$DIMLUNIT
 70
     2
  9
$DIMLWD
 70
    -2
  9
$DIMLWE
 70
    -2
  9
$DIMTMOVE
 70
     0
  9
$LUNITS
 70
     2
  9
$LUPREC
 70
     2
  9
$SKETCHINC
 40
1.0
  9
$FILLETRAD
 40
10.0
  9
$AUNITS
 70
     0
  9
$AUPREC
 70
     2
  9
$MENU
  1
.
  9
$ELEVATION
 40
0.0
  9
$PELEVATION
 40
0.0
  9
$THICKNESS
 40
0.0
  9
$LIMCHECK
 70
     0
  9
$CHAMFERA
 40
0.0
  9
$CHAMFERB
 40
0.0
  9
$CHAMFERC
 40
0.81
  9
$CHAMFERD
 40
0.7853981633974483
  9
$SKPOLY
 70
     0
  9
$TDCREATE
 40
2458340.590394039
  9
$TDUCREATE
 40
2458340.215394039
  9
$TDUPDATE
 40
2458341.37637875
  9
$TDUUPDATE
 40
2458341.00137875
  9
$TDINDWG
 40
0.0021144444
  9
$TDUSRTIMER
 40
2458341.00107757
  9
$USRTIMER
 70
     1
  9
$ANGBASE
 50
0.0
  9
$ANGDIR
 70
     0
  9
$PDMODE
 70
     0
  9
$PDSIZE
 40
-1.0
  9
$PLINEWID
 40
0.0
  9
$SPLFRAME
 70
     0
  9
$SPLINETYPE
 70
     6
  9
$SPLINESEGS
 70
     8
  9
$HANDSEED
  5
193
  9
$SURFTAB1
 70
     6
  9
$SURFTAB2
 70
     6
  9
$SURFTYPE
 70
     6
  9
$SURFU
 70
     6
  9
$SURFV
 70
     6
  9
$UCSBASE
  2

  9
$UCSNAME
  2

  9
$UCSORG
 10
0.0
 20
0.0
 30
0.0
  9
$UCSXDIR
 10
1.0
 20
0.0
 30
0.0
  9
$UCSYDIR
 10
0.0
 20
1.0
 30
0.0
  9
$UCSORTHOREF
  2

  9
$UCSORTHOVIEW
 70
     0
  9
$UCSORGTOP
 10
0.0
 20
0.0
 30
0.0
  9
$UCSORGBOTTOM
 10
0.0
 20
0.0
 30
0.0
  9
$UCSORGLEFT
 10
0.0
 20
0.0
 30
0.0
  9
$UCSORGRIGHT
 10
0.0
 20
0.0
 30
0.0
  9
$UCSORGFRONT
 10
0.0
 20
0.0
 30
0.0
  9
$UCSORGBACK
 10
0.0
 20
0.0
 30
0.0
  9
$PUCSBASE
  2

  9
$PUCSNAME
  2

  9
$PUCSORG
 10
0.0
 20
0.0
 30
0.0
  9
$PUCSXDIR
 10
1.0
 20
0.0
 30
0.0
  9
$PUCSYDIR
 10
0.0
 20
1.0
 30
0.0
  9
$PUCSORTHOREF
  2

  9
$PUCSORTHOVIEW
 70
     0
  9
$PUCSORGTOP
 10
0.0
 20
0.0
 30
0.0
  9
$PUCSORGBOTTOM
 10
0.0
 20
0.0
 30
0.0
  9
$PUCSORGLEFT
 10
0.0
 20
0.0
 30
0.0
  9
$PUCSORGRIGHT
 10
0.0
 20
0.0
 30
0.0
  9
$PUCSORGFRONT
 10
0.0
 20
0.0
 30
0.0
  9
$PUCSORGBACK
 10
0.0
 20
0.0
 30
0.0
  9
$USERI1
 70
     0
  9
$USERI2
 70
     0
  9
$USERI3
 70
     0
  9
$USERI4
 70
     0
  9
$USERI5
 70
     0
  9
$USERR1
 40
0.0
  9
$USERR2
 40
0.0
  9
$USERR3
 40
0.0
  9
$USERR4
 40
0.0
  9
$USERR5
 40
0.0
  9
$WORLDVIEW
 70
     1
  9
$SHADEDGE
 70
     3
  9
$SHADEDIF
 70
    70
  9
$TILEMODE
 70
     1
  9
$MAXACTVP
 70
    64
  9
$PINSBASE
 10
0.0
 20
0.0
 30
0.0
  9
$PLIMCHECK
 70
     0
  9
$PEXTMIN
 10
1.000000000000000E+20
 20
1.000000000000000E+20
 30
1.000000000000000E+20
  9
$PEXTMAX
 10
-1.000000000000000E+20
 20
-1.000000000000000E+20
 30
-1.000000000000000E+20
  9
$PLIMMIN
 10
0.0
 20
0.0
  9
$PLIMMAX
 10
0.0
 20
0.0
  9
$UNITMODE
 70
     0
  9
$VISRETAIN
 70
     1
  9
$PLINEGEN
 70
     0
  9
$PSLTSCALE
 70
     1
  9
$TREEDEPTH
 70
  3020
  9
$CMLSTYLE
  2
Standard
  9
$CMLJUST
 70
     0
  9
$CMLSCALE
 40
20.0
  9
$PROXYGRAPHICS
 70
     1
  9
$MEASUREMENT
 70
     1
  9
$CELWEIGHT
370
    -1
  9
$ENDCAPS
280
     0
  9
$JOINSTYLE
280
     0
  9
$LWDISPLAY
290
     1
  9
$INSUNITS
 70
     4
  9
$HYPERLINKBASE
  1

  9
$STYLESHEET
  1

  9
$XEDIT
290
     1
  9
$CEPSNTYPE
380
     0
  9
$PSTYLEMODE
290
     1
  9
$FINGERPRINTGUID
  2
{498808AF-E0C1-487E-B5A7-9D0FC423A9BF}
  9
$VERSIONGUID
  2
{FAEB1C32-E019-11D5-929B-00C0DF256EC4}
  9
$EXTNAMES
290
     1
  9
$PSVPSCALE
 40
0.0
  9
$OLESTARTUP
290
     0
  0
ENDSEC
  0
SECTION
  2
CLASSES
  0
CLASS
  1
ACDBDICTIONARYWDFLT
  2
AcDbDictionaryWithDefault
  3
ObjectDBX Classes
 90
        0
280
     0
281
     0
  0
CLASS
  1
VISUALSTYLE
  2
AcDbVisualStyle
  3
ObjectDBX Classes
 90
     4095
280
     0
281
     0
  0
CLASS
  1
MATERIAL
  2
AcDbMaterial
  3
ObjectDBX Classes
 90
     1153
280
     0
281
     0
  0
CLASS
  1
SCALE
  2
AcDbScale
  3
ObjectDBX Classes
 90
     1153
280
     0
281
     0
  0
CLASS
  1
SUN
  2
AcDbSun
  3
SCENEOE
 90
     1153
280
     0
281
     0
  0
CLASS
  1
ACDBPLACEHOLDER
  2
AcDbPlaceHolder
  3
ObjectDBX Classes
 90
        0
280
     0
281
     0
  0
CLASS
  1
LAYOUT
  2
AcDbLayout
  3
ObjectDBX Classes
 90
        0
280
     0
281
     0
  0
CLASS
  1
TABLESTYLE
  2
AcDbTableStyle
  3
ObjectDBX Classes
 90
     4095
280
     0
281
     0
  0
CLASS
  1
MLEADERSTYLE
  2
AcDbMLeaderStyle
  3
ACDB_MLEADERSTYLE_CLASS
 90
     4095
280
     0
281
     0
  0
CLASS
  1
RASTERVARIABLES
  2
AcDbRasterVariables
  3
ISM
 90
        0
280
     0
281
     0
  0
CLASS
  1
DIMASSOC
  2
AcDbDimAssoc
  3
"AcDbDimAssoc|Product Desc:     AcDim ARX App For Dimension|Company:          Autodesk, Inc.|WEB Address:      www.autodesk.com"
 90
        0
280
     0
281
     0
  0
CLASS
  1
DICTIONARYVAR
  2
AcDbDictionaryVar
  3
ObjectDBX Classes
 90
        0
280
     0
281
     0
  0
ENDSEC
  0
SECTION
  2
TABLES
  0
TABLE
  2
VPORT
  5
8
330
0
100
AcDbSymbolTable
 70
     1
  0
VPORT
  5
29
330
8
100
AcDbSymbolTableRecord
100
AcDbViewportTableRecord
  2
*Active
 70
     0
 10
0.0
 20
0.0
 11
1.0
 21
1.0
 12
12.79159803237774
 22
17.10112338181081
 13
0.0
 23
0.0
 14
10.0
 24
10.0
 15
10.0
 25
10.0
 16
0.0
 26
0.0
 36
1.0
 17
0.0
 27
0.0
 37
0.0
 40
148.6266686397789
 41
1.444267515923567
 42
50.0
 43
0.0
 44
0.0
 50
0.0
 51
0.0
 71
    16
 72
  2000
 73
     1
 74
     3
 75
     0
 76
     0
 77
     0
 78
     0
281
     0
 65
     1
110
0.0
120
0.0
130
0.0
111
1.0
121
0.0
131
0.0
112
0.0
122
1.0
132
0.0
 79
     0
146
0.0
  0
ENDTAB
  0
TABLE
  2
LTYPE
  5
5
330
0
100
AcDbSymbolTable
 70
     6
  0
LTYPE
  5
14
330
5
100
AcDbSymbolTableRecord
100
AcDbLinetypeTableRecord
  2
ByBlock
 70
     0
  3

 72
    65
 73
     0
 40
0.0
  0
LTYPE
  5
15
330
5
100
AcDbSymbolTableRecord
100
AcDbLinetypeTableRecord
  2
ByLayer
 70
     0
  3

 72
    65
 73
     0
 40
0.0
  0
LTYPE
  5
16
330
5
100
AcDbSymbolTableRecord
100
AcDbLinetypeTableRecord
  2
Continuous
 70
     0
  3
Solid line
 72
    65
 73
     0
 40
0.0
  0
LTYPE
  5
6A
330
5
100
AcDbSymbolTableRecord
100
AcDbLinetypeTableRecord
  2
HIDDEN
 70
     0
  3
Hidden __ __ __ __ __ __ __ __ __ __ __ __ __ __
 72
    65
 73
     2
 40
1.905
 49
1.27
 74
     0
 49
-0.635
 74
     0
  0
LTYPE
  5
6B
330
5
100
AcDbSymbolTableRecord
100
AcDbLinetypeTableRecord
  2
PHANTOM
 70
     0
  3
Phantom ______  __  __  ______  __  __  ______
 72
    65
 73
     6
 40
12.7
 49
6.35
 74
     0
 49
-1.27
 74
     0
 49
1.27
 74
     0
 49
-1.27
 74
     0
 49
1.27
 74
     0
 49
-1.27
 74
     0
  0
LTYPE
  5
6C
330
5
100
AcDbSymbolTableRecord
100
AcDbLinetypeTableRecord
  2
CENTER
 70
     0
  3
Center ____ _ ____ _ ____ _ ____ _ ____ _ ____
 72
    65
 73
     4
 40
10.16
 49
6.35
 74
     0
 49
-1.27
 74
     0
 49
1.27
 74
     0
 49
-1.27
 74
     0
  0
LTYPE
  5
6D
330
5
100
AcDbSymbolTableRecord
100
AcDbLinetypeTableRecord
  2
CENTERX2
 70
     0
  3
Center (2x) ________  __  ________  __  _____
 72
    65
 73
     4
 40
20.32
 49
12.7
 74
     0
 49
-2.54
 74
     0
 49
2.54
 74
     0
 49
-2.54
 74
     0
  0
LTYPE
  5
6E
330
5
100
AcDbSymbolTableRecord
100
AcDbLinetypeTableRecord
  2
DOT2
 70
     0
  3
Dot (.5x) ........................................
 72
    65
 73
     2
 40
0.635
 49
0.0
 74
     0
 49
-0.635
 74
     0
  0
ENDTAB
  0
TABLE
  2
LAYER
  5
2
330
0
100
AcDbSymbolTable
 70
    17
  0
LAYER
  5
10
330
2
100
AcDbSymbolTableRecord
100
AcDbLayerTableRecord
  2
0
 70
     0
 62
     7
  6
Continuous
370
    -3
390
F
  0
LAYER
  5
6F
330
2
100
AcDbSymbolTableRecord
100
AcDbLayerTableRecord
  2
FORMAT
 70
     0
 62
     2
  6
Continuous
370
    -3
390
F
  0
LAYER
  5
70
330
2
100
AcDbSymbolTableRecord
100
AcDbLayerTableRecord
  2
외형선
 70
     0
 62
   100
  6
Continuous
370
    30
390
F
  0
LAYER
  5
71
330
2
100
AcDbSymbolTableRecord
100
AcDbLayerTableRecord
  2
숨은선
 70
     0
 62
     2
  6
HIDDEN
370
    15
390
F
  0
LAYER
  5
72
330
2
100
AcDbSymbolTableRecord
100
AcDbLayerTableRecord
  2
중심선
 70
     0
 62
     1
  6
CENTERX2
370
    -3
390
F
  0
LAYER
  5
73
330
2
100
AcDbSymbolTableRecord
100
AcDbLayerTableRecord
  2
파단선
 70
     0
 62
     4
  6
Continuous
370
    -3
390
F
  0
LAYER
  5
74
330
2
100
AcDbSymbolTableRecord
100
AcDbLayerTableRecord
  2
해칭선
 70
     0
 62
     4
  6
Continuous
370
    -3
390
F
  0
LAYER
  5
75
330
2
100
AcDbSymbolTableRecord
100
AcDbLayerTableRecord
  2
가는실선
 70
     0
 62
     4
  6
Continuous
370
    -3
390
F
  0
LAYER
  5
76
330
2
100
AcDbSymbolTableRecord
100
AcDbLayerTableRecord
  2
치수_보조선
 70
     0
 62
     4
  6
Continuous
370
    -3
390
F
  0
LAYER
  5
77
330
2
100
AcDbSymbolTableRecord
100
AcDbLayerTableRecord
  2
치수문자_일반주서
 70
     0
 62
     7
  6
Continuous
370
    15
390
F
  0
LAYER
  5
78
330
2
100
AcDbSymbolTableRecord
100
AcDbLayerTableRecord
  2
개별주서
 70
     0
 62
   100
  6
Continuous
370
    30
390
F
  0
LAYER
  5
79
330
2
100
AcDbSymbolTableRecord
100
AcDbLayerTableRecord
  2
중간선
 70
     0
 62
     2
  6
Continuous
370
    15
390
F
  0
LAYER
  5
7A
330
2
100
AcDbSymbolTableRecord
100
AcDbLayerTableRecord
  2
윤곽선
 70
     0
 62
     3
  6
Continuous
370
    40
390
F
  0
LAYER
  5
7B
330
2
100
AcDbSymbolTableRecord
100
AcDbLayerTableRecord
  2
중심마크
 70
     0
 62
   100
  6
Continuous
370
    30
390
F
  0
LAYER
  5
7C
330
2
100
AcDbSymbolTableRecord
100
AcDbLayerTableRecord
  2
가상선
 70
     0
 62
     4
  6
PHANTOM
370
    -3
390
F
  0
LAYER
  5
7D
330
2
100
AcDbSymbolTableRecord
100
AcDbLayerTableRecord
  2
특수지정선
 70
     0
 62
     5
  6
CENTERX2
370
    60
390
F
  0
LAYER
  5
138
330
2
100
AcDbSymbolTableRecord
100
AcDbLayerTableRecord
  2
Defpoints
 70
     0
 62
     7
  6
Continuous
290
     0
370
    -3
390
F
  0
ENDTAB
  0
TABLE
  2
STYLE
  5
3
330
0
100
AcDbSymbolTable
 70
     2
  0
STYLE
  5
11
330
3
100
AcDbSymbolTableRecord
100
AcDbTextStyleTableRecord
  2
Standard
 70
     0
 40
0.0
 41
1.0
 50
0.0
 71
     0
 42
3.5
  3
txt
  4

  0
STYLE
  5
93
330
3
100
AcDbSymbolTableRecord
100
AcDbTextStyleTableRecord
  2
SLDTEXTSTYLE0
 70
     0
 40
0.0
 41
0.75
 50
0.0
 71
     0
 42
3.5
  3
TXT
  4

  0
ENDTAB
  0
TABLE
  2
VIEW
  5
6
330
0
100
AcDbSymbolTable
 70
     0
  0
ENDTAB
  0
TABLE
  2
UCS
  5
7
330
0
100
AcDbSymbolTable
 70
     0
  0
ENDTAB
  0
TABLE
  2
APPID
  5
9
330
0
100
AcDbSymbolTable
 70
     2
  0
APPID
  5
12
330
9
100
AcDbSymbolTableRecord
100
AcDbRegAppTableRecord
  2
ACAD
 70
     0
  0
APPID
  5
154
330
9
100
AcDbSymbolTableRecord
100
AcDbRegAppTableRecord
  2
PE_DIMMEASUREMENT
 70
     0
  0
ENDTAB
  0
TABLE
  2
DIMSTYLE
  5
A
330
0
100
AcDbSymbolTable
 70
     4
100
AcDbDimStyleTable
  0
DIMSTYLE
105
27
330
A
100
AcDbSymbolTableRecord
100
AcDbDimStyleTableRecord
  2
ISO-25
 70
     0
 41
2.5
 42
0.625
 43
3.75
 44
1.25
 73
     0
 74
     0
 77
     1
 78
     8
140
2.5
141
2.5
143
0.03937007874016
147
0.625
171
     3
172
     1
178
     0
271
     2
272
     2
274
     3
278
    44
283
     0
284
     8
340
11
  0
DIMSTYLE
105
C8
102
{ACAD_REACTORS
330
C7
102
}
330
A
100
AcDbSymbolTableRecord
100
AcDbDimStyleTableRecord
  2
SLDDIMSTYLE0
 70
     0
 41
3.302
 44
0.0
 45
0.000000001
 73
     0
 74
     0
 77
     1
 78
    12
 79
     3
140
3.5
143
0.0393700787401575
147
0.875
148
0.000000001
170
     1
173
     1
178
     0
271
     2
272
     2
276
     2
284
    12
340
93
  0
DIMSTYLE
105
DC
102
{ACAD_REACTORS
330
DB
102
}
330
A
100
AcDbSymbolTableRecord
100
AcDbDimStyleTableRecord
  2
SLDDIMSTYLE1
 70
     0
 41
3.302
 44
0.0
 45
0.000000001
 73
     0
 74
     0
 77
     1
 78
     4
 79
     1
140
3.5
143
0.0393700787401575
147
0.875
148
0.000000001
170
     1
173
     1
178
     0
271
     2
272
     2
276
     2
284
    12
340
93
  0
DIMSTYLE
105
F0
102
{ACAD_REACTORS
330
EF
330
13B
330
180
102
}
330
A
100
AcDbSymbolTableRecord
100
AcDbDimStyleTableRecord
  2
SLDDIMSTYLE2
 70
     0
 41
3.302
 44
0.0
 45
0.000000001
 73
     0
 74
     0
 77
     1
 78
    12
 79
     3
140
3.5
143
0.0393700787401575
147
0.875
148
0.000000001
170
     1
172
     1
173
     1
178
     0
271
     2
272
     2
276
     2
284
    12
289
     0
340
93
  0
ENDTAB
  0
TABLE
  2
BLOCK_RECORD
  5
1
330
0
100
AcDbSymbolTable
 70
     8
  0
BLOCK_RECORD
  5
1F
330
1
100
AcDbSymbolTableRecord
100
AcDbBlockTableRecord
  2
*Model_Space
340
22
  0
BLOCK_RECORD
  5
1B
330
1
100
AcDbSymbolTableRecord
100
AcDbBlockTableRecord
  2
*Paper_Space
340
1E
  0
BLOCK_RECORD
  5
23
330
1
100
AcDbSymbolTableRecord
100
AcDbBlockTableRecord
  2
*Paper_Space0
340
26
  0
BLOCK_RECORD
  5
7E
330
1
100
AcDbSymbolTableRecord
100
AcDbBlockTableRecord
  2
블럭10
340
0
102
{BLKREFS
331
C0
102
}
  0
BLOCK_RECORD
  5
C9
330
1
100
AcDbSymbolTableRecord
100
AcDbBlockTableRecord
  2
_D
340
0
  0
BLOCK_RECORD
  5
DD
330
1
100
AcDbSymbolTableRecord
100
AcDbBlockTableRecord
  2
_D_1
340
0
  0
BLOCK_RECORD
  5
F1
330
1
100
AcDbSymbolTableRecord
100
AcDbBlockTableRecord
  2
_D_2
340
0
  0
BLOCK_RECORD
  5
104
330
1
100
AcDbSymbolTableRecord
100
AcDbBlockTableRecord
  2
SW_DOWELSYMBOL_0
340
0
102
{BLKREFS
331
10A
102
}
  0
BLOCK_RECORD
  5
13E
330
1
100
AcDbSymbolTableRecord
100
AcDbBlockTableRecord
  2
*D6
340
0
  0
BLOCK_RECORD
  5
183
330
1
100
AcDbSymbolTableRecord
100
AcDbBlockTableRecord
  2
*D7
340
0
  0
ENDTAB
  0
ENDSEC
  0
SECTION
  2
BLOCKS
  0
BLOCK
  5
20
330
1F
100
AcDbEntity
  8
0
100
AcDbBlockBegin
  2
*Model_Space
 70
     0
 10
0.0
 20
0.0
 30
0.0
  3
*Model_Space
  1
*Model_Space
  0
ENDBLK
  5
21
330
1F
100
AcDbEntity
  8
0
100
AcDbBlockEnd
  0
BLOCK
  5
1C
330
1B
100
AcDbEntity
 67
     1
  8
0
100
AcDbBlockBegin
  2
*Paper_Space
 70
     0
 10
0.0
 20
0.0
 30
0.0
  3
*Paper_Space
  1
*Paper_Space
  0
ENDBLK
  5
1D
330
1B
100
AcDbEntity
 67
     1
  8
0
100
AcDbBlockEnd
  0
BLOCK
  5
24
330
23
100
AcDbEntity
  8
0
100
AcDbBlockBegin
  2
*Paper_Space0
 70
     0
 10
0.0
 20
0.0
 30
0.0
  3
*Paper_Space0
  1
*Paper_Space0
  0
ENDBLK
  5
25
330
23
100
AcDbEntity
  8
0
100
AcDbBlockEnd
  0
BLOCK
  5
7F
330
7E
100
AcDbEntity
  8
0
100
AcDbBlockBegin
  2
블럭10
 70
     2
 10
0.0
 20
0.0
 30
0.0
  3
블럭10
  1
블럭10
  0
ELLIPSE
  5
81
330
7E
100
AcDbEntity
  8
중심선
100
AcDbEllipse
 10
20.54032771741204
 20
12.0471743016438
 30
0.0
 11
6.600054785286829
 21
-1.261213355974178E-13
 31
0.0
210
0.0
220
0.0
230
1.0
 40
0.636358354079598
 41
0.9219305317359503
 42
6.513795318482858
  0
ELLIPSE
  5
82
330
7E
100
AcDbEntity
  8
중심선
100
AcDbEllipse
 10
20.54032771746488
 20
12.04717430159265
 30
0.0
 11
3.960054785062283
 21
1.540847449632565E-10
 31
0.0
210
0.0
220
0.0
230
1.0
 40
0.3939339440162632
 41
1.131841032648279
 42
5.62031148352944
  0
LINE
  5
83
330
7E
100
AcDbEntity
  8
중심선
100
AcDbLine
 10
2.268634060543552
 20
16.24717430164393
 30
0.0
 11
5.714909304380834
 21
16.24717430164393
 31
0.0
  0
LINE
  5
84
330
7E
100
AcDbEntity
  8
중심선
100
AcDbLine
 10
5.245725140726316
 20
7.84717430164391
 30
0.0
 11
8.692000384563599
 21
7.84717430164391
 31
0.0
  0
LINE
  5
85
330
7E
100
AcDbEntity
  8
중심선
100
AcDbLine
 10
15.74043728645272
 20
16.24717430164393
 30
0.0
 11
8.692000384563599
 21
7.84717430164391
 31
0.0
  0
LINE
  5
86
330
7E
100
AcDbEntity
  8
중심선
100
AcDbLine
 10
0.1404042013395286
 20
13.71084872107135
 30
0.0
 11
3.58671253028996
 21
13.71088815037384
 31
0.0
  0
LINE
  5
87
330
7E
100
AcDbEntity
  8
중심선
100
AcDbLine
 10
2.750260043222114
 20
10.84717430164391
 30
0.0
 11
6.196535287059397
 21
10.84717430164391
 31
0.0
  0
LINE
  5
88
330
7E
100
AcDbEntity
  8
중심선
100
AcDbLine
 10
12.29416204261559
 20
16.24717430164393
 30
0.0
 11
5.245725140726316
 21
7.84717430164391
 31
0.0
  0
LINE
  5
89
330
7E
100
AcDbEntity
  8
중심선
100
AcDbLine
 10
10.72767329541681
 20
16.24717430164393
 30
0.0
 11
6.196535287059397
 21
10.84717430164391
 31
0.0
  0
LINE
  5
8A
330
7E
100
AcDbEntity
  8
중심선
100
AcDbLine
 10
7.28139805157953
 20
16.24717430164393
 30
0.0
 11
2.750260043222114
 21
10.84717430164391
 31
0.0
  0
LINE
  5
8B
330
7E
100
AcDbEntity
  8
중심선
100
AcDbLine
 10
5.714909304380834
 20
16.24717430164393
 30
0.0
 11
3.58671253028996
 21
13.71088815037384
 31
0.0
  0
LINE
  5
8C
330
7E
100
AcDbEntity
  8
중심선
100
AcDbLine
 10
2.268634060543552
 20
16.24717430164393
 30
0.0
 11
0.1404042013395286
 21
13.71084872107135
 31
0.0
  0
LINE
  5
8D
330
7E
100
AcDbEntity
  8
중심선
100
AcDbLine
 10
7.28139805157953
 20
16.24717430164393
 30
0.0
 11
10.72767329541681
 21
16.24717430164393
 31
0.0
  0
LINE
  5
8E
330
7E
100
AcDbEntity
  8
중심선
100
AcDbLine
 10
12.29416204261559
 20
16.24717430164393
 30
0.0
 11
15.74043728645272
 21
16.24717430164393
 31
0.0
  0
LINE
  5
8F
330
7E
100
AcDbEntity
  8
중심선
100
AcDbLine
 10
19.22036997980202
 20
11.08717430171403
 30
0.0
 11
23.66174974927406
 21
11.08717430171406
 31
0.0
  0
LINE
  5
90
330
7E
100
AcDbEntity
  8
중심선
100
AcDbLine
 10
19.22039502424796
 20
13.00717430171391
 30
0.0
 11
19.22036997980202
 21
11.08717430171403
 31
0.0
  0
LINE
  5
91
330
7E
100
AcDbEntity
  8
중심선
100
AcDbLine
 10
19.22039502424796
 20
13.00717430171391
 30
0.0
 11
26.96566020931264
 21
13.00717430171391
 31
0.0
  0
LINE
  5
92
330
7E
100
AcDbEntity
  8
중심선
100
AcDbLine
 10
22.22332737316547
 20
13.45928029700563
 30
0.0
 11
24.52862924686651
 21
15.39360700705356
 31
0.0
  0
ATTDEF
  5
94
330
7E
100
AcDbEntity
  8
FORMAT
 62
     2
100
AcDbText
 10
-9.18129528874128
 20
2.075366912832191
 30
0.0
 40
4.233333333333333
  1
E5078008 [ 3 FLUTE ]
 41
0.75
  7
SLDTEXTSTYLE0
 11
-9.18129528874128
 21
-0.0412997538344756
 31
0.0
100
AcDbAttributeDefinition
  3

  2
AUTOATTR0
 70
     0
 74
     1
  0
ENDBLK
  5
80
330
7E
100
AcDbEntity
  8
0
100
AcDbBlockEnd
  0
BLOCK
  5
CA
330
C9
100
AcDbEntity
  8
0
100
AcDbBlockBegin
  2
_D
 70
     0
 10
0.0
 20
0.0
 30
0.0
  3
_D
  1
_D
  0
LINE
  5
CC
330
C9
100
AcDbEntity
  8
치수문자_일반주서
 62
     0
370
    -2
100
AcDbLine
 10
31.558
 20
3.125000000000012
 30
0.0
 11
31.558
 21
38.70582133580806
 31
0.0
  0
LINE
  5
CD
330
C9
100
AcDbEntity
  8
치수문자_일반주서
 62
     0
370
    -2
100
AcDbLine
 10
12.508
 20
4.753599646990204
 30
0.0
 11
12.508
 21
38.70582133580806
 31
0.0
  0
LINE
  5
CE
330
C9
100
AcDbEntity
  8
치수문자_일반주서
 62
     0
370
    -2
100
AcDbLine
 10
12.508
 20
38.70582133580806
 30
0.0
 11
-15.95025
 21
38.70582133580806
 31
0.0
  0
LINE
  5
CF
330
C9
100
AcDbEntity
  8
치수문자_일반주서
 62
     0
370
    -2
100
AcDbLine
 10
28.256
 20
38.70582133580806
 30
0.0
 11
15.81
 21
38.70582133580806
 31
0.0
  0
SOLID
  5
D0
330
C9
100
AcDbEntity
  8
치수문자_일반주서
 62
     0
100
AcDbTrace
 10
28.256
 20
38.15548800247473
 30
0.0
 11
28.256
 21
39.2561546691414
 31
0.0
 12
31.558
 22
38.70582133580806
 32
0.0
 13
31.558
 23
38.70582133580806
 33
0.0
  0
SOLID
  5
D1
330
C9
100
AcDbEntity
  8
치수문자_일반주서
 62
     0
100
AcDbTrace
 10
15.81
 20
39.2561546691414
 30
0.0
 11
15.81
 21
38.15548800247473
 31
0.0
 12
12.508
 22
38.70582133580806
 32
0.0
 13
12.508
 23
38.70582133580806
 33
0.0
  0
MTEXT
  5
D2
330
C9
100
AcDbEntity
  8
치수문자_일반주서
 62
     0
100
AcDbMText
 10
-3.4815
 20
43.08082133580806
 30
0.0
 40
3.5
 41
0.0
 71
     2
 72
     1
  1
\A1;19.05 [3/4]
  7
SLDTEXTSTYLE0
 73
     1
 44
1.0
  0
POINT
  5
D3
330
C9
100
AcDbEntity
  8
Defpoints
 62
     0
100
AcDbPoint
 10
31.558
 20
3.062500000000012
 30
0.0
  0
POINT
  5
D4
330
C9
100
AcDbEntity
  8
Defpoints
 62
     0
100
AcDbPoint
 10
12.508
 20
4.691099646990204
 30
0.0
  0
POINT
  5
D5
330
C9
100
AcDbEntity
  8
Defpoints
 62
     0
100
AcDbPoint
 10
12.508
 20
38.70582133580806
 30
0.0
  0
ENDBLK
  5
CB
330
C9
100
AcDbEntity
  8
0
100
AcDbBlockEnd
  0
BLOCK
  5
DE
330
DD
100
AcDbEntity
  8
0
100
AcDbBlockBegin
  2
_D_1
 70
     0
 10
0.0
 20
0.0
 30
0.0
  3
_D_1
  1
_D_1
  0
LINE
  5
E0
330
DD
100
AcDbEntity
  8
치수문자_일반주서
 62
     0
370
    -2
100
AcDbLine
 10
31.558
 20
3.062500000000012
 30
0.0
 11
31.558
 21
51.95915484508772
 31
0.0
  0
LINE
  5
E1
330
DD
100
AcDbEntity
  8
치수문자_일반주서
 62
     0
370
    -2
100
AcDbLine
 10
-57.342
 20
2.427499999999992
 30
0.0
 11
-57.34199999999998
 21
51.95915484508772
 31
0.0
  0
LINE
  5
E2
330
DD
100
AcDbEntity
  8
치수문자_일반주서
 62
     0
370
    -2
100
AcDbLine
 10
28.256
 20
51.95915484508772
 30
0.0
 11
-54.03999999999998
 21
51.95915484508772
 31
0.0
  0
SOLID
  5
E3
330
DD
100
AcDbEntity
  8
치수문자_일반주서
 62
     0
100
AcDbTrace
 10
28.256
 20
51.40882151175438
 30
0.0
 11
28.256
 21
52.50948817842105
 31
0.0
 12
31.558
 22
51.95915484508772
 32
0.0
 13
31.558
 23
51.95915484508772
 33
0.0
  0
SOLID
  5
E4
330
DD
100
AcDbEntity
  8
치수문자_일반주서
 62
     0
100
AcDbTrace
 10
-54.03999999999998
 20
52.50948817842105
 30
0.0
 11
-54.03999999999998
 21
51.40882151175438
 31
0.0
 12
-57.34199999999998
 22
51.95915484508772
 32
0.0
 13
-57.34199999999998
 23
51.95915484508772
 33
0.0
  0
MTEXT
  5
E5
330
DD
100
AcDbEntity
  8
치수문자_일반주서
 62
     0
100
AcDbMText
 10
-11.18801414975405
 20
56.33415484508772
 30
0.0
 40
3.5
 41
0.0
 71
     2
 72
     1
  1
\A1;88.90 [3 1/2]
  7
SLDTEXTSTYLE0
 73
     1
 44
1.0
  0
POINT
  5
E6
330
DD
100
AcDbEntity
  8
Defpoints
 62
     0
100
AcDbPoint
 10
31.558
 20
3.000000000000012
 30
0.0
  0
POINT
  5
E7
330
DD
100
AcDbEntity
  8
Defpoints
 62
     0
100
AcDbPoint
 10
-57.342
 20
2.364999999999992
 30
0.0
  0
POINT
  5
E8
330
DD
100
AcDbEntity
  8
Defpoints
 62
     0
100
AcDbPoint
 10
-57.342
 20
51.95915484508772
 30
0.0
  0
ENDBLK
  5
DF
330
DD
100
AcDbEntity
  8
0
100
AcDbBlockEnd
  0
BLOCK
  5
F2
330
F1
100
AcDbEntity
  8
0
100
AcDbBlockBegin
  2
_D_2
 70
     0
 10
0.0
 20
0.0
 30
0.0
  3
_D_2
  1
_D_2
  0
LINE
  5
F4
330
F1
100
AcDbEntity
  8
치수문자_일반주서
 62
     0
370
    -2
100
AcDbLine
 10
-50.24449999999998
 20
3.175
 30
0.0
 11
-63.99199999999995
 21
3.174999999999951
 31
0.0
  0
LINE
  5
F5
330
F1
100
AcDbEntity
  8
치수문자_일반주서
 62
     0
370
    -2
100
AcDbLine
 10
-50.24449999999998
 20
-3.174999999999998
 30
0.0
 11
-63.99199999999993
 21
-3.175000000000047
 31
0.0
  0
LINE
  5
F6
330
F1
100
AcDbEntity
  8
치수문자_일반주서
 62
     0
370
    -2
100
AcDbLine
 10
-63.99199999999995
 20
3.174999999999951
 30
0.0
 11
-63.99200000000005
 21
35.81024999999995
 31
0.0
  0
LINE
  5
F7
330
F1
100
AcDbEntity
  8
치수문자_일반주서
 62
     0
370
    -2
100
AcDbLine
 10
-63.99199999999995
 20
3.174999999999951
 30
0.0
 11
-63.99199999999993
 21
-3.175000000000047
 31
0.0
  0
LINE
  5
F8
330
F1
100
AcDbEntity
  8
치수문자_일반주서
 62
     0
370
    -2
100
AcDbLine
 10
-63.99199999999996
 20
6.476999999999951
 30
0.0
 11
-63.99199999999998
 21
9.77899999999995
 31
0.0
  0
LINE
  5
F9
330
F1
100
AcDbEntity
  8
치수문자_일반주서
 62
     0
370
    -2
100
AcDbLine
 10
-63.99199999999991
 20
-6.477000000000046
 30
0.0
 11
-63.9919999999999
 21
-9.779000000000046
 31
0.0
  0
SOLID
  5
FA
330
F1
100
AcDbEntity
  8
치수문자_일반주서
 62
     0
100
AcDbTrace
 10
-64.54233333333329
 20
6.476999999999949
 30
0.0
 11
-63.44166666666663
 21
6.476999999999952
 31
0.0
 12
-63.99199999999995
 22
3.174999999999951
 32
0.0
 13
-63.99199999999995
 23
3.174999999999951
 33
0.0
  0
SOLID
  5
FB
330
F1
100
AcDbEntity
  8
치수문자_일반주서
 62
     0
100
AcDbTrace
 10
-63.44166666666658
 20
-6.477000000000045
 30
0.0
 11
-64.54233333333325
 21
-6.477000000000048
 31
0.0
 12
-63.99199999999993
 22
-3.175000000000047
 32
0.0
 13
-63.99199999999993
 23
-3.175000000000047
 33
0.0
  0
MTEXT
  5
FC
330
F1
100
AcDbEntity
  8
치수문자_일반주서
 62
     0
100
AcDbMText
 10
-68.36700000000002
 20
23.12274999999994
 30
0.0
 40
3.5
 41
0.0
 71
     2
 72
     1
  1
\A1;%%c6.35 [1/4]
  7
SLDTEXTSTYLE0
 11
-3.356894814614648E-15
 21
1.0
 31
0.0
 73
     1
 44
1.0
  0
POINT
  5
FD
330
F1
100
AcDbEntity
  8
Defpoints
 62
     0
100
AcDbPoint
 10
-50.18199999999998
 20
3.175
 30
0.0
  0
POINT
  5
FE
330
F1
100
AcDbEntity
  8
Defpoints
 62
     0
100
AcDbPoint
 10
-50.18199999999998
 20
-3.174999999999998
 30
0.0
  0
POINT
  5
FF
330
F1
100
AcDbEntity
  8
Defpoints
 62
     0
100
AcDbPoint
 10
-63.99199999999993
 20
-3.175000000000046
 30
0.0
  0
ENDBLK
  5
F3
330
F1
100
AcDbEntity
  8
0
100
AcDbBlockEnd
  0
BLOCK
  5
105
330
104
100
AcDbEntity
  8
0
100
AcDbBlockBegin
  2
SW_DOWELSYMBOL_0
 70
     0
 10
0.0
 20
0.0
 30
0.0
  3
SW_DOWELSYMBOL_0
  1
SW_DOWELSYMBOL_0
  0
CIRCLE
  5
107
330
104
100
AcDbEntity
  8
외형선
 62
     0
100
AcDbCircle
 10
0.0
 20
0.0
 30
0.0
 40
2.999999999999999
  0
HATCH
  5
108
330
104
100
AcDbEntity
  8
0
  6
Continuous
 62
     0
370
    30
100
AcDbHatch
 10
0.0
 20
0.0
 30
0.0
210
0.0
220
0.0
230
1.0
  2
SOLID
 70
     1
 71
     0
 91
        1
 92
        0
 93
        3
 72
     2
 10
-0.0000000000000121
 20
-0.0000000000000078
 40
2.999999999999999
 50
0.0
 51
90.0
 73
     1
 72
     1
 10
-0.0000000000000121
 20
2.999999999999992
 11
-0.0000000000000121
 21
-0.000000000000008
 72
     1
 10
-0.0000000000000121
 20
-0.0000000000000078
 11
2.999999999999987
 21
-0.0000000000000078
 97
        0
 75
     0
 76
     1
 98
        1
 10
0.0
 20
0.0
  0
HATCH
  5
109
330
104
100
AcDbEntity
  8
0
  6
Continuous
 62
     0
370
    30
100
AcDbHatch
 10
0.0
 20
0.0
 30
0.0
210
0.0
220
0.0
230
1.0
  2
SOLID
 70
     1
 71
     0
 91
        1
 92
        0
 93
        3
 72
     2
 10
-0.0000000000000121
 20
-0.0000000000000078
 40
2.999999999999999
 50
180.0
 51
270.0000000000007
 73
     1
 72
     1
 10
-0.0000000000000121
 20
-3.000000000000007
 11
-0.0000000000000121
 21
-0.000000000000008
 72
     1
 10
-0.0000000000000121
 20
-0.0000000000000078
 11
-3.000000000000012
 21
-0.0000000000000078
 97
        0
 75
     0
 76
     1
 98
        1
 10
0.0
 20
0.0
  0
ENDBLK
  5
106
330
104
100
AcDbEntity
  8
0
100
AcDbBlockEnd
  0
BLOCK
  5
13F
330
13E
100
AcDbEntity
  8
0
100
AcDbBlockBegin
  2
*D6
 70
     1
 10
0.0
 20
0.0
 30
0.0
  3
*D6
  1
*D6
  0
LINE
  5
141
330
13E
100
AcDbEntity
  8
치수문자_일반주서
 62
     0
370
    -2
100
AcDbLine
 10
31.62049999999999
 20
-1.587500000000008
 30
0.0
 11
42.9902858071979
 21
-1.587500000000009
 31
0.0
  0
LINE
  5
142
330
13E
100
AcDbEntity
  8
치수문자_일반주서
 62
     0
370
    -2
100
AcDbLine
 10
31.62049999999999
 20
1.587499999999992
 30
0.0
 11
42.9902858071979
 21
1.587499999999991
 31
0.0
  0
LINE
  5
143
330
13E
100
AcDbEntity
  8
치수문자_일반주서
 62
     0
370
    -2
100
AcDbLine
 10
42.9902858071979
 20
4.889499999999991
 30
0.0
 11
42.9902858071979
 21
32.69149999999999
 31
0.0
  0
LINE
  5
144
330
13E
100
AcDbEntity
  8
치수문자_일반주서
 62
     0
370
    -2
100
AcDbLine
 10
42.9902858071979
 20
-1.587500000000009
 30
0.0
 11
42.9902858071979
 21
1.587499999999991
 31
0.0
  0
LINE
  5
145
330
13E
100
AcDbEntity
  8
치수문자_일반주서
 62
     0
370
    -2
100
AcDbLine
 10
42.9902858071979
 20
-4.889500000000009
 30
0.0
 11
42.9902858071979
 21
-8.191500000000008
 31
0.0
  0
SOLID
  5
146
330
13E
100
AcDbEntity
  8
치수문자_일반주서
 62
     0
100
AcDbTrace
 10
43.54061914053123
 20
-4.889500000000009
 30
0.0
 11
42.43995247386457
 21
-4.889500000000009
 31
0.0
 12
42.9902858071979
 22
-1.587500000000009
 32
0.0
 13
42.9902858071979
 23
-1.587500000000009
 33
0.0
  0
SOLID
  5
147
330
13E
100
AcDbEntity
  8
치수문자_일반주서
 62
     0
100
AcDbTrace
 10
42.43995247386457
 20
4.889499999999991
 30
0.0
 11
43.54061914053123
 21
4.889499999999991
 31
0.0
 12
42.9902858071979
 22
1.587499999999991
 32
0.0
 13
42.9902858071979
 23
1.587499999999991
 33
0.0
  0
MTEXT
  5
148
330
13E
100
AcDbEntity
  8
치수문자_일반주서
 62
     0
100
AcDbMText
 10
40.3652858071979
 20
20.44149999999999
 30
0.0
 40
3.5
 41
0.0
 71
     5
 72
     1
  1
\A1;{%%c3.18 [1/8]}
  7
SLDTEXTSTYLE0
 11
0.0
 21
1.0
 31
0.0
 73
     1
 44
1.0
  0
POINT
  5
149
330
13E
100
AcDbEntity
  8
Defpoints
 62
     0
100
AcDbPoint
 10
31.55799999999999
 20
-1.587500000000008
 30
0.0
  0
POINT
  5
14A
330
13E
100
AcDbEntity
  8
Defpoints
 62
     0
100
AcDbPoint
 10
31.55799999999999
 20
1.587499999999992
 30
0.0
  0
POINT
  5
14B
330
13E
100
AcDbEntity
  8
Defpoints
 62
     0
100
AcDbPoint
 10
42.9902858071979
 20
1.587499999999991
 30
0.0
  0
ENDBLK
  5
140
330
13E
100
AcDbEntity
  8
0
100
AcDbBlockEnd
  0
BLOCK
  5
184
330
183
100
AcDbEntity
  8
0
100
AcDbBlockBegin
  2
*D7
 70
     1
 10
0.0
 20
0.0
 30
0.0
  3
*D7
  1
*D7
  0
LINE
  5
186
330
183
100
AcDbEntity
  8
치수문자_일반주서
 62
     0
370
    -2
100
AcDbLine
 10
17.20513960916826
 20
10.49141757515051
 30
0.0
 11
20.03963573255003
 21
16.4102044421135
 31
0.0
  0
ARC
  5
187
330
183
100
AcDbEntity
  8
치수문자_일반주서
 62
     0
370
    -2
100
AcDbCircle
 10
39.11254814199056
 20
-0.0000000000000077
 30
0.0
 40
24.29000599753224
100
AcDbArc
 50
154.410325510406
 51
162.205162755203
  0
ARC
  5
188
330
183
100
AcDbEntity
  8
치수문자_일반주서
 62
     0
370
    -2
100
AcDbCircle
 10
39.11254814199056
 20
-0.0000000000000077
 30
0.0
 40
24.29000599753224
100
AcDbArc
 50
187.794837244797
 51
195.589674489594
  0
ARC
  5
189
330
183
100
AcDbEntity
  8
치수문자_일반주서
 62
     0
370
    -2
100
AcDbCircle
 10
39.11254814199056
 20
-0.0000000000000077
 30
0.0
 40
24.29000599753224
100
AcDbArc
 50
169.9999999999999
 51
180.0
  0
SOLID
  5
18A
330
183
100
AcDbEntity
  8
치수문자_일반주서
 62
     0
100
AcDbTrace
 10
15.45042690718191
 20
7.555438264709278
 30
0.0
 11
16.51887409280569
 21
7.291075403013937
 31
0.0
 12
15.19156191490777
 22
4.217915276990289
 32
0.0
 13
15.19156191490777
 23
4.217915276990289
 33
0.0
  0
SOLID
  5
18B
330
183
100
AcDbEntity
  8
치수문자_일반주서
 62
     0
100
AcDbTrace
 10
15.59604081235701
 20
-3.256957259243167
 30
0.0
 11
14.49791961109444
 21
-3.331769948332305
 31
0.0
 12
14.82254214445831
 22
-0.0000000000000077
 32
0.0
 13
14.82254214445831
 23
-0.0000000000000077
 33
0.0
  0
MTEXT
  5
18C
330
183
100
AcDbEntity
  8
치수문자_일반주서
 62
     0
100
AcDbMText
 10
16.25487292407394
 20
14.58460945798472
 30
0.0
 40
3.5
 41
0.0
 71
     5
 72
     1
  1
\A1;10%%d
  7
SLDTEXTSTYLE0
 11
0.4319232188010326
 21
0.9019103797276953
 31
0.0
 73
     1
 44
1.0
  0
POINT
  5
18D
330
183
100
AcDbEntity
  8
Defpoints
 62
     0
100
AcDbPoint
 10
14.86363699019609
 20
1.412338242960941
 30
0.0
  0
POINT
  5
18E
330
183
100
AcDbEntity
  8
Defpoints
 62
     0
100
AcDbPoint
 10
-60.342
 20
-0.0000000000000078
 30
0.0
  0
POINT
  5
18F
330
183
100
AcDbEntity
  8
Defpoints
 62
     0
100
AcDbPoint
 10
18.07163400628834
 20
3.710080860894439
 30
0.0
  0
POINT
  5
190
330
183
100
AcDbEntity
  8
Defpoints
 62
     0
100
AcDbPoint
 10
14.85656432186114
 20
4.276984391116806
 30
0.0
  0
POINT
  5
191
330
183
100
AcDbEntity
  8
Defpoints
 62
     0
100
AcDbPoint
 10
36.24616648204625
 20
-0.0000000000000077
 30
0.0
  0
ENDBLK
  5
185
330
183
100
AcDbEntity
  8
0
100
AcDbBlockEnd
  0
ENDSEC
  0
SECTION
  2
ENTITIES
  0
LINE
  5
95
330
1F
100
AcDbEntity
  8
0
  6
Continuous
 62
     1
370
    15
100
AcDbLine
 10
25.45060936017665
 20
-2.408968416021115
 30
0.0
 11
27.52992406024515
 21
-2.042329133015309
 31
0.0
  0
LINE
  5
96
330
1F
100
AcDbEntity
  8
0
 62
     4
100
AcDbLine
 10
11.508
 20
-4.867426627698653
 30
0.0
 11
12.47213793502237
 21
-4.697423096629665
 31
0.0
  0
LINE
  5
97
330
1F
100
AcDbEntity
  8
0
  6
Continuous
 62
     1
370
    15
100
AcDbLine
 10
21.97722847298738
 20
3.021419180709707
 30
0.0
 11
19.1457688437787
 21
3.520681908125985
 31
0.0
  0
LINE
  5
98
330
1F
100
AcDbEntity
  8
0
  6
Continuous
 62
     1
370
    15
100
AcDbLine
 10
29.45857931027649
 20
-1.702255175949752
 30
0.0
 11
30.24616648204625
 21
-1.56338230790687
 31
0.0
  0
LINE
  5
99
330
1F
100
AcDbEntity
  8
0
  6
Continuous
 62
     1
370
    15
100
AcDbLine
 10
17.00653521734798
 20
-3.897886514504519
 30
0.0
 11
20.04436365670007
 21
-3.362235397883253
 31
0.0
  0
LINE
  5
9A
330
1F
100
AcDbEntity
  8
0
  6
Continuous
 62
     1
370
    15
100
AcDbLine
 10
14.0292690859576
 20
4.422858862218175
 30
0.0
 11
12.508
 21
4.691099646990204
 31
0.0
  0
LINE
  5
9B
330
1F
100
AcDbEntity
  8
0
  6
Continuous
 62
     1
370
    15
100
AcDbLine
 10
25.71569258059834
 20
2.3622270921277
 30
0.0
 11
23.37446423731983
 21
2.775048817047082
 31
0.0
  0
LINE
  5
9C
330
1F
100
AcDbEntity
  8
0
  6
Continuous
 62
     1
370
    15
100
AcDbLine
 10
21.26912794350081
 20
-3.146276409112122
 30
0.0
 11
23.86743154898916
 21
-2.688125379392442
 31
0.0
  0
LINE
  5
9D
102
{ACAD_REACTORS
102
}
330
1F
100
AcDbEntity
  8
0
  6
Continuous
 62
     1
370
    15
100
AcDbLine
 10
18.07163400628834
 20
3.710080860894439
 30
0.0
 11
14.85656432186114
 21
4.276984391116806
 31
0.0
  0
LINE
  5
9E
330
1F
100
AcDbEntity
  8
0
  6
Continuous
 62
     1
370
    15
100
AcDbLine
 10
29.33333767463411
 20
1.724338655421582
 30
0.0
 11
27.48737087911465
 21
2.049832406963609
 31
0.0
  0
ARC
  5
9F
330
1F
100
AcDbEntity
  8
0
  6
Continuous
 62
     1
370
    15
100
AcDbCircle
 10
29.9705
 20
0.0000000000000093
 30
0.0
 40
1.587499999999999
100
AcDbArc
 50
280.0000000000008
 51
288.940710266635
  0
ARC
  5
A0
330
1F
100
AcDbEntity
  8
0
  6
Continuous
 62
     1
370
    15
100
AcDbCircle
 10
29.9705
 20
0.0000000000000093
 30
0.0
 40
1.587500000000001
100
AcDbArc
 50
27.85617637447605
 51
43.36944511121986
  0
SPLINE
  5
A1
330
1F
100
AcDbEntity
  8
0
  6
Continuous
 62
     1
370
    15
100
AcDbSpline
210
0.0
220
0.0
230
1.0
 70
     8
 71
     3
 72
     9
 73
     5
 74
     0
 42
0.000000001
 43
0.00000001
 40
0.0
 40
0.0
 40
0.0
 40
0.0
 40
0.8098230043378427
 40
0.9999999999999999
 40
0.9999999999999999
 40
0.9999999999999999
 40
0.9999999999999999
 10
12.508
 20
-4.671231721903734
 30
0.0
 10
12.55918866290299
 20
-4.673062751003652
 30
0.0
 10
12.62239835517995
 20
-4.675323774820104
 30
0.0
 10
12.68618948794647
 20
-4.657023356654152
 30
0.0
 10
12.69832109392589
 20
-4.65354303810799
 30
0.0
  0
SPLINE
  5
A2
330
1F
100
AcDbEntity
  8
0
  6
Continuous
 62
     1
370
    15
100
AcDbSpline
210
0.0
220
0.0
230
1.0
 70
     8
 71
     3
 72
    42
 73
    38
 74
     0
 42
0.000000001
 43
0.00000001
 40
0.0
 40
0.0
 40
0.0
 40
0.0
 40
0.0069721762244858
 40
0.0389807422925446
 40
0.0709889012457668
 40
0.1039684747485922
 40
0.1369475426380755
 40
0.1682611321575867
 40
0.1995743439704588
 40
0.2318378979770098
 40
0.2641009658381827
 40
0.2947328546878273
 40
0.3253643476519504
 40
0.3569255485968144
 40
0.3884863021250027
 40
0.4184511211919856
 40
0.4484155333849597
 40
0.4792895828021366
 40
0.5101631971720044
 40
0.5394734446460766
 40
0.5687833095057471
 40
0.5989828939367884
 40
0.6291820270915138
 40
0.657851848253258
 40
0.6865213147004082
 40
0.7160607073562607
 40
0.745599663256253
 40
0.7736474625848438
 40
0.8016949060939204
 40
0.8305929778810924
 40
0.8594906429860899
 40
0.8869366983907585
 40
0.9143824054685634
 40
0.9426601372077159
 40
0.97093747718713
 40
0.9978002599703214
 40
1.0
 40
1.0
 40
1.0
 40
1.0
 10
18.59126270650618
 20
3.482884299390194
 30
0.0
 10
18.60535528863805
 20
3.488143359496433
 30
0.0
 10
18.68414551060487
 20
3.517546240333311
 30
0.0
 10
18.82893874177865
 20
3.537429131611859
 30
0.0
 10
19.02772570161406
 20
3.542001143915884
 30
0.0
 10
19.23001672603275
 20
3.508399634940739
 30
0.0
 10
19.43226668547655
 20
3.441052185156233
 30
0.0
 10
19.63249198482207
 20
3.341455275932848
 30
0.0
 10
19.83260547630353
 20
3.21181955904395
 30
0.0
 10
20.03614456081294
 20
3.050057580007066
 30
0.0
 10
20.23974278508751
 20
2.860379536033635
 30
0.0
 10
20.44130176916275
 20
2.647636836091006
 30
0.0
 10
20.6427567180453
 20
2.413342976580467
 30
0.0
 10
20.8477268412077
 20
2.155010579695208
 30
0.0
 10
21.05278854027176
 20
1.879631062896867
 30
0.0
 10
21.25579440216138
 20
1.593504847139712
 30
0.0
 10
21.45874150648641
 20
1.297555265513144
 30
0.0
 10
21.66527988530967
 20
0.9893020852487823
 30
0.0
 10
21.87191422055282
 20
0.6772874004268816
 30
0.0
 10
22.07650931803867
 20
0.3682130322288177
 30
0.0
 10
22.28109259218134
 20
0.0623098203332111
 30
0.0
 10
22.48930383324786
 20
-0.2424966412874864
 30
0.0
 10
22.69763634026096
 20
-0.5375670508412114
 30
0.0
 10
22.90397059563518
 20
-0.8169109297995666
 30
0.0
 10
23.11030828090405
 20
-1.081049281656088
 30
0.0
 10
23.3203225313315
 20
-1.331288211702277
 30
0.0
 10
23.53052020789838
 20
-1.560361235791278
 30
0.0
 10
23.73873746893662
 20
-1.764030123956554
 30
0.0
 10
23.94698572860927
 20
-1.943462769594151
 30
0.0
 10
24.15898737544734
 20
-2.099014570826621
 30
0.0
 10
24.37121889356568
 20
-2.226028051953395
 30
0.0
 10
24.58148075360779
 20
-2.322773275136158
 30
0.0
 10
24.79183816615596
 20
-2.390604288519746
 30
0.0
 10
25.00596477440688
 20
-2.430062482354182
 30
0.0
 10
25.22054842244028
 20
-2.435887766769678
 30
0.0
 10
25.36875366058191
 20
-2.427125452569614
 30
0.0
 10
25.44468215128907
 20
-2.409296029573027
 30
0.0
 10
25.45042917268418
 20
-2.407946521970944
 30
0.0
  0
LINE
  5
A3
330
1F
100
AcDbEntity
  8
0
 62
     4
100
AcDbLine
 10
12.508
 20
1.162165992664124
 30
0.0
 11
12.508
 21
-4.691099646990185
 31
0.0
  0
SPLINE
  5
A4
330
1F
100
AcDbEntity
  8
0
  6
Continuous
 62
     1
370
    15
100
AcDbSpline
210
0.0
220
0.0
230
1.0
 70
     8
 71
     3
 72
    45
 73
    41
 74
     0
 42
0.000000001
 43
0.00000001
 40
0.0
 40
0.0
 40
0.0
 40
0.0
 40
0.0009945277551256
 40
0.0265004739299971
 40
0.0514649221002735
 40
0.0764295924284093
 40
0.1020999756055092
 40
0.1277706050934611
 40
0.1530737054631492
 40
0.1783770859194725
 40
0.2043897673425983
 40
0.2304027443436488
 40
0.2561564249425892
 40
0.2819104152068019
 40
0.3083825531443879
 40
0.3348550330545796
 40
0.3611370602419813
 40
0.3874194100945461
 40
0.4144322691638043
 40
0.4414455088197222
 40
0.4683116494355262
 40
0.4951781149936377
 40
0.5227898715076449
 40
0.5504020347132078
 40
0.5778935381499761
 40
0.6053853664228295
 40
0.6336389914257134
 40
0.6618930371644489
 40
0.6900411463144284
 40
0.7181895883489655
 40
0.7471175973388524
 40
0.7760460367647686
 40
0.80487489679634
 40
0.8337041038300916
 40
0.8633315991292109
 40
0.8929595290052849
 40
0.9224881333462246
 40
0.952017104618508
 40
0.9823638127994019
 40
1.0
 40
1.0
 40
1.0
 40
1.0
 10
28.45604360690313
 20
-1.612643160329596
 30
0.0
 10
28.45355182618492
 20
-1.61451268623656
 30
0.0
 10
28.3871551171721
 20
-1.664328613749511
 30
0.0
 10
28.25991890333149
 20
-1.745595426427314
 30
0.0
 10
28.07438309621498
 20
-1.852979337031258
 30
0.0
 10
27.8903333458254
 20
-1.938891156361528
 30
0.0
 10
27.70615144087807
 20
-2.004415071632813
 30
0.0
 10
27.52280388669181
 20
-2.047406602667968
 30
0.0
 10
27.34190745012069
 20
-2.066946863076728
 30
0.0
 10
27.16170053843002
 20
-2.063390997072362
 30
0.0
 10
26.98130507268728
 20
-2.035805563876548
 30
0.0
 10
26.80135209531966
 20
-1.984194981083966
 30
0.0
 10
26.62342652916848
 20
-1.909384811419127
 30
0.0
 10
26.44581173299241
 20
-1.8118716837095
 30
0.0
 10
26.26793040808261
 20
-1.691488757454422
 30
0.0
 10
26.09023954124796
 20
-1.549501889501196
 30
0.0
 10
25.91428079326432
 20
-1.388536805850252
 30
0.0
 10
25.73838550995065
 20
-1.209060838032937
 30
0.0
 10
25.56216653554062
 20
-1.011828048049984
 30
0.0
 10
25.38596140326052
 20
-0.7990603816717143
 30
0.0
 10
25.21128138742977
 20
-0.5747931449164236
 30
0.0
 10
25.03650556023712
 20
-0.3393694633394593
 30
0.0
 10
24.86136022579594
 20
-0.0943833809185207
 30
0.0
 10
24.68609781777757
 20
0.1573538013807974
 30
0.0
 10
24.51221903206978
 20
0.4110173289011351
 30
0.0
 10
24.33814348108666
 20
0.6664351326979173
 30
0.0
 10
24.16365674362173
 20
0.9214248587863033
 30
0.0
 10
23.98895277946903
 20
1.173007142866927
 30
0.0
 10
23.81554361413495
 20
1.416317179715038
 30
0.0
 10
23.64187138854211
 20
1.651351292057418
 30
0.0
 10
23.46774702121542
 20
1.875702070597736
 30
0.0
 10
23.29333314904968
 20
2.086662318001914
 30
0.0
 10
23.12016068611691
 20
2.280081953039775
 30
0.0
 10
22.94668429115488
 20
2.456089873840319
 30
0.0
 10
22.77271268798084
 20
2.612479914370004
 30
0.0
 10
22.59840305944315
 20
2.747110457904039
 30
0.0
 10
22.42529772298553
 20
2.857611038983824
 30
0.0
 10
22.25190775659991
 20
2.942659616172033
 30
0.0
 10
22.10233662767584
 20
2.997466700738547
 30
0.0
 10
22.01043233059773
 20
3.012594082816399
 30
0.0
 10
21.97665276446438
 20
3.018154175429794
 30
0.0
  0
SPLINE
  5
A5
330
1F
100
AcDbEntity
  8
0
  6
Continuous
 62
     1
370
    15
100
AcDbSpline
210
0.0
220
0.0
230
1.0
 70
     8
 71
     3
 72
    31
 73
    27
 74
     0
 42
0.000000001
 43
0.00000001
 40
0.0
 40
0.0
 40
0.0
 40
0.0
 40
0.0058122731094196
 40
0.0473162729161117
 40
0.0885828451590435
 40
0.129849904832105
 40
0.1722654170416616
 40
0.2146814780754039
 40
0.2568405411498372
 40
0.2990000724899693
 40
0.3423337947743352
 40
0.3856680984431871
 40
0.4287252640092336
 40
0.4717828743771081
 40
0.5160405820893963
 40
0.5602988880226785
 40
0.6042594190154851
 40
0.6482203728526515
 40
0.6934074549967574
 40
0.7385951302618894
 40
0.7834639389883585
 40
0.8283331732380756
 40
0.8744546569336211
 40
0.9205767229078144
 40
0.9601877083030711
 40
1.0
 40
1.0
 40
1.0
 40
1.0
 10
16.52362721740409
 20
-3.868935566093088
 30
0.0
 10
16.51535931936509
 20
-3.874985845159648
 30
0.0
 10
16.44805241332482
 20
-3.924239665505432
 30
0.0
 10
16.32297450719561
 20
-3.986068831334044
 30
0.0
 10
16.14838179576201
 20
-4.051308080530355
 30
0.0
 10
15.97343137601278
 20
-4.080992520149265
 30
0.0
 10
15.79777516666519
 20
-4.077567917618729
 30
0.0
 10
15.62185827353033
 20
-4.039499747886626
 30
0.0
 10
15.44714141707514
 20
-3.967466833199492
 30
0.0
 10
15.27199233386287
 20
-3.861759994198701
 30
0.0
 10
15.09618314462042
 20
-3.721783956087746
 30
0.0
 10
14.92010059473841
 20
-3.548529684910065
 30
0.0
 10
14.7451953289127
 20
-3.344793995824206
 30
0.0
 10
14.56989155136616
 20
-3.110730015809255
 30
0.0
 10
14.39393896496344
 20
-2.846635095437909
 30
0.0
 10
14.21769288950315
 20
-2.554944022973021
 30
0.0
 10
14.04261362976146
 20
-2.24056553561948
 30
0.0
 10
13.86718330537193
 20
-1.903377728437067
 30
0.0
 10
13.69109789203507
 20
-1.544572087700441
 30
0.0
 10
13.514684441971
 20
-1.167777166096051
 30
0.0
 10
13.33945919068083
 20
-0.7794139313017984
 30
0.0
 10
13.16392329934796
 20
-0.3791007340172506
 30
0.0
 10
12.98770162647653
 20
0.0312471641550016
 30
0.0
 10
12.81903442337913
 20
0.4285319601918635
 30
0.0
 10
12.65906347407841
 20
0.8066871245174978
 30
0.0
 10
12.55843950522346
 20
1.043472984072446
 30
0.0
 10
12.508
 20
1.162165992664472
 30
0.0
  0
SPLINE
  5
A6
330
1F
100
AcDbEntity
  8
0
  6
Continuous
 62
     1
370
    15
100
AcDbSpline
210
0.0
220
0.0
230
1.0
 70
     8
 71
     3
 72
    31
 73
    27
 74
     0
 42
0.000000001
 43
0.00000001
 40
0.0
 40
0.0
 40
0.0
 40
0.0
 40
0.0366037167456716
 40
0.0930341858320285
 40
0.1215871879005823
 40
0.1501401071524592
 40
0.1935304524593852
 40
0.2369202658373964
 40
0.2815757449192826
 40
0.3262307037222044
 40
0.3694928164646879
 40
0.4127543730070021
 40
0.4573253079948306
 40
0.5018956603267718
 40
0.5442796958820701
 40
0.5866632129192229
 40
0.6303306162653105
 40
0.6739973813949454
 40
0.7155018902330743
 40
0.7570059268356197
 40
0.7997675283248644
 40
0.8425284924536323
 40
0.8831638855702574
 40
0.9237987942802917
 40
0.9656653600712888
 40
1.0
 40
1.0
 40
1.0
 40
1.0
 10
12.508
 20
2.709122987662702
 30
0.0
 10
12.55926452418315
 20
2.607658778109456
 30
0.0
 10
12.6895614910891
 20
2.349771302024319
 30
0.0
 10
12.8611456460562
 20
1.992262763098716
 30
0.0
 10
13.02211708681859
 20
1.649447889675733
 30
0.0
 10
13.16517066835392
 20
1.340667927157842
 30
0.0
 10
13.33012233732868
 20
0.9803560118403923
 30
0.0
 10
13.51913775372348
 20
0.5650344960608674
 30
0.0
 10
13.71116493850577
 20
0.1444281093357295
 30
0.0
 10
13.90417488126379
 20
-0.2733183966693303
 30
0.0
 10
14.0962396770008
 20
-0.6805456959449545
 30
0.0
 10
14.28934753594569
 20
-1.078000553054404
 30
0.0
 10
14.48563046386776
 20
-1.465922668068221
 30
0.0
 10
14.68181021067107
 20
-1.834187043081171
 30
0.0
 10
14.87588978795657
 20
-2.176263356393096
 30
0.0
 10
15.06984393828898
 20
-2.493703072783157
 30
0.0
 10
15.26695582676371
 20
-2.788281264856777
 30
0.0
 10
15.46395544675319
 20
-3.052058288776787
 30
0.0
 10
15.65890854183944
 20
-3.280836687377204
 30
0.0
 10
15.85369412937201
 20
-3.476656405815699
 30
0.0
 10
16.05163958759126
 20
-3.640057291816893
 30
0.0
 10
16.24954055549352
 20
-3.766278561775375
 30
0.0
 10
16.44538800773887
 20
-3.854411413550429
 30
0.0
 10
16.64107969035638
 20
-3.905300509958551
 30
0.0
 10
16.82782101985558
 20
-3.922234432347381
 30
0.0
 10
16.95068992924533
 20
-3.903560409319644
 30
0.0
 10
17.00605204225241
 20
-3.895146292369366
 30
0.0
  0
SPLINE
  5
A7
330
1F
100
AcDbEntity
  8
0
  6
Continuous
 62
     1
370
    15
100
AcDbSpline
210
0.0
220
0.0
230
1.0
 70
     8
 71
     3
 72
    40
 73
    36
 74
     0
 42
0.000000001
 43
0.00000001
 40
0.0
 40
0.0
 40
0.0
 40
0.0
 40
0.0098568611233521
 40
0.0433530298886265
 40
0.0768487842257872
 40
0.1113609102708712
 40
0.1458725260355488
 40
0.1786419602955242
 40
0.2114109788364606
 40
0.2451738224940188
 40
0.2789361910075337
 40
0.3110025823041271
 40
0.3430685666356632
 40
0.3761066406888667
 40
0.4091442570325424
 40
0.4405291861722938
 40
0.4719137222547317
 40
0.5042489958463451
 40
0.5365838256216732
 40
0.5673122632869264
 40
0.5980403315774068
 40
0.6296985478328025
 40
0.6613563157383751
 40
0.6914517652407666
 40
0.7215468682002071
 40
0.7525522859913749
 40
0.7835572872608887
 40
0.8130420939382116
 40
0.8425265188048551
 40
0.8729025990423062
 40
0.9032782906252542
 40
0.9321680768912016
 40
0.9610575099367187
 40
0.9908217442684246
 40
1.0
 40
1.0
 40
1.0
 40
1.0
 10
22.64229100867687
 20
2.709376067685245
 30
0.0
 10
22.66200980601277
 20
2.717301553120861
 30
0.0
 10
22.74873818734765
 20
2.752159892167369
 30
0.0
 10
22.90404456901653
 20
2.7832466076475
 30
0.0
 10
23.11028778655299
 20
2.802871638255351
 30
0.0
 10
23.32032810234172
 20
2.788735603090366
 30
0.0
 10
23.53051879580257
 20
2.744021152588675
 30
0.0
 10
23.73873784952917
 20
2.669976243144701
 30
0.0
 10
23.94698558182217
 20
2.568734315897578
 30
0.0
 10
24.15898757535929
 20
2.438717136008688
 30
0.0
 10
24.37121825836999
 20
2.283541417693509
 30
0.0
 10
24.58148296894326
 20
2.107509638852197
 30
0.0
 10
24.79182978473003
 20
1.912308702087944
 30
0.0
 10
25.00599711387445
 20
1.696189594257518
 30
0.0
 10
25.22043040088681
 20
1.465384705664889
 30
0.0
 10
25.43291485863173
 20
1.225609822434678
 30
0.0
 10
25.64552054523418
 20
0.9780897195104991
 30
0.0
 10
25.86200574661833
 20
0.7212778788785751
 30
0.0
 10
26.0787969899653
 20
0.4627610596956186
 30
0.0
 10
26.29366587963392
 20
0.208564639749141
 30
0.0
 10
26.50870261904243
 20
-0.0407313678466559
 30
0.0
 10
26.72766197510584
 20
-0.286127465063336
 30
0.0
 10
26.94696312379434
 20
-0.5201980718545792
 30
0.0
 10
27.16436469214894
 20
-0.7377848813297289
 30
0.0
 10
27.38195018223567
 20
-0.9390858699253731
 30
0.0
 10
27.60350413733197
 20
-1.124361249534793
 30
0.0
 10
27.82543963197763
 20
-1.287853665803904
 30
0.0
 10
28.04544583703197
 20
-1.426368001232186
 30
0.0
 10
28.26564737425174
 20
-1.540834525997591
 30
0.0
 10
28.48986962784142
 20
-1.63087441114869
 30
0.0
 10
28.71444687230267
 20
-1.693462076783412
 30
0.0
 10
28.93701398962059
 20
-1.728637331013199
 30
0.0
 10
29.15990745109145
 20
-1.735593881502719
 30
0.0
 10
29.33358586295548
 20
-1.725681926308851
 30
0.0
 10
29.4343427812751
 20
-1.704477362314668
 30
0.0
 10
29.45808992126436
 20
-1.699479712942507
 30
0.0
  0
LINE
  5
A8
330
1F
100
AcDbEntity
  8
0
 62
     4
100
AcDbLine
 10
12.508
 20
4.691099646990204
 30
0.0
 11
12.508
 21
2.709122987662702
 31
0.0
  0
SPLINE
  5
A9
330
1F
100
AcDbEntity
  8
0
  6
Continuous
 62
     1
370
    15
100
AcDbSpline
210
0.0
220
0.0
230
1.0
 70
     8
 71
     3
 72
    32
 73
    28
 74
     0
 42
0.000000001
 43
0.00000001
 40
0.0
 40
0.0
 40
0.0
 40
0.0
 40
0.0369779846421698
 40
0.0741711560523645
 40
0.1146294687066315
 40
0.1550877801200805
 40
0.1967130677317588
 40
0.2383385248623857
 40
0.27892777356759
 40
0.3195172330989006
 40
0.3612697123500976
 40
0.4030225044827037
 40
0.4438888737603773
 40
0.4847556067066192
 40
0.5267775793638719
 40
0.568799955227723
 40
0.610220692290475
 40
0.6516418878501977
 40
0.6942241968076875
 40
0.7368069896211203
 40
0.7789653187152382
 40
0.8211241547260434
 40
0.8644585860400498
 40
0.9077935771572886
 40
0.9508168004659068
 40
0.9938405519718083
 40
0.9999999999999999
 40
0.9999999999999999
 40
0.9999999999999999
 40
0.9999999999999999
 10
30.17692430568328
 20
-1.334163790144349
 30
0.0
 10
30.11517019545673
 20
-1.311994612837137
 30
0.0
 10
29.99130260800405
 20
-1.267527248660382
 30
0.0
 10
29.80250749467016
 20
-1.175255052659526
 30
0.0
 10
29.60993530332734
 20
-1.062615757840398
 30
0.0
 10
29.41239184511991
 20
-0.9264974312770878
 30
0.0
 10
29.21514293820268
 20
-0.7714469170621062
 30
0.0
 10
29.01981410147999
 20
-0.6005667815536193
 30
0.0
 10
28.82812466964538
 20
-0.4179395835864398
 30
0.0
 10
28.63815027600842
 20
-0.2246015203874119
 30
0.0
 10
28.44826013973296
 20
-0.0210901997212772
 30
0.0
 10
28.25978648850086
 20
0.1885375834323299
 30
0.0
 10
28.07441822219431
 20
0.3995762364484854
 30
0.0
 10
27.89032363681114
 20
0.6113309090161132
 30
0.0
 10
27.70615407439869
 20
0.8226612444821447
 30
0.0
 10
27.52280319183601
 20
1.029885807358866
 30
0.0
 10
27.34190763679265
 20
1.228525717557067
 30
0.0
 10
27.16170048009048
 20
1.418264838472433
 30
0.0
 10
26.98130511458625
 20
1.597371054622475
 30
0.0
 10
26.80135198748129
 20
1.762950700467463
 30
0.0
 10
26.62342691458087
 20
1.911411242191351
 30
0.0
 10
26.44581028058754
 20
2.042796289969752
 30
0.0
 10
26.26793599626649
 20
2.155124040124894
 30
0.0
 10
26.09021876824314
 20
2.247337460353914
 30
0.0
 10
25.91435769379714
 20
2.314347639895436
 30
0.0
 10
25.78959392933142
 20
2.351998194162451
 30
0.0
 10
25.72369230093578
 20
2.359811206499204
 30
0.0
 10
25.71543912385658
 20
2.36078966751613
 30
0.0
  0
SPLINE
  5
AA
330
1F
100
AcDbEntity
  8
0
  6
Continuous
 62
     1
370
    15
100
AcDbSpline
210
0.0
220
0.0
230
1.0
 70
     8
 71
     3
 72
    46
 73
    42
 74
     0
 42
0.000000001
 43
0.00000001
 40
0.0
 40
0.0
 40
0.0
 40
0.0
 40
0.015819314505601
 40
0.0396341224330954
 40
0.0634492611745876
 40
0.0879246127757761
 40
0.1124002685553935
 40
0.1367754152920354
 40
0.1611509047650752
 40
0.1862024773574311
 40
0.2112543413507519
 40
0.2361953645932639
 40
0.2611367325201847
 40
0.2867702387018997
 40
0.312404033586078
 40
0.3379168175746282
 40
0.363429944677944
 40
0.3896515271109334
 40
0.4158734063118819
 40
0.4419629411268632
 40
0.4680528147687116
 40
0.4948676672555875
 40
0.5216828336973102
 40
0.5483536713161712
 40
0.5750248407170645
 40
0.6024376935242565
 40
0.6298508836268073
 40
0.6571072539777375
 40
0.6843639462738988
 40
0.7123791858872667
 40
0.740394787996341
 40
0.7682406442026753
 40
0.7960868096962274
 40
0.8247085226001709
 40
0.8533306195057411
 40
0.8817696680417024
 40
0.9102090103671088
 40
0.9394410111542828
 40
0.9686734070635151
 40
0.9977091240721823
 40
1.0
 40
1.0
 40
1.0
 40
1.0
 10
20.62845919853444
 20
-3.096349345359854
 30
0.0
 10
20.58985855987554
 20
-3.123881975605824
 30
0.0
 10
20.49314751477555
 20
-3.192862944262055
 30
0.0
 10
20.33947397424121
 20
-3.272350759599185
 30
0.0
 10
20.16570157638166
 20
-3.338674161228548
 30
0.0
 10
19.99129295170373
 20
-3.3751623636019
 30
0.0
 10
19.81648836826804
 20
-3.38233983731201
 30
0.0
 10
19.64294728094548
 20
-3.359353286936709
 30
0.0
 10
19.46902143473142
 20
-3.306615419433574
 30
0.0
 10
19.2943830900225
 20
-3.223397657652543
 30
0.0
 10
19.119386442001
 20
-3.110105702975019
 30
0.0
 10
18.94566556004579
 20
-2.968409975780615
 30
0.0
 10
18.77153605079319
 20
-2.79856632449671
 30
0.0
 10
18.59667713146229
 20
-2.600814885212782
 30
0.0
 10
18.42148528207224
 20
-2.376782142290546
 30
0.0
 10
18.24757190940565
 20
-2.130160960808436
 30
0.0
 10
18.07322627289303
 20
-1.861082771296433
 30
0.0
 10
17.8981490427326
 20
-1.570684720028009
 30
0.0
 10
17.72276362143036
 20
-1.261668122076942
 30
0.0
 10
17.54864947774954
 20
-0.9393197921356418
 30
0.0
 10
17.37408710977695
 20
-0.6035926778906097
 30
0.0
 10
17.19880290182549
 20
-0.2563640007696496
 30
0.0
 10
17.02323136575118
 20
0.0988972981886385
 30
0.0
 10
16.84891394468959
 20
0.4559814269204691
 30
0.0
 10
16.67414136183864
 20
0.8151422011273204
 30
0.0
 10
16.4986654765918
 20
1.174000405141442
 30
0.0
 10
16.32291660339066
 20
1.52875257700627
 30
0.0
 10
16.14839725944603
 20
1.87309595394501
 30
0.0
 10
15.97342710398632
 20
2.20747798377775
 30
0.0
 10
15.79777632447245
 20
2.529306405687364
 30
0.0
 10
15.62185796680474
 20
2.834953294093703
 30
0.0
 10
15.44714149380021
 20
3.118900031345384
 30
0.0
 10
15.27199233219344
 20
3.381725738388193
 30
0.0
 10
15.09618306971113
 20
3.620941250638952
 30
0.0
 10
14.92010089458159
 20
3.833591856523893
 30
0.0
 10
14.74519421227632
 20
4.015830891310143
 30
0.0
 10
14.56989577026204
 20
4.167934831584267
 30
0.0
 10
14.39392272972524
 20
4.289088825841548
 30
0.0
 10
14.21775325370396
 20
4.372681186815147
 30
0.0
 10
14.09611157480949
 20
4.415892777540146
 30
0.0
 10
14.03361672156745
 20
4.421208086785076
 30
0.0
 10
14.029046548386
 20
4.421596788934166
 30
0.0
  0
ELLIPSE
  5
AB
330
1F
100
AcDbEntity
  8
0
  6
Continuous
 62
     1
370
    15
100
AcDbEllipse
 10
31.04650106897462
 20
-0.3365559933251431
 30
0.0
 11
2.019186212498685
 21
1.379710236556699
 31
0.0
210
0.0
220
0.0
230
1.0
 40
0.15988393775253
 41
3.91280343648355
 42
4.161171620659333
  0
ELLIPSE
  5
AC
330
1F
100
AcDbEntity
  8
0
  6
Continuous
 62
     1
370
    15
100
AcDbEllipse
 10
31.04650106897462
 20
-0.1790777036450799
 30
0.0
 11
1.971563334270957
 21
0.9769789198149684
 31
0.0
210
0.0
220
0.0
230
1.0
 40
0.5000948292701716
 41
3.778699876921721
 42
4.064466335562738
  0
SPLINE
  5
AD
330
1F
100
AcDbEntity
  8
0
 62
     4
100
AcDbSpline
210
0.0
220
0.0
230
1.0
 70
    24
 71
     3
 72
    20
 73
    16
 74
     0
 42
0.000000001
 43
0.00000001
 40
0.0
 40
0.0
 40
0.0
 40
0.0
 40
0.0602134163436091
 40
0.1419132687031464
 40
0.2236131210627117
 40
0.3053129734222769
 40
0.3870128257818281
 40
0.4687126781413792
 40
0.5504125305009305
 40
0.6321123828604818
 40
0.713812235220027
 40
0.795512087579572
 40
0.8772119399391296
 40
0.9589117922986872
 40
1.0
 40
1.0
 40
1.0
 40
1.0
 10
12.508
 20
1.178338007976912
 30
0.0
 10
12.508
 20
1.216669682338979
 30
0.0
 10
12.508
 20
1.307011229686889
 30
0.0
 10
12.508
 20
1.463187171938536
 30
0.0
 10
12.508
 20
1.638861042938303
 30
0.0
 10
12.508
 20
1.816152798630546
 30
0.0
 10
12.508
 20
1.989366715116207
 30
0.0
 10
12.508
 20
2.154010997409767
 30
0.0
 10
12.508
 20
2.30490263645695
 30
0.0
 10
12.508
 20
2.438440545944573
 30
0.0
 10
12.508
 20
2.549917809800489
 30
0.0
 10
12.508
 20
2.63751130601612
 30
0.0
 10
12.508
 20
2.696216805529812
 30
0.0
 10
12.508
 20
2.725177992859003
 30
0.0
 10
12.508
 20
2.725113270881175
 30
0.0
 10
12.508
 20
2.725091613155932
 30
0.0
  0
SPLINE
  5
AE
330
1F
100
AcDbEntity
  8
0
  6
Continuous
 62
     1
370
    15
100
AcDbSpline
210
0.0
220
0.0
230
1.0
 70
     8
 71
     3
 72
    43
 73
    39
 74
     0
 42
0.000000001
 43
0.00000001
 40
0.0
 40
0.0
 40
0.0
 40
0.0
 40
0.0086325146321776
 40
0.0410794876359226
 40
0.0719348339704182
 40
0.1027898028265365
 40
0.1345794339015134
 40
0.1663686003583991
 40
0.1965836560477696
 40
0.226798367952215
 40
0.2579285802239292
 40
0.2890583285006984
 40
0.3186406726929116
 40
0.348222664239773
 40
0.3787012954128651
 40
0.4091794934801195
 40
0.4381373516899693
 40
0.467094824726721
 40
0.4969304221598275
 40
0.5267656225472371
 40
0.5551072939732636
 40
0.5834485862488137
 40
0.6126498628596696
 40
0.6418507300070249
 40
0.6695809077678377
 40
0.6973107328303522
 40
0.7258821294297688
 40
0.7544530879980715
 40
0.7815811824543764
 40
0.8087089496897671
 40
0.8366600327184455
 40
0.8646106945818106
 40
0.8911482071071761
 40
0.917685376662605
 40
0.9450279858468122
 40
0.9723702074177812
 40
0.998329813278639
 40
0.9999999999999999
 40
0.9999999999999999
 40
0.9999999999999999
 40
0.9999999999999999
 10
14.43309996331267
 20
4.256015052185586
 30
0.0
 10
14.45066793635332
 20
4.261741688735272
 30
0.0
 10
14.53426852807679
 20
4.28899299445115
 30
0.0
 10
14.6818675532062
 20
4.297046043582638
 30
0.0
 10
14.87587476602883
 20
4.279957480422594
 30
0.0
 10
15.06984809921105
 20
4.222661917599308
 30
0.0
 10
15.26695469834231
 20
4.127217096207739
 30
0.0
 10
15.46395572364702
 20
3.994726435231492
 30
0.0
 10
15.65890850026379
 20
3.829249512646832
 30
0.0
 10
15.85369402357975
 20
3.632542104399827
 30
0.0
 10
16.05164007033388
 20
3.401942316177124
 30
0.0
 10
16.24953877431514
 20
3.143208831894587
 30
0.0
 10
16.44539429263931
 20
2.862368322734952
 30
0.0
 10
16.64105589311361
 20
2.560628508639818
 30
0.0
 10
16.83995031166172
 20
2.234820569450377
 30
0.0
 10
17.03884666302329
 20
1.89340569928988
 30
0.0
 10
17.23565404925035
 20
1.54365486867447
 30
0.0
 10
17.43227653583133
 20
1.186037831866297
 30
0.0
 10
17.63223833802015
 20
0.8174359844837817
 30
0.0
 10
17.83218722937242
 20
0.4476195268713031
 30
0.0
 10
18.03002333592259
 20
0.0839978347932854
 30
0.0
 10
18.22773652691319
 20
-0.2736977595245587
 30
0.0
 10
18.42882993058027
 20
-0.6281092817980433
 30
0.0
 10
18.62989184013478
 20
-0.969638669083253
 30
0.0
 10
18.82886685408842
 20
-1.291821712749098
 30
0.0
 10
19.02774561822969
 20
-1.595646604266006
 30
0.0
 10
19.23001131211173
 20
-1.882932018155689
 30
0.0
 10
19.43226805751966
 20
-2.145693015144658
 30
0.0
 10
19.63249161573539
 20
-2.379375617953619
 30
0.0
 10
19.83260561605113
 20
-2.5855770799317
 30
0.0
 10
20.03614437772686
 20
-2.76500431721496
 30
0.0
 10
20.23974336145681
 20
-2.912445452945243
 30
0.0
 10
20.44129976122776
 20
-3.026047001689743
 30
0.0
 10
20.64276431457927
 20
-3.107412832241403
 30
0.0
 10
20.84769752917601
 20
-3.157325035358119
 30
0.0
 10
21.05289548806555
 20
-3.169524642871489
 30
0.0
 10
21.19335602135587
 20
-3.164037480843663
 30
0.0
 10
21.2646542411664
 20
-3.146412769653767
 30
0.0
 10
21.2689641301976
 20
-3.14534737770377
 30
0.0
  0
SPLINE
  5
AF
330
1F
100
AcDbEntity
  8
0
  6
Continuous
 62
     1
370
    15
100
AcDbSpline
210
0.0
220
0.0
230
1.0
 70
     8
 71
     3
 72
    23
 73
    19
 74
     0
 42
0.000000001
 43
0.00000001
 40
0.0
 40
0.0
 40
0.0
 40
0.0
 40
0.0500484139247024
 40
0.1139343329968763
 40
0.1746674667126003
 40
0.2353999010987005
 40
0.2979693664417334
 40
0.3605379912369185
 40
0.4200388372493304
 40
0.4795389127612369
 40
0.5408383641176314
 40
0.6021370311625673
 40
0.6604371157706757
 40
0.7187364875738922
 40
0.7788012233895175
 40
0.8388649596866837
 40
0.9188538013074539
 40
1.0
 40
1.0
 40
1.0
 40
1.0
 10
26.55473904000993
 20
1.95930146515777
 30
0.0
 10
26.61239283224258
 20
1.980033945442128
 30
0.0
 10
26.74364067503438
 20
2.027231071731144
 30
0.0
 10
26.94699671058143
 20
2.065957460618745
 30
0.0
 10
27.16435589510405
 20
2.08199749907634
 30
0.0
 10
27.38195261709392
 20
2.069965754713663
 30
0.0
 10
27.60350348367286
 20
2.03003664985261
 30
0.0
 10
27.8254397681441
 20
1.963101749573468
 30
0.0
 10
28.04544590468165
 20
1.871824150062618
 30
0.0
 10
28.26564696388179
 20
1.75816130599134
 30
0.0
 10
28.48987125487441
 20
1.621114378011194
 30
0.0
 10
28.71444092038653
 20
1.464989783081518
 30
0.0
 10
28.93703499757628
 20
1.294400170399793
 30
0.0
 10
29.15982791306897
 20
1.111254658098084
 30
0.0
 10
29.38660030633741
 20
0.9147486052437079
 30
0.0
 10
29.6429719987439
 20
0.6852471418378764
 30
0.0
 10
29.92890733742458
 20
0.4237870297295866
 30
0.0
 10
30.13990826043515
 20
0.2349504328369524
 30
0.0
 10
30.24616648204626
 20
0.1398539722404325
 30
0.0
  0
SPLINE
  5
B0
330
1F
100
AcDbEntity
  8
0
  6
Continuous
 62
     1
370
    15
100
AcDbSpline
210
0.0
220
0.0
230
1.0
 70
     8
 71
     3
 72
    14
 73
    10
 74
     0
 42
0.000000001
 43
0.00000001
 40
0.0
 40
0.0
 40
0.0
 40
0.0
 40
0.25
 40
0.25
 40
0.5
 40
0.5
 40
0.75
 40
0.75
 40
1.0
 40
1.0
 40
1.0
 40
1.0
 10
30.24616648204625
 20
0.1398539722404301
 30
0.0
 10
30.33654463222183
 20
0.0599806364658312
 30
0.0
 10
30.42460605894107
 20
-0.0174867560075771
 30
0.0
 10
30.59875878440787
 20
-0.1645842624487112
 30
0.0
 10
30.68530315312169
 20
-0.2344092094421605
 30
0.0
 10
30.8479118948743
 20
-0.3575347573447277
 30
0.0
 10
30.9259595383425
 20
-0.4122676589824853
 30
0.0
 10
31.06791645071639
 20
-0.5075726989396563
 30
0.0
 10
31.13101289551354
 20
-0.547435652101647
 30
0.0
 10
31.182948801157
 20
-0.5855588193650659
 30
0.0
  0
SPLINE
  5
B1
330
1F
100
AcDbEntity
  8
0
  6
Continuous
 62
     1
370
    15
100
AcDbSpline
210
0.0
220
0.0
230
1.0
 70
     8
 71
     3
 72
    12
 73
     8
 74
     0
 42
0.000000001
 43
0.00000001
 40
0.0
 40
0.0
 40
0.0
 40
0.0
 40
0.4999999999999974
 40
0.4999999999999974
 40
0.7499999999999987
 40
0.7499999999999987
 40
1.0
 40
1.0
 40
1.0
 40
1.0
 10
30.17692430568327
 20
-1.334163790144345
 30
0.0
 10
30.27757678678151
 20
-1.192832801671885
 30
0.0
 10
30.43716214699464
 20
-1.023097016421034
 30
0.0
 10
30.73742433688642
 20
-0.7872824214414769
 30
0.0
 10
30.84547545172567
 20
-0.7141827737642078
 30
0.0
 10
31.04398380965917
 20
-0.6102420170956575
 30
0.0
 10
31.1287335461968
 20
-0.5837866498727086
 30
0.0
 10
31.18294880116257
 20
-0.5855588193696389
 30
0.0
  0
SPLINE
  5
B2
330
1F
100
AcDbEntity
  8
0
  6
Continuous
 62
     1
370
    15
100
AcDbSpline
210
0.0
220
0.0
230
1.0
 70
     8
 71
     3
 72
    12
 73
     8
 74
     0
 42
0.000000001
 43
0.00000001
 40
0.0
 40
0.0
 40
0.0
 40
0.0
 40
0.2147635073123513
 40
0.4307767924445426
 40
0.6657536093168472
 40
0.900730418982636
 40
1.0
 40
1.0
 40
1.0
 40
1.0
 10
30.17692430568328
 20
1.392941273087227
 30
0.0
 10
30.11517175520957
 20
1.427342237015776
 30
0.0
 10
29.99130729633927
 20
1.496344355129763
 30
0.0
 10
29.80248792290636
 20
1.584277025056884
 30
0.0
 10
29.61001591290951
 20
1.656439768177141
 30
0.0
 10
29.45171349450037
 20
1.703628798643616
 30
0.0
 10
29.36007569942197
 20
1.717506410823997
 30
0.0
 10
29.33285971212529
 20
1.721627995334909
 30
0.0
  0
SPLINE
  5
B3
330
1F
100
AcDbEntity
  8
0
  6
Continuous
 62
     1
370
    15
100
AcDbSpline
210
0.0
220
0.0
230
1.0
 70
     8
 71
     3
 72
    46
 73
    42
 74
     0
 42
0.000000001
 43
0.00000001
 40
0.0
 40
0.0
 40
0.0
 40
0.0
 40
0.0141652784128944
 40
0.0378031545764407
 40
0.0620960347138057
 40
0.0863892766060113
 40
0.110591432669317
 40
0.1347938749516358
 40
0.159666600307487
 40
0.1845396957585336
 40
0.209327171389443
 40
0.2341149453779036
 40
0.2595890992961489
 40
0.2850636268700179
 40
0.3104527528956129
 40
0.3358421944141455
 40
0.3619347380904633
 40
0.3880276547621234
 40
0.4140314950680285
 40
0.4400356717026618
 40
0.46676015946403
 40
0.4934850156589093
 40
0.5201141928953879
 40
0.5467437286688561
 40
0.5741111706386397
 40
0.6014789727540781
 40
0.6287422637939662
 40
0.6560059335510933
 40
0.6840254177324631
 40
0.7120452501385619
 40
0.7399500193747569
 40
0.767855180977004
 40
0.7965343253426308
 40
0.8252138033052925
 40
0.8537663903160062
 40
0.8823193719228629
 40
0.9116647162788857
 40
0.9410103911426876
 40
0.9702175322305066
 40
0.9994250661175346
 40
0.9999999999999999
 40
0.9999999999999999
 40
0.9999999999999999
 40
0.9999999999999999
 10
24.61645599119136
 20
-2.329307226929612
 30
0.0
 10
24.58173738153228
 20
-2.355687465811358
 30
0.0
 10
24.48908315128246
 20
-2.426088923456009
 30
0.0
 10
24.33817551555739
 20
-2.517430259416196
 30
0.0
 10
24.16364805988643
 20
-2.603519535946369
 30
0.0
 10
23.98895509637507
 20
-2.664581129922891
 30
0.0
 10
23.81554299503264
 20
-2.700361467291407
 30
0.0
 10
23.6418715589158
 20
-2.71075853992529
 30
0.0
 10
23.46774697749588
 20
-2.694747297824258
 30
0.0
 10
23.29333315155751
 20
-2.652080691018269
 30
0.0
 10
23.12016071949541
 20
-2.583229608811205
 30
0.0
 10
22.94668415353164
 20
-2.488438646712145
 30
0.0
 10
22.77271322073165
 20
-2.367504373893027
 30
0.0
 10
22.59840107492319
 20
-2.221374659592942
 30
0.0
 10
22.42530510146192
 20
-2.052446305878374
 30
0.0
 10
22.25187989402486
 20
-1.860917966216695
 30
0.0
 10
22.07791607236659
 20
-1.647556962520646
 30
0.0
 10
21.90357678618411
 20
-1.414365541979007
 30
0.0
 10
21.73044928652907
 20
-1.165376291901234
 30
0.0
 10
21.5569768564536
 20
-0.900691291718039
 30
0.0
 10
21.3829197738131
 20
-0.6219527298335544
 30
0.0
 10
21.20846873958677
 20
-0.331951846598775
 30
0.0
 10
21.0352396555294
 20
-0.0358186853228582
 30
0.0
 10
20.86165408579509
 20
0.2664701483590736
 30
0.0
 10
20.6874374229298
 20
0.5726307601070586
 30
0.0
 10
20.51282348444175
 20
0.8794618882007953
 30
0.0
 10
20.33944995977328
 20
1.181442648647572
 30
0.0
 10
20.16570820999021
 20
1.478730326190019
 30
0.0
 10
19.99129115358365
 20
1.768727759304659
 30
0.0
 10
19.81648884742629
 20
2.048264966037484
 30
0.0
 10
19.64294715443585
 20
2.312211681392673
 30
0.0
 10
19.46902146386145
 20
2.560847559393083
 30
0.0
 10
19.29438310457165
 20
2.791629024980393
 30
0.0
 10
19.11938635469089
 20
3.001867825290945
 30
0.0
 10
18.9456658930864
 20
3.187555897330392
 30
0.0
 10
18.77153479069857
 20
3.349152099375612
 30
0.0
 10
18.59668198046384
 20
3.484174461659728
 30
0.0
 10
18.42146723750595
 20
3.592088316743141
 30
0.0
 10
18.24763889486256
 20
3.665864579022674
 30
0.0
 10
18.13112780032002
 20
3.704615402854274
 30
0.0
 10
18.07270985946679
 20
3.709688739428274
 30
0.0
 10
18.07158213379275
 20
3.709786677353233
 30
0.0
  0
ELLIPSE
  5
B4
330
1F
100
AcDbEntity
  8
0
  6
Continuous
 62
     1
370
    15
100
AcDbEllipse
 10
31.04650106897462
 20
0.0621930337975103
 30
0.0
 11
2.011660755602367
 21
-0.4321629486331944
 31
0.0
210
0.0
220
0.0
230
1.0
 40
0.6503595706236408
 41
2.152013966548215
 42
2.400382150724017
  0
LINE
  5
B5
330
1F
100
AcDbEntity
  8
0
  6
Continuous
 62
     1
370
    15
100
AcDbLine
 10
29.75236326136169
 20
1.26432045566295
 30
0.0
 11
30.24616648204625
 21
0.9185557181473883
 31
0.0
  0
LINE
  5
B6
330
1F
100
AcDbEntity
  8
0
  6
Continuous
 62
     1
370
    15
100
AcDbLine
 10
30.24616648204625
 20
0.9185557181473885
 30
0.0
 11
30.24616648204625
 21
0.1398539722404293
 31
0.0
  0
SPLINE
  5
B7
330
1F
100
AcDbEntity
  8
0
  6
Continuous
 62
     1
370
    15
100
AcDbSpline
210
0.0
220
0.0
230
1.0
 70
     8
 71
     3
 72
    14
 73
    10
 74
     0
 42
0.000000001
 43
0.00000001
 40
0.0
 40
0.0
 40
0.0
 40
0.0
 40
0.25
 40
0.25
 40
0.5
 40
0.5
 40
0.75
 40
0.75
 40
1.0
 40
1.0
 40
1.0
 40
1.0
 10
30.24616648204625
 20
1.278573599843189
 30
0.0
 10
30.33654463222293
 20
1.310866431548139
 30
0.0
 10
30.42460605894321
 20
1.330087924846299
 30
0.0
 10
30.59875878441207
 20
1.341058263711814
 30
0.0
 10
30.68530315312683
 20
1.332263378637843
 30
0.0
 10
30.84791189488099
 20
1.286704286160206
 30
0.0
 10
30.92595953834999
 20
1.249596963230911
 30
0.0
 10
31.06791645072441
 20
1.150726309695921
 30
0.0
 10
31.13101289552159
 20
1.089859923819458
 30
0.0
 10
31.18294880116456
 20
1.02108825056919
 30
0.0
  0
SPLINE
  5
B8
330
1F
100
AcDbEntity
  8
0
  6
Continuous
 62
     1
370
    15
100
AcDbSpline
210
0.0
220
0.0
230
1.0
 70
     8
 71
     3
 72
    12
 73
     8
 74
     0
 42
0.000000001
 43
0.00000001
 40
0.0
 40
0.0
 40
0.0
 40
0.0
 40
0.4999999999999973
 40
0.4999999999999973
 40
0.7499999999999987
 40
0.7499999999999987
 40
1.0
 40
1.0
 40
1.0
 40
1.0
 10
30.17692430568327
 20
1.392941273087229
 30
0.0
 10
30.27757678678152
 20
1.164450524237287
 30
0.0
 10
30.43716214699464
 20
0.9586586940564684
 30
0.0
 10
30.73742433688642
 20
0.8120188066532416
 30
0.0
 10
30.84547545172567
 20
0.7931100603103705
 30
0.0
 10
31.04398380965917
 20
0.8457774615984623
 30
0.0
 10
31.12873354619678
 20
0.9198625102820448
 30
0.0
 10
31.18294880116257
 20
1.021088250569568
 30
0.0
  0
LINE
  5
B9
330
1F
100
AcDbEntity
  8
0
  6
Continuous
 62
     1
370
    15
100
AcDbLine
 10
30.24616648204625
 20
0.9185557181473885
 30
0.0
 11
31.558
 21
0.0000000000000126
 31
0.0
  0
ARC
  5
BA
330
1F
100
AcDbEntity
  8
0
  6
Continuous
 62
     1
370
    15
100
AcDbCircle
 10
30.47786763955329
 20
0.2789364021853463
 30
0.0
 40
1.115567762418888
100
AcDbArc
 50
309.2006393442134
 51
345.5201293555394
  0
ARC
  5
BB
330
1F
100
AcDbEntity
  8
0
  6
Continuous
 62
     1
370
    15
100
AcDbCircle
 10
29.99044390646203
 20
0.0036515124658732
 30
0.0
 40
1.567560346503867
100
AcDbArc
 50
359.8665337236886
 51
40.47057609481173
  0
ARC
  5
BC
330
1F
100
AcDbEntity
  8
0
  6
Continuous
 62
     1
370
    15
100
AcDbCircle
 10
29.9359661107868
 20
0.0376750878999104
 30
0.0
 40
1.622471371089298
100
AcDbArc
 50
281.0222418930557
 51
358.6694264038506
  0
LINE
  5
BD
330
1F
100
AcDbEntity
  8
0
  6
Continuous
 62
     8
370
    15
100
AcDbLine
 10
30.24616648204625
 20
-1.554866616318497
 30
0.0
 11
30.24616648204625
 21
-1.56338230790687
 31
0.0
  0
LINE
  5
BE
102
{ACAD_REACTORS
102
}
330
1F
100
AcDbEntity
  8
중심선
100
AcDbLine
 10
-60.342
 20
-0.0000000000000078
 30
0.0
 11
36.24616648204625
 21
-0.0000000000000077
 31
0.0
  0
CIRCLE
  5
BF
330
1F
100
AcDbEntity
  8
외형선
100
AcDbCircle
 10
-0.0000000000000121
 20
-0.0000000000000078
 30
0.0
 40
2.999999999999999
  0
INSERT
  5
C0
330
1F
100
AcDbEntity
  8
0
  6
Continuous
 62
     7
100
AcDbBlockReference
 66
     1
  2
블럭10
 10
-26.75610746919791
 20
-52.05975325537357
 30
0.0
  0
ATTRIB
  5
C1
330
C0
100
AcDbEntity
  8
FORMAT
 62
     2
100
AcDbText
 10
-35.9374027579392
 20
-49.98438634254137
 30
0.0
 40
4.233333333333333
  1
E5078008 [ 3 FLUTE ]
 41
0.75
  7
SLDTEXTSTYLE0
 11
-35.9374027579392
 21
-52.10105300920804
 31
0.0
100
AcDbAttribute
  2
AUTOATTR0
 70
     0
 74
     1
  0
SEQEND
  5
C2
330
C0
100
AcDbEntity
  8
0
  6
Continuous
 62
     7
  0
HATCH
  5
C3
330
1F
100
AcDbEntity
  8
중심선
100
AcDbHatch
 10
0.0
 20
0.0
 30
0.0
210
0.0
220
0.0
230
1.0
  2
SOLID
 70
     1
 71
     0
 91
        1
 92
        0
 93
        4
 72
     1
 10
-21.04119816481707
 20
-35.81257895372963
 11
-24.48747340865435
 21
-35.81257895372963
 72
     1
 10
-24.48747340865435
 20
-35.81257895372963
 11
-26.61570326785837
 21
-38.34890453430223
 72
     1
 10
-26.61570326785837
 20
-38.34890453430223
 11
-23.16939493890794
 21
-38.34886510499974
 72
     1
 10
-23.16939493890794
 20
-38.34886510499974
 11
-21.04119816481706
 21
-35.81257895372963
 97
        0
 75
     0
 76
     1
 98
        1
 10
-25.32333366951648
 20
0.0
  0
HATCH
  5
C4
330
1F
100
AcDbEntity
  8
중심선
100
AcDbHatch
 10
0.0
 20
0.0
 30
0.0
210
0.0
220
0.0
230
1.0
  2
SOLID
 70
     1
 71
     0
 91
        1
 92
        0
 93
        4
 72
     1
 10
-16.02843417378111
 20
-35.81257895372963
 11
-19.4747094176184
 21
-35.81257895372963
 72
     1
 10
-19.4747094176184
 20
-35.81257895372963
 11
-24.00584742597579
 21
-41.21257895372965
 72
     1
 10
-24.00584742597578
 20
-41.21257895372965
 11
-20.5595721821385
 21
-41.21257895372965
 72
     1
 10
-20.5595721821385
 20
-41.21257895372965
 11
-16.02843417378111
 21
-35.81257895372963
 97
        0
 75
     0
 76
     1
 98
        1
 10
-25.32333366951648
 20
0.0
  0
HATCH
  5
C5
330
1F
100
AcDbEntity
  8
중심선
100
AcDbHatch
 10
0.0
 20
0.0
 30
0.0
210
0.0
220
0.0
230
1.0
  2
SOLID
 70
     1
 71
     0
 91
        1
 92
        0
 93
        4
 72
     1
 10
-11.01567018274522
 20
-35.81257895372966
 11
-14.46194542658234
 21
-35.81257895372963
 72
     1
 10
-14.46194542658234
 20
-35.81257895372963
 11
-21.51038232847159
 21
-44.21257895372965
 72
     1
 10
-21.51038232847159
 20
-44.21257895372965
 11
-18.0641070846343
 21
-44.21257895372965
 72
     1
 10
-18.0641070846343
 20
-44.21257895372965
 11
-11.01567018274522
 21
-35.81257895372966
 97
        0
 75
     0
 76
     1
 98
        1
 10
-25.32333366951648
 20
0.0
  0
HATCH
  5
C6
330
1F
100
AcDbEntity
  8
중심선
100
AcDbHatch
 10
0.0
 20
0.0
 30
0.0
210
0.0
220
0.0
230
1.0
  2
SOLID
 70
     1
 71
     0
 91
        1
 92
        0
 93
        6
 72
     3
 10
-6.21577975173302
 20
-40.01257895378091
 11
3.960054785062283
 21
1.540882976769353E-10
 40
0.3939339440162628
 50
17.09539180608436
 51
320.0019657685078
 73
     0
 72
     1
 10
-4.532780096032425
 20
-38.60047295836794
 11
-2.227478222331385
 21
-36.66614624832001
 72
     3
 10
-6.215779751785867
 20
-40.01257895372979
 11
6.600054785286829
 21
-1.278976924368180E-13
 40
0.636358354079598
 50
39.99873849337413
 51
368.4976242363724
 73
     1
 72
     1
 10
0.2095527401147415
 20
-39.05257895365965
 11
-7.535712444949944
 21
-39.05257895365963
 72
     1
 10
-7.535712444949944
 20
-39.05257895365963
 11
-7.535737489395878
 21
-40.97257895365955
 72
     1
 10
-7.535737489395878
 20
-40.97257895365955
 11
-3.094357719923842
 21
-40.97257895365952
 97
        0
 75
     0
 76
     1
 98
        1
 10
-25.32333366951648
 20
0.0
  0
DIMENSION
  5
C7
330
1F
100
AcDbEntity
  8
치수문자_일반주서
100
AcDbDimension
  2
_D
 10
12.508
 20
38.70582133580806
 30
0.0
 11
-3.4815
 21
38.70582133580806
 31
0.0
 70
   160
  1
<>
 71
     2
 42
19.05
  3
SLDDIMSTYLE0
100
AcDbAlignedDimension
 13
31.558
 23
3.062500000000012
 33
0.0
 14
12.508
 24
4.691099646990204
 34
0.0
100
AcDbRotatedDimension
1001
ACAD
1000
DSTYLE
1002
{
1070
   171
1070
     6
1070
   273
1070
     7
1002
}
  0
DIMENSION
  5
DB
330
1F
100
AcDbEntity
  8
치수문자_일반주서
100
AcDbDimension
  2
_D_1
 10
-57.34199999999998
 20
51.95915484508772
 30
0.0
 11
-11.18801414975405
 21
51.95915484508772
 31
0.0
 70
   160
  1
<>
 71
     2
 42
88.9
  3
SLDDIMSTYLE1
100
AcDbAlignedDimension
 13
31.558
 23
3.000000000000012
 33
0.0
 14
-57.342
 24
2.364999999999992
 34
0.0
100
AcDbRotatedDimension
1001
ACAD
1000
DSTYLE
1002
{
1070
   171
1070
     6
1070
   273
1070
     7
1002
}
  0
DIMENSION
  5
EF
330
1F
100
AcDbEntity
  8
치수문자_일반주서
100
AcDbDimension
  2
_D_2
 10
-63.99199999999993
 20
-3.175000000000047
 30
0.0
 11
-63.99200000000001
 21
23.12274999999995
 31
0.0
 70
   160
  1
%%c<>
 71
     2
 42
6.349999999999998
  3
SLDDIMSTYLE2
100
AcDbAlignedDimension
 13
-50.18199999999998
 23
3.175
 33
0.0
 14
-50.18199999999998
 24
-3.174999999999998
 34
0.0
 50
90.0000000000002
100
AcDbRotatedDimension
1001
ACAD
1000
DSTYLE
1002
{
1070
   171
1070
     6
1070
   273
1070
     7
1002
}
  0
INSERT
  5
10A
330
1F
100
AcDbEntity
  8
외형선
100
AcDbBlockReference
  2
SW_DOWELSYMBOL_0
 10
-0.0000000000000121
 20
-0.0000000000000078
 30
0.0
  0
LINE
  5
132
330
1F
100
AcDbEntity
  8
0
 62
     4
100
AcDbLine
 10
-57.342
 20
2.364999999999992
 30
0.0
 11
-57.342
 21
-2.365000000000007
 31
0.0
  0
LINE
  5
133
330
1F
100
AcDbEntity
  8
0
 62
     4
100
AcDbLine
 10
-56.532
 20
3.174999999999992
 30
0.0
 11
11.508
 21
3.174999999999992
 31
0.0
  0
LINE
  5
134
330
1F
100
AcDbEntity
  8
0
 62
     4
100
AcDbLine
 10
-56.532
 20
-3.175000000000008
 30
0.0
 11
11.50800000000001
 21
-3.175000000000008
 31
0.0
  0
LINE
  5
135
330
1F
100
AcDbEntity
  8
0
 62
     4
100
AcDbLine
 10
-57.342
 20
-2.365000000000007
 30
0.0
 11
-56.532
 21
-3.175000000000008
 31
0.0
  0
LINE
  5
136
330
1F
100
AcDbEntity
  8
0
 62
     4
100
AcDbLine
 10
-57.342
 20
2.364999999999992
 30
0.0
 11
-56.532
 21
3.174999999999992
 31
0.0
  0
LINE
  5
137
330
1F
100
AcDbEntity
  8
0
 62
     4
100
AcDbLine
 10
-56.532
 20
3.174999999999992
 30
0.0
 11
-56.532
 21
-3.175000000000008
 31
0.0
  0
DIMENSION
  5
13B
330
1F
100
AcDbEntity
  8
치수문자_일반주서
100
AcDbDimension
  2
*D6
 10
42.9902858071979
 20
1.587499999999991
 30
0.0
 11
40.3652858071979
 21
20.44149999999999
 31
0.0
 70
    32
  1
{%%c<>[]}
 71
     5
 42
3.175
  3
SLDDIMSTYLE2
100
AcDbAlignedDimension
 13
31.55799999999999
 23
-1.587500000000008
 33
0.0
 14
31.55799999999999
 24
1.587499999999992
 34
0.0
 50
90.0
100
AcDbRotatedDimension
1001
ACAD
1000
DSTYLE
1002
{
1070
   171
1070
     6
1070
   273
1070
     7
1070
   283
1070
     1
1070
   170
1070
     1
1002
}
  0
LINE
  5
157
330
1F
100
AcDbEntity
  8
0
 62
     4
100
AcDbLine
 10
11.508
 20
1.162165992664123
 30
0.0
 11
11.508
 21
-4.867426627698658
 31
0.0
  0
LINE
  5
158
330
1F
100
AcDbEntity
  8
0
 62
     4
100
AcDbLine
 10
11.508
 20
4.867426627698668
 30
0.0
 11
11.508
 21
1.162165992664123
 31
0.0
  0
LINE
  5
159
330
1F
100
AcDbEntity
  8
0
 62
     4
100
AcDbLine
 10
12.48538563983127
 20
4.69508716883941
 30
0.0
 11
11.508
 21
4.867426627698669
 31
0.0
  0
LINE
  5
15A
330
1F
100
AcDbEntity
  8
0
  6
Continuous
 62
     1
370
    15
100
AcDbLine
 10
12.508
 20
-4.691099646990188
 30
0.0
 11
16.0660137848876
 21
-4.063725818981857
 31
0.0
  0
SPLINE
  5
15B
330
1F
100
AcDbEntity
  8
0
 62
     4
100
AcDbSpline
210
0.0
220
0.0
230
1.0
 70
     8
 71
     3
 72
     9
 73
     5
 74
     0
 42
0.000000001
 43
0.0000000001
 40
0.0
 40
0.0
 40
0.0
 40
0.0
 40
1.462886446373045
 40
2.366449480355753
 40
2.366449480355753
 40
2.366449480355753
 40
2.366449480355753
 10
12.508
 20
1.178338007976912
 30
0.0
 10
12.32264995875501
 20
1.629920408308584
 30
0.0
 10
12.022817042895
 20
2.360426141854889
 30
0.0
 10
11.65336020939544
 20
3.057169370978534
 30
0.0
 10
11.508
 20
3.321119456673812
 30
0.0
  0
SPLINE
  5
15C
330
1F
100
AcDbEntity
  8
0
 62
     4
100
AcDbSpline
210
0.0
220
0.0
230
1.0
 70
     8
 71
     3
 72
     9
 73
     5
 74
     0
 42
0.000000001
 43
0.0000000001
 40
0.0
 40
0.0
 40
0.0
 40
0.0
 40
0.9937534760374667
 40
2.033922851565694
 40
2.033922851565694
 40
2.033922851565694
 40
2.033922851565694
 10
12.508
 20
2.709122987662702
 30
0.0
 10
12.35622315841418
 20
3.003712520977528
 30
0.0
 10
12.04558033412863
 20
3.606651175371234
 30
0.0
 10
11.69209248603527
 20
4.185227742672187
 30
0.0
 10
11.50800000000003
 20
4.479232834580679
 30
0.0
  0
DIMENSION
  5
180
102
{ACAD_REACTORS
102
}
102
{ACAD_XDICTIONARY
360
181
102
}
330
1F
100
AcDbEntity
  8
치수문자_일반주서
100
AcDbDimension
  2
*D7
 10
36.24616648204625
 20
-0.0000000000000077
 30
0.0
 11
16.25487292407394
 21
14.58460945798472
 31
0.0
 70
    34
  1
<>
 71
     5
 42
0.1745329251994336
  3
SLDDIMSTYLE2
100
AcDb2LineAngularDimension
 13
18.07163400628834
 23
3.710080860894439
 33
0.0
 14
14.85656432186114
 24
4.276984391116806
 34
0.0
 15
-60.342
 25
-0.0000000000000078
 35
0.0
 16
14.86363699019609
 26
1.412338242960941
 36
0.0
  0
ENDSEC
  0
SECTION
  2
OBJECTS
  0
DICTIONARY
  5
C
330
0
100
AcDbDictionary
281
     1
  3
ACAD_DETAILVIEWSTYLE
350
152
  3
ACAD_GROUP
350
D
  3
ACAD_IMAGE_VARS
350
12E
  3
ACAD_LAYOUT
350
1A
  3
ACAD_MLINESTYLE
350
17
  3
ACAD_PLOTSETTINGS
350
19
  3
ACAD_PLOTSTYLENAME
350
E
  3
ACAD_SCALELIST
350
47
  3
ACAD_SECTIONVIEWSTYLE
350
153
  3
AcDbVariableDictionary
350
14D
  3
APPDATA
350
12C
  3
DWGPROPS
350
192
  0
DICTIONARY
  5
181
330
180
100
AcDbDictionary
280
     1
281
     1
  0
DICTIONARY
  5
152
102
{ACAD_REACTORS
330
C
102
}
330
C
100
AcDbDictionary
281
     1
  0
DICTIONARY
  5
D
102
{ACAD_REACTORS
330
C
102
}
330
C
100
AcDbDictionary
281
     1
  0
RASTERVARIABLES
  5
12E
102
{ACAD_REACTORS
330
C
102
}
330
C
100
AcDbRasterVariables
 90
        0
 70
     1
 71
     1
 72
     1
  0
DICTIONARY
  5
1A
102
{ACAD_REACTORS
330
C
102
}
330
C
100
AcDbDictionary
281
     1
  3
Layout1
350
1E
  3
Layout2
350
26
  3
Model
350
22
  0
DICTIONARY
  5
17
102
{ACAD_REACTORS
330
C
102
}
330
C
100
AcDbDictionary
281
     1
  3
Standard
350
18
  0
DICTIONARY
  5
19
102
{ACAD_REACTORS
330
C
102
}
330
C
100
AcDbDictionary
281
     1
  0
ACDBDICTIONARYWDFLT
  5
E
102
{ACAD_REACTORS
330
C
102
}
330
C
100
AcDbDictionary
281
     1
  3
Normal
350
F
100
AcDbDictionaryWithDefault
340
F
  0
DICTIONARY
  5
47
102
{ACAD_REACTORS
330
C
102
}
330
C
100
AcDbDictionary
281
     1
  3
A0
350
48
  3
A1
350
49
  3
A2
350
4A
  3
A3
350
4B
  3
A4
350
4C
  3
A5
350
4D
  3
A6
350
4E
  3
A7
350
4F
  3
A8
350
50
  3
A9
350
51
  3
B0
350
52
  3
B1
350
53
  3
B2
350
54
  3
B3
350
55
  3
B4
350
56
  3
B5
350
57
  3
B6
350
58
  3
B7
350
59
  3
B8
350
5A
  3
B9
350
5B
  3
C0
350
5C
  3
C1
350
5D
  3
C2
350
5E
  3
C3
350
5F
  3
C4
350
60
  3
C5
350
61
  3
C6
350
62
  3
C7
350
63
  3
C8
350
64
  3
C9
350
65
  3
D0
350
66
  3
D1
350
67
  3
D2
350
68
  0
DICTIONARY
  5
153
102
{ACAD_REACTORS
330
C
102
}
330
C
100
AcDbDictionary
281
     1
  0
DICTIONARY
  5
14D
102
{ACAD_REACTORS
330
C
102
}
330
C
100
AcDbDictionary
281
     1
  0
DICTIONARY
  5
12C
102
{ACAD_REACTORS
330
C
102
}
330
C
100
AcDbDictionary
281
     1
  0
XRECORD
  5
192
102
{ACAD_REACTORS
330
C
102
}
330
C
100
AcDbXrecord
280
     1
  1
DWGPROPS COOKIE
  2

  3

  4

  6

  7

  8
12015048
  9

300
=
301
=
302
=
303
=
304
=
305
=
306
=
307
=
308
=
309
=
 40
0.0
 41
2458340.215394039
 42
2458341.00137875
  1

 90
        0
  0
LAYOUT
  5
1E
102
{ACAD_REACTORS
330
1A
102
}
330
1A
100
AcDbPlotSettings
  1

  2
none_device
  4

  6

 40
0.0
 41
0.0
 42
0.0
 43
0.0
 44
0.0
 45
0.0
 46
0.0
 47
0.0
 48
0.0
 49
0.0
140
0.0
141
0.0
142
1.0
143
1.0
 70
   688
 72
     1
 73
     0
 74
     5
  7

 75
    16
147
1.0
148
0.0
149
0.0
100
AcDbLayout
  1
Layout1
 70
     1
 71
     1
 10
0.0
 20
0.0
 11
420.0
 21
297.0
 12
0.0
 22
0.0
 32
0.0
 14
1.000000000000000E+20
 24
1.000000000000000E+20
 34
1.000000000000000E+20
 15
-1.000000000000000E+20
 25
-1.000000000000000E+20
 35
-1.000000000000000E+20
146
0.0
 13
0.0
 23
0.0
 33
0.0
 16
1.0
 26
0.0
 36
0.0
 17
0.0
 27
1.0
 37
0.0
 76
     0
330
1B
  0
LAYOUT
  5
26
102
{ACAD_REACTORS
330
1A
102
}
330
1A
100
AcDbPlotSettings
  1

  2
none_device
  4

  6

 40
0.0
 41
0.0
 42
0.0
 43
0.0
 44
0.0
 45
0.0
 46
0.0
 47
0.0
 48
0.0
 49
0.0
140
0.0
141
0.0
142
1.0
143
1.0
 70
   688
 72
     1
 73
     0
 74
     5
  7

 75
    16
147
1.0
148
0.0
149
0.0
100
AcDbLayout
  1
Layout2
 70
     1
 71
     2
 10
0.0
 20
0.0
 11
0.0
 21
0.0
 12
0.0
 22
0.0
 32
0.0
 14
0.0
 24
0.0
 34
0.0
 15
0.0
 25
0.0
 35
0.0
146
0.0
 13
0.0
 23
0.0
 33
0.0
 16
1.0
 26
0.0
 36
0.0
 17
0.0
 27
1.0
 37
0.0
 76
     0
330
23
  0
LAYOUT
  5
22
102
{ACAD_REACTORS
330
1A
102
}
330
1A
100
AcDbPlotSettings
  1

  2
none_device
  4
ANSI_A_(11.00_x_8.50_Inches)
  6

 40
6.35
 41
19.05
 42
6.35000508
 43
19.05000254
 44
279.4
 45
215.9
 46
152.0645662462514
 47
98.95016377246489
 48
0.0
 49
0.0
140
0.0
141
0.0
142
0.082661012558327
143
1.0
 70
  1696
 72
     0
 73
     0
 74
     0
  7

 75
     0
147
0.0235690232323232
148
0.0
149
0.0
100
AcDbLayout
  1
Model
 70
     1
 71
     0
 10
0.0
 20
0.0
 11
420.0
 21
297.0
 12
0.0
 22
0.0
 32
0.0
 14
-68.36700000000006
 24
-49.98438634254138
 34
0.0
 15
43.54061914053123
 25
56.33415484508772
 35
0.0
146
0.0
 13
0.0
 23
0.0
 33
0.0
 16
1.0
 26
0.0
 36
0.0
 17
0.0
 27
1.0
 37
0.0
 76
     0
330
1F
331
29
  0
MLINESTYLE
  5
18
102
{ACAD_REACTORS
330
17
102
}
330
17
100
AcDbMlineStyle
  2
Standard
 70
     0
  3

 62
   256
 51
90.0
 52
90.0
 71
     2
 49
0.5
 62
   256
  6
BYLAYER
 49
-0.5
 62
   256
  6
BYLAYER
  0
ACDBPLACEHOLDER
  5
F
102
{ACAD_REACTORS
330
E
102
}
330
E
  0
SCALE
  5
48
102
{ACAD_REACTORS
330
47
102
}
330
47
100
AcDbScale
 70
     0
300
1:1
140
1.0
141
1.0
290
     1
  0
SCALE
  5
49
102
{ACAD_REACTORS
330
47
102
}
330
47
100
AcDbScale
 70
     0
300
1:2
140
1.0
141
2.0
290
     0
  0
SCALE
  5
4A
102
{ACAD_REACTORS
330
47
102
}
330
47
100
AcDbScale
 70
     0
300
1:4
140
1.0
141
4.0
290
     0
  0
SCALE
  5
4B
102
{ACAD_REACTORS
330
47
102
}
330
47
100
AcDbScale
 70
     0
300
1:5
140
1.0
141
5.0
290
     0
  0
SCALE
  5
4C
102
{ACAD_REACTORS
330
47
102
}
330
47
100
AcDbScale
 70
     0
300
1:8
140
1.0
141
8.0
290
     0
  0
SCALE
  5
4D
102
{ACAD_REACTORS
330
47
102
}
330
47
100
AcDbScale
 70
     0
300
1:10
140
1.0
141
10.0
290
     0
  0
SCALE
  5
4E
102
{ACAD_REACTORS
330
47
102
}
330
47
100
AcDbScale
 70
     0
300
1:16
140
1.0
141
16.0
290
     0
  0
SCALE
  5
4F
102
{ACAD_REACTORS
330
47
102
}
330
47
100
AcDbScale
 70
     0
300
1:20
140
1.0
141
20.0
290
     0
  0
SCALE
  5
50
102
{ACAD_REACTORS
330
47
102
}
330
47
100
AcDbScale
 70
     0
300
1:30
140
1.0
141
30.0
290
     0
  0
SCALE
  5
51
102
{ACAD_REACTORS
330
47
102
}
330
47
100
AcDbScale
 70
     0
300
1:40
140
1.0
141
40.0
290
     0
  0
SCALE
  5
52
102
{ACAD_REACTORS
330
47
102
}
330
47
100
AcDbScale
 70
     0
300
1:50
140
1.0
141
50.0
290
     0
  0
SCALE
  5
53
102
{ACAD_REACTORS
330
47
102
}
330
47
100
AcDbScale
 70
     0
300
1:100
140
1.0
141
100.0
290
     0
  0
SCALE
  5
54
102
{ACAD_REACTORS
330
47
102
}
330
47
100
AcDbScale
 70
     0
300
2:1
140
2.0
141
1.0
290
     0
  0
SCALE
  5
55
102
{ACAD_REACTORS
330
47
102
}
330
47
100
AcDbScale
 70
     0
300
4:1
140
4.0
141
1.0
290
     0
  0
SCALE
  5
56
102
{ACAD_REACTORS
330
47
102
}
330
47
100
AcDbScale
 70
     0
300
8:1
140
8.0
141
1.0
290
     0
  0
SCALE
  5
57
102
{ACAD_REACTORS
330
47
102
}
330
47
100
AcDbScale
 70
     0
300
10:1
140
10.0
141
1.0
290
     0
  0
SCALE
  5
58
102
{ACAD_REACTORS
330
47
102
}
330
47
100
AcDbScale
 70
     0
300
100:1
140
100.0
141
1.0
290
     0
  0
SCALE
  5
59
102
{ACAD_REACTORS
330
47
102
}
330
47
100
AcDbScale
 70
     0
300
1/128" = 1'-0"
140
0.0078125
141
12.0
290
     0
  0
SCALE
  5
5A
102
{ACAD_REACTORS
330
47
102
}
330
47
100
AcDbScale
 70
     0
300
1/64" = 1'-0"
140
0.015625
141
12.0
290
     0
  0
SCALE
  5
5B
102
{ACAD_REACTORS
330
47
102
}
330
47
100
AcDbScale
 70
     0
300
1/32" = 1'-0"
140
0.03125
141
12.0
290
     0
  0
SCALE
  5
5C
102
{ACAD_REACTORS
330
47
102
}
330
47
100
AcDbScale
 70
     0
300
1/16" = 1'-0"
140
0.0625
141
12.0
290
     0
  0
SCALE
  5
5D
102
{ACAD_REACTORS
330
47
102
}
330
47
100
AcDbScale
 70
     0
300
3/32" = 1'-0"
140
0.09375
141
12.0
290
     0
  0
SCALE
  5
5E
102
{ACAD_REACTORS
330
47
102
}
330
47
100
AcDbScale
 70
     0
300
1/8" = 1'-0"
140
0.125
141
12.0
290
     0
  0
SCALE
  5
5F
102
{ACAD_REACTORS
330
47
102
}
330
47
100
AcDbScale
 70
     0
300
3/16" = 1'-0"
140
0.1875
141
12.0
290
     0
  0
SCALE
  5
60
102
{ACAD_REACTORS
330
47
102
}
330
47
100
AcDbScale
 70
     0
300
1/4" = 1'-0"
140
0.25
141
12.0
290
     0
  0
SCALE
  5
61
102
{ACAD_REACTORS
330
47
102
}
330
47
100
AcDbScale
 70
     0
300
3/8" = 1'-0"
140
0.375
141
12.0
290
     0
  0
SCALE
  5
62
102
{ACAD_REACTORS
330
47
102
}
330
47
100
AcDbScale
 70
     0
300
1/2" = 1'-0"
140
0.5
141
12.0
290
     0
  0
SCALE
  5
63
102
{ACAD_REACTORS
330
47
102
}
330
47
100
AcDbScale
 70
     0
300
3/4" = 1'-0"
140
0.75
141
12.0
290
     0
  0
SCALE
  5
64
102
{ACAD_REACTORS
330
47
102
}
330
47
100
AcDbScale
 70
     0
300
1" = 1'-0"
140
1.0
141
12.0
290
     0
  0
SCALE
  5
65
102
{ACAD_REACTORS
330
47
102
}
330
47
100
AcDbScale
 70
     0
300
1-1/2" = 1'-0"
140
1.5
141
12.0
290
     0
  0
SCALE
  5
66
102
{ACAD_REACTORS
330
47
102
}
330
47
100
AcDbScale
 70
     0
300
3" = 1'-0"
140
3.0
141
12.0
290
     0
  0
SCALE
  5
67
102
{ACAD_REACTORS
330
47
102
}
330
47
100
AcDbScale
 70
     0
300
6" = 1'-0"
140
6.0
141
12.0
290
     0
  0
SCALE
  5
68
102
{ACAD_REACTORS
330
47
102
}
330
47
100
AcDbScale
 70
     0
300
1'-0" = 1'-0"
140
12.0
141
12.0
290
     0
  0
ENDSEC
  0
EOF
