  0
SECTION
  2
HEADER
  9
$ACADVER
  1
AC1015
  9
$ACADMAINTVER
 70
     6
  9
$DWGCODEPAGE
  3
ANSI_949
  9
$INSBASE
 10
0.0
 20
0.0
 30
0.0
  9
$EXTMIN
 10
-49.31700000000004
 20
-49.98438634254138
 30
0.0
  9
$EXTMAX
 10
68.03427748792069
 20
48.08138402565997
 30
0.0
  9
$LIMMIN
 10
0.0
 20
0.0
  9
$LIMMAX
 10
420.0
 20
297.0
  9
$ORTHOMODE
 70
     1
  9
$REGENMODE
 70
     1
  9
$FILLMODE
 70
     1
  9
$QTEXTMODE
 70
     0
  9
$MIRRTEXT
 70
     1
  9
$LTSCALE
 40
1.0
  9
$ATTMODE
 70
     1
  9
$TEXTSIZE
 40
3.5
  9
$TRACEWID
 40
1.0
  9
$TEXTSTYLE
  7
Standard
  9
$CLAYER
  8
0
  9
$CELTYPE
  6
ByLayer
  9
$CECOLOR
 62
   256
  9
$CELTSCALE
 40
1.0
  9
$DISPSILH
 70
     0
  9
$DIMSCALE
 40
1.0
  9
$DIMASZ
 40
3.302
  9
$DIMEXO
 40
1.0
  9
$DIMDLI
 40
3.75
  9
$DIMRND
 40
0.0
  9
$DIMDLE
 40
0.0
  9
$DIMEXE
 40
1.0
  9
$DIMTP
 40
0.0
  9
$DIMTM
 40
0.0
  9
$DIMTXT
 40
3.5
  9
$DIMCEN
 40
2.5
  9
$DIMTSZ
 40
0.0
  9
$DIMTOL
 70
     0
  9
$DIMLIM
 70
     0
  9
$DIMTIH
 70
     1
  9
$DIMTOH
 70
     1
  9
$DIMSE1
 70
     0
  9
$DIMSE2
 70
     0
  9
$DIMTAD
 70
     1
  9
$DIMZIN
 70
     0
  9
$DIMBLK
  1

  9
$DIMASO
 70
     1
  9
$DIMSHO
 70
     1
  9
$DIMPOST
  1

  9
$DIMAPOST
  1

  9
$DIMALT
 70
     0
  9
$DIMALTD
 70
     3
  9
$DIMALTF
 40
0.0393700787401575
  9
$DIMLFAC
 40
1.0
  9
$DIMTOFL
 70
     1
  9
$DIMTVP
 40
0.0
  9
$DIMTIX
 70
     0
  9
$DIMSOXD
 70
     0
  9
$DIMSAH
 70
     0
  9
$DIMBLK1
  1

  9
$DIMBLK2
  1

  9
$DIMSTYLE
  2
ISO-25
  9
$DIMCLRD
 70
     0
  9
$DIMCLRE
 70
     0
  9
$DIMCLRT
 70
     0
  9
$DIMTFAC
 40
1.0
  9
$DIMGAP
 40
1.524
  9
$DIMJUST
 70
     0
  9
$DIMSD1
 70
     0
  9
$DIMSD2
 70
     0
  9
$DIMTOLJ
 70
     0
  9
$DIMTZIN
 70
     0
  9
$DIMALTZ
 70
     0
  9
$DIMALTTZ
 70
     0
  9
$DIMUPT
 70
     0
  9
$DIMDEC
 70
     2
  9
$DIMTDEC
 70
     2
  9
$DIMALTU
 70
     2
  9
$DIMALTTD
 70
     3
  9
$DIMTXSTY
  7
Standard
  9
$DIMAUNIT
 70
     0
  9
$DIMADEC
 70
     2
  9
$DIMALTRND
 40
0.0
  9
$DIMAZIN
 70
     0
  9
$DIMDSEP
 70
    44
  9
$DIMATFIT
 70
     3
  9
$DIMFRAC
 70
     0
  9
$DIMLDRBLK
  1

  9
$DIMLUNIT
 70
     2
  9
$DIMLWD
 70
    -2
  9
$DIMLWE
 70
    -2
  9
$DIMTMOVE
 70
     0
  9
$LUNITS
 70
     2
  9
$LUPREC
 70
     2
  9
$SKETCHINC
 40
1.0
  9
$FILLETRAD
 40
10.0
  9
$AUNITS
 70
     0
  9
$AUPREC
 70
     2
  9
$MENU
  1
.
  9
$ELEVATION
 40
0.0
  9
$PELEVATION
 40
0.0
  9
$THICKNESS
 40
0.0
  9
$LIMCHECK
 70
     0
  9
$CHAMFERA
 40
0.0
  9
$CHAMFERB
 40
0.0
  9
$CHAMFERC
 40
0.0
  9
$CHAMFERD
 40
0.0
  9
$SKPOLY
 70
     0
  9
$TDCREATE
 40
2458340.590838981
  9
$TDUCREATE
 40
2458340.215838981
  9
$TDUPDATE
 40
2458341.37949485
  9
$TDUUPDATE
 40
2458341.00449485
  9
$TDINDWG
 40
0.0015321759
  9
$TDUSRTIMER
 40
2458341.003393935
  9
$USRTIMER
 70
     1
  9
$ANGBASE
 50
0.0
  9
$ANGDIR
 70
     0
  9
$PDMODE
 70
     0
  9
$PDSIZE
 40
-1.0
  9
$PLINEWID
 40
0.0
  9
$SPLFRAME
 70
     0
  9
$SPLINETYPE
 70
     6
  9
$SPLINESEGS
 70
     8
  9
$HANDSEED
  5
19D
  9
$SURFTAB1
 70
     6
  9
$SURFTAB2
 70
     6
  9
$SURFTYPE
 70
     6
  9
$SURFU
 70
     6
  9
$SURFV
 70
     6
  9
$UCSBASE
  2

  9
$UCSNAME
  2

  9
$UCSORG
 10
0.0
 20
0.0
 30
0.0
  9
$UCSXDIR
 10
1.0
 20
0.0
 30
0.0
  9
$UCSYDIR
 10
0.0
 20
1.0
 30
0.0
  9
$UCSORTHOREF
  2

  9
$UCSORTHOVIEW
 70
     0
  9
$UCSORGTOP
 10
0.0
 20
0.0
 30
0.0
  9
$UCSORGBOTTOM
 10
0.0
 20
0.0
 30
0.0
  9
$UCSORGLEFT
 10
0.0
 20
0.0
 30
0.0
  9
$UCSORGRIGHT
 10
0.0
 20
0.0
 30
0.0
  9
$UCSORGFRONT
 10
0.0
 20
0.0
 30
0.0
  9
$UCSORGBACK
 10
0.0
 20
0.0
 30
0.0
  9
$PUCSBASE
  2

  9
$PUCSNAME
  2

  9
$PUCSORG
 10
0.0
 20
0.0
 30
0.0
  9
$PUCSXDIR
 10
1.0
 20
0.0
 30
0.0
  9
$PUCSYDIR
 10
0.0
 20
1.0
 30
0.0
  9
$PUCSORTHOREF
  2

  9
$PUCSORTHOVIEW
 70
     0
  9
$PUCSORGTOP
 10
0.0
 20
0.0
 30
0.0
  9
$PUCSORGBOTTOM
 10
0.0
 20
0.0
 30
0.0
  9
$PUCSORGLEFT
 10
0.0
 20
0.0
 30
0.0
  9
$PUCSORGRIGHT
 10
0.0
 20
0.0
 30
0.0
  9
$PUCSORGFRONT
 10
0.0
 20
0.0
 30
0.0
  9
$PUCSORGBACK
 10
0.0
 20
0.0
 30
0.0
  9
$USERI1
 70
     0
  9
$USERI2
 70
     0
  9
$USERI3
 70
     0
  9
$USERI4
 70
     0
  9
$USERI5
 70
     0
  9
$USERR1
 40
0.0
  9
$USERR2
 40
0.0
  9
$USERR3
 40
0.0
  9
$USERR4
 40
0.0
  9
$USERR5
 40
0.0
  9
$WORLDVIEW
 70
     1
  9
$SHADEDGE
 70
     3
  9
$SHADEDIF
 70
    70
  9
$TILEMODE
 70
     1
  9
$MAXACTVP
 70
    64
  9
$PINSBASE
 10
0.0
 20
0.0
 30
0.0
  9
$PLIMCHECK
 70
     0
  9
$PEXTMIN
 10
1.000000000000000E+20
 20
1.000000000000000E+20
 30
1.000000000000000E+20
  9
$PEXTMAX
 10
-1.000000000000000E+20
 20
-1.000000000000000E+20
 30
-1.000000000000000E+20
  9
$PLIMMIN
 10
0.0
 20
0.0
  9
$PLIMMAX
 10
0.0
 20
0.0
  9
$UNITMODE
 70
     0
  9
$VISRETAIN
 70
     1
  9
$PLINEGEN
 70
     0
  9
$PSLTSCALE
 70
     1
  9
$TREEDEPTH
 70
  3020
  9
$CMLSTYLE
  2
Standard
  9
$CMLJUST
 70
     0
  9
$CMLSCALE
 40
20.0
  9
$PROXYGRAPHICS
 70
     1
  9
$MEASUREMENT
 70
     1
  9
$CELWEIGHT
370
    -1
  9
$ENDCAPS
280
     0
  9
$JOINSTYLE
280
     0
  9
$LWDISPLAY
290
     1
  9
$INSUNITS
 70
     4
  9
$HYPERLINKBASE
  1

  9
$STYLESHEET
  1

  9
$XEDIT
290
     1
  9
$CEPSNTYPE
380
     0
  9
$PSTYLEMODE
290
     1
  9
$FINGERPRINTGUID
  2
{47D8D4B2-E60B-480D-B2E1-0E3B5814FDA0}
  9
$VERSIONGUID
  2
{FAEB1C32-E019-11D5-929B-00C0DF256EC4}
  9
$EXTNAMES
290
     1
  9
$PSVPSCALE
 40
0.0
  9
$OLESTARTUP
290
     0
  0
ENDSEC
  0
SECTION
  2
CLASSES
  0
CLASS
  1
ACDBDICTIONARYWDFLT
  2
AcDbDictionaryWithDefault
  3
ObjectDBX Classes
 90
        0
280
     0
281
     0
  0
CLASS
  1
VISUALSTYLE
  2
AcDbVisualStyle
  3
ObjectDBX Classes
 90
     4095
280
     0
281
     0
  0
CLASS
  1
MATERIAL
  2
AcDbMaterial
  3
ObjectDBX Classes
 90
     1153
280
     0
281
     0
  0
CLASS
  1
SCALE
  2
AcDbScale
  3
ObjectDBX Classes
 90
     1153
280
     0
281
     0
  0
CLASS
  1
SUN
  2
AcDbSun
  3
SCENEOE
 90
     1153
280
     0
281
     0
  0
CLASS
  1
ACDBPLACEHOLDER
  2
AcDbPlaceHolder
  3
ObjectDBX Classes
 90
        0
280
     0
281
     0
  0
CLASS
  1
LAYOUT
  2
AcDbLayout
  3
ObjectDBX Classes
 90
        0
280
     0
281
     0
  0
CLASS
  1
TABLESTYLE
  2
AcDbTableStyle
  3
ObjectDBX Classes
 90
     4095
280
     0
281
     0
  0
CLASS
  1
MLEADERSTYLE
  2
AcDbMLeaderStyle
  3
ACDB_MLEADERSTYLE_CLASS
 90
     4095
280
     0
281
     0
  0
CLASS
  1
RASTERVARIABLES
  2
AcDbRasterVariables
  3
ISM
 90
        0
280
     0
281
     0
  0
CLASS
  1
DIMASSOC
  2
AcDbDimAssoc
  3
"AcDbDimAssoc|Product Desc:     AcDim ARX App For Dimension|Company:          Autodesk, Inc.|WEB Address:      www.autodesk.com"
 90
        0
280
     0
281
     0
  0
ENDSEC
  0
SECTION
  2
TABLES
  0
TABLE
  2
VPORT
  5
8
330
0
100
AcDbSymbolTable
 70
     1
  0
VPORT
  5
29
330
8
100
AcDbSymbolTableRecord
100
AcDbViewportTableRecord
  2
*Active
 70
     0
 10
0.0
 20
0.0
 11
1.0
 21
1.0
 12
11.89132338717287
 22
2.391085414772121
 13
0.0
 23
0.0
 14
10.0
 24
10.0
 15
10.0
 25
10.0
 16
0.0
 26
0.0
 36
1.0
 17
0.0
 27
0.0
 37
0.0
 40
116.6275731941816
 41
1.444267515923567
 42
50.0
 43
0.0
 44
0.0
 50
0.0
 51
0.0
 71
    16
 72
  2000
 73
     1
 74
     3
 75
     0
 76
     0
 77
     0
 78
     0
281
     0
 65
     1
110
0.0
120
0.0
130
0.0
111
1.0
121
0.0
131
0.0
112
0.0
122
1.0
132
0.0
 79
     0
146
0.0
  0
ENDTAB
  0
TABLE
  2
LTYPE
  5
5
330
0
100
AcDbSymbolTable
 70
     6
  0
LTYPE
  5
14
330
5
100
AcDbSymbolTableRecord
100
AcDbLinetypeTableRecord
  2
ByBlock
 70
     0
  3

 72
    65
 73
     0
 40
0.0
  0
LTYPE
  5
15
330
5
100
AcDbSymbolTableRecord
100
AcDbLinetypeTableRecord
  2
ByLayer
 70
     0
  3

 72
    65
 73
     0
 40
0.0
  0
LTYPE
  5
16
330
5
100
AcDbSymbolTableRecord
100
AcDbLinetypeTableRecord
  2
Continuous
 70
     0
  3
Solid line
 72
    65
 73
     0
 40
0.0
  0
LTYPE
  5
6A
330
5
100
AcDbSymbolTableRecord
100
AcDbLinetypeTableRecord
  2
HIDDEN
 70
     0
  3
Hidden __ __ __ __ __ __ __ __ __ __ __ __ __ __
 72
    65
 73
     2
 40
1.905
 49
1.27
 74
     0
 49
-0.635
 74
     0
  0
LTYPE
  5
6B
330
5
100
AcDbSymbolTableRecord
100
AcDbLinetypeTableRecord
  2
PHANTOM
 70
     0
  3
Phantom ______  __  __  ______  __  __  ______
 72
    65
 73
     6
 40
12.7
 49
6.35
 74
     0
 49
-1.27
 74
     0
 49
1.27
 74
     0
 49
-1.27
 74
     0
 49
1.27
 74
     0
 49
-1.27
 74
     0
  0
LTYPE
  5
6C
330
5
100
AcDbSymbolTableRecord
100
AcDbLinetypeTableRecord
  2
CENTER
 70
     0
  3
Center ____ _ ____ _ ____ _ ____ _ ____ _ ____
 72
    65
 73
     4
 40
10.16
 49
6.35
 74
     0
 49
-1.27
 74
     0
 49
1.27
 74
     0
 49
-1.27
 74
     0
  0
LTYPE
  5
6D
330
5
100
AcDbSymbolTableRecord
100
AcDbLinetypeTableRecord
  2
CENTERX2
 70
     0
  3
Center (2x) ________  __  ________  __  _____
 72
    65
 73
     4
 40
20.32
 49
12.7
 74
     0
 49
-2.54
 74
     0
 49
2.54
 74
     0
 49
-2.54
 74
     0
  0
LTYPE
  5
6E
330
5
100
AcDbSymbolTableRecord
100
AcDbLinetypeTableRecord
  2
DOT2
 70
     0
  3
Dot (.5x) ........................................
 72
    65
 73
     2
 40
0.635
 49
0.0
 74
     0
 49
-0.635
 74
     0
  0
ENDTAB
  0
TABLE
  2
LAYER
  5
2
330
0
100
AcDbSymbolTable
 70
    17
  0
LAYER
  5
10
330
2
100
AcDbSymbolTableRecord
100
AcDbLayerTableRecord
  2
0
 70
     0
 62
     7
  6
Continuous
370
    -3
390
F
  0
LAYER
  5
6F
330
2
100
AcDbSymbolTableRecord
100
AcDbLayerTableRecord
  2
FORMAT
 70
     0
 62
     2
  6
Continuous
370
    -3
390
F
  0
LAYER
  5
70
330
2
100
AcDbSymbolTableRecord
100
AcDbLayerTableRecord
  2
외형선
 70
     0
 62
   100
  6
Continuous
370
    30
390
F
  0
LAYER
  5
71
330
2
100
AcDbSymbolTableRecord
100
AcDbLayerTableRecord
  2
숨은선
 70
     0
 62
     2
  6
HIDDEN
370
    15
390
F
  0
LAYER
  5
72
330
2
100
AcDbSymbolTableRecord
100
AcDbLayerTableRecord
  2
중심선
 70
     0
 62
     1
  6
CENTERX2
370
    -3
390
F
  0
LAYER
  5
73
330
2
100
AcDbSymbolTableRecord
100
AcDbLayerTableRecord
  2
파단선
 70
     0
 62
     4
  6
Continuous
370
    -3
390
F
  0
LAYER
  5
74
330
2
100
AcDbSymbolTableRecord
100
AcDbLayerTableRecord
  2
해칭선
 70
     0
 62
     4
  6
Continuous
370
    -3
390
F
  0
LAYER
  5
75
330
2
100
AcDbSymbolTableRecord
100
AcDbLayerTableRecord
  2
가는실선
 70
     0
 62
     4
  6
Continuous
370
    -3
390
F
  0
LAYER
  5
76
330
2
100
AcDbSymbolTableRecord
100
AcDbLayerTableRecord
  2
치수_보조선
 70
     0
 62
     4
  6
Continuous
370
    -3
390
F
  0
LAYER
  5
77
330
2
100
AcDbSymbolTableRecord
100
AcDbLayerTableRecord
  2
치수문자_일반주서
 70
     0
 62
     7
  6
Continuous
370
    15
390
F
  0
LAYER
  5
78
330
2
100
AcDbSymbolTableRecord
100
AcDbLayerTableRecord
  2
개별주서
 70
     0
 62
   100
  6
Continuous
370
    30
390
F
  0
LAYER
  5
79
330
2
100
AcDbSymbolTableRecord
100
AcDbLayerTableRecord
  2
중간선
 70
     0
 62
     2
  6
Continuous
370
    15
390
F
  0
LAYER
  5
7A
330
2
100
AcDbSymbolTableRecord
100
AcDbLayerTableRecord
  2
윤곽선
 70
     0
 62
     3
  6
Continuous
370
    40
390
F
  0
LAYER
  5
7B
330
2
100
AcDbSymbolTableRecord
100
AcDbLayerTableRecord
  2
중심마크
 70
     0
 62
   100
  6
Continuous
370
    30
390
F
  0
LAYER
  5
7C
330
2
100
AcDbSymbolTableRecord
100
AcDbLayerTableRecord
  2
가상선
 70
     0
 62
     4
  6
PHANTOM
370
    -3
390
F
  0
LAYER
  5
7D
330
2
100
AcDbSymbolTableRecord
100
AcDbLayerTableRecord
  2
특수지정선
 70
     0
 62
     5
  6
CENTERX2
370
    60
390
F
  0
LAYER
  5
14D
330
2
100
AcDbSymbolTableRecord
100
AcDbLayerTableRecord
  2
Defpoints
 70
     0
 62
     7
  6
Continuous
290
     0
370
    -3
390
F
  0
ENDTAB
  0
TABLE
  2
STYLE
  5
3
330
0
100
AcDbSymbolTable
 70
     2
  0
STYLE
  5
11
330
3
100
AcDbSymbolTableRecord
100
AcDbTextStyleTableRecord
  2
Standard
 70
     0
 40
0.0
 41
1.0
 50
0.0
 71
     0
 42
3.5
  3
txt
  4

  0
STYLE
  5
93
330
3
100
AcDbSymbolTableRecord
100
AcDbTextStyleTableRecord
  2
SLDTEXTSTYLE0
 70
     0
 40
0.0
 41
0.75
 50
0.0
 71
     0
 42
3.5
  3
TXT
  4

  0
ENDTAB
  0
TABLE
  2
VIEW
  5
6
330
0
100
AcDbSymbolTable
 70
     0
  0
ENDTAB
  0
TABLE
  2
UCS
  5
7
330
0
100
AcDbSymbolTable
 70
     0
  0
ENDTAB
  0
TABLE
  2
APPID
  5
9
330
0
100
AcDbSymbolTable
 70
     2
  0
APPID
  5
12
330
9
100
AcDbSymbolTableRecord
100
AcDbRegAppTableRecord
  2
ACAD
 70
     0
  0
APPID
  5
198
330
9
100
AcDbSymbolTableRecord
100
AcDbRegAppTableRecord
  2
PE_DIMMEASUREMENT
 70
     0
  0
ENDTAB
  0
TABLE
  2
DIMSTYLE
  5
A
330
0
100
AcDbSymbolTable
 70
     4
100
AcDbDimStyleTable
  0
DIMSTYLE
105
27
330
A
100
AcDbSymbolTableRecord
100
AcDbDimStyleTableRecord
  2
ISO-25
 70
     0
 41
2.5
 42
0.625
 43
3.75
 44
1.25
 73
     0
 74
     0
 77
     1
 78
     8
140
2.5
141
2.5
143
0.03937007874016
147
0.625
171
     3
172
     1
178
     0
271
     2
272
     2
274
     3
278
    44
283
     0
284
     8
340
11
  0
DIMSTYLE
105
E6
102
{ACAD_REACTORS
330
E5
330
14E
102
}
330
A
100
AcDbSymbolTableRecord
100
AcDbDimStyleTableRecord
  2
SLDDIMSTYLE0
 70
     0
 41
3.302
 44
0.0
 45
0.000000001
 73
     0
 74
     0
 77
     1
 78
    12
 79
     3
140
3.5
143
0.0393700787401575
147
0.875
148
0.000000001
170
     1
173
     1
178
     0
271
     2
272
     2
276
     2
284
    12
340
93
  0
DIMSTYLE
105
FA
102
{ACAD_REACTORS
330
F9
102
}
330
A
100
AcDbSymbolTableRecord
100
AcDbDimStyleTableRecord
  2
SLDDIMSTYLE1
 70
     0
 41
3.302
 44
0.0
 45
0.000000001
 73
     0
 74
     0
 77
     1
 78
     4
 79
     1
140
3.5
143
0.0393700787401575
147
0.875
148
0.000000001
170
     1
173
     1
178
     0
271
     2
272
     2
276
     2
284
    12
340
93
  0
DIMSTYLE
105
10E
102
{ACAD_REACTORS
330
10D
330
186
102
}
330
A
100
AcDbSymbolTableRecord
100
AcDbDimStyleTableRecord
  2
SLDDIMSTYLE2
 70
     0
 41
3.302
 44
0.0
 45
0.000000001
 73
     0
 74
     0
 77
     1
 78
    12
 79
     3
140
3.5
143
0.0393700787401575
147
0.875
148
0.000000001
170
     1
172
     1
173
     1
178
     0
271
     2
272
     2
276
     2
284
    12
289
     0
340
93
  0
ENDTAB
  0
TABLE
  2
BLOCK_RECORD
  5
1
330
0
100
AcDbSymbolTable
 70
     8
  0
BLOCK_RECORD
  5
1F
330
1
100
AcDbSymbolTableRecord
100
AcDbBlockTableRecord
  2
*Model_Space
340
22
  0
BLOCK_RECORD
  5
1B
330
1
100
AcDbSymbolTableRecord
100
AcDbBlockTableRecord
  2
*Paper_Space
340
1E
  0
BLOCK_RECORD
  5
23
330
1
100
AcDbSymbolTableRecord
100
AcDbBlockTableRecord
  2
*Paper_Space0
340
26
  0
BLOCK_RECORD
  5
7E
330
1
100
AcDbSymbolTableRecord
100
AcDbBlockTableRecord
  2
블럭10
340
0
102
{BLKREFS
331
DE
102
}
  0
BLOCK_RECORD
  5
E7
330
1
100
AcDbSymbolTableRecord
100
AcDbBlockTableRecord
  2
_D
340
0
  0
BLOCK_RECORD
  5
FB
330
1
100
AcDbSymbolTableRecord
100
AcDbBlockTableRecord
  2
_D_1
340
0
  0
BLOCK_RECORD
  5
10F
330
1
100
AcDbSymbolTableRecord
100
AcDbBlockTableRecord
  2
_D_2
340
0
  0
BLOCK_RECORD
  5
122
330
1
100
AcDbSymbolTableRecord
100
AcDbBlockTableRecord
  2
SW_DOWELSYMBOL_0
340
0
102
{BLKREFS
331
128
102
}
  0
BLOCK_RECORD
  5
151
330
1
100
AcDbSymbolTableRecord
100
AcDbBlockTableRecord
  2
*D6
340
0
  0
BLOCK_RECORD
  5
189
330
1
100
AcDbSymbolTableRecord
100
AcDbBlockTableRecord
  2
*D7
340
0
  0
ENDTAB
  0
ENDSEC
  0
SECTION
  2
BLOCKS
  0
BLOCK
  5
20
330
1F
100
AcDbEntity
  8
0
100
AcDbBlockBegin
  2
*Model_Space
 70
     0
 10
0.0
 20
0.0
 30
0.0
  3
*Model_Space
  1
*Model_Space
  0
ENDBLK
  5
21
330
1F
100
AcDbEntity
  8
0
100
AcDbBlockEnd
  0
BLOCK
  5
1C
330
1B
100
AcDbEntity
 67
     1
  8
0
100
AcDbBlockBegin
  2
*Paper_Space
 70
     0
 10
0.0
 20
0.0
 30
0.0
  3
*Paper_Space
  1
*Paper_Space
  0
ENDBLK
  5
1D
330
1B
100
AcDbEntity
 67
     1
  8
0
100
AcDbBlockEnd
  0
BLOCK
  5
24
330
23
100
AcDbEntity
  8
0
100
AcDbBlockBegin
  2
*Paper_Space0
 70
     0
 10
0.0
 20
0.0
 30
0.0
  3
*Paper_Space0
  1
*Paper_Space0
  0
ENDBLK
  5
25
330
23
100
AcDbEntity
  8
0
100
AcDbBlockEnd
  0
BLOCK
  5
7F
330
7E
100
AcDbEntity
  8
0
100
AcDbBlockBegin
  2
블럭10
 70
     2
 10
0.0
 20
0.0
 30
0.0
  3
블럭10
  1
블럭10
  0
ELLIPSE
  5
81
330
7E
100
AcDbEntity
  8
중심선
100
AcDbEllipse
 10
20.54032771741204
 20
12.0471743016438
 30
0.0
 11
6.600054785286829
 21
-1.261213355974178E-13
 31
0.0
210
0.0
220
0.0
230
1.0
 40
0.636358354079598
 41
0.9219305317359503
 42
6.513795318482858
  0
ELLIPSE
  5
82
330
7E
100
AcDbEntity
  8
중심선
100
AcDbEllipse
 10
20.54032771746488
 20
12.04717430159265
 30
0.0
 11
3.960054785062283
 21
1.540847449632565E-10
 31
0.0
210
0.0
220
0.0
230
1.0
 40
0.3939339440162632
 41
1.131841032648279
 42
5.62031148352944
  0
LINE
  5
83
330
7E
100
AcDbEntity
  8
중심선
100
AcDbLine
 10
2.268634060543552
 20
16.24717430164393
 30
0.0
 11
5.714909304380834
 21
16.24717430164393
 31
0.0
  0
LINE
  5
84
330
7E
100
AcDbEntity
  8
중심선
100
AcDbLine
 10
5.245725140726316
 20
7.84717430164391
 30
0.0
 11
8.692000384563599
 21
7.84717430164391
 31
0.0
  0
LINE
  5
85
330
7E
100
AcDbEntity
  8
중심선
100
AcDbLine
 10
15.74043728645272
 20
16.24717430164393
 30
0.0
 11
8.692000384563599
 21
7.84717430164391
 31
0.0
  0
LINE
  5
86
330
7E
100
AcDbEntity
  8
중심선
100
AcDbLine
 10
0.1404042013395286
 20
13.71084872107135
 30
0.0
 11
3.58671253028996
 21
13.71088815037384
 31
0.0
  0
LINE
  5
87
330
7E
100
AcDbEntity
  8
중심선
100
AcDbLine
 10
2.750260043222114
 20
10.84717430164391
 30
0.0
 11
6.196535287059397
 21
10.84717430164391
 31
0.0
  0
LINE
  5
88
330
7E
100
AcDbEntity
  8
중심선
100
AcDbLine
 10
12.29416204261559
 20
16.24717430164393
 30
0.0
 11
5.245725140726316
 21
7.84717430164391
 31
0.0
  0
LINE
  5
89
330
7E
100
AcDbEntity
  8
중심선
100
AcDbLine
 10
10.72767329541681
 20
16.24717430164393
 30
0.0
 11
6.196535287059397
 21
10.84717430164391
 31
0.0
  0
LINE
  5
8A
330
7E
100
AcDbEntity
  8
중심선
100
AcDbLine
 10
7.28139805157953
 20
16.24717430164393
 30
0.0
 11
2.750260043222114
 21
10.84717430164391
 31
0.0
  0
LINE
  5
8B
330
7E
100
AcDbEntity
  8
중심선
100
AcDbLine
 10
5.714909304380834
 20
16.24717430164393
 30
0.0
 11
3.58671253028996
 21
13.71088815037384
 31
0.0
  0
LINE
  5
8C
330
7E
100
AcDbEntity
  8
중심선
100
AcDbLine
 10
2.268634060543552
 20
16.24717430164393
 30
0.0
 11
0.1404042013395286
 21
13.71084872107135
 31
0.0
  0
LINE
  5
8D
330
7E
100
AcDbEntity
  8
중심선
100
AcDbLine
 10
7.28139805157953
 20
16.24717430164393
 30
0.0
 11
10.72767329541681
 21
16.24717430164393
 31
0.0
  0
LINE
  5
8E
330
7E
100
AcDbEntity
  8
중심선
100
AcDbLine
 10
12.29416204261559
 20
16.24717430164393
 30
0.0
 11
15.74043728645272
 21
16.24717430164393
 31
0.0
  0
LINE
  5
8F
330
7E
100
AcDbEntity
  8
중심선
100
AcDbLine
 10
19.22036997980202
 20
11.08717430171403
 30
0.0
 11
23.66174974927406
 21
11.08717430171406
 31
0.0
  0
LINE
  5
90
330
7E
100
AcDbEntity
  8
중심선
100
AcDbLine
 10
19.22039502424796
 20
13.00717430171391
 30
0.0
 11
19.22036997980202
 21
11.08717430171403
 31
0.0
  0
LINE
  5
91
330
7E
100
AcDbEntity
  8
중심선
100
AcDbLine
 10
19.22039502424796
 20
13.00717430171391
 30
0.0
 11
26.96566020931264
 21
13.00717430171391
 31
0.0
  0
LINE
  5
92
330
7E
100
AcDbEntity
  8
중심선
100
AcDbLine
 10
22.22332737316547
 20
13.45928029700563
 30
0.0
 11
24.52862924686651
 21
15.39360700705356
 31
0.0
  0
ATTDEF
  5
94
330
7E
100
AcDbEntity
  8
FORMAT
 62
     2
100
AcDbText
 10
-9.18129528874128
 20
2.075366912832191
 30
0.0
 40
4.233333333333333
  1
E5078112 [ 3 FLUTE ]
 41
0.75
  7
SLDTEXTSTYLE0
 11
-9.18129528874128
 21
-0.0412997538344756
 31
0.0
100
AcDbAttributeDefinition
  3

  2
AUTOATTR0
 70
     0
 74
     1
  0
ENDBLK
  5
80
330
7E
100
AcDbEntity
  8
0
100
AcDbBlockEnd
  0
BLOCK
  5
E8
330
E7
100
AcDbEntity
  8
0
100
AcDbBlockBegin
  2
_D
 70
     0
 10
0.0
 20
0.0
 30
0.0
  3
_D
  1
_D
  0
LINE
  5
EA
330
E7
100
AcDbEntity
  8
치수문자_일반주서
 62
     0
370
    -2
100
AcDbLine
 10
56.95800000000001
 20
2.443749999999994
 30
0.0
 11
56.95800000000001
 21
30.45049195778778
 31
0.0
  0
LINE
  5
EB
330
E7
100
AcDbEntity
  8
치수문자_일반주서
 62
     0
370
    -2
100
AcDbLine
 10
12.50800000000003
 20
3.178425493853514
 30
0.0
 11
12.50800000000003
 21
30.45049195778778
 31
0.0
  0
LINE
  5
EC
330
E7
100
AcDbEntity
  8
치수문자_일반주서
 62
     0
370
    -2
100
AcDbLine
 10
53.65600000000001
 20
30.45049195778778
 30
0.0
 11
15.81000000000003
 21
30.45049195778778
 31
0.0
  0
SOLID
  5
ED
330
E7
100
AcDbEntity
  8
치수문자_일반주서
 62
     0
100
AcDbTrace
 10
53.65600000000001
 20
29.90015862445444
 30
0.0
 11
53.65600000000001
 21
31.00082529112111
 31
0.0
 12
56.95800000000001
 22
30.45049195778778
 32
0.0
 13
56.95800000000001
 23
30.45049195778778
 33
0.0
  0
SOLID
  5
EE
330
E7
100
AcDbEntity
  8
치수문자_일반주서
 62
     0
100
AcDbTrace
 10
15.81000000000003
 20
31.00082529112111
 30
0.0
 11
15.81000000000003
 21
29.90015862445444
 31
0.0
 12
12.50800000000003
 22
30.45049195778778
 32
0.0
 13
12.50800000000003
 23
30.45049195778778
 33
0.0
  0
MTEXT
  5
EF
330
E7
100
AcDbEntity
  8
치수문자_일반주서
 62
     0
100
AcDbMText
 10
34.34206692949723
 20
34.82549195778778
 30
0.0
 40
3.5
 41
0.0
 71
     2
 72
     1
  1
\A1;44.45 [1 3/4]
  7
SLDTEXTSTYLE0
 73
     1
 44
1.0
  0
POINT
  5
F0
330
E7
100
AcDbEntity
  8
Defpoints
 62
     0
100
AcDbPoint
 10
56.95800000000001
 20
2.381249999999994
 30
0.0
  0
POINT
  5
F1
330
E7
100
AcDbEntity
  8
Defpoints
 62
     0
100
AcDbPoint
 10
12.50800000000003
 20
3.115925493853514
 30
0.0
  0
POINT
  5
F2
330
E7
100
AcDbEntity
  8
Defpoints
 62
     0
100
AcDbPoint
 10
12.50800000000003
 20
30.45049195778778
 30
0.0
  0
ENDBLK
  5
E9
330
E7
100
AcDbEntity
  8
0
100
AcDbBlockEnd
  0
BLOCK
  5
FC
330
FB
100
AcDbEntity
  8
0
100
AcDbBlockBegin
  2
_D_1
 70
     0
 10
0.0
 20
0.0
 30
0.0
  3
_D_1
  1
_D_1
  0
LINE
  5
FE
330
FB
100
AcDbEntity
  8
치수문자_일반주서
 62
     0
370
    -2
100
AcDbLine
 10
56.95800000000001
 20
2.443749999999994
 30
0.0
 11
56.95800000000001
 21
43.70638402565997
 31
0.0
  0
LINE
  5
FF
330
FB
100
AcDbEntity
  8
치수문자_일반주서
 62
     0
370
    -2
100
AcDbLine
 10
-31.942
 20
4.015000000000013
 30
0.0
 11
-31.94200000000001
 21
43.70638402565997
 31
0.0
  0
LINE
  5
100
330
FB
100
AcDbEntity
  8
치수문자_일반주서
 62
     0
370
    -2
100
AcDbLine
 10
53.65600000000001
 20
43.70638402565997
 30
0.0
 11
-28.64000000000001
 21
43.70638402565997
 31
0.0
  0
SOLID
  5
101
330
FB
100
AcDbEntity
  8
치수문자_일반주서
 62
     0
100
AcDbTrace
 10
53.65600000000001
 20
43.15605069232664
 30
0.0
 11
53.65600000000001
 21
44.25671735899331
 31
0.0
 12
56.95800000000001
 22
43.70638402565997
 32
0.0
 13
56.95800000000001
 23
43.70638402565997
 33
0.0
  0
SOLID
  5
102
330
FB
100
AcDbEntity
  8
치수문자_일반주서
 62
     0
100
AcDbTrace
 10
-28.64000000000001
 20
44.25671735899331
 30
0.0
 11
-28.64000000000001
 21
43.15605069232664
 31
0.0
 12
-31.94200000000001
 22
43.70638402565997
 32
0.0
 13
-31.94200000000001
 23
43.70638402565997
 33
0.0
  0
MTEXT
  5
103
330
FB
100
AcDbEntity
  8
치수문자_일반주서
 62
     0
100
AcDbMText
 10
14.49598349195361
 20
48.08138402565997
 30
0.0
 40
3.5
 41
0.0
 71
     2
 72
     1
  1
\A1;88.90 [3 1/2]
  7
SLDTEXTSTYLE0
 73
     1
 44
1.0
  0
POINT
  5
104
330
FB
100
AcDbEntity
  8
Defpoints
 62
     0
100
AcDbPoint
 10
56.95800000000001
 20
2.381249999999994
 30
0.0
  0
POINT
  5
105
330
FB
100
AcDbEntity
  8
Defpoints
 62
     0
100
AcDbPoint
 10
-31.942
 20
3.952500000000013
 30
0.0
  0
POINT
  5
106
330
FB
100
AcDbEntity
  8
Defpoints
 62
     0
100
AcDbPoint
 10
-31.942
 20
43.70638402565997
 30
0.0
  0
ENDBLK
  5
FD
330
FB
100
AcDbEntity
  8
0
100
AcDbBlockEnd
  0
BLOCK
  5
110
330
10F
100
AcDbEntity
  8
0
100
AcDbBlockBegin
  2
_D_2
 70
     0
 10
0.0
 20
0.0
 30
0.0
  3
_D_2
  1
_D_2
  0
LINE
  5
112
330
10F
100
AcDbEntity
  8
치수문자_일반주서
 62
     0
370
    -2
100
AcDbLine
 10
-31.1945
 20
4.762500000000002
 30
0.0
 11
-44.94199999999999
 21
4.762499999999953
 31
0.0
  0
LINE
  5
113
330
10F
100
AcDbEntity
  8
치수문자_일반주서
 62
     0
370
    -2
100
AcDbLine
 10
-31.1945
 20
-4.762499999999995
 30
0.0
 11
-44.94199999999996
 21
-4.762500000000045
 31
0.0
  0
LINE
  5
114
330
10F
100
AcDbEntity
  8
치수문자_일반주서
 62
     0
370
    -2
100
AcDbLine
 10
-44.94199999999999
 20
4.762499999999953
 30
0.0
 11
-44.94200000000011
 21
37.61649999999995
 31
0.0
  0
LINE
  5
115
330
10F
100
AcDbEntity
  8
치수문자_일반주서
 62
     0
370
    -2
100
AcDbLine
 10
-44.94199999999999
 20
4.762499999999953
 30
0.0
 11
-44.94199999999996
 21
-4.762500000000045
 31
0.0
  0
LINE
  5
116
330
10F
100
AcDbEntity
  8
치수문자_일반주서
 62
     0
370
    -2
100
AcDbLine
 10
-44.94200000000001
 20
8.064499999999953
 30
0.0
 11
-44.94200000000002
 21
11.36649999999995
 31
0.0
  0
LINE
  5
117
330
10F
100
AcDbEntity
  8
치수문자_일반주서
 62
     0
370
    -2
100
AcDbLine
 10
-44.94199999999994
 20
-8.064500000000045
 30
0.0
 11
-44.94199999999993
 21
-11.36650000000004
 31
0.0
  0
SOLID
  5
118
330
10F
100
AcDbEntity
  8
치수문자_일반주서
 62
     0
100
AcDbTrace
 10
-45.49233333333334
 20
8.064499999999951
 30
0.0
 11
-44.39166666666667
 21
8.064499999999954
 31
0.0
 12
-44.94199999999999
 22
4.762499999999953
 32
0.0
 13
-44.94199999999999
 23
4.762499999999953
 33
0.0
  0
SOLID
  5
119
330
10F
100
AcDbEntity
  8
치수문자_일반주서
 62
     0
100
AcDbTrace
 10
-44.39166666666661
 20
-8.064500000000043
 30
0.0
 11
-45.49233333333328
 21
-8.064500000000047
 31
0.0
 12
-44.94199999999996
 22
-4.762500000000045
 32
0.0
 13
-44.94199999999996
 23
-4.762500000000045
 33
0.0
  0
MTEXT
  5
11A
330
10F
100
AcDbEntity
  8
치수문자_일반주서
 62
     0
100
AcDbMText
 10
-49.31700000000006
 20
24.49149999999993
 30
0.0
 40
3.5
 41
0.0
 71
     2
 72
     1
  1
\A1;%%c9.53 [3/8]
  7
SLDTEXTSTYLE0
 11
-3.729883127349609E-15
 21
1.0
 31
0.0
 73
     1
 44
1.0
  0
POINT
  5
199
330
10F
100
AcDbEntity
  8
Defpoints
 62
     0
100
AcDbPoint
 10
-31.132
 20
4.762500000000002
 30
0.0
  0
POINT
  5
19A
330
10F
100
AcDbEntity
  8
Defpoints
 62
     0
100
AcDbPoint
 10
-31.132
 20
-4.762499999999995
 30
0.0
  0
POINT
  5
19B
330
10F
100
AcDbEntity
  8
Defpoints
 62
     0
100
AcDbPoint
 10
-44.94199999999994
 20
-4.762500000000043
 30
0.0
  0
ENDBLK
  5
111
330
10F
100
AcDbEntity
  8
0
100
AcDbBlockEnd
  0
BLOCK
  5
123
330
122
100
AcDbEntity
  8
0
100
AcDbBlockBegin
  2
SW_DOWELSYMBOL_0
 70
     0
 10
0.0
 20
0.0
 30
0.0
  3
SW_DOWELSYMBOL_0
  1
SW_DOWELSYMBOL_0
  0
CIRCLE
  5
125
330
122
100
AcDbEntity
  8
외형선
 62
     0
100
AcDbCircle
 10
0.0
 20
0.0
 30
0.0
 40
2.999999999999999
  0
HATCH
  5
126
330
122
100
AcDbEntity
  8
0
  6
Continuous
 62
     0
370
    30
100
AcDbHatch
 10
0.0
 20
0.0
 30
0.0
210
0.0
220
0.0
230
1.0
  2
SOLID
 70
     1
 71
     0
 91
        1
 92
        0
 93
        3
 72
     2
 10
0.0
 20
0.0
 40
2.999999999999999
 50
0.0
 51
90.0
 73
     1
 72
     1
 10
0.0
 20
2.999999999999999
 11
0.0
 21
0.0
 72
     1
 10
0.0
 20
0.0
 11
2.999999999999999
 21
0.0
 97
        0
 75
     0
 76
     1
 98
        1
 10
0.0
 20
0.0
  0
HATCH
  5
127
330
122
100
AcDbEntity
  8
0
  6
Continuous
 62
     0
370
    30
100
AcDbHatch
 10
0.0
 20
0.0
 30
0.0
210
0.0
220
0.0
230
1.0
  2
SOLID
 70
     1
 71
     0
 91
        1
 92
        0
 93
        3
 72
     2
 10
0.0
 20
0.0
 40
2.999999999999999
 50
180.0
 51
270.0000000000007
 73
     1
 72
     1
 10
0.0
 20
-2.999999999999999
 11
0.0
 21
0.0
 72
     1
 10
0.0
 20
0.0
 11
-2.999999999999999
 21
0.0
 97
        0
 75
     0
 76
     1
 98
        1
 10
0.0
 20
0.0
  0
ENDBLK
  5
124
330
122
100
AcDbEntity
  8
0
100
AcDbBlockEnd
  0
BLOCK
  5
152
330
151
100
AcDbEntity
  8
0
100
AcDbBlockBegin
  2
*D6
 70
     1
 10
0.0
 20
0.0
 30
0.0
  3
*D6
  1
*D6
  0
LINE
  5
154
330
151
100
AcDbEntity
  8
치수문자_일반주서
 62
     0
370
    -2
100
AcDbLine
 10
21.67281893739869
 20
9.559394517615473
 30
0.0
 11
21.91938968842566
 21
13.92744074730879
 31
0.0
  0
LINE
  5
155
330
151
100
AcDbEntity
  8
치수문자_일반주서
 62
     0
370
    -2
100
AcDbLine
 10
23.92378642973181
 20
2.916662200515882
 30
0.0
 11
21.42905893396963
 21
2.960207830932621
 31
0.0
  0
ARC
  5
156
330
151
100
AcDbEntity
  8
치수문자_일반주서
 62
     0
370
    -2
100
AcDbCircle
 10
191.0192519871727
 20
-0.0000000000000052
 30
0.0
 40
169.6160263955768
100
AcDbArc
 50
176.7691535923068
 51
177.8845767961534
  0
ARC
  5
157
330
151
100
AcDbEntity
  8
치수문자_일반주서
 62
     0
370
    -2
100
AcDbCircle
 10
191.0192519871727
 20
-0.0000000000000052
 30
0.0
 40
169.6160263955768
100
AcDbArc
 50
181.1154232038466
 51
182.2308464076932
  0
SOLID
  5
158
330
151
100
AcDbEntity
  8
치수문자_일반주서
 62
     0
100
AcDbTrace
 10
20.96869003914475
 20
6.275947757171634
 30
0.0
 11
22.06894995548308
 21
6.24602740272354
 31
0.0
 12
21.42905893396963
 22
2.960207830932621
 32
0.0
 13
21.42905893396963
 23
2.960207830932621
 33
0.0
  0
SOLID
  5
159
330
151
100
AcDbEntity
  8
치수문자_일반주서
 62
     0
100
AcDbTrace
 10
21.9856736959609
 20
-3.296486763737936
 30
0.0
 11
20.88505917235049
 21
-3.307200377924539
 31
0.0
 12
21.40322559159588
 22
-0.0000000000000052
 32
0.0
 13
21.40322559159588
 23
-0.0000000000000052
 33
0.0
  0
MTEXT
  5
15A
330
151
100
AcDbEntity
  8
치수문자_일반주서
 62
     0
100
AcDbMText
 10
19.17527657509618
 20
11.89136008307831
 30
0.0
 40
3.5
 41
0.0
 71
     5
 72
     1
  1
\A1;1%%d
  7
SLDTEXTSTYLE0
 11
0.05635902880616454
 21
0.9984105667870438
 31
0.0
 73
     1
 44
1.0
  0
POINT
  5
15B
330
151
100
AcDbEntity
  8
Defpoints
 62
     0
100
AcDbPoint
 10
21.40609602773944
 20
0.9867804750710075
 30
0.0
  0
POINT
  5
15C
330
151
100
AcDbEntity
  8
Defpoints
 62
     0
100
AcDbPoint
 10
-34.94200000000001
 20
-0.0000000000000052
 30
0.0
  0
POINT
  5
15D
330
151
100
AcDbEntity
  8
Defpoints
 62
     0
100
AcDbPoint
 10
27.11008723924829
 20
2.861045113004939
 30
0.0
  0
POINT
  5
15E
330
151
100
AcDbEntity
  8
Defpoints
 62
     0
100
AcDbPoint
 10
23.98627691067908
 20
2.915571425113552
 30
0.0
  0
POINT
  5
15F
330
151
100
AcDbEntity
  8
Defpoints
 62
     0
100
AcDbPoint
 10
60.61830854282876
 20
-0.0000000000000052
 30
0.0
  0
ENDBLK
  5
153
330
151
100
AcDbEntity
  8
0
100
AcDbBlockEnd
  0
BLOCK
  5
18A
330
189
100
AcDbEntity
  8
0
100
AcDbBlockBegin
  2
*D7
 70
     1
 10
0.0
 20
0.0
 30
0.0
  3
*D7
  1
*D7
  0
LINE
  5
18C
330
189
100
AcDbEntity
  8
치수문자_일반주서
 62
     0
370
    -2
100
AcDbLine
 10
57.16188291476654
 20
-2.381250000000005
 30
0.0
 11
67.48394415458736
 21
-2.381250000000006
 31
0.0
  0
LINE
  5
18D
330
189
100
AcDbEntity
  8
치수문자_일반주서
 62
     0
370
    -2
100
AcDbLine
 10
57.02050000000001
 20
2.381249999999994
 30
0.0
 11
67.48394415458736
 21
2.381249999999994
 31
0.0
  0
LINE
  5
18E
330
189
100
AcDbEntity
  8
치수문자_일반주서
 62
     0
370
    -2
100
AcDbLine
 10
67.48394415458736
 20
5.683249999999994
 30
0.0
 11
67.48394415458736
 21
36.98524999999999
 31
0.0
  0
LINE
  5
18F
330
189
100
AcDbEntity
  8
치수문자_일반주서
 62
     0
370
    -2
100
AcDbLine
 10
67.48394415458736
 20
-2.381250000000006
 30
0.0
 11
67.48394415458736
 21
2.381249999999994
 31
0.0
  0
LINE
  5
190
330
189
100
AcDbEntity
  8
치수문자_일반주서
 62
     0
370
    -2
100
AcDbLine
 10
67.48394415458736
 20
-5.683250000000006
 30
0.0
 11
67.48394415458736
 21
-8.985250000000006
 31
0.0
  0
SOLID
  5
191
330
189
100
AcDbEntity
  8
치수문자_일반주서
 62
     0
100
AcDbTrace
 10
68.03427748792069
 20
-5.683250000000006
 30
0.0
 11
66.93361082125404
 21
-5.683250000000006
 31
0.0
 12
67.48394415458736
 22
-2.381250000000006
 32
0.0
 13
67.48394415458736
 23
-2.381250000000006
 33
0.0
  0
SOLID
  5
192
330
189
100
AcDbEntity
  8
치수문자_일반주서
 62
     0
100
AcDbTrace
 10
66.93361082125404
 20
5.683249999999994
 30
0.0
 11
68.03427748792069
 21
5.683249999999994
 31
0.0
 12
67.48394415458736
 22
2.381249999999994
 32
0.0
 13
67.48394415458736
 23
2.381249999999994
 33
0.0
  0
MTEXT
  5
193
330
189
100
AcDbEntity
  8
치수문자_일반주서
 62
     0
100
AcDbMText
 10
64.85894415458736
 20
22.98524999999999
 30
0.0
 40
3.5
 41
0.0
 71
     5
 72
     1
  1
\A1;{%%c4.76 [3/16]}
  7
SLDTEXTSTYLE0
 11
0.0
 21
1.0
 31
0.0
 73
     1
 44
1.0
  0
POINT
  5
194
330
189
100
AcDbEntity
  8
Defpoints
 62
     0
100
AcDbPoint
 10
57.09938291476654
 20
-2.381250000000005
 30
0.0
  0
POINT
  5
195
330
189
100
AcDbEntity
  8
Defpoints
 62
     0
100
AcDbPoint
 10
56.95800000000001
 20
2.381249999999994
 30
0.0
  0
POINT
  5
196
330
189
100
AcDbEntity
  8
Defpoints
 62
     0
100
AcDbPoint
 10
67.48394415458736
 20
2.381249999999994
 30
0.0
  0
ENDBLK
  5
18B
330
189
100
AcDbEntity
  8
0
100
AcDbBlockEnd
  0
ENDSEC
  0
SECTION
  2
ENTITIES
  0
LINE
  5
95
330
1F
100
AcDbEntity
  8
0
  6
Continuous
 62
     4
370
    15
100
AcDbLine
 10
9.972459742177813
 20
4.762500000000007
 30
0.0
 11
-31.132
 21
4.762500000000002
 31
0.0
  0
LINE
  5
96
330
1F
100
AcDbEntity
  8
0
  6
Continuous
 62
     4
370
    15
100
AcDbLine
 10
-31.132
 20
-4.762499999999995
 30
0.0
 11
9.972459742177815
 21
-4.76249999999999
 31
0.0
  0
LINE
  5
97
330
1F
100
AcDbEntity
  8
0
  6
Continuous
 62
     4
370
    15
100
AcDbLine
 10
-31.132
 20
4.762500000000001
 30
0.0
 11
-31.942
 21
3.952500000000013
 31
0.0
  0
LINE
  5
98
330
1F
100
AcDbEntity
  8
0
  6
Continuous
 62
     4
370
    15
100
AcDbLine
 10
-31.942
 20
-3.952500000000008
 30
0.0
 11
-31.132
 21
-4.762499999999996
 31
0.0
  0
LINE
  5
99
330
1F
100
AcDbEntity
  8
0
  6
Continuous
 62
     4
370
    15
100
AcDbLine
 10
9.972459742177815
 20
-4.762499999999987
 30
0.0
 11
11.14405467955249
 21
-3.549277926864957
 31
0.0
  0
LINE
  5
9A
330
1F
100
AcDbEntity
  8
0
  6
Continuous
 62
     4
370
    15
100
AcDbLine
 10
11.492
 20
3.188970000000008
 30
0.0
 11
9.972459742177813
 21
4.762500000000005
 31
0.0
  0
LINE
  5
9B
330
1F
100
AcDbEntity
  8
0
  6
Continuous
 62
     1
370
    15
100
AcDbLine
 10
40.3198745602857
 20
-2.630467417628269
 30
0.0
 11
43.2775545726873
 21
-2.578840920974907
 31
0.0
  0
LINE
  5
9C
330
1F
100
AcDbEntity
  8
0
  6
Continuous
 62
     1
370
    15
100
AcDbLine
 10
20.714190028043
 20
-2.972685914100715
 30
0.0
 11
23.87802488724816
 21
-2.917460971211131
 31
0.0
  0
LINE
  5
9D
330
1F
100
AcDbEntity
  8
0
  6
Continuous
 62
     1
370
    15
100
AcDbLine
 10
14.1852696600011
 20
3.086648643036066
 30
0.0
 11
12.50800000000003
 21
3.115925493853515
 31
0.0
  0
LINE
  5
9E
330
1F
100
AcDbEntity
  8
0
  6
Continuous
 62
     1
370
    15
100
AcDbLine
 10
33.57471674776365
 20
2.748204585196933
 30
0.0
 11
30.52406158134489
 21
2.801453969200375
 31
0.0
  0
LINE
  5
9F
330
1F
100
AcDbEntity
  8
0
  6
Continuous
 62
     1
370
    15
100
AcDbLine
 10
52.9941598209205
 20
2.409236945485157
 30
0.0
 11
50.09462268536778
 21
2.459848554448007
 31
0.0
  0
LINE
  5
A0
330
1F
100
AcDbEntity
  8
0
  6
Continuous
 62
     1
370
    15
100
AcDbLine
 10
53.34906083864237
 20
-2.403042125177712
 30
0.0
 11
54.61830854282878
 21
-2.380887324091147
 31
0.0
  0
LINE
  5
A1
330
1F
100
AcDbEntity
  8
0
  6
Continuous
 62
     1
370
    15
100
AcDbLine
 10
33.79137959397741
 20
-2.744422721148721
 30
0.0
 11
36.80780388853619
 21
-2.691770839236145
 31
0.0
  0
LINE
  5
A2
330
1F
100
AcDbEntity
  8
0
  6
Continuous
 62
     1
370
    15
100
AcDbLine
 10
14.16572384691112
 20
-3.086989816472609
 30
0.0
 11
17.41702361440865
 21
-3.030238167929841
 31
0.0
  0
LINE
  5
A3
330
1F
100
AcDbEntity
  8
0
  6
Continuous
 62
     1
370
    15
100
AcDbLine
 10
27.11008723924829
 20
2.861045113004939
 30
0.0
 11
23.98627691067908
 21
2.915571425113552
 31
0.0
  0
LINE
  5
A4
330
1F
100
AcDbEntity
  8
0
  6
Continuous
 62
     1
370
    15
100
AcDbLine
 10
46.51482929270986
 20
2.522334080546455
 30
0.0
 11
43.58067303495089
 21
2.573549968535174
 31
0.0
  0
LINE
  5
A5
330
1F
100
AcDbEntity
  8
0
  6
Continuous
 62
     1
370
    15
100
AcDbLine
 10
46.83896549959865
 20
-2.516676262009606
 30
0.0
 11
49.75372269986518
 21
-2.465798985828965
 31
0.0
  0
LINE
  5
A6
330
1F
100
AcDbEntity
  8
0
  6
Continuous
 62
     1
370
    15
100
AcDbLine
 10
27.25584674070033
 20
-2.858500871443172
 30
0.0
 11
30.34228264232092
 21
-2.804626932383602
 31
0.0
  0
LINE
  5
A7
330
1F
100
AcDbEntity
  8
0
  6
Continuous
 62
     1
370
    15
100
AcDbLine
 10
20.64735184115725
 20
2.973852578992509
 30
0.0
 11
17.4400008783014
 21
3.029837098296738
 31
0.0
  0
LINE
  5
A8
330
1F
100
AcDbEntity
  8
0
  6
Continuous
 62
     1
370
    15
100
AcDbLine
 10
40.04196598039887
 20
2.635318329934321
 30
0.0
 11
37.05671190431721
 21
2.687426133659552
 31
0.0
  0
LINE
  5
A9
330
1F
100
AcDbEntity
  8
0
  6
Continuous
 62
     4
370
    15
100
AcDbLine
 10
12.50800000000003
 20
3.115925493853514
 30
0.0
 11
11.492
 21
3.188970000000008
 31
0.0
  0
ARC
  5
AA
330
1F
100
AcDbEntity
  8
0
  6
Continuous
 62
     1
370
    15
100
AcDbCircle
 10
54.57675
 20
0.0000000000000092
 30
0.0
 40
2.381250000000001
100
AcDbArc
 50
271.0000000000008
 51
293.3409628545137
  0
ARC
  5
AB
330
1F
100
AcDbEntity
  8
0
  6
Continuous
 62
     1
370
    15
100
AcDbCircle
 10
54.57675
 20
0.0000000000000092
 30
0.0
 40
2.381250000000004
100
AcDbArc
 50
27.85617637447597
 51
44.72610302351277
  0
LINE
  5
AC
330
1F
100
AcDbEntity
  8
0
  6
Continuous
 62
     4
370
    15
100
AcDbLine
 10
9.972459742177813
 20
4.762500000000005
 30
0.0
 11
9.972459742177815
 21
-4.76249999999999
 31
0.0
  0
LINE
  5
AD
330
1F
100
AcDbEntity
  8
0
  6
Continuous
 62
     4
370
    15
100
AcDbLine
 10
-31.132
 20
4.762500000000002
 30
0.0
 11
-31.132
 21
-4.762499999999995
 31
0.0
  0
LINE
  5
AE
330
1F
100
AcDbEntity
  8
0
  6
Continuous
 62
     4
370
    15
100
AcDbLine
 10
-31.942
 20
-3.952500000000008
 30
0.0
 11
-31.942
 21
3.952500000000013
 31
0.0
  0
LINE
  5
AF
330
1F
100
AcDbEntity
  8
0
  6
Continuous
 62
     4
370
    15
100
AcDbLine
 10
11.492
 20
3.188970000000008
 30
0.0
 11
11.492
 21
3.126121906523187
 31
0.0
  0
SPLINE
  5
B0
330
1F
100
AcDbEntity
  8
0
  6
Continuous
 62
     4
370
    15
100
AcDbSpline
210
0.0
220
0.0
230
1.0
 70
     8
 71
     3
 72
    12
 73
     8
 74
     0
 42
0.000000001
 43
0.00000001
 40
0.0
 40
0.0
 40
0.0
 40
0.0
 40
0.2499999999999994
 40
0.2499999999999994
 40
0.4999999999999996
 40
0.4999999999999996
 40
1.0
 40
1.0
 40
1.0
 40
1.0
 10
10.61800000009584
 20
4.075725383962681
 30
0.0
 10
10.69531509170215
 20
3.995718419256455
 30
0.0
 10
10.77065456293792
 20
3.916524974741656
 30
0.0
 10
10.91937793532469
 20
3.758579674038085
 30
0.0
 10
10.99269670995641
 20
3.679844660387487
 30
0.0
 10
11.21045080953248
 20
3.44336254649273
 30
0.0
 10
11.35257312940659
 20
3.285440137044399
 30
0.0
 10
11.492
 20
3.126121906523187
 30
0.0
  0
LINE
  5
B1
330
1F
100
AcDbEntity
  8
0
  6
Continuous
 62
     4
370
    15
100
AcDbLine
 10
10.61799999999999
 20
2.975300123934619
 30
0.0
 11
10.61799999999999
 21
4.07572538406186
 31
0.0
  0
SPLINE
  5
B2
330
1F
100
AcDbEntity
  8
0
  6
Continuous
 62
     4
370
    15
100
AcDbSpline
210
0.0
220
0.0
230
1.0
 70
     8
 71
     3
 72
    10
 73
     6
 74
     0
 42
0.000000001
 43
0.00000001
 40
0.0
 40
0.0
 40
0.0
 40
0.0
 40
0.5000000000000001
 40
0.5000000000000001
 40
1.0
 40
1.0
 40
1.0
 40
1.0
 10
11.492
 20
1.109204329254776
 30
0.0
 10
11.3157762381493
 20
1.405201747672699
 30
0.0
 10
11.15954953328556
 20
1.718932673724354
 30
0.0
 10
10.86702217539886
 20
2.359663547495281
 30
0.0
 10
10.73743805183317
 20
2.672612128149991
 30
0.0
 10
10.61799999995042
 20
2.975300123743373
 30
0.0
  0
LINE
  5
B3
330
1F
100
AcDbEntity
  8
0
  6
Continuous
 62
     4
370
    15
100
AcDbLine
 10
11.492
 20
1.109204329254778
 30
0.0
 11
11.492
 21
-2.108651106070382
 31
0.0
  0
SPLINE
  5
B4
330
1F
100
AcDbEntity
  8
0
  6
Continuous
 62
     4
370
    15
100
AcDbSpline
210
0.0
220
0.0
230
1.0
 70
     8
 71
     3
 72
    12
 73
     8
 74
     0
 42
0.000000001
 43
0.00000001
 40
0.0
 40
0.0
 40
0.0
 40
0.0
 40
0.25
 40
0.25
 40
0.5
 40
0.5
 40
1.0
 40
1.0
 40
1.0
 40
1.0
 10
10.61800000009584
 20
-2.372703286747947
 30
0.0
 10
10.69531509170215
 20
-2.328914896577626
 30
0.0
 10
10.77065456293792
 20
-2.297026634017327
 30
0.0
 10
10.91937793532469
 20
-2.243277447348987
 30
0.0
 10
10.99269670995641
 20
-2.221760756162483
 30
0.0
 10
11.21045080953248
 20
-2.164772268258706
 30
0.0
 10
11.35257312940659
 20
-2.136592379672601
 30
0.0
 10
11.492
 20
-2.108651106070382
 30
0.0
  0
LINE
  5
B5
330
1F
100
AcDbEntity
  8
0
  6
Continuous
 62
     4
370
    15
100
AcDbLine
 10
10.61799999999999
 20
-3.923109599304669
 30
0.0
 11
10.61799999999999
 21
-2.372703286802229
 31
0.0
  0
SPLINE
  5
B6
330
1F
100
AcDbEntity
  8
0
  6
Continuous
 62
     4
370
    15
100
AcDbSpline
210
0.0
220
0.0
230
1.0
 70
     8
 71
     3
 72
    10
 73
     6
 74
     0
 42
0.000000001
 43
0.00000001
 40
0.0
 40
0.0
 40
0.0
 40
0.0
 40
0.5
 40
0.5
 40
1.0
 40
1.0
 40
1.0
 40
1.0
 10
11.492
 20
-3.143887116626063
 30
0.0
 10
11.31577623814931
 20
-3.365347532939262
 30
0.0
 10
11.15954953328557
 20
-3.544097506564628
 30
0.0
 10
10.86702217539886
 20
-3.81071350218382
 30
0.0
 10
10.73743805183317
 20
-3.893169306802838
 30
0.0
 10
10.61799999995042
 20
-3.923109599198815
 30
0.0
  0
SPLINE
  5
B7
330
1F
100
AcDbEntity
  8
0
  6
Continuous
 62
     1
370
    15
100
AcDbSpline
210
0.0
220
0.0
230
1.0
 70
     8
 71
     3
 72
    18
 73
    14
 74
     0
 42
0.000000001
 43
0.00000001
 40
0.0
 40
0.0
 40
0.0
 40
0.0
 40
0.0688526675842298
 40
0.1385702910281771
 40
0.2414170226920427
 40
0.3472260382807238
 40
0.450313865355125
 40
0.5564072642377252
 40
0.6591483196618885
 40
0.7648838968001707
 40
0.8672987789549372
 40
0.9726975357962311
 40
1.0
 40
1.0
 40
1.0
 40
1.0
 10
54.61830854282878
 20
-2.063545402533958
 30
0.0
 10
54.43036588355547
 20
-1.987515523760231
 30
0.0
 10
54.05211955112033
 20
-1.834500647239667
 30
0.0
 10
53.3945644966986
 20
-1.473023989601195
 30
0.0
 10
52.63703208526408
 20
-0.9738727683894106
 30
0.0
 10
51.79088110015995
 20
-0.3331909290630083
 30
0.0
 10
50.93801262127641
 20
0.3445803059128992
 30
0.0
 10
50.09536760211773
 20
0.9977281226429969
 30
0.0
 10
49.24771635223201
 20
1.586378922748559
 30
0.0
 10
48.41180602015682
 20
2.061323135616657
 30
0.0
 10
47.57105631899432
 20
2.378548798743875
 30
0.0
 10
46.94152769739615
 20
2.527395650458282
 30
0.0
 10
46.58738945373396
 20
2.508866745302646
 30
0.0
 10
46.51452767714571
 20
2.505054536449081
 30
0.0
  0
SPLINE
  5
B8
330
1F
100
AcDbEntity
  8
0
  6
Continuous
 62
     1
370
    15
100
AcDbSpline
210
0.0
220
0.0
230
1.0
 70
     8
 71
     3
 72
    22
 73
    18
 74
     0
 42
0.000000001
 43
0.00000001
 40
0.0
 40
0.0
 40
0.0
 40
0.0
 40
0.0677669815987131
 40
0.1376277312000377
 40
0.2053931670159994
 40
0.275128258092755
 40
0.3427812005244613
 40
0.4124000187208745
 40
0.4799471231509522
 40
0.5494564871010451
 40
0.6169080888923824
 40
0.6863185879858323
 40
0.753684904121943
 40
0.8230071847157137
 40
0.8902967588724718
 40
0.9595396351607792
 40
1.0
 40
1.0
 40
1.0
 40
1.0
 10
38.56429003823142
 20
-2.241430129754008
 30
0.0
 10
38.3014577120252
 20
-2.353582131584863
 30
0.0
 10
37.76767243948654
 20
-2.581351248600046
 30
0.0
 10
36.97328433190021
 20
-2.713172130385772
 30
0.0
 10
36.17308254765025
 20
-2.676323165131513
 30
0.0
 10
35.38305744860786
 20
-2.460313041428416
 30
0.0
 10
34.58789777780144
 20
-2.078832872145485
 30
0.0
 10
33.80264808981362
 20
-1.562568697141491
 30
0.0
 10
33.01235513838506
 20
-0.9358171344227526
 30
0.0
 10
32.23176832093544
 20
-0.2502353736901555
 30
0.0
 10
31.44616175117977
 20
0.46263389116787
 30
0.0
 10
30.67009252373798
 20
1.14454517779963
 30
0.0
 10
29.88898886449865
 20
1.7638620068738
 30
0.0
 10
29.11728982072548
 20
2.272788401181715
 30
0.0
 10
28.34056695393413
 20
2.638713163213228
 30
0.0
 10
27.67375100823489
 20
2.837984852459707
 30
0.0
 10
27.26169900686871
 20
2.839772473078034
 30
0.0
 10
27.10972743213077
 20
2.840431777048166
 30
0.0
  0
SPLINE
  5
B9
330
1F
100
AcDbEntity
  8
0
  6
Continuous
 62
     1
370
    15
100
AcDbSpline
210
0.0
220
0.0
230
1.0
 70
     8
 71
     3
 72
    16
 73
    12
 74
     0
 42
0.000000001
 43
0.00000001
 40
0.0
 40
0.0
 40
0.0
 40
0.0
 40
0.0896367481788184
 40
0.2012493824738738
 40
0.3160980605400214
 40
0.427683027147839
 40
0.542502776143004
 40
0.6540695367807056
 40
0.7688701070651384
 40
0.8827139120443515
 40
1.0
 40
1.0
 40
1.0
 40
1.0
 10
19.05807560335731
 20
-2.572743388597923
 30
0.0
 10
18.86059952903341
 20
-2.669659141133643
 30
0.0
 10
18.41723295429144
 20
-2.887251096956218
 30
0.0
 10
17.72263187642025
 20
-3.03626475878301
 30
0.0
 10
16.98132483446908
 20
-3.037996756059314
 30
0.0
 10
16.23445901131966
 20
-2.857694305830873
 30
0.0
 10
15.49646128733503
 20
-2.514448266054488
 30
0.0
 10
14.7528493322676
 20
-2.020374541175467
 30
0.0
 10
14.01308767509658
 20
-1.408034957262929
 30
0.0
 10
13.26217903864941
 20
-0.6991968411547939
 30
0.0
 10
12.76187672756933
 20
-0.1943201867777364
 30
0.0
 10
12.508
 20
0.0618777759354185
 30
0.0
  0
SPLINE
  5
BA
330
1F
100
AcDbEntity
  8
0
  6
Continuous
 62
     4
370
    15
100
AcDbSpline
210
0.0
220
0.0
230
1.0
 70
     8
 71
     3
 72
     8
 73
     4
 74
     0
 42
0.000000001
 43
0.00000001
 40
0.0
 40
0.0
 40
0.0
 40
0.0
 40
1.0
 40
1.0
 40
1.0
 40
1.0
 10
12.50800000000003
 20
0.0618777759353924
 30
0.0
 10
12.16539049970386
 20
0.4142843263883251
 30
0.0
 10
11.83009583178586
 20
0.7666499373894918
 30
0.0
 10
11.49199999999997
 20
1.109204329254215
 30
0.0
  0
SPLINE
  5
BB
330
1F
100
AcDbEntity
  8
0
  6
Continuous
 62
     4
370
    15
100
AcDbSpline
210
0.0
220
0.0
230
1.0
 70
     8
 71
     3
 72
     8
 73
     4
 74
     0
 42
0.000000001
 43
0.00000001
 40
0.0
 40
0.0
 40
0.0
 40
0.0
 40
1.0
 40
1.0
 40
1.0
 40
1.0
 10
11.492
 20
3.126121906523187
 30
0.0
 10
11.83035647930754
 20
3.035500014569276
 30
0.0
 10
12.16617652794689
 20
2.894765986065726
 30
0.0
 10
12.50800000000002
 20
2.70793451672305
 30
0.0
  0
SPLINE
  5
BC
330
1F
100
AcDbEntity
  8
0
  6
Continuous
 62
     1
370
    15
100
AcDbSpline
210
0.0
220
0.0
230
1.0
 70
     8
 71
     3
 72
    19
 73
    15
 74
     0
 42
0.000000001
 43
0.00000001
 40
0.0
 40
0.0
 40
0.0
 40
0.0
 40
0.0621670712529608
 40
0.1251541667852913
 40
0.2160645462111639
 40
0.3095991454780603
 40
0.4006742704094762
 40
0.4943882834043621
 40
0.5854650441397031
 40
0.6791804266626577
 40
0.7702637920272949
 40
0.8639855708523608
 40
0.9550819918220773
 40
1.0
 40
1.0
 40
1.0
 40
1.0
 10
12.508
 20
2.707934516723063
 30
0.0
 10
12.67610833892521
 20
2.615861894837541
 30
0.0
 10
13.01454247557987
 20
2.43050215303901
 30
0.0
 10
13.59990703114178
 20
2.017353163449672
 30
0.0
 10
14.27171020215314
 20
1.463930609897274
 30
0.0
 10
15.0215287076182
 20
0.7655312818719289
 30
0.0
 10
15.78016113252056
 20
0.0208930837395694
 30
0.0
 10
16.53406705908085
 20
-0.7140124351096869
 30
0.0
 10
17.29633854963394
 20
-1.409181750883799
 30
0.0
 10
18.05339332466621
 20
-2.010680968872429
 30
0.0
 10
18.81887557770321
 20
-2.497450627968822
 30
0.0
 10
19.57919785379282
 20
-2.819961759668334
 30
0.0
 10
20.21306087824318
 20
-2.977764233350435
 30
0.0
 10
20.58947941706363
 20
-2.956698922449051
 30
0.0
 10
20.71378954438626
 20
-2.949742220772116
 30
0.0
  0
SPLINE
  5
BD
330
1F
100
AcDbEntity
  8
0
  6
Continuous
 62
     1
370
    15
100
AcDbSpline
210
0.0
220
0.0
230
1.0
 70
     8
 71
     3
 72
    23
 73
    19
 74
     0
 42
0.000000001
 43
0.00000001
 40
0.0
 40
0.0
 40
0.0
 40
0.0
 40
0.0078813559012156
 40
0.0761732209155445
 40
0.1464407631582031
 40
0.2147851477655988
 40
0.2851063170902562
 40
0.3535098475740888
 40
0.4238914798283357
 40
0.4923599765479278
 40
0.5628081110763873
 40
0.6313457732089552
 40
0.7018647566437551
 40
0.7704777285327888
 40
0.8410735349360516
 40
0.9097721811806007
 40
0.9804557317104478
 40
0.9999999999999999
 40
0.9999999999999999
 40
0.9999999999999999
 40
0.9999999999999999
 10
28.79647584505102
 20
2.401170189797406
 30
0.0
 10
28.82625379332069
 20
2.417418445073699
 30
0.0
 10
29.11405734646398
 20
2.574457659412735
 30
0.0
 10
29.6689485329698
 20
2.730828487831634
 30
0.0
 10
30.45397805814259
 20
2.834632044190463
 30
0.0
 10
31.24855662420104
 20
2.742308350072316
 30
0.0
 10
32.03774551595492
 20
2.481024842250418
 30
0.0
 10
32.83632551131875
 20
2.058275199160131
 30
0.0
 10
33.62967280782882
 20
1.510121007172874
 30
0.0
 10
34.43238499869722
 20
0.8627090008090468
 30
0.0
 10
35.22996826984496
 20
0.1695190476785563
 30
0.0
 10
36.03692133105994
 20
-0.5356658434527133
 30
0.0
 10
36.83880921185305
 20
-1.194569299551523
 30
0.0
 10
37.65013083555832
 20
-1.773652734193093
 30
0.0
 10
38.4564018384308
 20
-2.229031936926744
 30
0.0
 10
39.27234209268605
 20
-2.521293743677148
 30
0.0
 10
39.89106178580792
 20
-2.649257382923274
 30
0.0
 10
40.24327159934479
 20
-2.619181420809392
 30
0.0
 10
40.31956384690268
 20
-2.612666659837537
 30
0.0
  0
SPLINE
  5
BE
330
1F
100
AcDbEntity
  8
0
  6
Continuous
 62
     1
370
    15
100
AcDbSpline
210
0.0
220
0.0
230
1.0
 70
     8
 71
     3
 72
    16
 73
    12
 74
     0
 42
0.000000001
 43
0.00000001
 40
0.0
 40
0.0
 40
0.0
 40
0.0
 40
0.0117567735302002
 40
0.1440606920235358
 40
0.2801806681611883
 40
0.4127704584446283
 40
0.5491834339424698
 40
0.6820762478019428
 40
0.8187998821511283
 40
0.9088194868425397
 40
1.0
 40
1.0
 40
1.0
 40
1.0
 10
48.29634829827173
 20
2.079912467724689
 30
0.0
 10
48.32089800453473
 20
2.092285438136559
 30
0.0
 10
48.62171588319318
 20
2.243896649779103
 30
0.0
 10
49.20841919325063
 20
2.39497511485502
 30
0.0
 10
50.04951985435681
 20
2.493653933447116
 30
0.0
 10
50.90108412457736
 20
2.392417429345151
 30
0.0
 10
51.74796473721808
 20
2.120774928660408
 30
0.0
 10
52.60516555123705
 20
1.689480381607894
 30
0.0
 10
53.36659777524727
 20
1.198030770598523
 30
0.0
 10
54.04004944876019
 20
0.7117650738828109
 30
0.0
 10
54.42473398233106
 20
0.419015388529374
 30
0.0
 10
54.61830854282877
 20
0.2717027551045187
 30
0.0
  0
SPLINE
  5
BF
330
1F
100
AcDbEntity
  8
0
  6
Continuous
 62
     1
370
    15
100
AcDbSpline
210
0.0
220
0.0
230
1.0
 70
     8
 71
     3
 72
    14
 73
    10
 74
     0
 42
0.000000001
 43
0.00000001
 40
0.0
 40
0.0
 40
0.0
 40
0.0
 40
0.25
 40
0.25
 40
0.5
 40
0.5
 40
0.75
 40
0.75
 40
1.0
 40
1.0
 40
1.0
 40
1.0
 10
54.61830854282878
 20
0.2717027551045101
 30
0.0
 10
54.78478412171404
 20
0.1445104199518391
 30
0.0
 10
54.94794588137895
 20
0.0173504791266079
 30
0.0
 10
55.27516384466927
 20
-0.2269536628710786
 30
0.0
 10
55.43592507016736
 20
-0.3414063119556537
 30
0.0
 10
55.74355959264985
 20
-0.5431335057815694
 30
0.0
 10
55.89313454852304
 20
-0.6317324124378417
 30
0.0
 10
56.1602020454857
 20
-0.7790173206411927
 30
0.0
 10
56.28161743976402
 20
-0.8395053721207212
 30
0.0
 10
56.37749899757239
 20
-0.896403991515042
 30
0.0
  0
SPLINE
  5
C0
330
1F
100
AcDbEntity
  8
0
  6
Continuous
 62
     1
370
    15
100
AcDbSpline
210
0.0
220
0.0
230
1.0
 70
     8
 71
     3
 72
    16
 73
    12
 74
     0
 42
0.000000001
 43
0.00000001
 40
0.0
 40
0.0
 40
0.0
 40
0.0
 40
0.2500000000000021
 40
0.2500000000000021
 40
0.5000000000000041
 40
0.5000000000000041
 40
0.7500000000000062
 40
0.7500000000000062
 40
0.8750000000000031
 40
0.8750000000000031
 40
1.0
 40
1.0
 40
1.0
 40
1.0
 10
55.13168900753026
 20
-1.628870932601571
 30
0.0
 10
55.23151742724245
 20
-1.537025031650508
 30
0.0
 10
55.34044687226906
 20
-1.444939311792821
 30
0.0
 10
55.56988844230101
 20
-1.268771895540387
 30
0.0
 10
55.68997759449429
 20
-1.185098653033036
 30
0.0
 10
55.92517024066191
 20
-1.041672096463946
 30
0.0
 10
56.04092698628796
 20
-0.9819930414457114
 30
0.0
 10
56.18861282831686
 20
-0.9254297038923419
 30
0.0
 10
56.23460221432058
 20
-0.9116329420268029
 30
0.0
 10
56.3142969740652
 20
-0.8958335312062137
 30
0.0
 10
56.34862969910156
 20
-0.8935470617405282
 30
0.0
 10
56.37749899757933
 20
-0.896403991519248
 30
0.0
  0
SPLINE
  5
C1
330
1F
100
AcDbEntity
  8
0
  6
Continuous
 62
     1
370
    15
100
AcDbSpline
210
0.0
220
0.0
230
1.0
 70
     8
 71
     3
 72
     8
 73
     4
 74
     0
 42
0.000000001
 43
0.00000001
 40
0.0
 40
0.0
 40
0.0
 40
0.0
 40
1.0
 40
1.0
 40
1.0
 40
1.0
 10
55.13168900754228
 20
-1.628870932586002
 30
0.0
 10
55.29634129391133
 20
-1.784806763868166
 30
0.0
 10
55.45715215790552
 20
-1.940407869222698
 30
0.0
 10
55.61596699737597
 20
-2.095835049115486
 30
0.0
  0
SPLINE
  5
C2
330
1F
100
AcDbEntity
  8
0
  6
Continuous
 62
     1
370
    15
100
AcDbSpline
210
0.0
220
0.0
230
1.0
 70
     8
 71
     3
 72
    10
 73
     6
 74
     0
 42
0.000000001
 43
0.00000001
 40
0.0
 40
0.0
 40
0.0
 40
0.0
 40
0.5
 40
0.5
 40
1.0
 40
1.0
 40
1.0
 40
1.0
 10
55.61596699738191
 20
-2.095835049106527
 30
0.0
 10
55.44978533178388
 20
-2.153618025678439
 30
0.0
 10
55.28324182261184
 20
-2.176214063332724
 30
0.0
 10
54.95065868187686
 20
-2.161738447307794
 30
0.0
 10
54.78640496223924
 20
-2.125466859392118
 30
0.0
 10
54.61830854282878
 20
-2.063545402533961
 30
0.0
  0
SPLINE
  5
C3
330
1F
100
AcDbEntity
  8
0
  6
Continuous
 62
     1
370
    15
100
AcDbSpline
210
0.0
220
0.0
230
1.0
 70
     8
 71
     3
 72
    22
 73
    18
 74
     0
 42
0.000000001
 43
0.00000001
 40
0.0
 40
0.0
 40
0.0
 40
0.0
 40
0.0512683186227823
 40
0.1250097016120497
 40
0.1964210014341846
 40
0.2699136764871654
 40
0.3410982659933632
 40
0.4143568303968571
 40
0.4853284623823707
 40
0.5583670257793435
 40
0.6291407189882608
 40
0.7019748157291406
 40
0.7725643386487312
 40
0.8452081860627506
 40
0.9156288524914845
 40
0.9880981945079077
 40
1.0
 40
1.0
 40
1.0
 40
1.0
 10
51.54562699974669
 20
-2.021685878045905
 30
0.0
 10
51.34582476685923
 20
-2.109513171290476
 30
0.0
 10
50.85863856326132
 20
-2.323666161223305
 30
0.0
 10
50.09541345656661
 20
-2.47186620354982
 30
0.0
 10
49.24769754206005
 20
-2.473287921099716
 30
0.0
 10
48.41183501892998
 20
-2.287401318895921
 30
0.0
 10
47.57096126859486
 20
-1.931109134162306
 30
0.0
 10
46.74159161615316
 20
-1.434956554887576
 30
0.0
 10
45.90727909348303
 20
-0.8261909701541114
 30
0.0
 10
45.0841885034728
 20
-0.1593526898668599
 30
0.0
 10
44.256168026498
 20
0.5301706238342894
 30
0.0
 10
43.43916116366096
 20
1.181516752598594
 30
0.0
 10
42.61716640777297
 20
1.759307071708222
 30
0.0
 10
41.80601764694569
 20
2.218356633377078
 30
0.0
 10
40.9899187551901
 20
2.514500504577177
 30
0.0
 10
40.40463568252461
 20
2.648047197234393
 30
0.0
 10
40.08661357568074
 20
2.62613982227329
 30
0.0
 10
40.04175182649735
 20
2.623049461132912
 30
0.0
  0
SPLINE
  5
C4
330
1F
100
AcDbEntity
  8
0
  6
Continuous
 62
     1
370
    15
100
AcDbSpline
210
0.0
220
0.0
230
1.0
 70
     8
 71
     3
 72
    23
 73
    19
 74
     0
 42
0.000000001
 43
0.00000001
 40
0.0
 40
0.0
 40
0.0
 40
0.0
 40
0.0508952111610674
 40
0.1193911109890063
 40
0.1858697633845738
 40
0.2542786071389229
 40
0.3206815287589018
 40
0.3890120144921453
 40
0.4553478580659764
 40
0.5236089209362248
 40
0.5898862422794016
 40
0.6580867196125894
 40
0.7243137197803102
 40
0.7924620778288367
 40
0.8586464856456336
 40
0.9267506961406072
 40
0.9928997383524564
 40
1.0
 40
1.0
 40
1.0
 40
1.0
 10
32.04292775901336
 20
-2.350309531115858
 30
0.0
 10
31.84649640581458
 20
-2.442924858777523
 30
0.0
 10
31.38570339687592
 20
-2.660183940956073
 30
0.0
 10
30.67013009712692
 20
-2.809573760095855
 30
0.0
 10
29.88897559558894
 20
-2.812927469566655
 30
0.0
 10
29.1173047885722
 20
-2.634529263112874
 30
0.0
 10
28.34052117994408
 20
-2.288200491118808
 30
0.0
 10
27.57310052664048
 20
-1.799912088446129
 30
0.0
 10
26.80048954544224
 20
-1.191551578337837
 30
0.0
 10
26.03719994166048
 20
-0.5111492389862716
 30
0.0
 10
25.26861169503827
 20
0.2114842592446868
 30
0.0
 10
24.5093192944963
 20
0.9195753390933846
 30
0.0
 10
23.74461885755397
 20
1.582664626149385
 30
0.0
 10
22.98919506770127
 20
2.147527166781842
 30
0.0
 10
22.2282331694627
 20
2.595834609064413
 30
0.0
 10
21.47665986983155
 20
2.869646517829666
 30
0.0
 10
20.94724062148476
 20
2.991443268293832
 30
0.0
 10
20.67371712564212
 20
2.967671118210097
 30
0.0
 10
20.6472037216245
 20
2.965366816645085
 30
0.0
  0
SPLINE
  5
C5
330
1F
100
AcDbEntity
  8
0
  6
Continuous
 62
     4
370
    15
100
AcDbSpline
210
0.0
220
0.0
230
1.0
 70
     8
 71
     3
 72
     8
 73
     4
 74
     0
 42
0.000000001
 43
0.00000001
 40
0.0
 40
0.0
 40
0.0
 40
0.0
 40
1.0
 40
1.0
 40
1.0
 40
1.0
 10
12.50800000000003
 20
-2.728877382090296
 30
0.0
 10
12.16539049970386
 20
-2.920354599202731
 30
0.0
 10
11.83009583178586
 20
-3.060215605728578
 30
0.0
 10
11.49199999999997
 20
-3.143887116624973
 30
0.0
  0
SPLINE
  5
C6
330
1F
100
AcDbEntity
  8
0
  6
Continuous
 62
     4
370
    15
100
AcDbSpline
210
0.0
220
0.0
230
1.0
 70
     8
 71
     3
 72
     8
 73
     4
 74
     0
 42
0.000000001
 43
0.00000001
 40
0.0
 40
0.0
 40
0.0
 40
0.0
 40
1.0
 40
1.0
 40
1.0
 40
1.0
 10
11.492
 20
-2.108651106070382
 30
0.0
 10
11.83035647930754
 20
-2.346135703377644
 30
0.0
 10
12.16617652794689
 20
-2.541101180350797
 30
0.0
 10
12.50800000000002
 20
-2.68890611549679
 30
0.0
  0
SPLINE
  5
C7
330
1F
100
AcDbEntity
  8
0
  6
Continuous
 62
     1
370
    15
100
AcDbSpline
210
0.0
220
0.0
230
1.0
 70
     8
 71
     3
 72
    10
 73
     6
 74
     0
 42
0.000000001
 43
0.00000001
 40
0.0
 40
0.0
 40
0.0
 40
0.0
 40
0.3049344545368907
 40
0.6138911937221783
 40
1.0
 40
1.0
 40
1.0
 40
1.0
 10
12.508
 20
-2.688906115496778
 30
0.0
 10
12.67611327045412
 20
-2.763609101983383
 30
0.0
 10
13.01455733521667
 20
-2.914000456146762
 30
0.0
 10
13.5668035300942
 20
-3.063949401928074
 30
0.0
 10
13.95172478457586
 20
-3.072302899409594
 30
0.0
 10
14.16554848372046
 20
-3.07694326600795
 30
0.0
  0
SPLINE
  5
C8
330
1F
100
AcDbEntity
  8
0
  6
Continuous
 62
     1
370
    15
100
AcDbSpline
210
0.0
220
0.0
230
1.0
 70
     8
 71
     3
 72
    23
 73
    19
 74
     0
 42
0.000000001
 43
0.00000001
 40
0.0
 40
0.0
 40
0.0
 40
0.0
 40
0.0300502781648648
 40
0.0973058865331075
 40
0.1665087226981719
 40
0.2337900918074766
 40
0.3030190792315101
 40
0.3703323109647487
 40
0.4395937078758502
 40
0.5069452582546833
 40
0.5762456880252901
 40
0.6436422745151857
 40
0.7129886379099497
 40
0.7804370554824467
 40
0.849836342930015
 40
0.917343131000608
 40
0.9868020887333949
 40
1.0
 40
1.0
 40
1.0
 40
1.0
 10
22.31866868370056
 20
2.515949542575418
 30
0.0
 10
22.43177362188876
 20
2.573048084898513
 30
0.0
 10
22.79801902638365
 20
2.757939028337203
 30
0.0
 10
23.4263550676952
 20
2.902602541571245
 30
0.0
 10
24.19658185408682
 20
2.936599864388725
 30
0.0
 10
24.97591661947454
 20
2.781426244019573
 30
0.0
 10
25.74974698047976
 20
2.461147796323956
 30
0.0
 10
26.53274017862622
 20
1.987371060255004
 30
0.0
 10
27.31022547875104
 20
1.39840158244789
 30
0.0
 10
28.09697585263552
 20
0.7211371231661569
 30
0.0
 10
28.87823938113422
 20
0.0092792689283004
 30
0.0
 10
29.66883994853649
 20
-0.7040292127301043
 30
0.0
 10
30.45400493294458
 20
-1.362365575494355
 30
0.0
 10
31.2485552700583
 20
-1.933501415018876
 30
0.0
 10
32.03772286709849
 20
-2.376924800055705
 30
0.0
 10
32.83641537533502
 20
-2.652271518656067
 30
0.0
 10
33.41854432949912
 20
-2.768237447782767
 30
0.0
 10
33.73983930506328
 20
-2.735905785444824
 30
0.0
 10
33.79114081973755
 20
-2.730743354109066
 30
0.0
  0
SPLINE
  5
C9
330
1F
100
AcDbEntity
  8
0
  6
Continuous
 62
     1
370
    15
100
AcDbSpline
210
0.0
220
0.0
230
1.0
 70
     8
 71
     3
 72
    21
 73
    17
 74
     0
 42
0.000000001
 43
0.00000001
 40
0.0
 40
0.0
 40
0.0
 40
0.0
 40
0.0638807043595998
 40
0.1371731531878886
 40
0.2085237391185117
 40
0.2819340623463876
 40
0.3534113255115655
 40
0.4269513505690495
 40
0.498565424392979
 40
0.5722457042061037
 40
0.6440045420405397
 40
0.717833128562573
 40
0.7897470171896172
 40
0.8637345203470216
 40
0.9358127625313931
 40
1.0
 40
1.0
 40
1.0
 40
1.0
 10
41.81037662046949
 20
2.187668302094918
 30
0.0
 10
42.0524419980234
 20
2.284187070552579
 30
0.0
 10
42.57223700419252
 20
2.491445020255497
 30
0.0
 10
43.36467534167215
 20
2.599170871220551
 30
0.0
 10
44.19490942970202
 20
2.543202831149388
 30
0.0
 10
45.0201661355253
 20
2.306847630411453
 30
0.0
 10
45.85552595590698
 20
1.908038354623203
 30
0.0
 10
46.68595309058571
 20
1.380482057515084
 30
0.0
 10
47.52655058102783
 20
0.7538065173285137
 30
0.0
 10
48.3623178003477
 20
0.0833816650017241
 30
0.0
 10
49.20829628657886
 20
-0.5932602771081192
 30
0.0
 10
50.04955320654593
 20
-1.215232889789821
 30
0.0
 10
50.9010713024905
 20
-1.748841522028522
 30
0.0
 10
51.74798228019829
 20
-2.139898728099413
 30
0.0
 10
52.56630962993009
 20
-2.37731698702478
 30
0.0
 10
53.09828537290801
 20
-2.387377832781482
 30
0.0
 10
53.34887013897657
 20
-2.392116948640942
 30
0.0
  0
SPLINE
  5
CA
330
1F
100
AcDbEntity
  8
0
  6
Continuous
 62
     1
370
    15
100
AcDbSpline
210
0.0
220
0.0
230
1.0
 70
     8
 71
     3
 72
    10
 73
     6
 74
     0
 42
0.000000001
 43
0.00000001
 40
0.0
 40
0.0
 40
0.0
 40
0.0
 40
0.34644872017772
 40
0.6972496733352681
 40
1.0
 40
1.0
 40
1.0
 40
1.0
 10
54.61830854282879
 20
2.060268504016891
 30
0.0
 10
54.43037355714352
 20
2.128234514517532
 30
0.0
 10
54.05214266828326
 20
2.265020352823309
 30
0.0
 10
53.51072109937991
 20
2.387534568338438
 30
0.0
 10
53.15743943744896
 20
2.387716672666074
 30
0.0
 10
52.99378565563196
 20
2.387801030460758
 30
0.0
  0
SPLINE
  5
CB
330
1F
100
AcDbEntity
  8
0
  6
Continuous
 62
     1
370
    15
100
AcDbSpline
210
0.0
220
0.0
230
1.0
 70
     8
 71
     3
 72
    22
 73
    18
 74
     0
 42
0.000000001
 43
0.00000001
 40
0.0
 40
0.0
 40
0.0
 40
0.0
 40
0.067552931772707
 40
0.1392256622568397
 40
0.2086896094685263
 40
0.280175124220756
 40
0.3494729074199648
 40
0.4207866993268565
 40
0.4899343272553421
 40
0.5610929323629319
 40
0.6301049556046684
 40
0.7011234172500028
 40
0.770011842178727
 40
0.840902562922934
 40
0.9096766302597243
 40
0.9804491512831995
 40
1.0
 40
1.0
 40
1.0
 40
1.0
 10
45.05150609976094
 20
-2.136782682471059
 30
0.0
 10
44.78899221649813
 20
-2.245997096952174
 30
0.0
 10
44.2479547176098
 20
-2.471086501440012
 30
0.0
 10
43.43919054371827
 20
-2.600806287867756
 30
0.0
 10
42.61715141114665
 20
-2.562121562291551
 30
0.0
 10
41.80604827992219
 20
-2.34257610530528
 30
0.0
 10
40.98981365070087
 20
-1.957227647478449
 30
0.0
 10
40.1843453375982
 20
-1.438189609951984
 30
0.0
 10
39.37365740000951
 20
-0.8119819835098404
 30
0.0
 10
38.57356658579654
 20
-0.1318097207436046
 30
0.0
 10
37.76822197461557
 20
0.5682877936569253
 30
0.0
 10
36.97326047289921
 20
1.229562626964619
 30
0.0
 10
36.17309459547921
 20
1.818334264612129
 30
0.0
 10
35.38303310860046
 20
2.289708919776483
 30
0.0
 10
34.58798122912918
 20
2.604135190819971
 30
0.0
 10
33.9876596091646
 20
2.752057005292551
 30
0.0
 10
33.64794211695699
 20
2.734393099359679
 30
0.0
 10
33.57440892930357
 20
2.730569677429847
 30
0.0
  0
SPLINE
  5
CC
330
1F
100
AcDbEntity
  8
0
  6
Continuous
 62
     1
370
    15
100
AcDbSpline
210
0.0
220
0.0
230
1.0
 70
     8
 71
     3
 72
    23
 73
    19
 74
     0
 42
0.000000001
 43
0.00000001
 40
0.0
 40
0.0
 40
0.0
 40
0.0
 40
0.0241087742982466
 40
0.0912210910180323
 40
0.1563914180370563
 40
0.223452447052178
 40
0.2885808612949748
 40
0.3555984471450002
 40
0.4206920600524829
 40
0.4876735322927483
 40
0.5527389792897729
 40
0.6196911800755724
 40
0.6847346688753169
 40
0.7516639977334914
 40
0.8166913628845437
 40
0.8836038330087913
 40
0.9486205884307498
 40
1.0
 40
1.0
 40
1.0
 40
1.0
 10
25.5548080508519
 20
-2.455454576313447
 30
0.0
 10
25.46190265468488
 20
-2.506101840117732
 30
0.0
 10
25.11037372604771
 20
-2.697737408320014
 30
0.0
 10
24.5093854945123
 20
-2.868773801361217
 30
0.0
 10
23.744602639934
 20
-2.948383122119841
 30
0.0
 10
22.98919210015316
 20
-2.840491515509923
 30
0.0
 10
22.2282601926223
 20
-2.561482868092133
 30
0.0
 10
21.47655228349517
 20
-2.12927662009348
 30
0.0
 10
20.71929083869507
 20
-1.563020917612119
 30
0.0
 10
19.97117642117678
 20
-0.9053489857536567
 30
0.0
 10
19.21747580941164
 20
-0.1840456359415988
 30
0.0
 10
18.47283984235591
 20
0.5465272404491806
 30
0.0
 10
17.72259873288035
 20
1.255907997868321
 30
0.0
 10
16.98133543915392
 20
1.890385555494588
 30
0.0
 10
16.23444918030926
 20
2.425490708790701
 30
0.0
 10
15.49649044275883
 20
2.814045488650701
 30
0.0
 10
14.8108059953886
 20
3.046974825564321
 30
0.0
 10
14.37663790863068
 20
3.063309008800382
 30
0.0
 10
14.1849881198412
 20
3.07051921807812
 30
0.0
  0
SPLINE
  5
CD
330
1F
100
AcDbEntity
  8
0
  6
Continuous
 62
     1
370
    15
100
AcDbSpline
210
0.0
220
0.0
230
1.0
 70
     8
 71
     3
 72
    22
 73
    18
 74
     0
 42
0.000000001
 43
0.00000001
 40
0.0
 40
0.0
 40
0.0
 40
0.0
 40
0.0669923439607005
 40
0.1330207307863609
 40
0.2009620527962825
 40
0.2669952278139525
 40
0.3349411869838548
 40
0.4009838269905676
 40
0.4689392232075107
 40
0.5349962806854069
 40
0.6029661960987306
 40
0.6690429397333401
 40
0.7370327799118719
 40
0.8031348327500442
 40
0.8711503658050007
 40
0.9372837227750409
 40
1.0
 40
1.0
 40
1.0
 40
1.0
 10
15.7840078686801
 20
2.63875258264038
 30
0.0
 10
16.03640115246869
 20
2.744868655704624
 30
0.0
 10
16.53755601689352
 20
2.955573890850078
 30
0.0
 10
17.29636428882354
 20
3.057180316455838
 30
0.0
 10
18.05338280416617
 20
2.990866545610125
 30
0.0
 10
18.81889213260255
 20
2.744436937598757
 30
0.0
 10
19.57914106000895
 20
2.341150065676256
 30
0.0
 10
20.34795693257258
 20
1.797060620985429
 30
0.0
 10
21.11147969601722
 20
1.154743427269765
 30
0.0
 10
21.88370144918544
 20
0.4415057109814102
 30
0.0
 10
22.65057226514453
 20
-0.2871648030616462
 30
0.0
 10
23.42629377778335
 20
-0.9999283697675764
 30
0.0
 10
24.19659958957734
 20
-1.640960049996611
 30
0.0
 10
24.97590579876292
 20
-2.183641974227823
 30
0.0
 10
25.74977271398576
 20
-2.580499793442255
 30
0.0
 10
26.51200861920608
 20
-2.827032430991272
 30
0.0
 10
27.01224549095208
 20
-2.843731241812362
 30
0.0
 10
27.25573081027467
 20
-2.851859221804898
 30
0.0
  0
SPLINE
  5
CE
330
1F
100
AcDbEntity
  8
0
  6
Continuous
 62
     1
370
    15
100
AcDbSpline
210
0.0
220
0.0
230
1.0
 70
     8
 71
     3
 72
    22
 73
    18
 74
     0
 42
0.000000001
 43
0.00000001
 40
0.0
 40
0.0
 40
0.0
 40
0.0
 40
0.0636332209166958
 40
0.1353385374417877
 40
0.2051057777988372
 40
0.2768892096767281
 40
0.3467435656795378
 40
0.4186162177937894
 40
0.4885644159133555
 40
0.5605331117850253
 40
0.6305840024729492
 40
0.7026577569998098
 40
0.7728219375930847
 40
0.8450116065241795
 40
0.9153003579846227
 40
0.9876175720854905
 40
0.9999999999999999
 40
0.9999999999999999
 40
0.9999999999999999
 40
0.9999999999999999
 10
35.30641077591375
 20
2.294801194562395
 30
0.0
 10
35.54736556515255
 20
2.393312806589948
 30
0.0
 10
36.05984109751424
 20
2.602832571592818
 30
0.0
 10
36.8388333749182
 20
2.712632247330202
 30
0.0
 10
37.65011893670945
 20
2.658651357633967
 30
0.0
 10
38.45642524709839
 20
2.425179229023274
 30
0.0
 10
39.27226188873069
 20
2.028880171924703
 30
0.0
 10
40.08308908726848
 20
1.502220684346966
 30
0.0
 10
40.90360332249972
 20
0.8726934364108535
 30
0.0
 10
41.71906767948407
 20
0.1938331402555932
 30
0.0
 10
42.54438595873177
 20
-0.4987120262459009
 30
0.0
 10
43.36464762146201
 20
-1.146060499327435
 30
0.0
 10
44.19492371595435
 20
-1.712342624908323
 30
0.0
 10
45.02013667540836
 20
-2.154267746375619
 30
0.0
 10
45.85562760815289
 20
-2.427707421406809
 30
0.0
 10
46.45944620320288
 20
-2.542077970006318
 30
0.0
 10
46.79036524740287
 20
-2.508796683939478
 30
0.0
 10
46.83874303404807
 20
-2.503931219153333
 30
0.0
  0
SPLINE
  5
CF
330
1F
100
AcDbEntity
  8
0
  6
Continuous
 62
     1
370
    15
100
AcDbSpline
210
0.0
220
0.0
230
1.0
 70
     8
 71
     3
 72
    13
 73
     9
 74
     0
 42
0.000000001
 43
0.00000001
 40
0.0
 40
0.0
 40
0.0
 40
0.0
 40
0.2106142158721115
 40
0.3871016985697658
 40
0.5635764112397986
 40
0.7333013786746239
 40
0.9030736974053338
 40
1.0
 40
1.0
 40
1.0
 40
1.0
 10
54.81265276533939
 20
1.96596052114075
 30
0.0
 10
54.93831359557759
 20
2.009196435004454
 30
0.0
 10
55.16927388772819
 20
2.088662560434556
 30
0.0
 10
55.4950708164937
 20
2.072745332408763
 30
0.0
 10
55.78463801935388
 20
2.004051850270109
 30
0.0
 10
56.0477239882485
 20
1.867757236943222
 30
0.0
 10
56.24504614930672
 20
1.710135589618961
 30
0.0
 10
56.34219293353776
 20
1.594057530559531
 30
0.0
 10
56.37749899757994
 20
1.551871271698937
 30
0.0
  0
SPLINE
  5
D0
330
1F
100
AcDbEntity
  8
0
  6
Continuous
 62
     1
370
    15
100
AcDbSpline
210
0.0
220
0.0
230
1.0
 70
     8
 71
     3
 72
    12
 73
     8
 74
     0
 42
0.000000001
 43
0.00000001
 40
0.0
 40
0.0
 40
0.0
 40
0.0
 40
0.178958459005721
 40
0.4580866411553059
 40
0.7385662682425841
 40
0.988115396274701
 40
1.0
 40
1.0
 40
1.0
 40
1.0
 10
55.55212577749281
 20
1.221940034704064
 30
0.0
 10
55.60886972133387
 20
1.200795779376225
 30
0.0
 10
55.75411931045345
 20
1.146672040511494
 30
0.0
 10
55.99444492887296
 20
1.178360071037612
 30
0.0
 10
56.2239887799833
 20
1.309609678433667
 30
0.0
 10
56.33466462152251
 20
1.464724419539583
 30
0.0
 10
56.37563644567859
 20
1.548081896200355
 30
0.0
 10
56.37749899757932
 20
1.551871271699051
 30
0.0
  0
SPLINE
  5
D1
330
1F
100
AcDbEntity
  8
0
  6
Continuous
 62
     1
370
    15
100
AcDbSpline
210
0.0
220
0.0
230
1.0
 70
     8
 71
     3
 72
    10
 73
     6
 74
     0
 42
0.000000001
 43
0.00000001
 40
0.0
 40
0.0
 40
0.0
 40
0.0
 40
0.5
 40
0.5
 40
1.0
 40
1.0
 40
1.0
 40
1.0
 10
55.61596699738192
 20
1.433133413817865
 30
0.0
 10
55.44978533178389
 20
1.562478749101359
 30
0.0
 10
55.28324182261183
 20
1.687819162464383
 30
0.0
 10
54.95065868187682
 20
1.903209047425677
 30
0.0
 10
54.78640496223924
 20
1.992956896645252
 30
0.0
 10
54.61830854282878
 20
2.060268504016891
 30
0.0
  0
LINE
  5
D2
330
1F
100
AcDbEntity
  8
0
  6
Continuous
 62
     4
370
    15
100
AcDbLine
 10
12.508
 20
0.0618777759354195
 30
0.0
 11
12.50800000000003
 21
-2.688906115496787
 31
0.0
  0
LINE
  5
D3
330
1F
100
AcDbEntity
  8
0
  6
Continuous
 62
     1
370
    15
100
AcDbLine
 10
54.61830854282878
 20
2.060268504016891
 30
0.0
 11
54.61830854282877
 21
0.2717027551045225
 31
0.0
  0
LINE
  5
D4
330
1F
100
AcDbEntity
  8
0
  6
Continuous
 62
     4
370
    15
100
AcDbLine
 10
12.50800000000003
 20
3.115925493853515
 30
0.0
 11
12.50800000000003
 21
2.70793451672305
 31
0.0
  0
ARC
  5
D5
330
1F
100
AcDbEntity
  8
0
  6
Continuous
 62
     1
370
    15
100
AcDbCircle
 10
53.82846101125702
 20
1.751251471573914
 30
0.0
 40
1.815592671569697
100
AcDbArc
 50
336.4522658335041
 51
349.9088624265397
  0
LINE
  5
D6
330
1F
100
AcDbEntity
  8
0
  6
Continuous
 62
     1
370
    15
100
AcDbLine
 10
55.49286483465946
 20
1.025898687267591
 30
0.0
 11
56.958
 21
0.0000000000000167
 31
0.0
  0
ARC
  5
D7
330
1F
100
AcDbEntity
  8
0
  6
Continuous
 62
     1
370
    15
100
AcDbCircle
 10
55.30466755556856
 20
0.434514326241717
 30
0.0
 40
1.709476782971591
100
AcDbArc
 50
308.8717181554189
 51
345.2750149770985
  0
ARC
  5
D8
330
1F
100
AcDbEntity
  8
0
  6
Continuous
 62
     1
370
    15
100
AcDbCircle
 10
55.45296251245962
 20
-2.019345158116863
 30
0.0
 40
0.180058783527378
100
AcDbArc
 50
291.9287599630775
 51
334.8616719862304
  0
ARC
  5
D9
330
1F
100
AcDbEntity
  8
0
  6
Continuous
 62
     1
370
    15
100
AcDbCircle
 10
54.41510067000863
 20
0.107824860663071
 30
0.0
 40
2.545184316124782
100
AcDbArc
 50
296.5637109233046
 51
357.5719798189273
  0
ARC
  5
DA
330
1F
100
AcDbEntity
  8
0
  6
Continuous
 62
     1
370
    15
100
AcDbCircle
 10
54.61050116917608
 20
0.006390674648935
 30
0.0
 40
2.347507529581561
100
AcDbArc
 50
359.844022166796
 51
41.1741235509595
  0
LINE
  5
DB
330
1F
100
AcDbEntity
  8
0
  6
Continuous
 62
     8
370
    15
100
AcDbLine
 10
54.61830854282878
 20
-2.063545402533958
 30
0.0
 11
54.61830854282878
 21
-2.380887324091147
 31
0.0
  0
LINE
  5
DC
330
1F
100
AcDbEntity
  8
중심선
100
AcDbLine
 10
-34.94200000000001
 20
-0.0000000000000052
 30
0.0
 11
60.61830854282877
 21
-0.0000000000000052
 31
0.0
  0
CIRCLE
  5
DD
330
1F
100
AcDbEntity
  8
외형선
100
AcDbCircle
 10
-2.027540257822193
 20
-0.0000000000000052
 30
0.0
 40
2.999999999999999
  0
INSERT
  5
DE
330
1F
100
AcDbEntity
  8
0
  6
Continuous
 62
     7
100
AcDbBlockReference
 66
     1
  2
블럭10
 10
-1.432773799681436
 20
-52.05975325537357
 30
0.0
  0
ATTRIB
  5
DF
330
DE
100
AcDbEntity
  8
FORMAT
 62
     2
100
AcDbText
 10
-10.61406908842272
 20
-49.98438634254137
 30
0.0
 40
4.233333333333333
  1
E5078112 [ 3 FLUTE ]
 41
0.75
  7
SLDTEXTSTYLE0
 11
-10.61406908842272
 21
-52.10105300920804
 31
0.0
100
AcDbAttribute
  2
AUTOATTR0
 70
     0
 74
     1
  0
SEQEND
  5
E0
330
DE
100
AcDbEntity
  8
0
  6
Continuous
 62
     7
  0
HATCH
  5
E1
330
1F
100
AcDbEntity
  8
중심선
100
AcDbHatch
 10
0.0
 20
0.0
 30
0.0
210
0.0
220
0.0
230
1.0
  2
SOLID
 70
     1
 71
     0
 91
        1
 92
        0
 93
        4
 72
     1
 10
4.282135504699413
 20
-35.81257895372963
 11
0.8358602608621313
 21
-35.81257895372963
 72
     1
 10
0.8358602608621313
 20
-35.81257895372963
 11
-1.292369598341891
 21
-38.34890453430223
 72
     1
 10
-1.292369598341891
 20
-38.34890453430223
 11
2.15393873060854
 21
-38.34886510499974
 72
     1
 10
2.15393873060854
 20
-38.34886510499974
 11
4.282135504699413
 21
-35.81257895372963
 97
        0
 75
     0
 76
     1
 98
        1
 10
0.0
 20
0.0
  0
HATCH
  5
E2
330
1F
100
AcDbEntity
  8
중심선
100
AcDbHatch
 10
0.0
 20
0.0
 30
0.0
210
0.0
220
0.0
230
1.0
  2
SOLID
 70
     1
 71
     0
 91
        1
 92
        0
 93
        4
 72
     1
 10
9.294899495735365
 20
-35.81257895372963
 11
5.848624251898082
 21
-35.81257895372963
 72
     1
 10
5.848624251898082
 20
-35.81257895372963
 11
1.317486243540694
 21
-41.21257895372965
 72
     1
 10
1.317486243540694
 20
-41.21257895372965
 11
4.763761487377977
 21
-41.21257895372965
 72
     1
 10
4.763761487377977
 20
-41.21257895372965
 11
9.294899495735365
 21
-35.81257895372963
 97
        0
 75
     0
 76
     1
 98
        1
 10
0.0
 20
0.0
  0
HATCH
  5
E3
330
1F
100
AcDbEntity
  8
중심선
100
AcDbHatch
 10
0.0
 20
0.0
 30
0.0
210
0.0
220
0.0
230
1.0
  2
SOLID
 70
     1
 71
     0
 91
        1
 92
        0
 93
        4
 72
     1
 10
14.30766348677126
 20
-35.81257895372966
 11
10.86138824293414
 21
-35.81257895372963
 72
     1
 10
10.86138824293414
 20
-35.81257895372963
 11
3.812951341044895
 21
-44.21257895372965
 72
     1
 10
3.812951341044895
 20
-44.21257895372965
 11
7.259226584882178
 21
-44.21257895372965
 72
     1
 10
7.259226584882178
 20
-44.21257895372965
 11
14.30766348677126
 21
-35.81257895372966
 97
        0
 75
     0
 76
     1
 98
        1
 10
0.0
 20
0.0
  0
HATCH
  5
E4
330
1F
100
AcDbEntity
  8
중심선
100
AcDbHatch
 10
0.0
 20
0.0
 30
0.0
210
0.0
220
0.0
230
1.0
  2
SOLID
 70
     1
 71
     0
 91
        1
 92
        0
 93
        6
 72
     3
 10
19.10755391778346
 20
-40.01257895378091
 11
3.960054785062284
 21
1.540850780301639E-10
 40
0.3939339440162633
 50
17.09539180608434
 51
320.0019657685079
 73
     0
 72
     1
 10
20.79055357348405
 20
-38.60047295836794
 11
23.09585544718509
 21
-36.66614624832001
 72
     3
 10
19.10755391773061
 20
-40.01257895372979
 11
6.600054785286829
 21
-1.249000902703301E-13
 40
0.6363583540795982
 50
39.99873849337412
 51
368.4976242363724
 73
     1
 72
     1
 10
25.53288640963122
 20
-39.05257895365965
 11
17.78762122456654
 21
-39.05257895365963
 72
     1
 10
17.78762122456654
 20
-39.05257895365963
 11
17.7875961801206
 21
-40.97257895365955
 72
     1
 10
17.7875961801206
 20
-40.97257895365955
 11
22.22897594959264
 21
-40.97257895365952
 97
        0
 75
     0
 76
     1
 98
        1
 10
0.0
 20
0.0
  0
DIMENSION
  5
E5
102
{ACAD_REACTORS
102
}
330
1F
100
AcDbEntity
  8
치수문자_일반주서
100
AcDbDimension
  2
_D
 10
12.50800000000003
 20
30.45049195778778
 30
0.0
 11
34.34206692949723
 21
30.45049195778778
 31
0.0
 70
   160
  1
<>
 71
     2
 42
44.44999999999998
  3
SLDDIMSTYLE0
100
AcDbAlignedDimension
 13
56.95800000000001
 23
2.381249999999994
 33
0.0
 14
12.50800000000003
 24
3.115925493853514
 34
0.0
 50
0.0000000000000023
100
AcDbRotatedDimension
1001
ACAD
1000
DSTYLE
1002
{
1070
   171
1070
     6
1070
   273
1070
     7
1002
}
  0
DIMENSION
  5
F9
330
1F
100
AcDbEntity
  8
치수문자_일반주서
100
AcDbDimension
  2
_D_1
 10
-31.94200000000001
 20
43.70638402565997
 30
0.0
 11
14.49598349195361
 21
43.70638402565997
 31
0.0
 70
   160
  1
<>
 71
     2
 42
88.9
  3
SLDDIMSTYLE1
100
AcDbAlignedDimension
 13
56.95800000000001
 23
2.381249999999994
 33
0.0
 14
-31.942
 24
3.952500000000013
 34
0.0
100
AcDbRotatedDimension
1001
ACAD
1000
DSTYLE
1002
{
1070
   171
1070
     6
1070
   273
1070
     7
1002
}
  0
DIMENSION
  5
10D
330
1F
100
AcDbEntity
  8
치수문자_일반주서
100
AcDbDimension
  2
_D_2
 10
-44.94199999999996
 20
-4.762500000000045
 30
0.0
 11
-44.94200000000006
 21
24.49149999999995
 31
0.0
 70
   160
  1
%%c<>
 71
     2
 42
9.524999999999997
  3
SLDDIMSTYLE2
100
AcDbAlignedDimension
 13
-31.132
 23
4.762500000000002
 33
0.0
 14
-31.132
 24
-4.762499999999995
 34
0.0
 50
90.0000000000002
100
AcDbRotatedDimension
1001
ACAD
1000
DSTYLE
1002
{
1070
   171
1070
     6
1070
   273
1070
     7
1002
}
  0
INSERT
  5
128
330
1F
100
AcDbEntity
  8
외형선
100
AcDbBlockReference
  2
SW_DOWELSYMBOL_0
 10
-2.027540257822193
 20
-0.0000000000000052
 30
0.0
  0
DIMENSION
  5
14E
330
1F
100
AcDbEntity
  8
치수문자_일반주서
100
AcDbDimension
  2
*D6
 10
60.61830854282876
 20
-0.0000000000000052
 30
0.0
 11
19.17527657509618
 21
11.89136008307831
 31
0.0
 70
    34
  1
<>
 71
     5
 42
0.0174532925199434
  3
SLDDIMSTYLE0
100
AcDb2LineAngularDimension
 13
27.11008723924829
 23
2.861045113004939
 33
0.0
 14
23.98627691067908
 24
2.915571425113552
 34
0.0
 15
-34.94200000000001
 25
-0.0000000000000052
 35
0.0
 16
21.40609602773944
 26
0.9867804750710075
 36
0.0
1001
ACAD
1000
DSTYLE
1002
{
1070
   171
1070
     6
1070
   273
1070
     7
1002
}
  0
DIMENSION
  5
186
102
{ACAD_XDICTIONARY
360
187
102
}
330
1F
100
AcDbEntity
  8
치수문자_일반주서
100
AcDbDimension
  2
*D7
 10
67.48394415458736
 20
2.381249999999994
 30
0.0
 11
64.85894415458736
 21
22.98524999999999
 31
0.0
 70
    32
  1
{%%c<>[]}
 71
     5
 42
4.762499999999999
  3
SLDDIMSTYLE2
100
AcDbAlignedDimension
 13
57.09938291476654
 23
-2.381250000000005
 33
0.0
 14
56.95800000000001
 24
2.381249999999994
 34
0.0
 50
90.0
100
AcDbRotatedDimension
1001
ACAD
1000
DSTYLE
1002
{
1070
   283
1070
     1
1070
   170
1070
     1
1070
   171
1070
     6
1070
   273
1070
     7
1002
}
  0
ENDSEC
  0
SECTION
  2
OBJECTS
  0
DICTIONARY
  5
C
330
0
100
AcDbDictionary
281
     1
  3
ACAD_GROUP
350
D
  3
ACAD_IMAGE_VARS
350
14C
  3
ACAD_LAYOUT
350
1A
  3
ACAD_MLINESTYLE
350
17
  3
ACAD_PLOTSETTINGS
350
19
  3
ACAD_PLOTSTYLENAME
350
E
  3
ACAD_SCALELIST
350
47
  3
APPDATA
350
14A
  3
DWGPROPS
350
19C
  0
DICTIONARY
  5
187
330
186
100
AcDbDictionary
280
     1
281
     1
  0
DICTIONARY
  5
D
102
{ACAD_REACTORS
330
C
102
}
330
C
100
AcDbDictionary
281
     1
  0
RASTERVARIABLES
  5
14C
102
{ACAD_REACTORS
330
C
102
}
330
C
100
AcDbRasterVariables
 90
        0
 70
     1
 71
     1
 72
     1
  0
DICTIONARY
  5
1A
102
{ACAD_REACTORS
330
C
102
}
330
C
100
AcDbDictionary
281
     1
  3
Layout1
350
1E
  3
Layout2
350
26
  3
Model
350
22
  0
DICTIONARY
  5
17
102
{ACAD_REACTORS
330
C
102
}
330
C
100
AcDbDictionary
281
     1
  3
Standard
350
18
  0
DICTIONARY
  5
19
102
{ACAD_REACTORS
330
C
102
}
330
C
100
AcDbDictionary
281
     1
  0
ACDBDICTIONARYWDFLT
  5
E
102
{ACAD_REACTORS
330
C
102
}
330
C
100
AcDbDictionary
281
     1
  3
Normal
350
F
100
AcDbDictionaryWithDefault
340
F
  0
DICTIONARY
  5
47
102
{ACAD_REACTORS
330
C
102
}
330
C
100
AcDbDictionary
281
     1
  3
A0
350
48
  3
A1
350
49
  3
A2
350
4A
  3
A3
350
4B
  3
A4
350
4C
  3
A5
350
4D
  3
A6
350
4E
  3
A7
350
4F
  3
A8
350
50
  3
A9
350
51
  3
B0
350
52
  3
B1
350
53
  3
B2
350
54
  3
B3
350
55
  3
B4
350
56
  3
B5
350
57
  3
B6
350
58
  3
B7
350
59
  3
B8
350
5A
  3
B9
350
5B
  3
C0
350
5C
  3
C1
350
5D
  3
C2
350
5E
  3
C3
350
5F
  3
C4
350
60
  3
C5
350
61
  3
C6
350
62
  3
C7
350
63
  3
C8
350
64
  3
C9
350
65
  3
D0
350
66
  3
D1
350
67
  3
D2
350
68
  0
DICTIONARY
  5
14A
102
{ACAD_REACTORS
330
C
102
}
330
C
100
AcDbDictionary
281
     1
  0
XRECORD
  5
19C
102
{ACAD_REACTORS
330
C
102
}
330
C
100
AcDbXrecord
280
     1
  1
DWGPROPS COOKIE
  2

  3

  4

  6

  7

  8
12015048
  9

300
=
301
=
302
=
303
=
304
=
305
=
306
=
307
=
308
=
309
=
 40
0.0
 41
2458340.215838981
 42
2458341.00449485
  1

 90
        0
  0
LAYOUT
  5
1E
102
{ACAD_REACTORS
330
1A
102
}
330
1A
100
AcDbPlotSettings
  1

  2
none_device
  4

  6

 40
0.0
 41
0.0
 42
0.0
 43
0.0
 44
0.0
 45
0.0
 46
0.0
 47
0.0
 48
0.0
 49
0.0
140
0.0
141
0.0
142
1.0
143
1.0
 70
   688
 72
     1
 73
     0
 74
     5
  7

 75
    16
147
1.0
148
0.0
149
0.0
100
AcDbLayout
  1
Layout1
 70
     1
 71
     1
 10
0.0
 20
0.0
 11
420.0
 21
297.0
 12
0.0
 22
0.0
 32
0.0
 14
1.000000000000000E+20
 24
1.000000000000000E+20
 34
1.000000000000000E+20
 15
-1.000000000000000E+20
 25
-1.000000000000000E+20
 35
-1.000000000000000E+20
146
0.0
 13
0.0
 23
0.0
 33
0.0
 16
1.0
 26
0.0
 36
0.0
 17
0.0
 27
1.0
 37
0.0
 76
     0
330
1B
  0
LAYOUT
  5
26
102
{ACAD_REACTORS
330
1A
102
}
330
1A
100
AcDbPlotSettings
  1

  2
none_device
  4

  6

 40
0.0
 41
0.0
 42
0.0
 43
0.0
 44
0.0
 45
0.0
 46
0.0
 47
0.0
 48
0.0
 49
0.0
140
0.0
141
0.0
142
1.0
143
1.0
 70
   688
 72
     1
 73
     0
 74
     5
  7

 75
    16
147
1.0
148
0.0
149
0.0
100
AcDbLayout
  1
Layout2
 70
     1
 71
     2
 10
0.0
 20
0.0
 11
0.0
 21
0.0
 12
0.0
 22
0.0
 32
0.0
 14
0.0
 24
0.0
 34
0.0
 15
0.0
 25
0.0
 35
0.0
146
0.0
 13
0.0
 23
0.0
 33
0.0
 16
1.0
 26
0.0
 36
0.0
 17
0.0
 27
1.0
 37
0.0
 76
     0
330
23
  0
LAYOUT
  5
22
102
{ACAD_REACTORS
330
1A
102
}
330
1A
100
AcDbPlotSettings
  1

  2
none_device
  4
ANSI_A_(11.00_x_8.50_Inches)
  6

 40
6.35
 41
19.05
 42
6.35000508
 43
19.05000254
 44
279.4
 45
215.9
 46
127.6700255616511
 47
100.0349995745547
 48
0.0
 49
0.0
140
0.0
141
0.0
142
0.0915836148719576
143
1.0
 70
  1696
 72
     0
 73
     0
 74
     0
  7

 75
     0
147
0.0235690232323232
148
0.0
149
0.0
100
AcDbLayout
  1
Model
 70
     1
 71
     0
 10
0.0
 20
0.0
 11
420.0
 21
297.0
 12
0.0
 22
0.0
 32
0.0
 14
-49.31700000000004
 24
-49.98438634254138
 34
0.0
 15
68.03427748792069
 25
48.08138402565997
 35
0.0
146
0.0
 13
0.0
 23
0.0
 33
0.0
 16
1.0
 26
0.0
 36
0.0
 17
0.0
 27
1.0
 37
0.0
 76
     0
330
1F
331
29
  0
MLINESTYLE
  5
18
102
{ACAD_REACTORS
330
17
102
}
330
17
100
AcDbMlineStyle
  2
Standard
 70
     0
  3

 62
   256
 51
90.0
 52
90.0
 71
     2
 49
0.5
 62
   256
  6
BYLAYER
 49
-0.5
 62
   256
  6
BYLAYER
  0
ACDBPLACEHOLDER
  5
F
102
{ACAD_REACTORS
330
E
102
}
330
E
  0
SCALE
  5
48
102
{ACAD_REACTORS
330
47
102
}
330
47
100
AcDbScale
 70
     0
300
1:1
140
1.0
141
1.0
290
     1
  0
SCALE
  5
49
102
{ACAD_REACTORS
330
47
102
}
330
47
100
AcDbScale
 70
     0
300
1:2
140
1.0
141
2.0
290
     0
  0
SCALE
  5
4A
102
{ACAD_REACTORS
330
47
102
}
330
47
100
AcDbScale
 70
     0
300
1:4
140
1.0
141
4.0
290
     0
  0
SCALE
  5
4B
102
{ACAD_REACTORS
330
47
102
}
330
47
100
AcDbScale
 70
     0
300
1:5
140
1.0
141
5.0
290
     0
  0
SCALE
  5
4C
102
{ACAD_REACTORS
330
47
102
}
330
47
100
AcDbScale
 70
     0
300
1:8
140
1.0
141
8.0
290
     0
  0
SCALE
  5
4D
102
{ACAD_REACTORS
330
47
102
}
330
47
100
AcDbScale
 70
     0
300
1:10
140
1.0
141
10.0
290
     0
  0
SCALE
  5
4E
102
{ACAD_REACTORS
330
47
102
}
330
47
100
AcDbScale
 70
     0
300
1:16
140
1.0
141
16.0
290
     0
  0
SCALE
  5
4F
102
{ACAD_REACTORS
330
47
102
}
330
47
100
AcDbScale
 70
     0
300
1:20
140
1.0
141
20.0
290
     0
  0
SCALE
  5
50
102
{ACAD_REACTORS
330
47
102
}
330
47
100
AcDbScale
 70
     0
300
1:30
140
1.0
141
30.0
290
     0
  0
SCALE
  5
51
102
{ACAD_REACTORS
330
47
102
}
330
47
100
AcDbScale
 70
     0
300
1:40
140
1.0
141
40.0
290
     0
  0
SCALE
  5
52
102
{ACAD_REACTORS
330
47
102
}
330
47
100
AcDbScale
 70
     0
300
1:50
140
1.0
141
50.0
290
     0
  0
SCALE
  5
53
102
{ACAD_REACTORS
330
47
102
}
330
47
100
AcDbScale
 70
     0
300
1:100
140
1.0
141
100.0
290
     0
  0
SCALE
  5
54
102
{ACAD_REACTORS
330
47
102
}
330
47
100
AcDbScale
 70
     0
300
2:1
140
2.0
141
1.0
290
     0
  0
SCALE
  5
55
102
{ACAD_REACTORS
330
47
102
}
330
47
100
AcDbScale
 70
     0
300
4:1
140
4.0
141
1.0
290
     0
  0
SCALE
  5
56
102
{ACAD_REACTORS
330
47
102
}
330
47
100
AcDbScale
 70
     0
300
8:1
140
8.0
141
1.0
290
     0
  0
SCALE
  5
57
102
{ACAD_REACTORS
330
47
102
}
330
47
100
AcDbScale
 70
     0
300
10:1
140
10.0
141
1.0
290
     0
  0
SCALE
  5
58
102
{ACAD_REACTORS
330
47
102
}
330
47
100
AcDbScale
 70
     0
300
100:1
140
100.0
141
1.0
290
     0
  0
SCALE
  5
59
102
{ACAD_REACTORS
330
47
102
}
330
47
100
AcDbScale
 70
     0
300
1/128" = 1'-0"
140
0.0078125
141
12.0
290
     0
  0
SCALE
  5
5A
102
{ACAD_REACTORS
330
47
102
}
330
47
100
AcDbScale
 70
     0
300
1/64" = 1'-0"
140
0.015625
141
12.0
290
     0
  0
SCALE
  5
5B
102
{ACAD_REACTORS
330
47
102
}
330
47
100
AcDbScale
 70
     0
300
1/32" = 1'-0"
140
0.03125
141
12.0
290
     0
  0
SCALE
  5
5C
102
{ACAD_REACTORS
330
47
102
}
330
47
100
AcDbScale
 70
     0
300
1/16" = 1'-0"
140
0.0625
141
12.0
290
     0
  0
SCALE
  5
5D
102
{ACAD_REACTORS
330
47
102
}
330
47
100
AcDbScale
 70
     0
300
3/32" = 1'-0"
140
0.09375
141
12.0
290
     0
  0
SCALE
  5
5E
102
{ACAD_REACTORS
330
47
102
}
330
47
100
AcDbScale
 70
     0
300
1/8" = 1'-0"
140
0.125
141
12.0
290
     0
  0
SCALE
  5
5F
102
{ACAD_REACTORS
330
47
102
}
330
47
100
AcDbScale
 70
     0
300
3/16" = 1'-0"
140
0.1875
141
12.0
290
     0
  0
SCALE
  5
60
102
{ACAD_REACTORS
330
47
102
}
330
47
100
AcDbScale
 70
     0
300
1/4" = 1'-0"
140
0.25
141
12.0
290
     0
  0
SCALE
  5
61
102
{ACAD_REACTORS
330
47
102
}
330
47
100
AcDbScale
 70
     0
300
3/8" = 1'-0"
140
0.375
141
12.0
290
     0
  0
SCALE
  5
62
102
{ACAD_REACTORS
330
47
102
}
330
47
100
AcDbScale
 70
     0
300
1/2" = 1'-0"
140
0.5
141
12.0
290
     0
  0
SCALE
  5
63
102
{ACAD_REACTORS
330
47
102
}
330
47
100
AcDbScale
 70
     0
300
3/4" = 1'-0"
140
0.75
141
12.0
290
     0
  0
SCALE
  5
64
102
{ACAD_REACTORS
330
47
102
}
330
47
100
AcDbScale
 70
     0
300
1" = 1'-0"
140
1.0
141
12.0
290
     0
  0
SCALE
  5
65
102
{ACAD_REACTORS
330
47
102
}
330
47
100
AcDbScale
 70
     0
300
1-1/2" = 1'-0"
140
1.5
141
12.0
290
     0
  0
SCALE
  5
66
102
{ACAD_REACTORS
330
47
102
}
330
47
100
AcDbScale
 70
     0
300
3" = 1'-0"
140
3.0
141
12.0
290
     0
  0
SCALE
  5
67
102
{ACAD_REACTORS
330
47
102
}
330
47
100
AcDbScale
 70
     0
300
6" = 1'-0"
140
6.0
141
12.0
290
     0
  0
SCALE
  5
68
102
{ACAD_REACTORS
330
47
102
}
330
47
100
AcDbScale
 70
     0
300
1'-0" = 1'-0"
140
12.0
141
12.0
290
     0
  0
ENDSEC
  0
EOF
