  0
SECTION
  2
HEADER
  9
$ACADVER
  1
AC1015
  9
$ACADMAINTVER
 70
     6
  9
$DWGCODEPAGE
  3
ANSI_949
  9
$INSBASE
 10
0.0
 20
0.0
 30
0.0
  9
$EXTMIN
 10
-47.68817795025308
 20
-49.98438634254138
 30
0.0
  9
$EXTMAX
 10
72.06756421779747
 20
52.93458479988597
 30
0.0
  9
$LIMMIN
 10
0.0
 20
0.0
  9
$LIMMAX
 10
420.0
 20
297.0
  9
$ORTHOMODE
 70
     1
  9
$REGENMODE
 70
     1
  9
$FILLMODE
 70
     1
  9
$QTEXTMODE
 70
     0
  9
$MIRRTEXT
 70
     1
  9
$LTSCALE
 40
1.0
  9
$ATTMODE
 70
     1
  9
$TEXTSIZE
 40
3.5
  9
$TRACEWID
 40
1.0
  9
$TEXTSTYLE
  7
Standard
  9
$CLAYER
  8
0
  9
$CELTYPE
  6
ByLayer
  9
$CECOLOR
 62
   256
  9
$CELTSCALE
 40
1.0
  9
$DISPSILH
 70
     0
  9
$DIMSCALE
 40
1.0
  9
$DIMASZ
 40
3.302
  9
$DIMEXO
 40
1.0
  9
$DIMDLI
 40
3.75
  9
$DIMRND
 40
0.0
  9
$DIMDLE
 40
0.0
  9
$DIMEXE
 40
1.0
  9
$DIMTP
 40
0.0
  9
$DIMTM
 40
0.0
  9
$DIMTXT
 40
3.5
  9
$DIMCEN
 40
2.5
  9
$DIMTSZ
 40
0.0
  9
$DIMTOL
 70
     0
  9
$DIMLIM
 70
     0
  9
$DIMTIH
 70
     1
  9
$DIMTOH
 70
     1
  9
$DIMSE1
 70
     0
  9
$DIMSE2
 70
     0
  9
$DIMTAD
 70
     1
  9
$DIMZIN
 70
     0
  9
$DIMBLK
  1

  9
$DIMASO
 70
     1
  9
$DIMSHO
 70
     1
  9
$DIMPOST
  1

  9
$DIMAPOST
  1

  9
$DIMALT
 70
     0
  9
$DIMALTD
 70
     3
  9
$DIMALTF
 40
0.0393700787401575
  9
$DIMLFAC
 40
1.0
  9
$DIMTOFL
 70
     1
  9
$DIMTVP
 40
0.0
  9
$DIMTIX
 70
     0
  9
$DIMSOXD
 70
     0
  9
$DIMSAH
 70
     0
  9
$DIMBLK1
  1

  9
$DIMBLK2
  1

  9
$DIMSTYLE
  2
ISO-25
  9
$DIMCLRD
 70
     0
  9
$DIMCLRE
 70
     0
  9
$DIMCLRT
 70
     0
  9
$DIMTFAC
 40
1.0
  9
$DIMGAP
 40
1.524
  9
$DIMJUST
 70
     0
  9
$DIMSD1
 70
     0
  9
$DIMSD2
 70
     0
  9
$DIMTOLJ
 70
     0
  9
$DIMTZIN
 70
     0
  9
$DIMALTZ
 70
     0
  9
$DIMALTTZ
 70
     0
  9
$DIMUPT
 70
     0
  9
$DIMDEC
 70
     2
  9
$DIMTDEC
 70
     2
  9
$DIMALTU
 70
     2
  9
$DIMALTTD
 70
     3
  9
$DIMTXSTY
  7
Standard
  9
$DIMAUNIT
 70
     0
  9
$DIMADEC
 70
     2
  9
$DIMALTRND
 40
0.0
  9
$DIMAZIN
 70
     0
  9
$DIMDSEP
 70
    44
  9
$DIMATFIT
 70
     3
  9
$DIMFRAC
 70
     0
  9
$DIMLDRBLK
  1

  9
$DIMLUNIT
 70
     2
  9
$DIMLWD
 70
    -2
  9
$DIMLWE
 70
    -2
  9
$DIMTMOVE
 70
     0
  9
$LUNITS
 70
     2
  9
$LUPREC
 70
     2
  9
$SKETCHINC
 40
1.0
  9
$FILLETRAD
 40
10.0
  9
$AUNITS
 70
     0
  9
$AUPREC
 70
     2
  9
$MENU
  1
.
  9
$ELEVATION
 40
0.0
  9
$PELEVATION
 40
0.0
  9
$THICKNESS
 40
0.0
  9
$LIMCHECK
 70
     0
  9
$CHAMFERA
 40
0.0
  9
$CHAMFERB
 40
0.0
  9
$CHAMFERC
 40
0.0
  9
$CHAMFERD
 40
0.0
  9
$SKPOLY
 70
     0
  9
$TDCREATE
 40
2458340.591161401
  9
$TDUCREATE
 40
2458340.216161401
  9
$TDUPDATE
 40
2458341.423011076
  9
$TDUUPDATE
 40
2458341.048011076
  9
$TDINDWG
 40
0.0414450926
  9
$TDUSRTIMER
 40
2458341.005364514
  9
$USRTIMER
 70
     1
  9
$ANGBASE
 50
0.0
  9
$ANGDIR
 70
     0
  9
$PDMODE
 70
     0
  9
$PDSIZE
 40
-1.0
  9
$PLINEWID
 40
0.0
  9
$SPLFRAME
 70
     0
  9
$SPLINETYPE
 70
     6
  9
$SPLINESEGS
 70
     8
  9
$HANDSEED
  5
180
  9
$SURFTAB1
 70
     6
  9
$SURFTAB2
 70
     6
  9
$SURFTYPE
 70
     6
  9
$SURFU
 70
     6
  9
$SURFV
 70
     6
  9
$UCSBASE
  2

  9
$UCSNAME
  2

  9
$UCSORG
 10
0.0
 20
0.0
 30
0.0
  9
$UCSXDIR
 10
1.0
 20
0.0
 30
0.0
  9
$UCSYDIR
 10
0.0
 20
1.0
 30
0.0
  9
$UCSORTHOREF
  2

  9
$UCSORTHOVIEW
 70
     0
  9
$UCSORGTOP
 10
0.0
 20
0.0
 30
0.0
  9
$UCSORGBOTTOM
 10
0.0
 20
0.0
 30
0.0
  9
$UCSORGLEFT
 10
0.0
 20
0.0
 30
0.0
  9
$UCSORGRIGHT
 10
0.0
 20
0.0
 30
0.0
  9
$UCSORGFRONT
 10
0.0
 20
0.0
 30
0.0
  9
$UCSORGBACK
 10
0.0
 20
0.0
 30
0.0
  9
$PUCSBASE
  2

  9
$PUCSNAME
  2

  9
$PUCSORG
 10
0.0
 20
0.0
 30
0.0
  9
$PUCSXDIR
 10
1.0
 20
0.0
 30
0.0
  9
$PUCSYDIR
 10
0.0
 20
1.0
 30
0.0
  9
$PUCSORTHOREF
  2

  9
$PUCSORTHOVIEW
 70
     0
  9
$PUCSORGTOP
 10
0.0
 20
0.0
 30
0.0
  9
$PUCSORGBOTTOM
 10
0.0
 20
0.0
 30
0.0
  9
$PUCSORGLEFT
 10
0.0
 20
0.0
 30
0.0
  9
$PUCSORGRIGHT
 10
0.0
 20
0.0
 30
0.0
  9
$PUCSORGFRONT
 10
0.0
 20
0.0
 30
0.0
  9
$PUCSORGBACK
 10
0.0
 20
0.0
 30
0.0
  9
$USERI1
 70
     0
  9
$USERI2
 70
     0
  9
$USERI3
 70
     0
  9
$USERI4
 70
     0
  9
$USERI5
 70
     0
  9
$USERR1
 40
0.0
  9
$USERR2
 40
0.0
  9
$USERR3
 40
0.0
  9
$USERR4
 40
0.0
  9
$USERR5
 40
0.0
  9
$WORLDVIEW
 70
     1
  9
$SHADEDGE
 70
     3
  9
$SHADEDIF
 70
    70
  9
$TILEMODE
 70
     1
  9
$MAXACTVP
 70
    64
  9
$PINSBASE
 10
0.0
 20
0.0
 30
0.0
  9
$PLIMCHECK
 70
     0
  9
$PEXTMIN
 10
1.000000000000000E+20
 20
1.000000000000000E+20
 30
1.000000000000000E+20
  9
$PEXTMAX
 10
-1.000000000000000E+20
 20
-1.000000000000000E+20
 30
-1.000000000000000E+20
  9
$PLIMMIN
 10
0.0
 20
0.0
  9
$PLIMMAX
 10
0.0
 20
0.0
  9
$UNITMODE
 70
     0
  9
$VISRETAIN
 70
     1
  9
$PLINEGEN
 70
     0
  9
$PSLTSCALE
 70
     1
  9
$TREEDEPTH
 70
  3020
  9
$CMLSTYLE
  2
Standard
  9
$CMLJUST
 70
     0
  9
$CMLSCALE
 40
20.0
  9
$PROXYGRAPHICS
 70
     1
  9
$MEASUREMENT
 70
     1
  9
$CELWEIGHT
370
    -1
  9
$ENDCAPS
280
     0
  9
$JOINSTYLE
280
     0
  9
$LWDISPLAY
290
     1
  9
$INSUNITS
 70
     4
  9
$HYPERLINKBASE
  1

  9
$STYLESHEET
  1

  9
$XEDIT
290
     1
  9
$CEPSNTYPE
380
     0
  9
$PSTYLEMODE
290
     1
  9
$FINGERPRINTGUID
  2
{FB483207-6EE9-4068-B005-D17912ABD565}
  9
$VERSIONGUID
  2
{FAEB1C32-E019-11D5-929B-00C0DF256EC4}
  9
$EXTNAMES
290
     1
  9
$PSVPSCALE
 40
0.0
  9
$OLESTARTUP
290
     0
  0
ENDSEC
  0
SECTION
  2
CLASSES
  0
CLASS
  1
ACDBDICTIONARYWDFLT
  2
AcDbDictionaryWithDefault
  3
ObjectDBX Classes
 90
        0
280
     0
281
     0
  0
CLASS
  1
VISUALSTYLE
  2
AcDbVisualStyle
  3
ObjectDBX Classes
 90
     4095
280
     0
281
     0
  0
CLASS
  1
MATERIAL
  2
AcDbMaterial
  3
ObjectDBX Classes
 90
     1153
280
     0
281
     0
  0
CLASS
  1
SCALE
  2
AcDbScale
  3
ObjectDBX Classes
 90
     1153
280
     0
281
     0
  0
CLASS
  1
SUN
  2
AcDbSun
  3
SCENEOE
 90
     1153
280
     0
281
     0
  0
CLASS
  1
ACDBPLACEHOLDER
  2
AcDbPlaceHolder
  3
ObjectDBX Classes
 90
        0
280
     0
281
     0
  0
CLASS
  1
LAYOUT
  2
AcDbLayout
  3
ObjectDBX Classes
 90
        0
280
     0
281
     0
  0
CLASS
  1
TABLESTYLE
  2
AcDbTableStyle
  3
ObjectDBX Classes
 90
     4095
280
     0
281
     0
  0
CLASS
  1
MLEADERSTYLE
  2
AcDbMLeaderStyle
  3
ACDB_MLEADERSTYLE_CLASS
 90
     4095
280
     0
281
     0
  0
CLASS
  1
RASTERVARIABLES
  2
AcDbRasterVariables
  3
ISM
 90
        0
280
     0
281
     0
  0
CLASS
  1
DICTIONARYVAR
  2
AcDbDictionaryVar
  3
ObjectDBX Classes
 90
        0
280
     0
281
     0
  0
CLASS
  1
DIMASSOC
  2
AcDbDimAssoc
  3
"AcDbDimAssoc|Product Desc:     AcDim ARX App For Dimension|Company:          Autodesk, Inc.|WEB Address:      www.autodesk.com"
 90
        0
280
     0
281
     0
  0
ENDSEC
  0
SECTION
  2
TABLES
  0
TABLE
  2
VPORT
  5
8
330
0
100
AcDbSymbolTable
 70
     1
  0
VPORT
  5
29
330
8
100
AcDbSymbolTableRecord
100
AcDbViewportTableRecord
  2
*Active
 70
     0
 10
0.0
 20
0.0
 11
1.0
 21
1.0
 12
12.76403903781932
 22
0.4827269025209517
 13
0.0
 23
0.0
 14
10.0
 24
10.0
 15
10.0
 25
10.0
 16
0.0
 26
0.0
 36
1.0
 17
0.0
 27
0.0
 37
0.0
 40
118.901334911823
 41
1.444267515923567
 42
50.0
 43
0.0
 44
0.0
 50
0.0
 51
0.0
 71
    16
 72
  2000
 73
     1
 74
     3
 75
     0
 76
     0
 77
     0
 78
     0
281
     0
 65
     1
110
0.0
120
0.0
130
0.0
111
1.0
121
0.0
131
0.0
112
0.0
122
1.0
132
0.0
 79
     0
146
0.0
  0
ENDTAB
  0
TABLE
  2
LTYPE
  5
5
330
0
100
AcDbSymbolTable
 70
     6
  0
LTYPE
  5
14
330
5
100
AcDbSymbolTableRecord
100
AcDbLinetypeTableRecord
  2
ByBlock
 70
     0
  3

 72
    65
 73
     0
 40
0.0
  0
LTYPE
  5
15
330
5
100
AcDbSymbolTableRecord
100
AcDbLinetypeTableRecord
  2
ByLayer
 70
     0
  3

 72
    65
 73
     0
 40
0.0
  0
LTYPE
  5
16
330
5
100
AcDbSymbolTableRecord
100
AcDbLinetypeTableRecord
  2
Continuous
 70
     0
  3
Solid line
 72
    65
 73
     0
 40
0.0
  0
LTYPE
  5
6A
330
5
100
AcDbSymbolTableRecord
100
AcDbLinetypeTableRecord
  2
HIDDEN
 70
     0
  3
Hidden __ __ __ __ __ __ __ __ __ __ __ __ __ __
 72
    65
 73
     2
 40
1.905
 49
1.27
 74
     0
 49
-0.635
 74
     0
  0
LTYPE
  5
6B
330
5
100
AcDbSymbolTableRecord
100
AcDbLinetypeTableRecord
  2
PHANTOM
 70
     0
  3
Phantom ______  __  __  ______  __  __  ______
 72
    65
 73
     6
 40
12.7
 49
6.35
 74
     0
 49
-1.27
 74
     0
 49
1.27
 74
     0
 49
-1.27
 74
     0
 49
1.27
 74
     0
 49
-1.27
 74
     0
  0
LTYPE
  5
6C
330
5
100
AcDbSymbolTableRecord
100
AcDbLinetypeTableRecord
  2
CENTER
 70
     0
  3
Center ____ _ ____ _ ____ _ ____ _ ____ _ ____
 72
    65
 73
     4
 40
10.16
 49
6.35
 74
     0
 49
-1.27
 74
     0
 49
1.27
 74
     0
 49
-1.27
 74
     0
  0
LTYPE
  5
6D
330
5
100
AcDbSymbolTableRecord
100
AcDbLinetypeTableRecord
  2
CENTERX2
 70
     0
  3
Center (2x) ________  __  ________  __  _____
 72
    65
 73
     4
 40
20.32
 49
12.7
 74
     0
 49
-2.54
 74
     0
 49
2.54
 74
     0
 49
-2.54
 74
     0
  0
LTYPE
  5
6E
330
5
100
AcDbSymbolTableRecord
100
AcDbLinetypeTableRecord
  2
DOT2
 70
     0
  3
Dot (.5x) ........................................
 72
    65
 73
     2
 40
0.635
 49
0.0
 74
     0
 49
-0.635
 74
     0
  0
ENDTAB
  0
TABLE
  2
LAYER
  5
2
330
0
100
AcDbSymbolTable
 70
    17
  0
LAYER
  5
10
330
2
100
AcDbSymbolTableRecord
100
AcDbLayerTableRecord
  2
0
 70
     0
 62
     7
  6
Continuous
370
    -3
390
F
  0
LAYER
  5
6F
330
2
100
AcDbSymbolTableRecord
100
AcDbLayerTableRecord
  2
FORMAT
 70
     0
 62
     2
  6
Continuous
370
    -3
390
F
  0
LAYER
  5
70
330
2
100
AcDbSymbolTableRecord
100
AcDbLayerTableRecord
  2
외형선
 70
     0
 62
   100
  6
Continuous
370
    30
390
F
  0
LAYER
  5
71
330
2
100
AcDbSymbolTableRecord
100
AcDbLayerTableRecord
  2
숨은선
 70
     0
 62
     2
  6
HIDDEN
370
    15
390
F
  0
LAYER
  5
72
330
2
100
AcDbSymbolTableRecord
100
AcDbLayerTableRecord
  2
중심선
 70
     0
 62
     1
  6
CENTERX2
370
    -3
390
F
  0
LAYER
  5
73
330
2
100
AcDbSymbolTableRecord
100
AcDbLayerTableRecord
  2
파단선
 70
     0
 62
     4
  6
Continuous
370
    -3
390
F
  0
LAYER
  5
74
330
2
100
AcDbSymbolTableRecord
100
AcDbLayerTableRecord
  2
해칭선
 70
     0
 62
     4
  6
Continuous
370
    -3
390
F
  0
LAYER
  5
75
330
2
100
AcDbSymbolTableRecord
100
AcDbLayerTableRecord
  2
가는실선
 70
     0
 62
     4
  6
Continuous
370
    -3
390
F
  0
LAYER
  5
76
330
2
100
AcDbSymbolTableRecord
100
AcDbLayerTableRecord
  2
치수_보조선
 70
     0
 62
     4
  6
Continuous
370
    -3
390
F
  0
LAYER
  5
77
330
2
100
AcDbSymbolTableRecord
100
AcDbLayerTableRecord
  2
치수문자_일반주서
 70
     0
 62
     7
  6
Continuous
370
    15
390
F
  0
LAYER
  5
78
330
2
100
AcDbSymbolTableRecord
100
AcDbLayerTableRecord
  2
개별주서
 70
     0
 62
   100
  6
Continuous
370
    30
390
F
  0
LAYER
  5
79
330
2
100
AcDbSymbolTableRecord
100
AcDbLayerTableRecord
  2
중간선
 70
     0
 62
     2
  6
Continuous
370
    15
390
F
  0
LAYER
  5
7A
330
2
100
AcDbSymbolTableRecord
100
AcDbLayerTableRecord
  2
윤곽선
 70
     0
 62
     3
  6
Continuous
370
    40
390
F
  0
LAYER
  5
7B
330
2
100
AcDbSymbolTableRecord
100
AcDbLayerTableRecord
  2
중심마크
 70
     0
 62
   100
  6
Continuous
370
    30
390
F
  0
LAYER
  5
7C
330
2
100
AcDbSymbolTableRecord
100
AcDbLayerTableRecord
  2
가상선
 70
     0
 62
     4
  6
PHANTOM
370
    -3
390
F
  0
LAYER
  5
7D
330
2
100
AcDbSymbolTableRecord
100
AcDbLayerTableRecord
  2
특수지정선
 70
     0
 62
     5
  6
CENTERX2
370
    60
390
F
  0
LAYER
  5
155
330
2
100
AcDbSymbolTableRecord
100
AcDbLayerTableRecord
  2
Defpoints
 70
     0
 62
     7
  6
Continuous
290
     0
370
    -3
390
F
  0
ENDTAB
  0
TABLE
  2
STYLE
  5
3
330
0
100
AcDbSymbolTable
 70
     2
  0
STYLE
  5
11
330
3
100
AcDbSymbolTableRecord
100
AcDbTextStyleTableRecord
  2
Standard
 70
     0
 40
0.0
 41
1.0
 50
0.0
 71
     0
 42
3.5
  3
txt
  4

  0
STYLE
  5
93
330
3
100
AcDbSymbolTableRecord
100
AcDbTextStyleTableRecord
  2
SLDTEXTSTYLE0
 70
     0
 40
0.0
 41
0.75
 50
0.0
 71
     0
 42
3.5
  3
TXT
  4

  0
ENDTAB
  0
TABLE
  2
VIEW
  5
6
330
0
100
AcDbSymbolTable
 70
     0
  0
ENDTAB
  0
TABLE
  2
UCS
  5
7
330
0
100
AcDbSymbolTable
 70
     0
  0
ENDTAB
  0
TABLE
  2
APPID
  5
9
330
0
100
AcDbSymbolTable
 70
     2
  0
APPID
  5
12
330
9
100
AcDbSymbolTableRecord
100
AcDbRegAppTableRecord
  2
ACAD
 70
     0
  0
APPID
  5
16A
330
9
100
AcDbSymbolTableRecord
100
AcDbRegAppTableRecord
  2
PE_DIMMEASUREMENT
 70
     0
  0
ENDTAB
  0
TABLE
  2
DIMSTYLE
  5
A
330
0
100
AcDbSymbolTable
 70
     4
100
AcDbDimStyleTable
  0
DIMSTYLE
105
27
330
A
100
AcDbSymbolTableRecord
100
AcDbDimStyleTableRecord
  2
ISO-25
 70
     0
 41
2.5
 42
0.625
 43
3.75
 44
1.25
 73
     0
 74
     0
 77
     1
 78
     8
140
2.5
141
2.5
143
0.03937007874016
147
0.625
171
     3
172
     1
178
     0
271
     2
272
     2
274
     3
278
    44
283
     0
284
     8
340
11
  0
DIMSTYLE
105
E7
102
{ACAD_REACTORS
330
E6
330
16C
102
}
330
A
100
AcDbSymbolTableRecord
100
AcDbDimStyleTableRecord
  2
SLDDIMSTYLE0
 70
     0
 41
3.302
 44
0.0
 45
0.000000001
 73
     0
 74
     0
 77
     1
 78
    12
 79
     3
140
3.5
143
0.0393700787401575
147
0.875
148
0.000000001
170
     1
173
     1
178
     0
271
     2
272
     2
276
     2
284
    12
340
93
  0
DIMSTYLE
105
FB
102
{ACAD_REACTORS
330
FA
102
}
330
A
100
AcDbSymbolTableRecord
100
AcDbDimStyleTableRecord
  2
SLDDIMSTYLE1
 70
     0
 41
3.302
 44
0.0
 45
0.000000001
 73
     0
 74
     0
 77
     1
 78
     4
 79
     1
140
3.5
143
0.0393700787401575
147
0.875
148
0.000000001
170
     1
173
     1
178
     0
271
     2
272
     2
276
     2
284
    12
340
93
  0
DIMSTYLE
105
10F
102
{ACAD_REACTORS
330
10E
330
158
102
}
330
A
100
AcDbSymbolTableRecord
100
AcDbDimStyleTableRecord
  2
SLDDIMSTYLE2
 70
     0
 41
3.302
 44
0.0
 45
0.000000001
 73
     0
 74
     0
 77
     1
 78
    12
 79
     3
140
3.5
143
0.0393700787401575
147
0.875
148
0.000000001
170
     1
172
     1
173
     1
178
     0
271
     2
272
     2
276
     2
284
    12
289
     0
340
93
  0
ENDTAB
  0
TABLE
  2
BLOCK_RECORD
  5
1
330
0
100
AcDbSymbolTable
 70
     8
  0
BLOCK_RECORD
  5
1F
330
1
100
AcDbSymbolTableRecord
100
AcDbBlockTableRecord
  2
*Model_Space
340
22
  0
BLOCK_RECORD
  5
1B
330
1
100
AcDbSymbolTableRecord
100
AcDbBlockTableRecord
  2
*Paper_Space
340
1E
  0
BLOCK_RECORD
  5
23
330
1
100
AcDbSymbolTableRecord
100
AcDbBlockTableRecord
  2
*Paper_Space0
340
26
  0
BLOCK_RECORD
  5
7E
330
1
100
AcDbSymbolTableRecord
100
AcDbBlockTableRecord
  2
블럭10
340
0
102
{BLKREFS
331
DF
102
}
  0
BLOCK_RECORD
  5
E8
330
1
100
AcDbSymbolTableRecord
100
AcDbBlockTableRecord
  2
_D
340
0
  0
BLOCK_RECORD
  5
FC
330
1
100
AcDbSymbolTableRecord
100
AcDbBlockTableRecord
  2
_D_1
340
0
  0
BLOCK_RECORD
  5
110
330
1
100
AcDbSymbolTableRecord
100
AcDbBlockTableRecord
  2
_D_2
340
0
  0
BLOCK_RECORD
  5
123
330
1
100
AcDbSymbolTableRecord
100
AcDbBlockTableRecord
  2
SW_DOWELSYMBOL_0
340
0
102
{BLKREFS
331
129
102
}
  0
BLOCK_RECORD
  5
15B
330
1
100
AcDbSymbolTableRecord
100
AcDbBlockTableRecord
  2
*D6
340
0
  0
BLOCK_RECORD
  5
16F
330
1
100
AcDbSymbolTableRecord
100
AcDbBlockTableRecord
  2
*D7
340
0
  0
ENDTAB
  0
ENDSEC
  0
SECTION
  2
BLOCKS
  0
BLOCK
  5
20
330
1F
100
AcDbEntity
  8
0
100
AcDbBlockBegin
  2
*Model_Space
 70
     0
 10
0.0
 20
0.0
 30
0.0
  3
*Model_Space
  1
*Model_Space
  0
ENDBLK
  5
21
330
1F
100
AcDbEntity
  8
0
100
AcDbBlockEnd
  0
BLOCK
  5
1C
330
1B
100
AcDbEntity
 67
     1
  8
0
100
AcDbBlockBegin
  2
*Paper_Space
 70
     0
 10
0.0
 20
0.0
 30
0.0
  3
*Paper_Space
  1
*Paper_Space
  0
ENDBLK
  5
1D
330
1B
100
AcDbEntity
 67
     1
  8
0
100
AcDbBlockEnd
  0
BLOCK
  5
24
330
23
100
AcDbEntity
  8
0
100
AcDbBlockBegin
  2
*Paper_Space0
 70
     0
 10
0.0
 20
0.0
 30
0.0
  3
*Paper_Space0
  1
*Paper_Space0
  0
ENDBLK
  5
25
330
23
100
AcDbEntity
  8
0
100
AcDbBlockEnd
  0
BLOCK
  5
7F
330
7E
100
AcDbEntity
  8
0
100
AcDbBlockBegin
  2
블럭10
 70
     2
 10
0.0
 20
0.0
 30
0.0
  3
블럭10
  1
블럭10
  0
ELLIPSE
  5
81
330
7E
100
AcDbEntity
  8
중심선
100
AcDbEllipse
 10
20.54032771741204
 20
12.0471743016438
 30
0.0
 11
6.600054785286829
 21
-1.261213355974178E-13
 31
0.0
210
0.0
220
0.0
230
1.0
 40
0.636358354079598
 41
0.9219305317359503
 42
6.513795318482858
  0
ELLIPSE
  5
82
330
7E
100
AcDbEntity
  8
중심선
100
AcDbEllipse
 10
20.54032771746488
 20
12.04717430159265
 30
0.0
 11
3.960054785062283
 21
1.540847449632565E-10
 31
0.0
210
0.0
220
0.0
230
1.0
 40
0.3939339440162632
 41
1.131841032648279
 42
5.62031148352944
  0
LINE
  5
83
330
7E
100
AcDbEntity
  8
중심선
100
AcDbLine
 10
2.268634060543552
 20
16.24717430164393
 30
0.0
 11
5.714909304380834
 21
16.24717430164393
 31
0.0
  0
LINE
  5
84
330
7E
100
AcDbEntity
  8
중심선
100
AcDbLine
 10
5.245725140726316
 20
7.84717430164391
 30
0.0
 11
8.692000384563599
 21
7.84717430164391
 31
0.0
  0
LINE
  5
85
330
7E
100
AcDbEntity
  8
중심선
100
AcDbLine
 10
15.74043728645272
 20
16.24717430164393
 30
0.0
 11
8.692000384563599
 21
7.84717430164391
 31
0.0
  0
LINE
  5
86
330
7E
100
AcDbEntity
  8
중심선
100
AcDbLine
 10
0.1404042013395286
 20
13.71084872107135
 30
0.0
 11
3.58671253028996
 21
13.71088815037384
 31
0.0
  0
LINE
  5
87
330
7E
100
AcDbEntity
  8
중심선
100
AcDbLine
 10
2.750260043222114
 20
10.84717430164391
 30
0.0
 11
6.196535287059397
 21
10.84717430164391
 31
0.0
  0
LINE
  5
88
330
7E
100
AcDbEntity
  8
중심선
100
AcDbLine
 10
12.29416204261559
 20
16.24717430164393
 30
0.0
 11
5.245725140726316
 21
7.84717430164391
 31
0.0
  0
LINE
  5
89
330
7E
100
AcDbEntity
  8
중심선
100
AcDbLine
 10
10.72767329541681
 20
16.24717430164393
 30
0.0
 11
6.196535287059397
 21
10.84717430164391
 31
0.0
  0
LINE
  5
8A
330
7E
100
AcDbEntity
  8
중심선
100
AcDbLine
 10
7.28139805157953
 20
16.24717430164393
 30
0.0
 11
2.750260043222114
 21
10.84717430164391
 31
0.0
  0
LINE
  5
8B
330
7E
100
AcDbEntity
  8
중심선
100
AcDbLine
 10
5.714909304380834
 20
16.24717430164393
 30
0.0
 11
3.58671253028996
 21
13.71088815037384
 31
0.0
  0
LINE
  5
8C
330
7E
100
AcDbEntity
  8
중심선
100
AcDbLine
 10
2.268634060543552
 20
16.24717430164393
 30
0.0
 11
0.1404042013395286
 21
13.71084872107135
 31
0.0
  0
LINE
  5
8D
330
7E
100
AcDbEntity
  8
중심선
100
AcDbLine
 10
7.28139805157953
 20
16.24717430164393
 30
0.0
 11
10.72767329541681
 21
16.24717430164393
 31
0.0
  0
LINE
  5
8E
330
7E
100
AcDbEntity
  8
중심선
100
AcDbLine
 10
12.29416204261559
 20
16.24717430164393
 30
0.0
 11
15.74043728645272
 21
16.24717430164393
 31
0.0
  0
LINE
  5
8F
330
7E
100
AcDbEntity
  8
중심선
100
AcDbLine
 10
19.22036997980202
 20
11.08717430171403
 30
0.0
 11
23.66174974927406
 21
11.08717430171406
 31
0.0
  0
LINE
  5
90
330
7E
100
AcDbEntity
  8
중심선
100
AcDbLine
 10
19.22039502424796
 20
13.00717430171391
 30
0.0
 11
19.22036997980202
 21
11.08717430171403
 31
0.0
  0
LINE
  5
91
330
7E
100
AcDbEntity
  8
중심선
100
AcDbLine
 10
19.22039502424796
 20
13.00717430171391
 30
0.0
 11
26.96566020931264
 21
13.00717430171391
 31
0.0
  0
LINE
  5
92
330
7E
100
AcDbEntity
  8
중심선
100
AcDbLine
 10
22.22332737316547
 20
13.45928029700563
 30
0.0
 11
24.52862924686651
 21
15.39360700705356
 31
0.0
  0
ATTDEF
  5
94
330
7E
100
AcDbEntity
  8
FORMAT
 62
     2
100
AcDbText
 10
-9.18129528874128
 20
2.075366912832191
 30
0.0
 40
4.233333333333333
  1
E5078152 [ 3 FLUTE ]
 41
0.75
  7
SLDTEXTSTYLE0
 11
-9.18129528874128
 21
-0.0412997538344756
 31
0.0
100
AcDbAttributeDefinition
  3

  2
AUTOATTR0
 70
     0
 74
     1
  0
ENDBLK
  5
80
330
7E
100
AcDbEntity
  8
0
100
AcDbBlockEnd
  0
BLOCK
  5
E9
330
E8
100
AcDbEntity
  8
0
100
AcDbBlockBegin
  2
_D
 70
     0
 10
0.0
 20
0.0
 30
0.0
  3
_D
  1
_D
  0
LINE
  5
EB
330
E8
100
AcDbEntity
  8
치수문자_일반주서
 62
     0
370
    -2
100
AcDbLine
 10
58.58682204974695
 20
2.44375
 30
0.0
 11
58.58682204974695
 21
35.77958463022345
 31
0.0
  0
LINE
  5
EC
330
E8
100
AcDbEntity
  8
치수문자_일반주서
 62
     0
370
    -2
100
AcDbLine
 10
14.13682204974697
 20
3.546175262632624
 30
0.0
 11
14.13682204974697
 21
35.77958463022345
 31
0.0
  0
LINE
  5
ED
330
E8
100
AcDbEntity
  8
치수문자_일반주서
 62
     0
370
    -2
100
AcDbLine
 10
55.28482204974695
 20
35.77958463022345
 30
0.0
 11
17.43882204974697
 21
35.77958463022345
 31
0.0
  0
SOLID
  5
EE
330
E8
100
AcDbEntity
  8
치수문자_일반주서
 62
     0
100
AcDbTrace
 10
55.28482204974695
 20
35.22925129689012
 30
0.0
 11
55.28482204974695
 21
36.32991796355679
 31
0.0
 12
58.58682204974695
 22
35.77958463022345
 32
0.0
 13
58.58682204974695
 23
35.77958463022345
 33
0.0
  0
SOLID
  5
EF
330
E8
100
AcDbEntity
  8
치수문자_일반주서
 62
     0
100
AcDbTrace
 10
17.43882204974697
 20
36.32991796355679
 30
0.0
 11
17.43882204974697
 21
35.22925129689012
 31
0.0
 12
14.13682204974697
 22
35.77958463022345
 32
0.0
 13
14.13682204974697
 23
35.77958463022345
 33
0.0
  0
MTEXT
  5
F0
330
E8
100
AcDbEntity
  8
치수문자_일반주서
 62
     0
100
AcDbMText
 10
35.97088897924418
 20
40.15458463022345
 30
0.0
 40
3.5
 41
0.0
 71
     2
 72
     1
  1
\A1;44.45 [1 3/4]
  7
SLDTEXTSTYLE0
 73
     1
 44
1.0
  0
POINT
  5
F1
330
E8
100
AcDbEntity
  8
Defpoints
 62
     0
100
AcDbPoint
 10
58.58682204974695
 20
2.38125
 30
0.0
  0
POINT
  5
F2
330
E8
100
AcDbEntity
  8
Defpoints
 62
     0
100
AcDbPoint
 10
14.13682204974697
 20
3.483675262632624
 30
0.0
  0
POINT
  5
F3
330
E8
100
AcDbEntity
  8
Defpoints
 62
     0
100
AcDbPoint
 10
14.13682204974697
 20
35.77958463022345
 30
0.0
  0
ENDBLK
  5
EA
330
E8
100
AcDbEntity
  8
0
100
AcDbBlockEnd
  0
BLOCK
  5
FD
330
FC
100
AcDbEntity
  8
0
100
AcDbBlockBegin
  2
_D_1
 70
     0
 10
0.0
 20
0.0
 30
0.0
  3
_D_1
  1
_D_1
  0
LINE
  5
FF
330
FC
100
AcDbEntity
  8
치수문자_일반주서
 62
     0
370
    -2
100
AcDbLine
 10
58.58682204974695
 20
2.44375
 30
0.0
 11
58.58682204974694
 21
48.55958479988597
 31
0.0
  0
LINE
  5
100
330
FC
100
AcDbEntity
  8
치수문자_일반주서
 62
     0
370
    -2
100
AcDbLine
 10
-30.31317795025305
 20
4.015000000000018
 30
0.0
 11
-30.31317795025306
 21
48.55958479988597
 31
0.0
  0
LINE
  5
101
330
FC
100
AcDbEntity
  8
치수문자_일반주서
 62
     0
370
    -2
100
AcDbLine
 10
55.28482204974694
 20
48.55958479988597
 30
0.0
 11
-27.01117795025306
 21
48.55958479988597
 31
0.0
  0
SOLID
  5
102
330
FC
100
AcDbEntity
  8
치수문자_일반주서
 62
     0
100
AcDbTrace
 10
55.28482204974694
 20
48.00925146655263
 30
0.0
 11
55.28482204974694
 21
49.1099181332193
 31
0.0
 12
58.58682204974694
 22
48.55958479988597
 32
0.0
 13
58.58682204974694
 23
48.55958479988597
 33
0.0
  0
SOLID
  5
103
330
FC
100
AcDbEntity
  8
치수문자_일반주서
 62
     0
100
AcDbTrace
 10
-27.01117795025306
 20
49.1099181332193
 30
0.0
 11
-27.01117795025306
 21
48.00925146655263
 31
0.0
 12
-30.31317795025306
 22
48.55958479988597
 32
0.0
 13
-30.31317795025306
 23
48.55958479988597
 33
0.0
  0
MTEXT
  5
104
330
FC
100
AcDbEntity
  8
치수문자_일반주서
 62
     0
100
AcDbMText
 10
16.12480554170057
 20
52.93458479988597
 30
0.0
 40
3.5
 41
0.0
 71
     2
 72
     1
  1
\A1;88.90 [3 1/2]
  7
SLDTEXTSTYLE0
 73
     1
 44
1.0
  0
POINT
  5
105
330
FC
100
AcDbEntity
  8
Defpoints
 62
     0
100
AcDbPoint
 10
58.58682204974695
 20
2.38125
 30
0.0
  0
POINT
  5
106
330
FC
100
AcDbEntity
  8
Defpoints
 62
     0
100
AcDbPoint
 10
-30.31317795025305
 20
3.952500000000019
 30
0.0
  0
POINT
  5
107
330
FC
100
AcDbEntity
  8
Defpoints
 62
     0
100
AcDbPoint
 10
-30.31317795025305
 20
48.55958479988597
 30
0.0
  0
ENDBLK
  5
FE
330
FC
100
AcDbEntity
  8
0
100
AcDbBlockEnd
  0
BLOCK
  5
111
330
110
100
AcDbEntity
  8
0
100
AcDbBlockBegin
  2
_D_2
 70
     0
 10
0.0
 20
0.0
 30
0.0
  3
_D_2
  1
_D_2
  0
LINE
  5
113
330
110
100
AcDbEntity
  8
치수문자_일반주서
 62
     0
370
    -2
100
AcDbLine
 10
-29.56567795025304
 20
4.762500000000007
 30
0.0
 11
-43.31317795025306
 21
4.762499999999956
 31
0.0
  0
LINE
  5
114
330
110
100
AcDbEntity
  8
치수문자_일반주서
 62
     0
370
    -2
100
AcDbLine
 10
-29.56567795025304
 20
-4.76249999999999
 30
0.0
 11
-43.31317795025302
 21
-4.762500000000041
 31
0.0
  0
LINE
  5
115
330
110
100
AcDbEntity
  8
치수문자_일반주서
 62
     0
370
    -2
100
AcDbLine
 10
-43.31317795025304
 20
1.460499999999956
 30
0.0
 11
-43.31317795025303
 21
-1.460500000000041
 31
0.0
  0
SOLID
  5
116
330
110
100
AcDbEntity
  8
치수문자_일반주서
 62
     0
100
AcDbTrace
 10
-42.76284461691971
 20
1.460499999999958
 30
0.0
 11
-43.86351128358638
 21
1.460499999999954
 31
0.0
 12
-43.31317795025306
 22
4.762499999999956
 32
0.0
 13
-43.31317795025306
 23
4.762499999999956
 33
0.0
  0
SOLID
  5
117
330
110
100
AcDbEntity
  8
치수문자_일반주서
 62
     0
100
AcDbTrace
 10
-43.86351128358637
 20
-1.460500000000043
 30
0.0
 11
-42.7628446169197
 21
-1.460500000000039
 31
0.0
 12
-43.31317795025302
 22
-4.762500000000041
 32
0.0
 13
-43.31317795025302
 23
-4.762500000000041
 33
0.0
  0
MTEXT
  5
118
330
110
100
AcDbEntity
  8
치수문자_일반주서
 62
     0
100
AcDbMText
 10
-47.68817795025304
 20
1.304665379287219
 30
0.0
 40
3.5
 41
0.0
 71
     2
 72
     1
  1
\A1;%%c9.53 [3/8]
  7
SLDTEXTSTYLE0
 11
-3.729883127349609E-15
 21
1.0
 31
0.0
 73
     1
 44
1.0
  0
POINT
  5
119
330
110
100
AcDbEntity
  8
Defpoints
 62
     0
100
AcDbPoint
 10
-29.50317795025304
 20
4.762500000000007
 30
0.0
  0
POINT
  5
11A
330
110
100
AcDbEntity
  8
Defpoints
 62
     0
100
AcDbPoint
 10
-29.50317795025304
 20
-4.76249999999999
 30
0.0
  0
POINT
  5
11B
330
110
100
AcDbEntity
  8
Defpoints
 62
     0
100
AcDbPoint
 10
-43.31317795025302
 20
-4.762500000000041
 30
0.0
  0
ENDBLK
  5
112
330
110
100
AcDbEntity
  8
0
100
AcDbBlockEnd
  0
BLOCK
  5
124
330
123
100
AcDbEntity
  8
0
100
AcDbBlockBegin
  2
SW_DOWELSYMBOL_0
 70
     0
 10
0.0
 20
0.0
 30
0.0
  3
SW_DOWELSYMBOL_0
  1
SW_DOWELSYMBOL_0
  0
CIRCLE
  5
126
330
123
100
AcDbEntity
  8
외형선
 62
     0
100
AcDbCircle
 10
0.0
 20
0.0
 30
0.0
 40
2.999999999999999
  0
HATCH
  5
127
330
123
100
AcDbEntity
  8
0
  6
Continuous
 62
     0
370
    30
100
AcDbHatch
 10
0.0
 20
0.0
 30
0.0
210
0.0
220
0.0
230
1.0
  2
SOLID
 70
     1
 71
     0
 91
        1
 92
        0
 93
        3
 72
     2
 10
0.0
 20
0.0
 40
2.999999999999999
 50
0.0
 51
90.0
 73
     1
 72
     1
 10
0.0
 20
2.999999999999999
 11
0.0
 21
0.0
 72
     1
 10
0.0
 20
0.0
 11
2.999999999999999
 21
0.0
 97
        0
 75
     0
 76
     1
 98
        1
 10
0.0
 20
0.0
  0
HATCH
  5
128
330
123
100
AcDbEntity
  8
0
  6
Continuous
 62
     0
370
    30
100
AcDbHatch
 10
0.0
 20
0.0
 30
0.0
210
0.0
220
0.0
230
1.0
  2
SOLID
 70
     1
 71
     0
 91
        1
 92
        0
 93
        3
 72
     2
 10
0.0
 20
0.0
 40
2.999999999999999
 50
180.0
 51
270.0000000000008
 73
     1
 72
     1
 10
0.0
 20
-2.999999999999999
 11
0.0
 21
0.0
 72
     1
 10
0.0
 20
0.0
 11
-2.999999999999999
 21
0.0
 97
        0
 75
     0
 76
     1
 98
        1
 10
0.0
 20
0.0
  0
ENDBLK
  5
125
330
123
100
AcDbEntity
  8
0
100
AcDbBlockEnd
  0
BLOCK
  5
15C
330
15B
100
AcDbEntity
  8
0
100
AcDbBlockBegin
  2
*D6
 70
     1
 10
0.0
 20
0.0
 30
0.0
  3
*D6
  1
*D6
  0
LINE
  5
15E
330
15B
100
AcDbEntity
  8
치수문자_일반주서
 62
     0
370
    -2
100
AcDbLine
 10
58.62346883860911
 20
-2.38125
 30
0.0
 11
71.51723088446414
 21
-2.381250000000001
 31
0.0
  0
LINE
  5
15F
330
15B
100
AcDbEntity
  8
치수문자_일반주서
 62
     0
370
    -2
100
AcDbLine
 10
58.62346883860911
 20
2.38125
 30
0.0
 11
71.51723088446414
 21
2.381249999999999
 31
0.0
  0
LINE
  5
160
330
15B
100
AcDbEntity
  8
치수문자_일반주서
 62
     0
370
    -2
100
AcDbLine
 10
71.51723088446414
 20
5.683249999999998
 30
0.0
 11
71.51723088446414
 21
36.98525
 31
0.0
  0
LINE
  5
161
330
15B
100
AcDbEntity
  8
치수문자_일반주서
 62
     0
370
    -2
100
AcDbLine
 10
71.51723088446414
 20
-2.381250000000001
 30
0.0
 11
71.51723088446414
 21
2.381249999999999
 31
0.0
  0
LINE
  5
162
330
15B
100
AcDbEntity
  8
치수문자_일반주서
 62
     0
370
    -2
100
AcDbLine
 10
71.51723088446414
 20
-5.68325
 30
0.0
 11
71.51723088446414
 21
-8.98525
 31
0.0
  0
SOLID
  5
163
330
15B
100
AcDbEntity
  8
치수문자_일반주서
 62
     0
100
AcDbTrace
 10
72.06756421779747
 20
-5.68325
 30
0.0
 11
70.96689755113081
 21
-5.68325
 31
0.0
 12
71.51723088446414
 22
-2.381250000000001
 32
0.0
 13
71.51723088446414
 23
-2.381250000000001
 33
0.0
  0
SOLID
  5
164
330
15B
100
AcDbEntity
  8
치수문자_일반주서
 62
     0
100
AcDbTrace
 10
70.96689755113081
 20
5.683249999999998
 30
0.0
 11
72.06756421779747
 21
5.683249999999998
 31
0.0
 12
71.51723088446414
 22
2.381249999999999
 32
0.0
 13
71.51723088446414
 23
2.381249999999999
 33
0.0
  0
MTEXT
  5
165
330
15B
100
AcDbEntity
  8
치수문자_일반주서
 62
     0
100
AcDbMText
 10
68.89223088446414
 20
22.98525
 30
0.0
 40
3.5
 41
0.0
 71
     5
 72
     1
  1
\A1;{%%c4.76 [3/16]}
  7
SLDTEXTSTYLE0
 11
0.0
 21
1.0
 31
0.0
 73
     1
 44
1.0
  0
POINT
  5
166
330
15B
100
AcDbEntity
  8
Defpoints
 62
     0
100
AcDbPoint
 10
58.56096883860911
 20
-2.38125
 30
0.0
  0
POINT
  5
167
330
15B
100
AcDbEntity
  8
Defpoints
 62
     0
100
AcDbPoint
 10
58.56096883860911
 20
2.38125
 30
0.0
  0
POINT
  5
168
330
15B
100
AcDbEntity
  8
Defpoints
 62
     0
100
AcDbPoint
 10
71.51723088446414
 20
2.381249999999999
 30
0.0
  0
ENDBLK
  5
15D
330
15B
100
AcDbEntity
  8
0
100
AcDbBlockEnd
  0
BLOCK
  5
170
330
16F
100
AcDbEntity
  8
0
100
AcDbBlockBegin
  2
*D7
 70
     1
 10
0.0
 20
0.0
 30
0.0
  3
*D7
  1
*D7
  0
LINE
  5
172
330
16F
100
AcDbEntity
  8
치수문자_일반주서
 62
     0
370
    -2
100
AcDbLine
 10
30.83949420155821
 20
9.649260716699413
 30
0.0
 11
31.4904491247595
 21
17.49731032714149
 31
0.0
  0
LINE
  5
173
330
16F
100
AcDbEntity
  8
치수문자_일반주서
 62
     0
370
    -2
100
AcDbLine
 10
32.24963450780962
 20
3.009374576208404
 30
0.0
 11
30.48000361044922
 21
3.055713992093093
 31
0.0
  0
ARC
  5
174
330
16F
100
AcDbEntity
  8
치수문자_일반주서
 62
     0
370
    -2
100
AcDbCircle
 10
147.1730130208484
 20
-0.0000000000000004
 30
0.0
 40
116.7330108977619
100
AcDbArc
 50
175.2584666833246
 51
176.8792333416623
  0
ARC
  5
175
330
16F
100
AcDbEntity
  8
치수문자_일반주서
 62
     0
370
    -2
100
AcDbCircle
 10
147.1730130208484
 20
-0.0000000000000004
 30
0.0
 40
116.7330108977619
100
AcDbArc
 50
181.6207666583377
 51
183.2415333166754
  0
SOLID
  5
176
330
16F
100
AcDbEntity
  8
치수문자_일반주서
 62
     0
100
AcDbTrace
 10
30.06323073380492
 20
6.377215331408104
 30
0.0
 11
31.16300267502299
 21
6.332844300086524
 31
0.0
 12
30.48000361044922
 22
3.055713992093093
 32
0.0
 13
30.48000361044922
 23
3.055713992093093
 33
0.0
  0
SOLID
  5
177
330
16F
100
AcDbEntity
  8
치수문자_일반주서
 62
     0
100
AcDbTrace
 10
31.03698187026868
 20
-3.293886148492712
 30
0.0
 11
29.93642529523417
 21
-3.309453301714333
 31
0.0
 12
30.44000212308656
 22
-0.0000000000000004
 32
0.0
 13
30.44000212308656
 23
-0.0000000000000004
 33
0.0
  0
MTEXT
  5
178
330
16F
100
AcDbEntity
  8
치수문자_일반주서
 62
     0
100
AcDbMText
 10
28.54895512634483
 20
13.79027049632088
 30
0.0
 40
3.5
 41
0.0
 71
     5
 72
     1
  1
\A1;1.5%%d
  7
SLDTEXTSTYLE0
 11
0.08266094262873518
 21
0.9965777283101047
 31
0.0
 73
     1
 44
1.0
  0
POINT
  5
179
330
16F
100
AcDbEntity
  8
Defpoints
 62
     0
100
AcDbPoint
 10
30.4444469584516
 20
1.018674763431386
 30
0.0
  0
POINT
  5
17A
330
16F
100
AcDbEntity
  8
Defpoints
 62
     0
100
AcDbPoint
 10
35.46767354557316
 20
2.925107258358947
 30
0.0
  0
POINT
  5
17B
330
16F
100
AcDbEntity
  8
Defpoints
 62
     0
100
AcDbPoint
 10
-33.31317795025306
 20
0.0
 30
0.0
  0
POINT
  5
17C
330
16F
100
AcDbEntity
  8
Defpoints
 62
     0
100
AcDbPoint
 10
62.26790590790507
 20
0.0
 30
0.0
  0
POINT
  5
17D
330
16F
100
AcDbEntity
  8
Defpoints
 62
     0
100
AcDbPoint
 10
32.3121130906206
 20
3.007738516939162
 30
0.0
  0
ENDBLK
  5
171
330
16F
100
AcDbEntity
  8
0
100
AcDbBlockEnd
  0
ENDSEC
  0
SECTION
  2
ENTITIES
  0
LINE
  5
95
330
1F
100
AcDbEntity
  8
0
  6
Continuous
 62
     4
370
    15
100
AcDbLine
 10
12.00000000000001
 20
4.762500000000013
 30
0.0
 11
-29.50317795025304
 21
4.762500000000007
 31
0.0
  0
LINE
  5
96
330
1F
100
AcDbEntity
  8
0
  6
Continuous
 62
     4
370
    15
100
AcDbLine
 10
-29.50317795025304
 20
-4.76249999999999
 30
0.0
 11
12.00000000000001
 21
-4.762499999999984
 31
0.0
  0
LINE
  5
97
330
1F
100
AcDbEntity
  8
0
  6
Continuous
 62
     4
370
    15
100
AcDbLine
 10
-29.50317795025304
 20
4.762500000000006
 30
0.0
 11
-30.31317795025305
 21
3.952500000000019
 31
0.0
  0
LINE
  5
98
330
1F
100
AcDbEntity
  8
0
  6
Continuous
 62
     4
370
    15
100
AcDbLine
 10
-30.31317795025305
 20
-3.952500000000003
 30
0.0
 11
-29.50317795025304
 21
-4.76249999999999
 31
0.0
  0
LINE
  5
99
330
1F
100
AcDbEntity
  8
0
  6
Continuous
 62
     4
370
    15
100
AcDbLine
 10
12.00000000000001
 20
-4.762499999999982
 30
0.0
 11
13.12082204974696
 21
-3.581399999999985
 31
0.0
  0
LINE
  5
9A
330
1F
100
AcDbEntity
  8
0
  6
Continuous
 62
     4
370
    15
100
AcDbLine
 10
13.12082204974696
 20
3.581400000000013
 30
0.0
 11
12.00000000000001
 21
4.76250000000001
 31
0.0
  0
LINE
  5
9B
330
1F
100
AcDbEntity
  8
0
  6
Continuous
 62
     1
370
    15
100
AcDbLine
 10
42.0644254127147
 20
-2.752365231354562
 30
0.0
 11
45.05576617239229
 21
-2.674034216834933
 31
0.0
  0
LINE
  5
9C
330
1F
100
AcDbEntity
  8
0
  6
Continuous
 62
     1
370
    15
100
AcDbLine
 10
22.53056397313815
 20
-3.263877394954678
 30
0.0
 11
25.88695123947403
 21
-3.175987301242589
 31
0.0
  0
LINE
  5
9D
330
1F
100
AcDbEntity
  8
0
  6
Continuous
 62
     1
370
    15
100
AcDbLine
 10
16.29896245771634
 20
3.427057623487968
 30
0.0
 11
14.13682204974697
 21
3.483675262632624
 31
0.0
  0
LINE
  5
9E
102
{ACAD_REACTORS
102
}
330
1F
100
AcDbEntity
  8
0
  6
Continuous
 62
     1
370
    15
100
AcDbLine
 10
35.46767354557316
 20
2.925107258358947
 30
0.0
 11
32.3121130906206
 21
3.007738516939162
 31
0.0
  0
LINE
  5
9F
330
1F
100
AcDbEntity
  8
0
  6
Continuous
 62
     1
370
    15
100
AcDbLine
 10
54.66313124013878
 20
2.422456508684407
 30
0.0
 11
51.78086873682595
 21
2.497931208537965
 31
0.0
  0
LINE
  5
A0
330
1F
100
AcDbEntity
  8
0
  6
Continuous
 62
     1
370
    15
100
AcDbLine
 10
55.00822320337
 20
-2.413419957601048
 30
0.0
 11
56.26790590790508
 21
-2.380434005098031
 31
0.0
  0
LINE
  5
A1
330
1F
100
AcDbEntity
  8
0
  6
Continuous
 62
     1
370
    15
100
AcDbLine
 10
35.56598039610465
 20
-2.922533002881186
 30
0.0
 11
38.66239105992825
 21
-2.841450636092308
 31
0.0
  0
LINE
  5
A2
330
1F
100
AcDbEntity
  8
0
  6
Continuous
 62
     1
370
    15
100
AcDbLine
 10
15.99757126338073
 20
-3.434949829664455
 30
0.0
 11
19.49670479005294
 21
-3.343321793574904
 31
0.0
  0
LINE
  5
A3
330
1F
100
AcDbEntity
  8
0
  6
Continuous
 62
     1
370
    15
100
AcDbLine
 10
29.08085932009775
 20
3.092351874744212
 30
0.0
 11
25.79310937124843
 21
3.178444637043879
 31
0.0
  0
LINE
  5
A4
330
1F
100
AcDbEntity
  8
0
  6
Continuous
 62
     1
370
    15
100
AcDbLine
 10
48.25511322196671
 20
2.590256365922197
 30
0.0
 11
45.3082742830213
 21
2.667422059254447
 31
0.0
  0
LINE
  5
A5
330
1F
100
AcDbEntity
  8
0
  6
Continuous
 62
     1
370
    15
100
AcDbLine
 10
48.54728807366654
 20
-2.582605498171067
 30
0.0
 11
51.457352344452
 21
-2.506402783414986
 31
0.0
  0
LINE
  5
A6
330
1F
100
AcDbEntity
  8
0
  6
Continuous
 62
     1
370
    15
100
AcDbLine
 10
29.05354331573527
 20
-3.093067169492003
 30
0.0
 11
32.27536961752681
 21
-3.008700678643747
 31
0.0
  0
LINE
  5
A7
330
1F
100
AcDbEntity
  8
0
  6
Continuous
 62
     1
370
    15
100
AcDbLine
 10
22.69210205993666
 20
3.259647371283364
 30
0.0
 11
19.26464260301437
 21
3.349398555803899
 31
0.0
  0
LINE
  5
A8
330
1F
100
AcDbEntity
  8
0
  6
Continuous
 62
     1
370
    15
100
AcDbLine
 10
41.85847582163328
 20
2.757758211193855
 30
0.0
 11
38.81622365768143
 21
2.837422387752788
 31
0.0
  0
LINE
  5
A9
330
1F
100
AcDbEntity
  8
0
  6
Continuous
 62
     4
370
    15
100
AcDbLine
 10
14.13682204974697
 20
3.483675262632624
 30
0.0
 11
13.12082204974696
 21
3.581400000000013
 31
0.0
  0
ARC
  5
AA
330
1F
100
AcDbEntity
  8
0
  6
Continuous
 62
     1
370
    15
100
AcDbCircle
 10
56.20557204974696
 20
0.0000000000000144
 30
0.0
 40
2.381250000000001
100
AcDbArc
 50
271.5000000000009
 51
293.3409628545136
  0
ARC
  5
AB
330
1F
100
AcDbEntity
  8
0
  6
Continuous
 62
     1
370
    15
100
AcDbCircle
 10
56.20557204974696
 20
0.0000000000000144
 30
0.0
 40
2.381250000000001
100
AcDbArc
 50
27.85617637447596
 51
44.49907703021186
  0
LINE
  5
AC
330
1F
100
AcDbEntity
  8
0
  6
Continuous
 62
     4
370
    15
100
AcDbLine
 10
12.00000000000001
 20
4.76250000000001
 30
0.0
 11
12.00000000000001
 21
-4.762499999999984
 31
0.0
  0
LINE
  5
AD
330
1F
100
AcDbEntity
  8
0
  6
Continuous
 62
     4
370
    15
100
AcDbLine
 10
-29.50317795025304
 20
4.762500000000007
 30
0.0
 11
-29.50317795025304
 21
-4.76249999999999
 31
0.0
  0
LINE
  5
AE
330
1F
100
AcDbEntity
  8
0
  6
Continuous
 62
     4
370
    15
100
AcDbLine
 10
-30.31317795025305
 20
-3.952500000000003
 30
0.0
 11
-30.31317795025305
 21
3.952500000000019
 31
0.0
  0
LINE
  5
AF
330
1F
100
AcDbEntity
  8
0
  6
Continuous
 62
     4
370
    15
100
AcDbLine
 10
13.12082204974696
 20
3.581400000000013
 30
0.0
 11
13.12082204974744
 21
3.548367689561973
 31
0.0
  0
SPLINE
  5
B0
330
1F
100
AcDbEntity
  8
0
  6
Continuous
 62
     4
370
    15
100
AcDbSpline
210
0.0
220
0.0
230
1.0
 70
     8
 71
     3
 72
    12
 73
     8
 74
     0
 42
0.000000001
 43
0.00000001
 40
0.0
 40
0.0
 40
0.0
 40
0.0
 40
0.25
 40
0.25
 40
0.5
 40
0.5
 40
1.0
 40
1.0
 40
1.0
 40
1.0
 10
12.24682204974692
 20
4.489834450915104
 30
0.0
 10
12.31946699683523
 20
4.416251295167414
 30
0.0
 10
12.39568899316981
 20
4.336372277277849
 30
0.0
 10
12.54716786265822
 20
4.176252021695905
 30
0.0
 10
12.62105453569471
 20
4.0972763475803
 30
0.0
 10
12.83986289835381
 20
3.8612810808125
 30
0.0
 10
12.98198364301108
 20
3.705009075893954
 30
0.0
 10
13.12082204974698
 20
3.548367689562022
 30
0.0
  0
LINE
  5
B1
330
1F
100
AcDbEntity
  8
0
  6
Continuous
 62
     4
370
    15
100
AcDbLine
 10
12.24682204974695
 20
3.862885646423431
 30
0.0
 11
12.24682204974695
 21
4.489834450915125
 31
0.0
  0
SPLINE
  5
B2
330
1F
100
AcDbEntity
  8
0
  6
Continuous
 62
     4
370
    15
100
AcDbSpline
210
0.0
220
0.0
230
1.0
 70
     8
 71
     3
 72
    14
 73
    10
 74
     0
 42
0.000000001
 43
0.00000001
 40
0.0
 40
0.0
 40
0.0
 40
0.0
 40
0.25
 40
0.25
 40
0.5
 40
0.5
 40
0.75
 40
0.75
 40
1.0
 40
1.0
 40
1.0
 40
1.0
 10
13.12082204974696
 20
1.799837997052376
 30
0.0
 10
13.02955629487905
 20
1.982167469809403
 30
0.0
 10
12.94444078778519
 20
2.164380237904889
 30
0.0
 10
12.78225583257059
 20
2.52705267795938
 30
0.0
 10
12.70462879944209
 20
2.709004087791748
 30
0.0
 10
12.55823025761173
 20
3.06274921502484
 30
0.0
 10
12.4900460603749
 20
3.23300183188609
 30
0.0
 10
12.36192319823536
 20
3.55962572773872
 30
0.0
 10
12.30165087105883
 20
3.716900806778536
 30
0.0
 10
12.24682204974703
 20
3.862885646422397
 30
0.0
  0
LINE
  5
B3
330
1F
100
AcDbEntity
  8
0
  6
Continuous
 62
     4
370
    15
100
AcDbLine
 10
13.12082204974695
 20
1.799837997052366
 30
0.0
 11
13.12082204974745
 21
-2.194462948182151
 31
0.0
  0
SPLINE
  5
B4
330
1F
100
AcDbEntity
  8
0
  6
Continuous
 62
     4
370
    15
100
AcDbSpline
210
0.0
220
0.0
230
1.0
 70
     8
 71
     3
 72
    12
 73
     8
 74
     0
 42
0.000000001
 43
0.00000001
 40
0.0
 40
0.0
 40
0.0
 40
0.0
 40
0.25
 40
0.25
 40
0.5
 40
0.5
 40
1.0
 40
1.0
 40
1.0
 40
1.0
 10
12.24682204974693
 20
-2.5360703388271
 30
0.0
 10
12.31946699683523
 20
-2.462465820521299
 30
0.0
 10
12.39568899316981
 20
-2.41245156333787
 30
0.0
 10
12.54716786265822
 20
-2.334241238332679
 30
0.0
 10
12.62105453569471
 20
-2.307046297352352
 30
0.0
 10
12.83986289835381
 20
-2.240435863476463
 30
0.0
 10
12.98198364301108
 20
-2.21595719567578
 30
0.0
 10
13.12082204974698
 20
-2.194462948180661
 30
0.0
  0
LINE
  5
B5
330
1F
100
AcDbEntity
  8
0
  6
Continuous
 62
     4
370
    15
100
AcDbLine
 10
12.24682204974695
 20
-3.934519467998223
 30
0.0
 11
12.24682204974695
 21
-2.536070338827102
 31
0.0
  0
SPLINE
  5
B6
330
1F
100
AcDbEntity
  8
0
  6
Continuous
 62
     4
370
    15
100
AcDbSpline
210
0.0
220
0.0
230
1.0
 70
     8
 71
     3
 72
    14
 73
    10
 74
     0
 42
0.000000001
 43
0.00000001
 40
0.0
 40
0.0
 40
0.0
 40
0.0
 40
0.25
 40
0.25
 40
0.5
 40
0.5
 40
0.75
 40
0.75
 40
1.0
 40
1.0
 40
1.0
 40
1.0
 10
13.12082204974696
 20
-3.581384429643058
 30
0.0
 10
13.02955629487905
 20
-3.677101020931982
 30
0.0
 10
12.94444078778519
 20
-3.756278172426907
 30
0.0
 10
12.78225583257059
 20
-3.883133922213653
 30
0.0
 10
12.70462879944209
 20
-3.931026920262853
 30
0.0
 10
12.55823025761173
 20
-3.99212387907471
 30
0.0
 10
12.4900460603749
 20
-4.005379196245817
 30
0.0
 10
12.36192319823536
 20
-3.99709836441712
 30
0.0
 10
12.30165087105883
 20
-3.975271449298567
 30
0.0
 10
12.24682204974703
 20
-3.93451946799831
 30
0.0
  0
SPLINE
  5
B7
330
1F
100
AcDbEntity
  8
0
  6
Continuous
 62
     1
370
    15
100
AcDbSpline
210
0.0
220
0.0
230
1.0
 70
     8
 71
     3
 72
    18
 73
    14
 74
     0
 42
0.000000001
 43
0.00000001
 40
0.0
 40
0.0
 40
0.0
 40
0.0
 40
0.0649544425653855
 40
0.13065222223988
 40
0.2321013125819704
 40
0.3364729551650721
 40
0.4381392030963799
 40
0.5427780800073144
 40
0.6439546240942199
 40
0.7480870238417233
 40
0.8488260820367627
 40
0.9525055050094612
 40
1.0
 40
1.0
 40
1.0
 40
1.0
 10
56.26790590790508
 20
-2.062180260439615
 30
0.0
 10
56.09156923161614
 20
-1.991612076206582
 30
0.0
 10
55.73687788627278
 20
-1.849668127104132
 30
0.0
 10
55.10868969260117
 20
-1.509061167432651
 30
0.0
 10
54.37511742604089
 20
-1.028275974975057
 30
0.0
 10
53.54751784038045
 20
-0.3971932658155183
 30
0.0
 10
52.71442584322052
 20
0.2779891396542227
 30
0.0
 10
51.89272575471583
 20
0.9364511178591258
 30
0.0
 10
51.06752893028849
 20
1.539795860459604
 30
0.0
 10
50.25546706581677
 20
2.037061799775374
 30
0.0
 10
49.43990900237597
 20
2.38978238106206
 30
0.0
 10
48.77583049407685
 20
2.573681347495967
 30
0.0
 10
48.37916859388348
 20
2.569893480976014
 30
0.0
 10
48.25454883879945
 20
2.568703442311405
 30
0.0
  0
SPLINE
  5
B8
330
1F
100
AcDbEntity
  8
0
  6
Continuous
 62
     1
370
    15
100
AcDbSpline
210
0.0
220
0.0
230
1.0
 70
     8
 71
     3
 72
    23
 73
    19
 74
     0
 42
0.000000001
 43
0.00000001
 40
0.0
 40
0.0
 40
0.0
 40
0.0
 40
0.0265932427273914
 40
0.0938534823628806
 40
0.1591079201495078
 40
0.2262579170642942
 40
0.2914254906516403
 40
0.3584852042211915
 40
0.423583668430727
 40
0.4905714412414697
 40
0.5556171112316016
 40
0.6225497919519295
 40
0.6875576959300252
 40
0.7544508000107923
 40
0.8194348308316789
 40
0.8863026992316295
 40
0.9512757492762469
 40
1.0
 40
1.0
 40
1.0
 40
1.0
 10
40.33288713008181
 20
-2.371549444724983
 30
0.0
 10
40.23061272834133
 20
-2.426753243763979
 30
0.0
 10
39.86966356323494
 20
-2.62157975787442
 30
0.0
 10
39.26028692764682
 20
-2.794698170000565
 30
0.0
 10
38.49765883922616
 20
-2.872567534823963
 30
0.0
 10
37.74553966723222
 20
-2.765355942725861
 30
0.0
 10
36.98904160741169
 20
-2.488418689528413
 30
0.0
 10
36.24273863992442
 20
-2.060034597753441
 30
0.0
 10
35.49196846835495
 20
-1.499083799938624
 30
0.0
 10
34.75121831209896
 20
-0.8481857791447215
 30
0.0
 10
34.00589603261638
 20
-0.1347292389536267
 30
0.0
 10
33.27043095281888
 20
0.587283110093944
 30
0.0
 10
32.53030346668586
 20
1.287935657654978
 30
0.0
 10
31.79987837375164
 20
1.91412629771893
 30
0.0
 10
31.06469758662327
 20
2.44204352677784
 30
0.0
 10
30.33913520099455
 20
2.824684341251362
 30
0.0
 10
29.67516327982723
 20
3.051960895229952
 30
0.0
 10
29.25881883600427
 20
3.067878557179727
 30
0.0
 10
29.08039708868769
 20
3.074699969355174
 30
0.0
  0
SPLINE
  5
B9
330
1F
100
AcDbEntity
  8
0
  6
Continuous
 62
     1
370
    15
100
AcDbSpline
210
0.0
220
0.0
230
1.0
 70
     8
 71
     3
 72
    17
 73
    13
 74
     0
 42
0.000000001
 43
0.00000001
 40
0.0
 40
0.0
 40
0.0
 40
0.0
 40
0.0948023488267949
 40
0.1940668378075686
 40
0.296202375052218
 40
0.3955688468813325
 40
0.4978086043174759
 40
0.5972886165829415
 40
0.6996445034536379
 40
0.7992491571501515
 40
0.9017326224396296
 40
0.9999999999999999
 40
0.9999999999999999
 40
0.9999999999999999
 40
0.9999999999999999
 10
21.00801641791537
 20
-2.900897658099189
 30
0.0
 10
20.78788308770754
 20
-3.008667607609119
 30
0.0
 10
20.33725523071706
 20
-3.229280003513832
 30
0.0
 10
19.65193180124583
 20
-3.361782740163275
 30
0.0
 10
18.95803442621536
 20
-3.335136248712458
 30
0.0
 10
18.25928150824611
 20
-3.130056185900467
 30
0.0
 10
17.56867391157683
 20
-2.764394931442611
 30
0.0
 10
16.8732644298884
 20
-2.249137194829676
 30
0.0
 10
16.18576707101572
 20
-1.619091384701469
 30
0.0
 10
15.4936227326083
 20
-0.8957678585455273
 30
0.0
 10
14.81236227313456
 20
-0.1294585995295122
 30
0.0
 10
14.35882713725559
 20
0.3858462251682416
 30
0.0
 10
14.13682204974695
 20
0.6380875261182408
 30
0.0
  0
SPLINE
  5
BA
330
1F
100
AcDbEntity
  8
0
  6
Continuous
 62
     4
370
    15
100
AcDbSpline
210
0.0
220
0.0
230
1.0
 70
     8
 71
     3
 72
     8
 73
     4
 74
     0
 42
0.000000001
 43
0.00000001
 40
0.0
 40
0.0
 40
0.0
 40
0.0
 40
1.0
 40
1.0
 40
1.0
 40
1.0
 10
14.13682204974697
 20
0.6380875261182253
 30
0.0
 10
13.79380860956088
 20
1.039272120748585
 30
0.0
 10
13.45765603025484
 20
1.431532251899321
 30
0.0
 10
13.12082204974696
 20
1.799837997052388
 30
0.0
  0
SPLINE
  5
BB
330
1F
100
AcDbEntity
  8
0
  6
Continuous
 62
     4
370
    15
100
AcDbSpline
210
0.0
220
0.0
230
1.0
 70
     8
 71
     3
 72
     8
 73
     4
 74
     0
 42
0.000000001
 43
0.00000001
 40
0.0
 40
0.0
 40
0.0
 40
0.0
 40
1.0
 40
1.0
 40
1.0
 40
1.0
 10
13.12082204974744
 20
3.548367689561973
 30
0.0
 10
13.4583855863101
 20
3.465400570010636
 30
0.0
 10
13.79485673619656
 20
3.325948125138036
 30
0.0
 10
14.13682204974697
 20
3.134536454962431
 30
0.0
  0
SPLINE
  5
BC
330
1F
100
AcDbEntity
  8
0
  6
Continuous
 62
     1
370
    15
100
AcDbSpline
210
0.0
220
0.0
230
1.0
 70
     8
 71
     3
 72
    20
 73
    16
 74
     0
 42
0.000000001
 43
0.00000001
 40
0.0
 40
0.0
 40
0.0
 40
0.0
 40
0.05424603901742
 40
0.1091215537831946
 40
0.1935191263354165
 40
0.2803547943789109
 40
0.3648739141193436
 40
0.4518481609554281
 40
0.5362668995549635
 40
0.6231374917856348
 40
0.7074617769326135
 40
0.7942346938662924
 40
0.8784724449165626
 40
0.965155810373971
 40
1.0
 40
1.0
 40
1.0
 40
1.0
 10
14.13682204974696
 20
3.134536454962436
 30
0.0
 10
14.28598398339339
 20
3.05229602692733
 30
0.0
 10
14.58603873871992
 20
2.886860845787121
 30
0.0
 10
15.11953624025749
 20
2.504421261350911
 30
0.0
 10
15.74457423419149
 20
1.971497087959707
 30
0.0
 10
16.45385963187643
 20
1.269839688908579
 30
0.0
 10
17.17199148518631
 20
0.5011943304480656
 30
0.0
 10
17.88589260500476
 20
-0.2808056261007758
 30
0.0
 10
18.6080579720869
 20
-1.048462040094636
 30
0.0
 10
19.32530170846458
 20
-1.747540534135567
 30
0.0
 10
20.05090970456817
 20
-2.353062312512367
 30
0.0
 10
20.77156761610379
 20
-2.825639760149031
 30
0.0
 10
21.50080030077443
 20
-3.135588038367959
 30
0.0
 10
22.08471103561246
 20
-3.277407103105297
 30
0.0
 10
22.43078766177232
 20
-3.250575759708541
 30
0.0
 10
22.53001420820265
 20
-3.242882719092396
 30
0.0
  0
SPLINE
  5
BD
330
1F
100
AcDbEntity
  8
0
  6
Continuous
 62
     1
370
    15
100
AcDbSpline
210
0.0
220
0.0
230
1.0
 70
     8
 71
     3
 72
    23
 73
    19
 74
     0
 42
0.000000001
 43
0.00000001
 40
0.0
 40
0.0
 40
0.0
 40
0.0
 40
0.038999660901422
 40
0.1055645347538309
 40
0.1740585241352214
 40
0.2406179438622166
 40
0.3091057050244574
 40
0.3756698325463455
 40
0.4441618176343752
 40
0.5107409004231825
 40
0.5792476213042812
 40
0.6458524714103989
 40
0.7143850155636343
 40
0.7810271148419674
 40
0.8495972529320547
 40
0.9162888699944123
 40
0.9849091761556314
 40
1.0
 40
1.0
 40
1.0
 40
1.0
 10
30.68060442006584
 20
2.621126317915543
 30
0.0
 10
30.82520125134302
 20
2.691553149146219
 30
0.0
 10
31.2165968908907
 20
2.88218495212125
 30
0.0
 10
31.86425486319645
 20
3.013536209178481
 30
0.0
 10
32.61675640526803
 20
3.015907939747684
 30
0.0
 10
33.37849851338656
 20
2.832761381602861
 30
0.0
 10
34.13569919627749
 20
2.488076065397889
 30
0.0
 10
34.90216699163685
 20
1.994304779696735
 30
0.0
 10
35.6641543251974
 20
1.390934805379268
 30
0.0
 10
36.43554617218765
 20
0.703910052536574
 30
0.0
 10
37.20248079953166
 20
-0.0126634112332936
 30
0.0
 10
37.97898562265328
 20
-0.727298455526639
 30
0.0
 10
38.75104008915471
 20
-1.383892776084251
 30
0.0
 10
39.53286366770233
 20
-1.95190520747157
 30
0.0
 10
40.3101901310773
 20
-2.391263788207424
 30
0.0
 10
41.0976721421972
 20
-2.663831537737757
 30
0.0
 10
41.67994765423791
 20
-2.777550858880879
 30
0.0
 10
42.0053665230951
 20
-2.743438650962087
 30
0.0
 10
42.06403063174147
 20
-2.737289154227178
 30
0.0
  0
SPLINE
  5
BE
330
1F
100
AcDbEntity
  8
0
  6
Continuous
 62
     1
370
    15
100
AcDbSpline
210
0.0
220
0.0
230
1.0
 70
     8
 71
     3
 72
    15
 73
    11
 74
     0
 42
0.000000001
 43
0.00000001
 40
0.0
 40
0.0
 40
0.0
 40
0.0
 40
0.1181786998742923
 40
0.2525817604557383
 40
0.3835189195325802
 40
0.5182295641686222
 40
0.6495079470476083
 40
0.7845678091051971
 40
0.8912872894422386
 40
1.0
 40
1.0
 40
1.0
 40
1.0
 10
49.99815561241846
 20
2.125728199719377
 30
0.0
 10
50.24229131455737
 20
2.220813765269107
 30
0.0
 10
50.76407929751822
 20
2.424038877459606
 30
0.0
 10
51.55977554304128
 20
2.525242655698401
 30
0.0
 10
52.39201931496506
 20
2.463023114191976
 30
0.0
 10
53.22077626089203
 20
2.222380703424568
 30
0.0
 10
54.06055005688236
 20
1.822094434388414
 30
0.0
 10
54.8447170524758
 20
1.329637797316284
 30
0.0
 10
55.5827960384533
 20
0.7981259892412486
 30
0.0
 10
56.03813166001713
 20
0.447985903584813
 30
0.0
 10
56.26790590790509
 20
0.2712960707955011
 30
0.0
  0
SPLINE
  5
BF
330
1F
100
AcDbEntity
  8
0
  6
Continuous
 62
     1
370
    15
100
AcDbSpline
210
0.0
220
0.0
230
1.0
 70
     8
 71
     3
 72
    14
 73
    10
 74
     0
 42
0.000000001
 43
0.00000001
 40
0.0
 40
0.0
 40
0.0
 40
0.0
 40
0.25
 40
0.25
 40
0.5
 40
0.5
 40
0.75
 40
0.75
 40
1.0
 40
1.0
 40
1.0
 40
1.0
 10
56.26790590790508
 20
0.2712960707954866
 30
0.0
 10
56.43265644672807
 20
0.1441823914847452
 30
0.0
 10
56.59428099102923
 20
0.0171896484947285
 30
0.0
 10
56.9185929141173
 20
-0.2269139285545494
 30
0.0
 10
57.07673271601054
 20
-0.3404164307376218
 30
0.0
 10
57.38105177160563
 20
-0.5418206752775312
 30
0.0
 10
57.52869511723606
 20
-0.63020541785056
 30
0.0
 10
57.7925564589557
 20
-0.7775388262863618
 30
0.0
 10
57.91267028659925
 20
-0.8382918054282008
 30
0.0
 10
58.00744116875624
 20
-0.8952804570972996
 30
0.0
  0
SPLINE
  5
C0
330
1F
100
AcDbEntity
  8
0
  6
Continuous
 62
     1
370
    15
100
AcDbSpline
210
0.0
220
0.0
230
1.0
 70
     8
 71
     3
 72
    14
 73
    10
 74
     0
 42
0.000000001
 43
0.00000001
 40
0.0
 40
0.0
 40
0.0
 40
0.0
 40
0.2499999999999999
 40
0.2499999999999999
 40
0.4999999999999998
 40
0.4999999999999998
 40
0.7499999999999999
 40
0.7499999999999999
 40
1.0
 40
1.0
 40
1.0
 40
1.0
 10
56.7644822478148
 20
-1.628870932602226
 30
0.0
 10
56.86356230714669
 20
-1.537281525013051
 30
0.0
 10
56.97199917105075
 20
-1.445214505493973
 30
0.0
 10
57.200378233664
 20
-1.269163170642679
 30
0.0
 10
57.32022376136617
 20
-1.185335518265551
 30
0.0
 10
57.55493666323562
 20
-1.041645447173906
 30
0.0
 10
57.67062332497839
 20
-0.9817390568423764
 30
0.0
 10
57.86762494552735
 20
-0.9058584799200716
 30
0.0
 10
57.94968424540013
 20
-0.8897812215165257
 30
0.0
 10
58.00744116876485
 20
-0.895280457102673
 30
0.0
  0
SPLINE
  5
C1
330
1F
100
AcDbEntity
  8
0
  6
Continuous
 62
     1
370
    15
100
AcDbSpline
210
0.0
220
0.0
230
1.0
 70
     8
 71
     3
 72
     8
 73
     4
 74
     0
 42
0.000000001
 43
0.00000001
 40
0.0
 40
0.0
 40
0.0
 40
0.0
 40
1.0
 40
1.0
 40
1.0
 40
1.0
 10
56.76448224782701
 20
-1.628870932585937
 30
0.0
 10
56.92820629887759
 20
-1.784021285546596
 30
0.0
 10
57.08804283289184
 20
-1.938840376938679
 30
0.0
 10
57.24582194347298
 20
-2.093484151976575
 30
0.0
  0
SPLINE
  5
C2
330
1F
100
AcDbEntity
  8
0
  6
Continuous
 62
     1
370
    15
100
AcDbSpline
210
0.0
220
0.0
230
1.0
 70
     8
 71
     3
 72
    10
 73
     6
 74
     0
 42
0.000000001
 43
0.00000001
 40
0.0
 40
0.0
 40
0.0
 40
0.0
 40
0.5
 40
0.5
 40
1.0
 40
1.0
 40
1.0
 40
1.0
 10
57.2458219434729
 20
-2.093484151976636
 30
0.0
 10
57.08235025060517
 20
-2.149731785317625
 30
0.0
 10
56.9211552316432
 20
-2.171491614566885
 30
0.0
 10
56.59364654939726
 20
-2.157616402088787
 30
0.0
 10
56.43238758949879
 20
-2.122237290078019
 30
0.0
 10
56.26790590790507
 20
-2.062180260439616
 30
0.0
  0
SPLINE
  5
C3
330
1F
100
AcDbEntity
  8
0
  6
Continuous
 62
     1
370
    15
100
AcDbSpline
210
0.0
220
0.0
230
1.0
 70
     8
 71
     3
 72
    10
 73
     6
 74
     0
 42
0.000000001
 43
0.00000001
 40
0.0
 40
0.0
 40
0.0
 40
0.0
 40
0.3286202970520999
 40
0.6610013170348721
 40
1.0
 40
1.0
 40
1.0
 40
1.0
 10
56.26790590790508
 20
2.06085173834095
 30
0.0
 10
56.09157920792207
 20
2.12698083856247
 30
0.0
 10
55.73690792935918
 20
2.259995818869137
 30
0.0
 10
55.2017885193055
 20
2.390741118069482
 30
0.0
 10
54.84352135472901
 20
2.398895392411218
 30
0.0
 10
54.66262208653874
 20
2.403012717153457
 30
0.0
  0
SPLINE
  5
C4
330
1F
100
AcDbEntity
  8
0
  6
Continuous
 62
     1
370
    15
100
AcDbSpline
210
0.0
220
0.0
230
1.0
 70
     8
 71
     3
 72
    23
 73
    19
 74
     0
 42
0.000000001
 43
0.00000001
 40
0.0
 40
0.0
 40
0.0
 40
0.0
 40
0.0463620057807927
 40
0.1158177074819204
 40
0.1831036204206107
 40
0.2523487584374057
 40
0.3194583083762396
 40
0.388520637589478
 40
0.4554775919376507
 40
0.5243816759307566
 40
0.5912087314244013
 40
0.6599780338784748
 40
0.7266965319530982
 40
0.7953531182609839
 40
0.8619828032355474
 40
0.9305470805848466
 40
0.9971061056311847
 40
1.0
 40
1.0
 40
1.0
 40
1.0
 10
46.78279397291726
 20
-2.20335957505439
 30
0.0
 10
46.60359242052073
 20
-2.28970646245874
 30
0.0
 10
46.15592600431992
 20
-2.505411076160211
 30
0.0
 10
45.45112124614396
 20
-2.667080928114621
 30
0.0
 10
44.66084506888607
 20
-2.692779814556217
 30
0.0
 10
43.88202805858675
 20
-2.535976130300478
 30
0.0
 10
43.09935882529384
 20
-2.210592331047927
 30
0.0
 10
42.32772037072623
 20
-1.741683021011685
 30
0.0
 10
41.55215852176422
 20
-1.151012816626315
 30
0.0
 10
40.78735674046914
 20
-0.4866764700767177
 30
0.0
 10
40.01850290924519
 20
0.2215473307561237
 30
0.0
 10
39.26019296068454
 20
0.9165199138745478
 30
0.0
 10
38.49768143234116
 20
1.567938727131079
 30
0.0
 10
37.74554559872859
 20
2.122192236536617
 30
0.0
 10
36.98899700028486
 20
2.561840297237028
 30
0.0
 10
36.24291512767537
 20
2.826524191993212
 30
0.0
 10
35.73345743864873
 20
2.944623556688574
 30
0.0
 10
35.47821365865354
 20
2.922400439358817
 30
0.0
 10
35.46757841763239
 20
2.921474468864854
 30
0.0
  0
SPLINE
  5
C5
330
1F
100
AcDbEntity
  8
0
  6
Continuous
 62
     1
370
    15
100
AcDbSpline
210
0.0
220
0.0
230
1.0
 70
     8
 71
     3
 72
    24
 73
    20
 74
     0
 42
0.000000001
 43
0.00000001
 40
0.0
 40
0.0
 40
0.0
 40
0.0
 40
0.0018753453096946
 40
0.0639013218091787
 40
0.1277236800415204
 40
0.1897713704207953
 40
0.2536155607471826
 40
0.3156943863031962
 40
0.3795701229736875
 40
0.4416889589405925
 40
0.5056053891767249
 40
0.5677726228345007
 40
0.6317383875076266
 40
0.6939619736258249
 40
0.757985265970601
 40
0.8202727796686565
 40
0.8843614020637585
 40
0.9467200881739397
 40
1.0
 40
1.0
 40
1.0
 40
1.0
 10
27.46011508747603
 20
-2.724386572722783
 30
0.0
 10
27.4529598133902
 20
-2.728859735856671
 30
0.0
 10
27.20914792998496
 20
-2.881280218338435
 30
0.0
 10
26.72374087530202
 20
-3.052809346298852
 30
0.0
 10
26.01111873085204
 20
-3.201957858291247
 30
0.0
 10
25.29379882419703
 20
-3.159812474692442
 30
0.0
 10
24.58540263734982
 20
-2.950082077215707
 30
0.0
 10
23.87203437771336
 20
-2.574520675332154
 30
0.0
 10
23.16752088774251
 20
-2.060523003965928
 30
0.0
 10
22.45799908243959
 20
-1.426479068712001
 30
0.0
 10
21.75719373794945
 20
-0.7163098628917628
 30
0.0
 10
21.05138258056193
 20
0.0441393115086413
 30
0.0
 10
20.35412779377309
 20
0.8023669423448254
 30
0.0
 10
19.65189883075018
 20
1.531086856912805
 30
0.0
 10
18.95804561767912
 20
2.179634342199399
 30
0.0
 10
18.25926925057431
 20
2.726422555785863
 30
0.0
 10
17.56871240300082
 20
3.127447315601234
 30
0.0
 10
16.91283536499593
 20
3.376592366227396
 30
0.0
 10
16.4923629127438
 20
3.402508905688157
 30
0.0
 10
16.29863231084189
 20
3.414449823011171
 30
0.0
  0
SPLINE
  5
C6
330
1F
100
AcDbEntity
  8
0
  6
Continuous
 62
     1
370
    15
100
AcDbSpline
210
0.0
220
0.0
230
1.0
 70
     8
 71
     3
 72
    24
 73
    20
 74
     0
 42
0.000000001
 43
0.00000001
 40
0.0
 40
0.0
 40
0.0
 40
0.0
 40
0.0119251161975196
 40
0.0759890316290548
 40
0.1419136162234014
 40
0.2059058525692597
 40
0.2717563130761102
 40
0.3356828801979854
 40
0.401465381643877
 40
0.4653326122851283
 40
0.5310536528077039
 40
0.5948681807586428
 40
0.6605345687115189
 40
0.7243033134474887
 40
0.7899221518235394
 40
0.8536522975991031
 40
0.9192309629870777
 40
0.9829299268021412
 40
1.0
 40
1.0
 40
1.0
 40
1.0
 10
17.76182837421256
 20
2.991417114849138
 30
0.0
 10
17.80564853722978
 20
3.016243396081649
 30
0.0
 10
18.08487866785087
 20
3.174441021879328
 30
0.0
 10
18.60817308647637
 20
3.313016002014734
 30
0.0
 10
19.32527299038496
 20
3.379494942012041
 30
0.0
 10
20.0509122748368
 20
3.25137075822671
 30
0.0
 10
20.77158718846847
 20
2.956629460572142
 30
0.0
 10
21.50072149237224
 20
2.501450433991561
 30
0.0
 10
22.22495807013643
 20
1.920486661250698
 30
0.0
 10
22.95772536005695
 20
1.234740288886266
 30
0.0
 10
23.68563182005833
 20
0.494439311540373
 30
0.0
 10
24.42214510506347
 20
-0.2731954825187121
 30
0.0
 10
25.15384284431161
 20
-1.011830724059927
 30
0.0
 10
25.89421702941785
 20
-1.694448077113557
 30
0.0
 10
26.62984026721762
 20
-2.2696245081486
 30
0.0
 10
27.37416523622947
 20
-2.72078195051458
 30
0.0
 10
28.11397053299297
 20
-2.996956899282341
 30
0.0
 10
28.67580230822407
 20
-3.115534255009058
 30
0.0
 10
28.98725879087004
 20
-3.082485779836734
 30
0.0
 10
29.05308333395408
 20
-3.07550117396383
 30
0.0
  0
SPLINE
  5
C7
330
1F
100
AcDbEntity
  8
0
  6
Continuous
 62
     1
370
    15
100
AcDbSpline
210
0.0
220
0.0
230
1.0
 70
     8
 71
     3
 72
    23
 73
    19
 74
     0
 42
0.000000001
 43
0.00000001
 40
0.0
 40
0.0
 40
0.0
 40
0.0
 40
0.0076495489315599
 40
0.0757844653214071
 40
0.1458913593152318
 40
0.2140643805762774
 40
0.2842097321259722
 40
0.3524334087081983
 40
0.4226300808047688
 40
0.4909178820592804
 40
0.5611796785085608
 40
0.6295460562025632
 40
0.6998877916768244
 40
0.7683481345588417
 40
0.8387855971439789
 40
0.9073559705185337
 40
0.9779056702553204
 40
1.0
 40
1.0
 40
1.0
 40
1.0
 10
37.12478556721947
 20
2.456903181045694
 30
0.0
 10
37.15321263670103
 20
2.47239580624806
 30
0.0
 10
37.43484104127617
 20
2.625882021957098
 30
0.0
 10
37.97913805027174
 20
2.775345639744939
 30
0.0
 10
38.751002352351
 20
2.870933797750244
 30
0.0
 10
39.53286564721004
 20
2.771697314080493
 30
0.0
 10
40.31022161026907
 20
2.505680850955325
 30
0.0
 10
41.0975471680519
 20
2.080444989943714
 30
0.0
 10
41.88043893883071
 20
1.532008415554249
 30
0.0
 10
42.67347331828582
 20
0.8863345971384471
 30
0.0
 10
43.46212509085318
 20
0.1961318224204132
 30
0.0
 10
44.26108878477225
 20
-0.5049187752460491
 30
0.0
 10
45.05574630218214
 20
-1.159629538509248
 30
0.0
 10
45.86088313268527
 20
-1.73444557219674
 30
0.0
 10
46.66177367809813
 20
-2.186118179407162
 30
0.0
 10
47.4734492392196
 20
-2.476279370834326
 30
0.0
 10
48.09942618738322
 20
-2.602941296017266
 30
0.0
 10
48.46064633865628
 20
-2.571237052322267
 30
0.0
 10
48.54679238797343
 20
-2.563676025255291
 30
0.0
  0
SPLINE
  5
C8
330
1F
100
AcDbEntity
  8
0
  6
Continuous
 62
     1
370
    15
100
AcDbSpline
210
0.0
220
0.0
230
1.0
 70
     8
 71
     3
 72
    13
 73
     9
 74
     0
 42
0.000000001
 43
0.00000001
 40
0.0
 40
0.0
 40
0.0
 40
0.0
 40
0.1998101803083746
 40
0.3761233506649804
 40
0.5524204724896598
 40
0.7219417460264833
 40
0.8915128414634761
 40
1.0
 40
1.0
 40
1.0
 40
1.0
 10
56.44693617331436
 20
1.962717596051695
 30
0.0
 10
56.56574331572561
 20
2.003810143918485
 30
0.0
 10
56.7893862773489
 20
2.081162893248696
 30
0.0
 10
57.10852563642781
 20
2.071542485352516
 30
0.0
 10
57.39812777042583
 20
2.007987851494219
 30
0.0
 10
57.6619844333206
 20
1.876460193095139
 30
0.0
 10
57.866227429902
 20
1.718197982263647
 30
0.0
 10
57.96780836811724
 20
1.597653685906038
 30
0.0
 10
58.00744116876589
 20
1.550622144843182
 30
0.0
  0
SPLINE
  5
C9
330
1F
100
AcDbEntity
  8
0
  6
Continuous
 62
     1
370
    15
100
AcDbSpline
210
0.0
220
0.0
230
1.0
 70
     8
 71
     3
 72
    12
 73
     8
 74
     0
 42
0.000000001
 43
0.00000001
 40
0.0
 40
0.0
 40
0.0
 40
0.0
 40
0.1136641981712257
 40
0.4127329262889491
 40
0.7132725692854178
 40
0.9800955802379647
 40
1.0
 40
1.0
 40
1.0
 40
1.0
 10
57.24705323368316
 20
1.205589066492801
 30
0.0
 10
57.28054027601693
 20
1.193253956069051
 30
0.0
 10
57.40213709539849
 20
1.148463192546291
 30
0.0
 10
57.6189813523518
 20
1.179489542977856
 30
0.0
 10
57.84909326704776
 20
1.304906553574279
 30
0.0
 10
57.96236041911202
 20
1.459959898044108
 30
0.0
 10
58.0045148381737
 20
1.544736978595771
 30
0.0
 10
58.00744116876487
 20
1.550622144843363
 30
0.0
  0
SPLINE
  5
CA
330
1F
100
AcDbEntity
  8
0
  6
Continuous
 62
     1
370
    15
100
AcDbSpline
210
0.0
220
0.0
230
1.0
 70
     8
 71
     3
 72
    10
 73
     6
 74
     0
 42
0.000000001
 43
0.00000001
 40
0.0
 40
0.0
 40
0.0
 40
0.0
 40
0.5
 40
0.5
 40
1.0
 40
1.0
 40
1.0
 40
1.0
 10
57.24582194347292
 20
1.439382967763877
 30
0.0
 10
57.08235025060516
 20
1.567403184509061
 30
0.0
 10
56.92115523164321
 20
1.689545157847345
 30
0.0
 10
56.59364654939725
 20
1.903864096496722
 30
0.0
 10
56.43238758949879
 20
1.993211143795338
 30
0.0
 10
56.26790590790507
 20
2.060851738340949
 30
0.0
  0
SPLINE
  5
CB
330
1F
100
AcDbEntity
  8
0
  6
Continuous
 62
     1
370
    15
100
AcDbSpline
210
0.0
220
0.0
230
1.0
 70
     8
 71
     3
 72
    22
 73
    18
 74
     0
 42
0.000000001
 43
0.00000001
 40
0.0
 40
0.0
 40
0.0
 40
0.0
 40
0.0416971365638825
 40
0.1140792354479222
 40
0.1840663266231952
 40
0.2560980788558916
 40
0.3257825468759827
 40
0.3975009604082461
 40
0.4669185736183463
 40
0.5383606527226487
 40
0.6075403337866633
 40
0.6787359282817151
 40
0.7477073799477858
 40
0.8186871360549449
 40
0.8874778067582697
 40
0.9582701746290515
 40
1.0
 40
1.0
 40
1.0
 40
1.0
 10
53.20780437664231
 20
-2.050798878755527
 30
0.0
 10
53.04606678550761
 20
-2.126700083798754
 30
0.0
 10
52.60356875661853
 20
-2.334358262619777
 30
0.0
 10
51.89280818110205
 20
-2.495258552401165
 30
0.0
 10
51.06750016947574
 20
-2.52775794533323
 30
0.0
 10
50.25549854646814
 20
-2.373464963349355
 30
0.0
 10
49.43981380473248
 20
-2.048549655182849
 30
0.0
 10
48.63684388646001
 20
-1.579479459873552
 30
0.0
 10
47.83015723757149
 20
-0.9906832212331284
 30
0.0
 10
47.03568645802131
 20
-0.3331346190037428
 30
0.0
 10
46.2374918436166
 20
0.3605566749118289
 30
0.0
 10
45.45105634701434
 20
1.03114144012112
 30
0.0
 10
44.66086733351336
 20
1.645610800057177
 30
0.0
 10
43.88200485576618
 20
2.154542591232663
 30
0.0
 10
43.09942808414295
 20
2.524365093087357
 30
0.0
 10
42.42720943379588
 20
2.729172560783983
 30
0.0
 10
42.01194723821378
 20
2.735200695768804
 30
0.0
 10
41.85794367317865
 20
2.737436281593982
 30
0.0
  0
SPLINE
  5
CC
330
1F
100
AcDbEntity
  8
0
  6
Continuous
 62
     1
370
    15
100
AcDbSpline
210
0.0
220
0.0
230
1.0
 70
     8
 71
     3
 72
    23
 73
    19
 74
     0
 42
0.000000001
 43
0.00000001
 40
0.0
 40
0.0
 40
0.0
 40
0.0
 40
0.0564409992353871
 40
0.1198704321063959
 40
0.1851392901248622
 40
0.2485454295080035
 40
0.3137896645987276
 40
0.3771850898322248
 40
0.442417685758233
 40
0.5058141118485993
 40
0.5710471584386151
 40
0.6344555295351232
 40
0.6997003189514456
 40
0.7631308878725657
 40
0.8283979959624371
 40
0.8918603939808513
 40
0.9571597514992142
 40
1.0
 40
1.0
 40
1.0
 40
1.0
 10
33.911574011204
 20
-2.539125503099246
 30
0.0
 10
33.69545812880567
 20
-2.644454247267325
 30
0.0
 10
33.23646724347243
 20
-2.868153371090342
 30
0.0
 10
32.53034447196191
 20
-3.017887651939213
 30
0.0
 10
31.79986441268357
 20
-3.014511653033225
 30
0.0
 10
31.06471303699001
 20
-2.832126673513363
 30
0.0
 10
30.3390865425302
 20
-2.488666574586223
 30
0.0
 10
29.6086649838699
 20
-1.996256415201102
 30
0.0
 10
28.88763647750373
 20
-1.390852405823664
 30
0.0
 10
28.16175101025116
 20
-0.6961210618861383
 30
0.0
 10
27.44512001074313
 20
0.0378928448997399
 30
0.0
 10
26.72357990065136
 20
0.7825347962801799
 30
0.0
 10
26.01116007408802
 20
1.484635233659253
 30
0.0
 10
25.29379086945861
 20
2.116411807293857
 30
0.0
 10
24.58539186307486
 20
2.635040068237816
 30
0.0
 10
23.87208408653074
 20
3.012159616750993
 30
0.0
 10
23.24306977457569
 20
3.226130973688384
 30
0.0
 10
22.84809034272207
 20
3.236856532012363
 30
0.0
 10
22.69161652488412
 20
3.241105535692176
 30
0.0
  0
LINE
  5
CD
330
1F
100
AcDbEntity
  8
0
  6
Continuous
 62
     1
370
    15
100
AcDbLine
 10
14.51890754651916
 20
-3.087849696524075
 30
0.0
 11
14.13682204974696
 21
-3.284954792299182
 31
0.0
  0
SPLINE
  5
CE
330
1F
100
AcDbEntity
  8
0
  6
Continuous
 62
     4
370
    15
100
AcDbSpline
210
0.0
220
0.0
230
1.0
 70
     8
 71
     3
 72
     8
 73
     4
 74
     0
 42
0.000000001
 43
0.00000001
 40
0.0
 40
0.0
 40
0.0
 40
0.0
 40
1.0
 40
1.0
 40
1.0
 40
1.0
 10
14.13682204974697
 20
-3.284954792299181
 30
0.0
 10
13.79380860956088
 20
-3.449878297462616
 30
0.0
 10
13.45765603025485
 20
-3.550186597998834
 30
0.0
 10
13.12082204974696
 20
-3.581384429643063
 30
0.0
  0
SPLINE
  5
CF
330
1F
100
AcDbEntity
  8
0
  6
Continuous
 62
     4
370
    15
100
AcDbSpline
210
0.0
220
0.0
230
1.0
 70
     8
 71
     3
 72
     8
 73
     4
 74
     0
 42
0.000000001
 43
0.00000001
 40
0.0
 40
0.0
 40
0.0
 40
0.0
 40
1.0
 40
1.0
 40
1.0
 40
1.0
 10
13.12082204974745
 20
-2.194462948182151
 30
0.0
 10
13.4583855863101
 20
-2.470828990006599
 30
0.0
 10
13.79485673619656
 20
-2.702868296853132
 30
0.0
 10
14.13682204974697
 20
-2.883705051256853
 30
0.0
  0
SPLINE
  5
D0
330
1F
100
AcDbEntity
  8
0
  6
Continuous
 62
     1
370
    15
100
AcDbSpline
210
0.0
220
0.0
230
1.0
 70
     8
 71
     3
 72
    11
 73
     7
 74
     0
 42
0.000000001
 43
0.00000001
 40
0.0
 40
0.0
 40
0.0
 40
0.0
 40
0.2414897630451178
 40
0.4857817942754573
 40
0.8614986238613791
 40
0.9999999999999999
 40
0.9999999999999999
 40
0.9999999999999999
 40
0.9999999999999999
 10
14.13682204974696
 20
-2.883705051256847
 30
0.0
 10
14.28598044105896
 20
-2.9682754123329
 30
0.0
 10
14.58602807061107
 20
-3.138397496300381
 30
0.0
 10
15.11958919728178
 20
-3.335886436331002
 30
0.0
 10
15.5903031784973
 20
-3.451483074250882
 30
0.0
 10
15.91071789411795
 20
-3.421859420281016
 30
0.0
 10
15.99701954301815
 20
-3.4138804790545
 30
0.0
  0
SPLINE
  5
D1
330
1F
100
AcDbEntity
  8
0
  6
Continuous
 62
     1
370
    15
100
AcDbSpline
210
0.0
220
0.0
230
1.0
 70
     8
 71
     3
 72
    23
 73
    19
 74
     0
 42
0.000000001
 43
0.00000001
 40
0.0
 40
0.0
 40
0.0
 40
0.0
 40
0.0174435992549684
 40
0.0845592271229743
 40
0.1497353312872622
 40
0.2168023601717852
 40
0.2819390135067604
 40
0.3489649827959241
 40
0.4140697659927303
 40
0.481062461818348
 40
0.546143141512879
 40
0.6131105407602516
 40
0.6781755910272974
 40
0.7451262904603355
 40
0.8101860094929982
 40
0.8771306210396089
 40
0.9421949417922725
 40
1.0
 40
1.0
 40
1.0
 40
1.0
 10
24.22235609653474
 20
2.804453414792399
 30
0.0
 10
24.28674252345658
 20
2.839510247475461
 30
0.0
 10
24.59886082072658
 20
3.00945101679317
 30
0.0
 10
25.15394938145418
 20
3.150470553722268
 30
0.0
 10
25.89418996498907
 20
3.205908745636535
 30
0.0
 10
26.62983944296527
 20
3.070883071303524
 30
0.0
 10
27.3741942219153
 20
2.766288166195921
 30
0.0
 10
28.11385265867857
 20
2.311323820664466
 30
0.0
 10
28.86233538515101
 20
1.725137384333365
 30
0.0
 10
29.60616388006513
 20
1.051865305674025
 30
0.0
 10
30.35890492727921
 20
0.3182929101690104
 30
0.0
 10
31.10703915040485
 20
-0.4198455944554324
 30
0.0
 10
31.86418533684739
 20
-1.133138773153195
 30
0.0
 10
32.61677710593462
 20
-1.766786142620344
 30
0.0
 10
33.37848393541692
 20
-2.29682200034752
 30
0.0
 10
34.13573721393933
 20
-2.676819377029664
 30
0.0
 10
34.86681503030233
 20
-2.902784883004978
 30
0.0
 10
35.34209730388294
 20
-2.908889461858792
 30
0.0
 10
35.56569833224238
 20
-2.911761418557557
 30
0.0
  0
SPLINE
  5
D2
330
1F
100
AcDbEntity
  8
0
  6
Continuous
 62
     1
370
    15
100
AcDbSpline
210
0.0
220
0.0
230
1.0
 70
     8
 71
     3
 72
    22
 73
    18
 74
     0
 42
0.000000001
 43
0.00000001
 40
0.0
 40
0.0
 40
0.0
 40
0.0
 40
0.0619505904990476
 40
0.133958166572866
 40
0.2040397947112615
 40
0.2761453649157665
 40
0.3463396293007438
 40
0.4185600946692814
 40
0.4888834702840866
 40
0.5612358166100658
 40
0.6317038556975363
 40
0.7042040412479482
 40
0.7748346376603136
 40
0.8475007413150754
 40
0.9183154019062069
 40
0.9911698816868557
 40
1.0
 40
1.0
 40
1.0
 40
1.0
 10
43.55980270046919
 20
2.284673498361865
 30
0.0
 10
43.79104080023242
 20
2.379573984255512
 30
0.0
 10
44.29105591932237
 20
2.584780988656583
 30
0.0
 10
45.05578702896725
 20
2.692794427227494
 30
0.0
 10
45.86086447729897
 20
2.640393351281692
 30
0.0
 10
46.66180739582007
 20
2.409798282212877
 30
0.0
 10
47.47333512291443
 20
2.018187817452736
 30
0.0
 10
48.28080941615262
 20
1.497633655428386
 30
0.0
 10
49.09899539700719
 20
0.875984772950931
 30
0.0
 10
49.91327617435956
 20
0.206478527491502
 30
0.0
 10
50.73837854126472
 20
-0.4749245100285874
 30
0.0
 10
51.55973540047211
 20
-1.109433493381337
 30
0.0
 10
52.39203819597428
 20
-1.661278918790061
 30
0.0
 10
53.22074100631082
 20
-2.086692433910102
 30
0.0
 10
54.06067009580089
 20
-2.344740683877801
 30
0.0
 10
54.65451302038481
 20
-2.439317456301196
 30
0.0
 10
54.97354096417882
 20
-2.409216899000268
 30
0.0
 10
55.00802793668819
 20
-2.405963023870056
 30
0.0
  0
LINE
  5
D3
330
1F
100
AcDbEntity
  8
0
  6
Continuous
 62
     4
370
    15
100
AcDbLine
 10
14.13682204974696
 20
0.6380875261182383
 30
0.0
 11
14.13682204974697
 21
-2.883705051256854
 31
0.0
  0
LINE
  5
D4
330
1F
100
AcDbEntity
  8
0
  6
Continuous
 62
     1
370
    15
100
AcDbLine
 10
56.26790590790507
 20
2.060851738340945
 30
0.0
 11
56.26790590790508
 21
0.2712960707955042
 31
0.0
  0
LINE
  5
D5
330
1F
100
AcDbEntity
  8
0
  6
Continuous
 62
     1
370
    15
100
AcDbLine
 10
14.13682204974697
 20
3.483675262632624
 30
0.0
 11
14.13682204974697
 21
3.134536454962431
 31
0.0
  0
ARC
  5
D6
330
1F
100
AcDbEntity
  8
0
  6
Continuous
 62
     1
370
    15
100
AcDbCircle
 10
55.46405959505668
 20
1.748922650037052
 30
0.0
 40
1.808450132333152
100
AcDbArc
 50
336.434130331954
 51
350.1445569674349
  0
LINE
  5
D7
330
1F
100
AcDbEntity
  8
0
  6
Continuous
 62
     1
370
    15
100
AcDbLine
 10
57.12168688440642
 20
1.025898687267596
 30
0.0
 11
58.58682204974696
 21
0.0000000000000219
 31
0.0
  0
ARC
  5
D8
330
1F
100
AcDbEntity
  8
0
  6
Continuous
 62
     1
370
    15
100
AcDbCircle
 10
56.93555382694737
 20
0.4335050357965607
 30
0.0
 40
1.707223875093325
100
AcDbArc
 50
308.8919715438682
 51
345.2901662990556
  0
ARC
  5
D9
330
1F
100
AcDbEntity
  8
0
  6
Continuous
 62
     1
370
    15
100
AcDbCircle
 10
57.0820279124468
 20
-2.019686533155303
 30
0.0
 40
0.1796512542219049
100
AcDbArc
 50
291.8974234253531
 51
335.7459906758071
  0
ARC
  5
DA
330
1F
100
AcDbEntity
  8
0
  6
Continuous
 62
     1
370
    15
100
AcDbCircle
 10
56.04392271975559
 20
0.1078248606630762
 30
0.0
 40
2.545184316124782
100
AcDbArc
 50
296.5637109233045
 51
357.5719798189273
  0
ARC
  5
DB
330
1F
100
AcDbEntity
  8
0
  6
Continuous
 62
     1
370
    15
100
AcDbCircle
 10
56.23908100318221
 20
0.0063325193832809
 30
0.0
 40
2.347749586844102
100
AcDbArc
 50
359.8454575069152
 51
41.13035756585466
  0
LINE
  5
DC
330
1F
100
AcDbEntity
  8
0
  6
Continuous
 62
     8
370
    15
100
AcDbLine
 10
56.26790590790507
 20
-2.062180260439622
 30
0.0
 11
56.26790590790508
 21
-2.380434005098031
 31
0.0
  0
LINE
  5
DD
102
{ACAD_REACTORS
102
}
330
1F
100
AcDbEntity
  8
중심선
100
AcDbLine
 10
-33.31317795025306
 20
0.0
 30
0.0
 11
62.26790590790507
 21
0.0
 31
0.0
  0
CIRCLE
  5
DE
330
1F
100
AcDbEntity
  8
외형선
100
AcDbCircle
 10
0.0
 20
0.0
 30
0.0
 40
2.999999999999999
  0
INSERT
  5
DF
330
1F
100
AcDbEntity
  8
0
  6
Continuous
 62
     7
100
AcDbBlockReference
 66
     1
  2
블럭10
 10
-1.432773799681436
 20
-52.05975325537357
 30
0.0
  0
ATTRIB
  5
E0
330
DF
100
AcDbEntity
  8
FORMAT
 62
     2
100
AcDbText
 10
-10.61406908842272
 20
-49.98438634254138
 30
0.0
 40
4.233333333333333
  1
E5078152 [ 3 FLUTE ]
 41
0.75
  7
SLDTEXTSTYLE0
 11
-10.61406908842272
 21
-52.10105300920804
 31
0.0
100
AcDbAttribute
  2
AUTOATTR0
 70
     0
 74
     1
  0
SEQEND
  5
E1
330
DF
100
AcDbEntity
  8
0
  6
Continuous
 62
     7
  0
HATCH
  5
E2
330
1F
100
AcDbEntity
  8
중심선
100
AcDbHatch
 10
0.0
 20
0.0
 30
0.0
210
0.0
220
0.0
230
1.0
  2
SOLID
 70
     1
 71
     0
 91
        1
 92
        0
 93
        4
 72
     1
 10
4.282135504699413
 20
-35.81257895372963
 11
0.8358602608621313
 21
-35.81257895372963
 72
     1
 10
0.8358602608621313
 20
-35.81257895372963
 11
-1.292369598341891
 21
-38.34890453430223
 72
     1
 10
-1.292369598341891
 20
-38.34890453430223
 11
2.15393873060854
 21
-38.34886510499974
 72
     1
 10
2.15393873060854
 20
-38.34886510499974
 11
4.282135504699413
 21
-35.81257895372963
 97
        0
 75
     0
 76
     1
 98
        1
 10
0.0
 20
0.0
  0
HATCH
  5
E3
330
1F
100
AcDbEntity
  8
중심선
100
AcDbHatch
 10
0.0
 20
0.0
 30
0.0
210
0.0
220
0.0
230
1.0
  2
SOLID
 70
     1
 71
     0
 91
        1
 92
        0
 93
        4
 72
     1
 10
9.294899495735365
 20
-35.81257895372963
 11
5.848624251898082
 21
-35.81257895372963
 72
     1
 10
5.848624251898082
 20
-35.81257895372963
 11
1.317486243540694
 21
-41.21257895372965
 72
     1
 10
1.317486243540694
 20
-41.21257895372965
 11
4.763761487377977
 21
-41.21257895372965
 72
     1
 10
4.763761487377977
 20
-41.21257895372965
 11
9.294899495735365
 21
-35.81257895372963
 97
        0
 75
     0
 76
     1
 98
        1
 10
0.0
 20
0.0
  0
HATCH
  5
E4
330
1F
100
AcDbEntity
  8
중심선
100
AcDbHatch
 10
0.0
 20
0.0
 30
0.0
210
0.0
220
0.0
230
1.0
  2
SOLID
 70
     1
 71
     0
 91
        1
 92
        0
 93
        4
 72
     1
 10
14.30766348677126
 20
-35.81257895372966
 11
10.86138824293414
 21
-35.81257895372963
 72
     1
 10
10.86138824293414
 20
-35.81257895372963
 11
3.812951341044895
 21
-44.21257895372965
 72
     1
 10
3.812951341044895
 20
-44.21257895372965
 11
7.259226584882178
 21
-44.21257895372965
 72
     1
 10
7.259226584882178
 20
-44.21257895372965
 11
14.30766348677126
 21
-35.81257895372966
 97
        0
 75
     0
 76
     1
 98
        1
 10
0.0
 20
0.0
  0
HATCH
  5
E5
330
1F
100
AcDbEntity
  8
중심선
100
AcDbHatch
 10
0.0
 20
0.0
 30
0.0
210
0.0
220
0.0
230
1.0
  2
SOLID
 70
     1
 71
     0
 91
        1
 92
        0
 93
        6
 72
     3
 10
19.10755391778346
 20
-40.01257895378091
 11
3.960054785062284
 21
1.540850780301639E-10
 40
0.3939339440162633
 50
17.09539180608434
 51
320.0019657685079
 73
     0
 72
     1
 10
20.79055357348405
 20
-38.60047295836794
 11
23.09585544718509
 21
-36.66614624832001
 72
     3
 10
19.10755391773061
 20
-40.01257895372979
 11
6.600054785286829
 21
-1.249000902703301E-13
 40
0.6363583540795982
 50
39.99873849337412
 51
368.4976242363725
 73
     1
 72
     1
 10
25.53288640963122
 20
-39.05257895365965
 11
17.78762122456654
 21
-39.05257895365963
 72
     1
 10
17.78762122456654
 20
-39.05257895365963
 11
17.7875961801206
 21
-40.97257895365955
 72
     1
 10
17.7875961801206
 20
-40.97257895365955
 11
22.22897594959264
 21
-40.97257895365952
 97
        0
 75
     0
 76
     1
 98
        1
 10
0.0
 20
0.0
  0
DIMENSION
  5
E6
330
1F
100
AcDbEntity
  8
치수문자_일반주서
100
AcDbDimension
  2
_D
 10
14.13682204974697
 20
35.77958463022345
 30
0.0
 11
35.97088897924418
 21
35.77958463022345
 31
0.0
 70
   160
  1
<>
 71
     2
 42
44.44999999999998
  3
SLDDIMSTYLE0
100
AcDbAlignedDimension
 13
58.58682204974695
 23
2.38125
 33
0.0
 14
14.13682204974697
 24
3.483675262632624
 34
0.0
100
AcDbRotatedDimension
1001
ACAD
1000
DSTYLE
1002
{
1070
   171
1070
     6
1070
   273
1070
     7
1002
}
  0
DIMENSION
  5
FA
330
1F
100
AcDbEntity
  8
치수문자_일반주서
100
AcDbDimension
  2
_D_1
 10
-30.31317795025306
 20
48.55958479988597
 30
0.0
 11
16.12480554170057
 21
48.55958479988597
 31
0.0
 70
   160
  1
<>
 71
     2
 42
88.89999999999999
  3
SLDDIMSTYLE1
100
AcDbAlignedDimension
 13
58.58682204974695
 23
2.38125
 33
0.0
 14
-30.31317795025305
 24
3.952500000000019
 34
0.0
100
AcDbRotatedDimension
1001
ACAD
1000
DSTYLE
1002
{
1070
   171
1070
     6
1070
   273
1070
     7
1002
}
  0
DIMENSION
  5
10E
330
1F
100
AcDbEntity
  8
치수문자_일반주서
100
AcDbDimension
  2
_D_2
 10
-43.31317795025302
 20
-4.762500000000041
 30
0.0
 11
-43.31317795025304
 21
1.304665379287236
 31
0.0
 70
   160
  1
%%c<>
 71
     2
 42
9.524999999999997
 52
-270.0
  3
SLDDIMSTYLE2
100
AcDbAlignedDimension
 13
-29.50317795025304
 23
4.762500000000007
 33
0.0
 14
-29.50317795025304
 24
-4.76249999999999
 34
0.0
 50
90.0000000000002
100
AcDbRotatedDimension
1001
ACAD
1000
DSTYLE
1002
{
1070
   171
1070
     6
1070
   273
1070
     7
1002
}
  0
INSERT
  5
129
330
1F
100
AcDbEntity
  8
외형선
100
AcDbBlockReference
  2
SW_DOWELSYMBOL_0
 10
0.0
 20
0.0
 30
0.0
  0
DIMENSION
  5
158
102
{ACAD_XDICTIONARY
360
159
102
}
330
1F
100
AcDbEntity
  8
치수문자_일반주서
100
AcDbDimension
  2
*D6
 10
71.51723088446414
 20
2.381249999999999
 30
0.0
 11
68.89223088446414
 21
22.98525
 31
0.0
 70
    32
  1
{%%c<>[]}
 71
     5
 42
4.762499999999999
  3
SLDDIMSTYLE2
100
AcDbAlignedDimension
 13
58.56096883860911
 23
-2.38125
 33
0.0
 14
58.56096883860911
 24
2.38125
 34
0.0
 50
90.0
100
AcDbRotatedDimension
1001
ACAD
1000
DSTYLE
1002
{
1070
   283
1070
     1
1070
   170
1070
     1
1070
   171
1070
     6
1070
   273
1070
     7
1002
}
  0
DIMENSION
  5
16C
102
{ACAD_REACTORS
102
}
102
{ACAD_XDICTIONARY
360
16D
102
}
330
1F
100
AcDbEntity
  8
치수문자_일반주서
100
AcDbDimension
  2
*D7
 10
32.3121130906206
 20
3.007738516939162
 30
0.0
 11
28.54895512634483
 21
13.79027049632088
 31
0.0
 70
    34
  1
<>
 71
     5
 42
0.0261799387799148
  3
SLDDIMSTYLE0
100
AcDb2LineAngularDimension
 13
-33.31317795025306
 23
0.0
 33
0.0
 14
62.26790590790507
 24
0.0
 34
0.0
 15
35.46767354557316
 25
2.925107258358947
 35
0.0
 16
30.4444469584516
 26
1.018674763431386
 36
0.0
1001
ACAD
1000
DSTYLE
1002
{
1070
   179
1070
     1
1070
   275
1070
     0
1070
   171
1070
     6
1070
   273
1070
     7
1002
}
  0
ENDSEC
  0
SECTION
  2
OBJECTS
  0
DICTIONARY
  5
C
330
0
100
AcDbDictionary
281
     1
  3
ACAD_DETAILVIEWSTYLE
350
153
  3
ACAD_GROUP
350
D
  3
ACAD_IMAGE_VARS
350
14D
  3
ACAD_LAYOUT
350
1A
  3
ACAD_MLINESTYLE
350
17
  3
ACAD_PLOTSETTINGS
350
19
  3
ACAD_PLOTSTYLENAME
350
E
  3
ACAD_SCALELIST
350
47
  3
ACAD_SECTIONVIEWSTYLE
350
154
  3
AcDbVariableDictionary
350
14E
  3
APPDATA
350
14B
  3
DWGPROPS
350
17F
  0
DICTIONARY
  5
159
330
158
100
AcDbDictionary
280
     1
281
     1
  0
DICTIONARY
  5
16D
330
16C
100
AcDbDictionary
280
     1
281
     1
  0
DICTIONARY
  5
153
102
{ACAD_REACTORS
330
C
102
}
330
C
100
AcDbDictionary
281
     1
  0
DICTIONARY
  5
D
102
{ACAD_REACTORS
330
C
102
}
330
C
100
AcDbDictionary
281
     1
  0
RASTERVARIABLES
  5
14D
102
{ACAD_REACTORS
330
C
102
}
330
C
100
AcDbRasterVariables
 90
        0
 70
     1
 71
     1
 72
     1
  0
DICTIONARY
  5
1A
102
{ACAD_REACTORS
330
C
102
}
330
C
100
AcDbDictionary
281
     1
  3
Layout1
350
1E
  3
Layout2
350
26
  3
Model
350
22
  0
DICTIONARY
  5
17
102
{ACAD_REACTORS
330
C
102
}
330
C
100
AcDbDictionary
281
     1
  3
Standard
350
18
  0
DICTIONARY
  5
19
102
{ACAD_REACTORS
330
C
102
}
330
C
100
AcDbDictionary
281
     1
  0
ACDBDICTIONARYWDFLT
  5
E
102
{ACAD_REACTORS
330
C
102
}
330
C
100
AcDbDictionary
281
     1
  3
Normal
350
F
100
AcDbDictionaryWithDefault
340
F
  0
DICTIONARY
  5
47
102
{ACAD_REACTORS
330
C
102
}
330
C
100
AcDbDictionary
281
     1
  3
A0
350
48
  3
A1
350
49
  3
A2
350
4A
  3
A3
350
4B
  3
A4
350
4C
  3
A5
350
4D
  3
A6
350
4E
  3
A7
350
4F
  3
A8
350
50
  3
A9
350
51
  3
B0
350
52
  3
B1
350
53
  3
B2
350
54
  3
B3
350
55
  3
B4
350
56
  3
B5
350
57
  3
B6
350
58
  3
B7
350
59
  3
B8
350
5A
  3
B9
350
5B
  3
C0
350
5C
  3
C1
350
5D
  3
C2
350
5E
  3
C3
350
5F
  3
C4
350
60
  3
C5
350
61
  3
C6
350
62
  3
C7
350
63
  3
C8
350
64
  3
C9
350
65
  3
D0
350
66
  3
D1
350
67
  3
D2
350
68
  0
DICTIONARY
  5
154
102
{ACAD_REACTORS
330
C
102
}
330
C
100
AcDbDictionary
281
     1
  0
DICTIONARY
  5
14E
102
{ACAD_REACTORS
330
C
102
}
330
C
100
AcDbDictionary
281
     1
  0
DICTIONARY
  5
14B
102
{ACAD_REACTORS
330
C
102
}
330
C
100
AcDbDictionary
281
     1
  0
XRECORD
  5
17F
102
{ACAD_REACTORS
330
C
102
}
330
C
100
AcDbXrecord
280
     1
  1
DWGPROPS COOKIE
  2

  3

  4

  6

  7

  8
12015048
  9

300
=
301
=
302
=
303
=
304
=
305
=
306
=
307
=
308
=
309
=
 40
0.0
 41
2458340.216161401
 42
2458341.048011076
  1

 90
        0
  0
LAYOUT
  5
1E
102
{ACAD_REACTORS
330
1A
102
}
330
1A
100
AcDbPlotSettings
  1

  2
none_device
  4

  6

 40
0.0
 41
0.0
 42
0.0
 43
0.0
 44
0.0
 45
0.0
 46
0.0
 47
0.0
 48
0.0
 49
0.0
140
0.0
141
0.0
142
1.0
143
1.0
 70
   688
 72
     1
 73
     0
 74
     5
  7

 75
    16
147
1.0
148
0.0
149
0.0
100
AcDbLayout
  1
Layout1
 70
     1
 71
     1
 10
0.0
 20
0.0
 11
420.0
 21
297.0
 12
0.0
 22
0.0
 32
0.0
 14
1.000000000000000E+20
 24
1.000000000000000E+20
 34
1.000000000000000E+20
 15
-1.000000000000000E+20
 25
-1.000000000000000E+20
 35
-1.000000000000000E+20
146
0.0
 13
0.0
 23
0.0
 33
0.0
 16
1.0
 26
0.0
 36
0.0
 17
0.0
 27
1.0
 37
0.0
 76
     0
330
1B
  0
LAYOUT
  5
26
102
{ACAD_REACTORS
330
1A
102
}
330
1A
100
AcDbPlotSettings
  1

  2
none_device
  4

  6

 40
0.0
 41
0.0
 42
0.0
 43
0.0
 44
0.0
 45
0.0
 46
0.0
 47
0.0
 48
0.0
 49
0.0
140
0.0
141
0.0
142
1.0
143
1.0
 70
   688
 72
     1
 73
     0
 74
     5
  7

 75
    16
147
1.0
148
0.0
149
0.0
100
AcDbLayout
  1
Layout2
 70
     1
 71
     2
 10
0.0
 20
0.0
 11
0.0
 21
0.0
 12
0.0
 22
0.0
 32
0.0
 14
0.0
 24
0.0
 34
0.0
 15
0.0
 25
0.0
 35
0.0
146
0.0
 13
0.0
 23
0.0
 33
0.0
 16
1.0
 26
0.0
 36
0.0
 17
0.0
 27
1.0
 37
0.0
 76
     0
330
23
  0
LAYOUT
  5
22
102
{ACAD_REACTORS
330
1A
102
}
330
1A
100
AcDbPlotSettings
  1

  2
none_device
  4
ANSI_A_(11.00_x_8.50_Inches)
  6

 40
6.35
 41
19.05
 42
6.35000508
 43
19.05000254
 44
279.4
 45
215.9
 46
127.645861544981
 47
100.0349995745547
 48
0.0
 49
0.0
140
0.0
141
0.0
142
0.0915836148719576
143
1.0
 70
  1696
 72
     0
 73
     0
 74
     0
  7

 75
     0
147
0.0235690232323232
148
0.0
149
0.0
100
AcDbLayout
  1
Model
 70
     1
 71
     0
 10
0.0
 20
0.0
 11
420.0
 21
297.0
 12
0.0
 22
0.0
 32
0.0
 14
-47.68817795025308
 24
-49.98438634254138
 34
0.0
 15
72.06756421779747
 25
52.93458479988597
 35
0.0
146
0.0
 13
0.0
 23
0.0
 33
0.0
 16
1.0
 26
0.0
 36
0.0
 17
0.0
 27
1.0
 37
0.0
 76
     0
330
1F
331
29
  0
MLINESTYLE
  5
18
102
{ACAD_REACTORS
330
17
102
}
330
17
100
AcDbMlineStyle
  2
Standard
 70
     0
  3

 62
   256
 51
90.0
 52
90.0
 71
     2
 49
0.5
 62
   256
  6
BYLAYER
 49
-0.5
 62
   256
  6
BYLAYER
  0
ACDBPLACEHOLDER
  5
F
102
{ACAD_REACTORS
330
E
102
}
330
E
  0
SCALE
  5
48
102
{ACAD_REACTORS
330
47
102
}
330
47
100
AcDbScale
 70
     0
300
1:1
140
1.0
141
1.0
290
     1
  0
SCALE
  5
49
102
{ACAD_REACTORS
330
47
102
}
330
47
100
AcDbScale
 70
     0
300
1:2
140
1.0
141
2.0
290
     0
  0
SCALE
  5
4A
102
{ACAD_REACTORS
330
47
102
}
330
47
100
AcDbScale
 70
     0
300
1:4
140
1.0
141
4.0
290
     0
  0
SCALE
  5
4B
102
{ACAD_REACTORS
330
47
102
}
330
47
100
AcDbScale
 70
     0
300
1:5
140
1.0
141
5.0
290
     0
  0
SCALE
  5
4C
102
{ACAD_REACTORS
330
47
102
}
330
47
100
AcDbScale
 70
     0
300
1:8
140
1.0
141
8.0
290
     0
  0
SCALE
  5
4D
102
{ACAD_REACTORS
330
47
102
}
330
47
100
AcDbScale
 70
     0
300
1:10
140
1.0
141
10.0
290
     0
  0
SCALE
  5
4E
102
{ACAD_REACTORS
330
47
102
}
330
47
100
AcDbScale
 70
     0
300
1:16
140
1.0
141
16.0
290
     0
  0
SCALE
  5
4F
102
{ACAD_REACTORS
330
47
102
}
330
47
100
AcDbScale
 70
     0
300
1:20
140
1.0
141
20.0
290
     0
  0
SCALE
  5
50
102
{ACAD_REACTORS
330
47
102
}
330
47
100
AcDbScale
 70
     0
300
1:30
140
1.0
141
30.0
290
     0
  0
SCALE
  5
51
102
{ACAD_REACTORS
330
47
102
}
330
47
100
AcDbScale
 70
     0
300
1:40
140
1.0
141
40.0
290
     0
  0
SCALE
  5
52
102
{ACAD_REACTORS
330
47
102
}
330
47
100
AcDbScale
 70
     0
300
1:50
140
1.0
141
50.0
290
     0
  0
SCALE
  5
53
102
{ACAD_REACTORS
330
47
102
}
330
47
100
AcDbScale
 70
     0
300
1:100
140
1.0
141
100.0
290
     0
  0
SCALE
  5
54
102
{ACAD_REACTORS
330
47
102
}
330
47
100
AcDbScale
 70
     0
300
2:1
140
2.0
141
1.0
290
     0
  0
SCALE
  5
55
102
{ACAD_REACTORS
330
47
102
}
330
47
100
AcDbScale
 70
     0
300
4:1
140
4.0
141
1.0
290
     0
  0
SCALE
  5
56
102
{ACAD_REACTORS
330
47
102
}
330
47
100
AcDbScale
 70
     0
300
8:1
140
8.0
141
1.0
290
     0
  0
SCALE
  5
57
102
{ACAD_REACTORS
330
47
102
}
330
47
100
AcDbScale
 70
     0
300
10:1
140
10.0
141
1.0
290
     0
  0
SCALE
  5
58
102
{ACAD_REACTORS
330
47
102
}
330
47
100
AcDbScale
 70
     0
300
100:1
140
100.0
141
1.0
290
     0
  0
SCALE
  5
59
102
{ACAD_REACTORS
330
47
102
}
330
47
100
AcDbScale
 70
     0
300
1/128" = 1'-0"
140
0.0078125
141
12.0
290
     0
  0
SCALE
  5
5A
102
{ACAD_REACTORS
330
47
102
}
330
47
100
AcDbScale
 70
     0
300
1/64" = 1'-0"
140
0.015625
141
12.0
290
     0
  0
SCALE
  5
5B
102
{ACAD_REACTORS
330
47
102
}
330
47
100
AcDbScale
 70
     0
300
1/32" = 1'-0"
140
0.03125
141
12.0
290
     0
  0
SCALE
  5
5C
102
{ACAD_REACTORS
330
47
102
}
330
47
100
AcDbScale
 70
     0
300
1/16" = 1'-0"
140
0.0625
141
12.0
290
     0
  0
SCALE
  5
5D
102
{ACAD_REACTORS
330
47
102
}
330
47
100
AcDbScale
 70
     0
300
3/32" = 1'-0"
140
0.09375
141
12.0
290
     0
  0
SCALE
  5
5E
102
{ACAD_REACTORS
330
47
102
}
330
47
100
AcDbScale
 70
     0
300
1/8" = 1'-0"
140
0.125
141
12.0
290
     0
  0
SCALE
  5
5F
102
{ACAD_REACTORS
330
47
102
}
330
47
100
AcDbScale
 70
     0
300
3/16" = 1'-0"
140
0.1875
141
12.0
290
     0
  0
SCALE
  5
60
102
{ACAD_REACTORS
330
47
102
}
330
47
100
AcDbScale
 70
     0
300
1/4" = 1'-0"
140
0.25
141
12.0
290
     0
  0
SCALE
  5
61
102
{ACAD_REACTORS
330
47
102
}
330
47
100
AcDbScale
 70
     0
300
3/8" = 1'-0"
140
0.375
141
12.0
290
     0
  0
SCALE
  5
62
102
{ACAD_REACTORS
330
47
102
}
330
47
100
AcDbScale
 70
     0
300
1/2" = 1'-0"
140
0.5
141
12.0
290
     0
  0
SCALE
  5
63
102
{ACAD_REACTORS
330
47
102
}
330
47
100
AcDbScale
 70
     0
300
3/4" = 1'-0"
140
0.75
141
12.0
290
     0
  0
SCALE
  5
64
102
{ACAD_REACTORS
330
47
102
}
330
47
100
AcDbScale
 70
     0
300
1" = 1'-0"
140
1.0
141
12.0
290
     0
  0
SCALE
  5
65
102
{ACAD_REACTORS
330
47
102
}
330
47
100
AcDbScale
 70
     0
300
1-1/2" = 1'-0"
140
1.5
141
12.0
290
     0
  0
SCALE
  5
66
102
{ACAD_REACTORS
330
47
102
}
330
47
100
AcDbScale
 70
     0
300
3" = 1'-0"
140
3.0
141
12.0
290
     0
  0
SCALE
  5
67
102
{ACAD_REACTORS
330
47
102
}
330
47
100
AcDbScale
 70
     0
300
6" = 1'-0"
140
6.0
141
12.0
290
     0
  0
SCALE
  5
68
102
{ACAD_REACTORS
330
47
102
}
330
47
100
AcDbScale
 70
     0
300
1'-0" = 1'-0"
140
12.0
141
12.0
290
     0
  0
ENDSEC
  0
EOF
