  0
SECTION
  2
HEADER
  9
$ACADVER
  1
AC1015
  9
$ACADMAINTVER
 70
     6
  9
$DWGCODEPAGE
  3
ANSI_949
  9
$INSBASE
 10
0.0
 20
0.0
 30
0.0
  9
$EXTMIN
 10
-62.44015589965133
 20
-49.98438634254138
 30
0.0
  9
$EXTMAX
 10
82.75088596246405
 20
66.05391454809687
 30
0.0
  9
$LIMMIN
 10
0.0
 20
0.0
  9
$LIMMAX
 10
420.0
 20
297.0
  9
$ORTHOMODE
 70
     1
  9
$REGENMODE
 70
     1
  9
$FILLMODE
 70
     1
  9
$QTEXTMODE
 70
     0
  9
$MIRRTEXT
 70
     1
  9
$LTSCALE
 40
1.0
  9
$ATTMODE
 70
     1
  9
$TEXTSIZE
 40
3.5
  9
$TRACEWID
 40
1.0
  9
$TEXTSTYLE
  7
Standard
  9
$CLAYER
  8
0
  9
$CELTYPE
  6
ByLayer
  9
$CECOLOR
 62
   256
  9
$CELTSCALE
 40
1.0
  9
$DISPSILH
 70
     0
  9
$DIMSCALE
 40
1.0
  9
$DIMASZ
 40
3.302
  9
$DIMEXO
 40
1.0
  9
$DIMDLI
 40
3.75
  9
$DIMRND
 40
0.0
  9
$DIMDLE
 40
0.0
  9
$DIMEXE
 40
1.0
  9
$DIMTP
 40
0.0
  9
$DIMTM
 40
0.0
  9
$DIMTXT
 40
3.5
  9
$DIMCEN
 40
2.5
  9
$DIMTSZ
 40
0.0
  9
$DIMTOL
 70
     0
  9
$DIMLIM
 70
     0
  9
$DIMTIH
 70
     1
  9
$DIMTOH
 70
     1
  9
$DIMSE1
 70
     0
  9
$DIMSE2
 70
     0
  9
$DIMTAD
 70
     1
  9
$DIMZIN
 70
     0
  9
$DIMBLK
  1

  9
$DIMASO
 70
     1
  9
$DIMSHO
 70
     1
  9
$DIMPOST
  1

  9
$DIMAPOST
  1

  9
$DIMALT
 70
     0
  9
$DIMALTD
 70
     3
  9
$DIMALTF
 40
0.0393700787401575
  9
$DIMLFAC
 40
1.0
  9
$DIMTOFL
 70
     1
  9
$DIMTVP
 40
0.0
  9
$DIMTIX
 70
     0
  9
$DIMSOXD
 70
     0
  9
$DIMSAH
 70
     0
  9
$DIMBLK1
  1

  9
$DIMBLK2
  1

  9
$DIMSTYLE
  2
ISO-25
  9
$DIMCLRD
 70
     0
  9
$DIMCLRE
 70
     0
  9
$DIMCLRT
 70
     0
  9
$DIMTFAC
 40
1.0
  9
$DIMGAP
 40
1.524
  9
$DIMJUST
 70
     0
  9
$DIMSD1
 70
     0
  9
$DIMSD2
 70
     0
  9
$DIMTOLJ
 70
     0
  9
$DIMTZIN
 70
     0
  9
$DIMALTZ
 70
     0
  9
$DIMALTTZ
 70
     0
  9
$DIMUPT
 70
     0
  9
$DIMDEC
 70
     2
  9
$DIMTDEC
 70
     2
  9
$DIMALTU
 70
     2
  9
$DIMALTTD
 70
     3
  9
$DIMTXSTY
  7
Standard
  9
$DIMAUNIT
 70
     0
  9
$DIMADEC
 70
     2
  9
$DIMALTRND
 40
0.0
  9
$DIMAZIN
 70
     0
  9
$DIMDSEP
 70
    44
  9
$DIMATFIT
 70
     3
  9
$DIMFRAC
 70
     0
  9
$DIMLDRBLK
  1

  9
$DIMLUNIT
 70
     2
  9
$DIMLWD
 70
    -2
  9
$DIMLWE
 70
    -2
  9
$DIMTMOVE
 70
     0
  9
$LUNITS
 70
     2
  9
$LUPREC
 70
     2
  9
$SKETCHINC
 40
1.0
  9
$FILLETRAD
 40
10.0
  9
$AUNITS
 70
     0
  9
$AUPREC
 70
     2
  9
$MENU
  1
.
  9
$ELEVATION
 40
0.0
  9
$PELEVATION
 40
0.0
  9
$THICKNESS
 40
0.0
  9
$LIMCHECK
 70
     0
  9
$CHAMFERA
 40
0.0
  9
$CHAMFERB
 40
0.0
  9
$CHAMFERC
 40
0.0
  9
$CHAMFERD
 40
0.0
  9
$SKPOLY
 70
     0
  9
$TDCREATE
 40
2458340.593268067
  9
$TDUCREATE
 40
2458340.218268067
  9
$TDUPDATE
 40
2458341.45319419
  9
$TDUUPDATE
 40
2458341.07819419
  9
$TDINDWG
 40
0.0025220833
  9
$TDUSRTIMER
 40
2458341.075672199
  9
$USRTIMER
 70
     1
  9
$ANGBASE
 50
0.0
  9
$ANGDIR
 70
     0
  9
$PDMODE
 70
     0
  9
$PDSIZE
 40
-1.0
  9
$PLINEWID
 40
0.0
  9
$SPLFRAME
 70
     0
  9
$SPLINETYPE
 70
     6
  9
$SPLINESEGS
 70
     8
  9
$HANDSEED
  5
188
  9
$SURFTAB1
 70
     6
  9
$SURFTAB2
 70
     6
  9
$SURFTYPE
 70
     6
  9
$SURFU
 70
     6
  9
$SURFV
 70
     6
  9
$UCSBASE
  2

  9
$UCSNAME
  2

  9
$UCSORG
 10
0.0
 20
0.0
 30
0.0
  9
$UCSXDIR
 10
1.0
 20
0.0
 30
0.0
  9
$UCSYDIR
 10
0.0
 20
1.0
 30
0.0
  9
$UCSORTHOREF
  2

  9
$UCSORTHOVIEW
 70
     0
  9
$UCSORGTOP
 10
0.0
 20
0.0
 30
0.0
  9
$UCSORGBOTTOM
 10
0.0
 20
0.0
 30
0.0
  9
$UCSORGLEFT
 10
0.0
 20
0.0
 30
0.0
  9
$UCSORGRIGHT
 10
0.0
 20
0.0
 30
0.0
  9
$UCSORGFRONT
 10
0.0
 20
0.0
 30
0.0
  9
$UCSORGBACK
 10
0.0
 20
0.0
 30
0.0
  9
$PUCSBASE
  2

  9
$PUCSNAME
  2

  9
$PUCSORG
 10
0.0
 20
0.0
 30
0.0
  9
$PUCSXDIR
 10
1.0
 20
0.0
 30
0.0
  9
$PUCSYDIR
 10
0.0
 20
1.0
 30
0.0
  9
$PUCSORTHOREF
  2

  9
$PUCSORTHOVIEW
 70
     0
  9
$PUCSORGTOP
 10
0.0
 20
0.0
 30
0.0
  9
$PUCSORGBOTTOM
 10
0.0
 20
0.0
 30
0.0
  9
$PUCSORGLEFT
 10
0.0
 20
0.0
 30
0.0
  9
$PUCSORGRIGHT
 10
0.0
 20
0.0
 30
0.0
  9
$PUCSORGFRONT
 10
0.0
 20
0.0
 30
0.0
  9
$PUCSORGBACK
 10
0.0
 20
0.0
 30
0.0
  9
$USERI1
 70
     0
  9
$USERI2
 70
     0
  9
$USERI3
 70
     0
  9
$USERI4
 70
     0
  9
$USERI5
 70
     0
  9
$USERR1
 40
0.0
  9
$USERR2
 40
0.0
  9
$USERR3
 40
0.0
  9
$USERR4
 40
0.0
  9
$USERR5
 40
0.0
  9
$WORLDVIEW
 70
     1
  9
$SHADEDGE
 70
     3
  9
$SHADEDIF
 70
    70
  9
$TILEMODE
 70
     1
  9
$MAXACTVP
 70
    64
  9
$PINSBASE
 10
0.0
 20
0.0
 30
0.0
  9
$PLIMCHECK
 70
     0
  9
$PEXTMIN
 10
1.000000000000000E+20
 20
1.000000000000000E+20
 30
1.000000000000000E+20
  9
$PEXTMAX
 10
-1.000000000000000E+20
 20
-1.000000000000000E+20
 30
-1.000000000000000E+20
  9
$PLIMMIN
 10
0.0
 20
0.0
  9
$PLIMMAX
 10
0.0
 20
0.0
  9
$UNITMODE
 70
     0
  9
$VISRETAIN
 70
     1
  9
$PLINEGEN
 70
     0
  9
$PSLTSCALE
 70
     1
  9
$TREEDEPTH
 70
  3020
  9
$CMLSTYLE
  2
Standard
  9
$CMLJUST
 70
     0
  9
$CMLSCALE
 40
20.0
  9
$PROXYGRAPHICS
 70
     1
  9
$MEASUREMENT
 70
     1
  9
$CELWEIGHT
370
    -1
  9
$ENDCAPS
280
     0
  9
$JOINSTYLE
280
     0
  9
$LWDISPLAY
290
     1
  9
$INSUNITS
 70
     4
  9
$HYPERLINKBASE
  1

  9
$STYLESHEET
  1

  9
$XEDIT
290
     1
  9
$CEPSNTYPE
380
     0
  9
$PSTYLEMODE
290
     1
  9
$FINGERPRINTGUID
  2
{459A2677-AAA0-48DA-8056-5ACCF35B275E}
  9
$VERSIONGUID
  2
{FAEB1C32-E019-11D5-929B-00C0DF256EC4}
  9
$EXTNAMES
290
     1
  9
$PSVPSCALE
 40
0.0
  9
$OLESTARTUP
290
     0
  0
ENDSEC
  0
SECTION
  2
CLASSES
  0
CLASS
  1
ACDBDICTIONARYWDFLT
  2
AcDbDictionaryWithDefault
  3
ObjectDBX Classes
 90
        0
280
     0
281
     0
  0
CLASS
  1
VISUALSTYLE
  2
AcDbVisualStyle
  3
ObjectDBX Classes
 90
     4095
280
     0
281
     0
  0
CLASS
  1
MATERIAL
  2
AcDbMaterial
  3
ObjectDBX Classes
 90
     1153
280
     0
281
     0
  0
CLASS
  1
SCALE
  2
AcDbScale
  3
ObjectDBX Classes
 90
     1153
280
     0
281
     0
  0
CLASS
  1
SUN
  2
AcDbSun
  3
SCENEOE
 90
     1153
280
     0
281
     0
  0
CLASS
  1
ACDBPLACEHOLDER
  2
AcDbPlaceHolder
  3
ObjectDBX Classes
 90
        0
280
     0
281
     0
  0
CLASS
  1
LAYOUT
  2
AcDbLayout
  3
ObjectDBX Classes
 90
        0
280
     0
281
     0
  0
CLASS
  1
TABLESTYLE
  2
AcDbTableStyle
  3
ObjectDBX Classes
 90
     4095
280
     0
281
     0
  0
CLASS
  1
MLEADERSTYLE
  2
AcDbMLeaderStyle
  3
ACDB_MLEADERSTYLE_CLASS
 90
     4095
280
     0
281
     0
  0
CLASS
  1
RASTERVARIABLES
  2
AcDbRasterVariables
  3
ISM
 90
        0
280
     0
281
     0
  0
CLASS
  1
DIMASSOC
  2
AcDbDimAssoc
  3
"AcDbDimAssoc|Product Desc:     AcDim ARX App For Dimension|Company:          Autodesk, Inc.|WEB Address:      www.autodesk.com"
 90
        0
280
     0
281
     0
  0
ENDSEC
  0
SECTION
  2
TABLES
  0
TABLE
  2
VPORT
  5
8
330
0
100
AcDbSymbolTable
 70
     1
  0
VPORT
  5
29
330
8
100
AcDbSymbolTableRecord
100
AcDbViewportTableRecord
  2
*Active
 70
     0
 10
0.0
 20
0.0
 11
1.0
 21
1.0
 12
6.437541634262544
 22
31.98124147384158
 13
0.0
 23
0.0
 14
10.0
 24
10.0
 15
10.0
 25
10.0
 16
0.0
 26
0.0
 36
1.0
 17
0.0
 27
0.0
 37
0.0
 40
232.2291697496544
 41
1.444267515923567
 42
50.0
 43
0.0
 44
0.0
 50
0.0
 51
0.0
 71
    16
 72
  2000
 73
     1
 74
     3
 75
     0
 76
     0
 77
     0
 78
     0
281
     0
 65
     1
110
0.0
120
0.0
130
0.0
111
1.0
121
0.0
131
0.0
112
0.0
122
1.0
132
0.0
 79
     0
146
0.0
  0
ENDTAB
  0
TABLE
  2
LTYPE
  5
5
330
0
100
AcDbSymbolTable
 70
     6
  0
LTYPE
  5
14
330
5
100
AcDbSymbolTableRecord
100
AcDbLinetypeTableRecord
  2
ByBlock
 70
     0
  3

 72
    65
 73
     0
 40
0.0
  0
LTYPE
  5
15
330
5
100
AcDbSymbolTableRecord
100
AcDbLinetypeTableRecord
  2
ByLayer
 70
     0
  3

 72
    65
 73
     0
 40
0.0
  0
LTYPE
  5
16
330
5
100
AcDbSymbolTableRecord
100
AcDbLinetypeTableRecord
  2
Continuous
 70
     0
  3
Solid line
 72
    65
 73
     0
 40
0.0
  0
LTYPE
  5
6A
330
5
100
AcDbSymbolTableRecord
100
AcDbLinetypeTableRecord
  2
HIDDEN
 70
     0
  3
Hidden __ __ __ __ __ __ __ __ __ __ __ __ __ __
 72
    65
 73
     2
 40
1.905
 49
1.27
 74
     0
 49
-0.635
 74
     0
  0
LTYPE
  5
6B
330
5
100
AcDbSymbolTableRecord
100
AcDbLinetypeTableRecord
  2
PHANTOM
 70
     0
  3
Phantom ______  __  __  ______  __  __  ______
 72
    65
 73
     6
 40
12.7
 49
6.35
 74
     0
 49
-1.27
 74
     0
 49
1.27
 74
     0
 49
-1.27
 74
     0
 49
1.27
 74
     0
 49
-1.27
 74
     0
  0
LTYPE
  5
6C
330
5
100
AcDbSymbolTableRecord
100
AcDbLinetypeTableRecord
  2
CENTER
 70
     0
  3
Center ____ _ ____ _ ____ _ ____ _ ____ _ ____
 72
    65
 73
     4
 40
10.16
 49
6.35
 74
     0
 49
-1.27
 74
     0
 49
1.27
 74
     0
 49
-1.27
 74
     0
  0
LTYPE
  5
6D
330
5
100
AcDbSymbolTableRecord
100
AcDbLinetypeTableRecord
  2
CENTERX2
 70
     0
  3
Center (2x) ________  __  ________  __  _____
 72
    65
 73
     4
 40
20.32
 49
12.7
 74
     0
 49
-2.54
 74
     0
 49
2.54
 74
     0
 49
-2.54
 74
     0
  0
LTYPE
  5
6E
330
5
100
AcDbSymbolTableRecord
100
AcDbLinetypeTableRecord
  2
DOT2
 70
     0
  3
Dot (.5x) ........................................
 72
    65
 73
     2
 40
0.635
 49
0.0
 74
     0
 49
-0.635
 74
     0
  0
ENDTAB
  0
TABLE
  2
LAYER
  5
2
330
0
100
AcDbSymbolTable
 70
    17
  0
LAYER
  5
10
330
2
100
AcDbSymbolTableRecord
100
AcDbLayerTableRecord
  2
0
 70
     0
 62
     7
  6
Continuous
370
    -3
390
F
  0
LAYER
  5
6F
330
2
100
AcDbSymbolTableRecord
100
AcDbLayerTableRecord
  2
FORMAT
 70
     0
 62
     2
  6
Continuous
370
    -3
390
F
  0
LAYER
  5
70
330
2
100
AcDbSymbolTableRecord
100
AcDbLayerTableRecord
  2
외형선
 70
     0
 62
   100
  6
Continuous
370
    30
390
F
  0
LAYER
  5
71
330
2
100
AcDbSymbolTableRecord
100
AcDbLayerTableRecord
  2
숨은선
 70
     0
 62
     2
  6
HIDDEN
370
    15
390
F
  0
LAYER
  5
72
330
2
100
AcDbSymbolTableRecord
100
AcDbLayerTableRecord
  2
중심선
 70
     0
 62
     1
  6
CENTERX2
370
    -3
390
F
  0
LAYER
  5
73
330
2
100
AcDbSymbolTableRecord
100
AcDbLayerTableRecord
  2
파단선
 70
     0
 62
     4
  6
Continuous
370
    -3
390
F
  0
LAYER
  5
74
330
2
100
AcDbSymbolTableRecord
100
AcDbLayerTableRecord
  2
해칭선
 70
     0
 62
     4
  6
Continuous
370
    -3
390
F
  0
LAYER
  5
75
330
2
100
AcDbSymbolTableRecord
100
AcDbLayerTableRecord
  2
가는실선
 70
     0
 62
     4
  6
Continuous
370
    -3
390
F
  0
LAYER
  5
76
330
2
100
AcDbSymbolTableRecord
100
AcDbLayerTableRecord
  2
치수_보조선
 70
     0
 62
     4
  6
Continuous
370
    -3
390
F
  0
LAYER
  5
77
330
2
100
AcDbSymbolTableRecord
100
AcDbLayerTableRecord
  2
치수문자_일반주서
 70
     0
 62
     7
  6
Continuous
370
    15
390
F
  0
LAYER
  5
78
330
2
100
AcDbSymbolTableRecord
100
AcDbLayerTableRecord
  2
개별주서
 70
     0
 62
   100
  6
Continuous
370
    30
390
F
  0
LAYER
  5
79
330
2
100
AcDbSymbolTableRecord
100
AcDbLayerTableRecord
  2
중간선
 70
     0
 62
     2
  6
Continuous
370
    15
390
F
  0
LAYER
  5
7A
330
2
100
AcDbSymbolTableRecord
100
AcDbLayerTableRecord
  2
윤곽선
 70
     0
 62
     3
  6
Continuous
370
    40
390
F
  0
LAYER
  5
7B
330
2
100
AcDbSymbolTableRecord
100
AcDbLayerTableRecord
  2
중심마크
 70
     0
 62
   100
  6
Continuous
370
    30
390
F
  0
LAYER
  5
7C
330
2
100
AcDbSymbolTableRecord
100
AcDbLayerTableRecord
  2
가상선
 70
     0
 62
     4
  6
PHANTOM
370
    -3
390
F
  0
LAYER
  5
7D
330
2
100
AcDbSymbolTableRecord
100
AcDbLayerTableRecord
  2
특수지정선
 70
     0
 62
     5
  6
CENTERX2
370
    60
390
F
  0
LAYER
  5
14E
330
2
100
AcDbSymbolTableRecord
100
AcDbLayerTableRecord
  2
Defpoints
 70
     0
 62
     7
  6
Continuous
290
     0
370
    -3
390
F
  0
ENDTAB
  0
TABLE
  2
STYLE
  5
3
330
0
100
AcDbSymbolTable
 70
     2
  0
STYLE
  5
11
330
3
100
AcDbSymbolTableRecord
100
AcDbTextStyleTableRecord
  2
Standard
 70
     0
 40
0.0
 41
1.0
 50
0.0
 71
     0
 42
3.5
  3
txt
  4

  0
STYLE
  5
93
330
3
100
AcDbSymbolTableRecord
100
AcDbTextStyleTableRecord
  2
SLDTEXTSTYLE0
 70
     0
 40
0.0
 41
0.75
 50
0.0
 71
     0
 42
3.5
  3
TXT
  4

  0
ENDTAB
  0
TABLE
  2
VIEW
  5
6
330
0
100
AcDbSymbolTable
 70
     0
  0
ENDTAB
  0
TABLE
  2
UCS
  5
7
330
0
100
AcDbSymbolTable
 70
     0
  0
ENDTAB
  0
TABLE
  2
APPID
  5
9
330
0
100
AcDbSymbolTable
 70
     2
  0
APPID
  5
12
330
9
100
AcDbSymbolTableRecord
100
AcDbRegAppTableRecord
  2
ACAD
 70
     0
  0
APPID
  5
174
330
9
100
AcDbSymbolTableRecord
100
AcDbRegAppTableRecord
  2
PE_DIMMEASUREMENT
 70
     0
  0
ENDTAB
  0
TABLE
  2
DIMSTYLE
  5
A
330
0
100
AcDbSymbolTable
 70
     4
100
AcDbDimStyleTable
  0
DIMSTYLE
105
27
330
A
100
AcDbSymbolTableRecord
100
AcDbDimStyleTableRecord
  2
ISO-25
 70
     0
 41
2.5
 42
0.625
 43
3.75
 44
1.25
 73
     0
 74
     0
 77
     1
 78
     8
140
2.5
141
2.5
143
0.03937007874016
147
0.625
171
     3
172
     1
178
     0
271
     2
272
     2
274
     3
278
    44
283
     0
284
     8
340
11
  0
DIMSTYLE
105
EB
102
{ACAD_REACTORS
330
EA
330
151
330
163
102
}
330
A
100
AcDbSymbolTableRecord
100
AcDbDimStyleTableRecord
  2
SLDDIMSTYLE0
 70
     0
 41
3.302
 44
0.0
 45
0.000000001
 73
     0
 74
     0
 77
     1
 78
    12
 79
     3
140
3.5
143
0.0393700787401575
147
0.875
148
0.000000001
170
     1
173
     1
178
     0
271
     2
272
     2
276
     2
284
    12
340
93
  0
DIMSTYLE
105
FF
102
{ACAD_REACTORS
330
FE
330
175
102
}
330
A
100
AcDbSymbolTableRecord
100
AcDbDimStyleTableRecord
  2
SLDDIMSTYLE1
 70
     0
 41
3.302
 44
0.0
 45
0.000000001
 73
     0
 74
     0
 77
     1
 78
     4
 79
     1
140
3.5
143
0.0393700787401575
147
0.875
148
0.000000001
170
     1
173
     1
178
     0
271
     2
272
     2
276
     2
284
    12
340
93
  0
DIMSTYLE
105
113
330
A
100
AcDbSymbolTableRecord
100
AcDbDimStyleTableRecord
  2
SLDDIMSTYLE2
 70
     0
 41
3.302
 44
0.0
 45
0.000000001
 73
     0
 74
     0
 77
     1
 78
     8
 79
     2
140
3.5
143
0.0393700787401575
147
0.875
148
0.000000001
170
     1
172
     1
173
     1
178
     0
271
     2
272
     2
276
     2
284
    12
289
     0
340
93
341
114
343
114
344
114
  0
ENDTAB
  0
TABLE
  2
BLOCK_RECORD
  5
1
330
0
100
AcDbSymbolTable
 70
    10
  0
BLOCK_RECORD
  5
1F
330
1
100
AcDbSymbolTableRecord
100
AcDbBlockTableRecord
  2
*Model_Space
340
22
  0
BLOCK_RECORD
  5
1B
330
1
100
AcDbSymbolTableRecord
100
AcDbBlockTableRecord
  2
*Paper_Space
340
1E
  0
BLOCK_RECORD
  5
23
330
1
100
AcDbSymbolTableRecord
100
AcDbBlockTableRecord
  2
*Paper_Space0
340
26
  0
BLOCK_RECORD
  5
7E
330
1
100
AcDbSymbolTableRecord
100
AcDbBlockTableRecord
  2
블럭10
340
0
102
{BLKREFS
331
E3
102
}
  0
BLOCK_RECORD
  5
EC
330
1
100
AcDbSymbolTableRecord
100
AcDbBlockTableRecord
  2
_D
340
0
  0
BLOCK_RECORD
  5
100
330
1
100
AcDbSymbolTableRecord
100
AcDbBlockTableRecord
  2
_D_1
340
0
  0
BLOCK_RECORD
  5
114
330
1
100
AcDbSymbolTableRecord
100
AcDbBlockTableRecord
  2
_NONE
340
0
  0
BLOCK_RECORD
  5
117
330
1
100
AcDbSymbolTableRecord
100
AcDbBlockTableRecord
  2
_D_2
340
0
  0
BLOCK_RECORD
  5
123
330
1
100
AcDbSymbolTableRecord
100
AcDbBlockTableRecord
  2
SW_DOWELSYMBOL_0
340
0
102
{BLKREFS
331
129
102
}
  0
BLOCK_RECORD
  5
154
330
1
100
AcDbSymbolTableRecord
100
AcDbBlockTableRecord
  2
*D7
340
0
  0
BLOCK_RECORD
  5
166
330
1
100
AcDbSymbolTableRecord
100
AcDbBlockTableRecord
  2
*D8
340
0
  0
BLOCK_RECORD
  5
178
330
1
100
AcDbSymbolTableRecord
100
AcDbBlockTableRecord
  2
*D9
340
0
  0
ENDTAB
  0
ENDSEC
  0
SECTION
  2
BLOCKS
  0
BLOCK
  5
20
330
1F
100
AcDbEntity
  8
0
100
AcDbBlockBegin
  2
*Model_Space
 70
     0
 10
0.0
 20
0.0
 30
0.0
  3
*Model_Space
  1
*Model_Space
  0
ENDBLK
  5
21
330
1F
100
AcDbEntity
  8
0
100
AcDbBlockEnd
  0
BLOCK
  5
1C
330
1B
100
AcDbEntity
 67
     1
  8
0
100
AcDbBlockBegin
  2
*Paper_Space
 70
     0
 10
0.0
 20
0.0
 30
0.0
  3
*Paper_Space
  1
*Paper_Space
  0
ENDBLK
  5
1D
330
1B
100
AcDbEntity
 67
     1
  8
0
100
AcDbBlockEnd
  0
BLOCK
  5
24
330
23
100
AcDbEntity
  8
0
100
AcDbBlockBegin
  2
*Paper_Space0
 70
     0
 10
0.0
 20
0.0
 30
0.0
  3
*Paper_Space0
  1
*Paper_Space0
  0
ENDBLK
  5
25
330
23
100
AcDbEntity
  8
0
100
AcDbBlockEnd
  0
BLOCK
  5
7F
330
7E
100
AcDbEntity
  8
0
100
AcDbBlockBegin
  2
블럭10
 70
     2
 10
0.0
 20
0.0
 30
0.0
  3
블럭10
  1
블럭10
  0
ELLIPSE
  5
81
330
7E
100
AcDbEntity
  8
중심선
100
AcDbEllipse
 10
20.54032771741204
 20
12.0471743016438
 30
0.0
 11
6.600054785286829
 21
-1.261213355974178E-13
 31
0.0
210
0.0
220
0.0
230
1.0
 40
0.636358354079598
 41
0.9219305317359503
 42
6.513795318482858
  0
ELLIPSE
  5
82
330
7E
100
AcDbEntity
  8
중심선
100
AcDbEllipse
 10
20.54032771746488
 20
12.04717430159265
 30
0.0
 11
3.960054785062283
 21
1.540847449632565E-10
 31
0.0
210
0.0
220
0.0
230
1.0
 40
0.3939339440162632
 41
1.131841032648279
 42
5.62031148352944
  0
LINE
  5
83
330
7E
100
AcDbEntity
  8
중심선
100
AcDbLine
 10
2.268634060543552
 20
16.24717430164393
 30
0.0
 11
5.714909304380834
 21
16.24717430164393
 31
0.0
  0
LINE
  5
84
330
7E
100
AcDbEntity
  8
중심선
100
AcDbLine
 10
5.245725140726316
 20
7.84717430164391
 30
0.0
 11
8.692000384563599
 21
7.84717430164391
 31
0.0
  0
LINE
  5
85
330
7E
100
AcDbEntity
  8
중심선
100
AcDbLine
 10
15.74043728645272
 20
16.24717430164393
 30
0.0
 11
8.692000384563599
 21
7.84717430164391
 31
0.0
  0
LINE
  5
86
330
7E
100
AcDbEntity
  8
중심선
100
AcDbLine
 10
0.1404042013395286
 20
13.71084872107135
 30
0.0
 11
3.58671253028996
 21
13.71088815037384
 31
0.0
  0
LINE
  5
87
330
7E
100
AcDbEntity
  8
중심선
100
AcDbLine
 10
2.750260043222114
 20
10.84717430164391
 30
0.0
 11
6.196535287059397
 21
10.84717430164391
 31
0.0
  0
LINE
  5
88
330
7E
100
AcDbEntity
  8
중심선
100
AcDbLine
 10
12.29416204261559
 20
16.24717430164393
 30
0.0
 11
5.245725140726316
 21
7.84717430164391
 31
0.0
  0
LINE
  5
89
330
7E
100
AcDbEntity
  8
중심선
100
AcDbLine
 10
10.72767329541681
 20
16.24717430164393
 30
0.0
 11
6.196535287059397
 21
10.84717430164391
 31
0.0
  0
LINE
  5
8A
330
7E
100
AcDbEntity
  8
중심선
100
AcDbLine
 10
7.28139805157953
 20
16.24717430164393
 30
0.0
 11
2.750260043222114
 21
10.84717430164391
 31
0.0
  0
LINE
  5
8B
330
7E
100
AcDbEntity
  8
중심선
100
AcDbLine
 10
5.714909304380834
 20
16.24717430164393
 30
0.0
 11
3.58671253028996
 21
13.71088815037384
 31
0.0
  0
LINE
  5
8C
330
7E
100
AcDbEntity
  8
중심선
100
AcDbLine
 10
2.268634060543552
 20
16.24717430164393
 30
0.0
 11
0.1404042013395286
 21
13.71084872107135
 31
0.0
  0
LINE
  5
8D
330
7E
100
AcDbEntity
  8
중심선
100
AcDbLine
 10
7.28139805157953
 20
16.24717430164393
 30
0.0
 11
10.72767329541681
 21
16.24717430164393
 31
0.0
  0
LINE
  5
8E
330
7E
100
AcDbEntity
  8
중심선
100
AcDbLine
 10
12.29416204261559
 20
16.24717430164393
 30
0.0
 11
15.74043728645272
 21
16.24717430164393
 31
0.0
  0
LINE
  5
8F
330
7E
100
AcDbEntity
  8
중심선
100
AcDbLine
 10
19.22036997980202
 20
11.08717430171403
 30
0.0
 11
23.66174974927406
 21
11.08717430171406
 31
0.0
  0
LINE
  5
90
330
7E
100
AcDbEntity
  8
중심선
100
AcDbLine
 10
19.22039502424796
 20
13.00717430171391
 30
0.0
 11
19.22036997980202
 21
11.08717430171403
 31
0.0
  0
LINE
  5
91
330
7E
100
AcDbEntity
  8
중심선
100
AcDbLine
 10
19.22039502424796
 20
13.00717430171391
 30
0.0
 11
26.96566020931264
 21
13.00717430171391
 31
0.0
  0
LINE
  5
92
330
7E
100
AcDbEntity
  8
중심선
100
AcDbLine
 10
22.22332737316547
 20
13.45928029700563
 30
0.0
 11
24.52862924686651
 21
15.39360700705356
 31
0.0
  0
ATTDEF
  5
94
330
7E
100
AcDbEntity
  8
FORMAT
 62
     2
100
AcDbText
 10
-9.18129528874128
 20
2.075366912832191
 30
0.0
 40
4.233333333333333
  1
E5078216 [ 3 FLUTE ]
 41
0.75
  7
SLDTEXTSTYLE0
 11
-9.18129528874128
 21
-0.0412997538344756
 31
0.0
100
AcDbAttributeDefinition
  3

  2
AUTOATTR0
 70
     0
 74
     1
  0
ENDBLK
  5
80
330
7E
100
AcDbEntity
  8
0
100
AcDbBlockEnd
  0
BLOCK
  5
ED
330
EC
100
AcDbEntity
  8
0
100
AcDbBlockBegin
  2
_D
 70
     0
 10
0.0
 20
0.0
 30
0.0
  3
_D
  1
_D
  0
LINE
  5
EF
330
EC
100
AcDbEntity
  8
치수문자_일반주서
 62
     0
370
    -2
100
AcDbLine
 10
63.30799999999999
 20
3.237499999999994
 30
0.0
 11
63.30799999999999
 21
42.74558096341165
 31
0.0
  0
LINE
  5
F0
330
EC
100
AcDbEntity
  8
치수문자_일반주서
 62
     0
370
    -2
100
AcDbLine
 10
12.508
 20
3.914274598917539
 30
0.0
 11
12.508
 21
42.74558096341165
 31
0.0
  0
LINE
  5
F1
330
EC
100
AcDbEntity
  8
치수문자_일반주서
 62
     0
370
    -2
100
AcDbLine
 10
60.00599999999999
 20
42.74558096341165
 30
0.0
 11
15.81
 21
42.74558096341165
 31
0.0
  0
SOLID
  5
F2
330
EC
100
AcDbEntity
  8
치수문자_일반주서
 62
     0
100
AcDbTrace
 10
60.00599999999999
 20
42.19524763007831
 30
0.0
 11
60.00599999999999
 21
43.29591429674498
 31
0.0
 12
63.30799999999999
 22
42.74558096341165
 32
0.0
 13
63.30799999999999
 23
42.74558096341165
 33
0.0
  0
SOLID
  5
F3
330
EC
100
AcDbEntity
  8
치수문자_일반주서
 62
     0
100
AcDbTrace
 10
15.81
 20
43.29591429674498
 30
0.0
 11
15.81
 21
42.19524763007831
 31
0.0
 12
12.508
 22
42.74558096341165
 32
0.0
 13
12.508
 23
42.74558096341165
 33
0.0
  0
MTEXT
  5
F4
330
EC
100
AcDbEntity
  8
치수문자_일반주서
 62
     0
100
AcDbMText
 10
37.90799999999999
 20
47.12058096341165
 30
0.0
 40
3.5
 41
0.0
 71
     2
 72
     1
  1
\A1;50.8 [2]
  7
SLDTEXTSTYLE0
 73
     1
 44
1.0
  0
POINT
  5
F5
330
EC
100
AcDbEntity
  8
Defpoints
 62
     0
100
AcDbPoint
 10
63.30799999999999
 20
3.174999999999994
 30
0.0
  0
POINT
  5
F6
330
EC
100
AcDbEntity
  8
Defpoints
 62
     0
100
AcDbPoint
 10
12.508
 20
3.851774598917539
 30
0.0
  0
POINT
  5
F7
330
EC
100
AcDbEntity
  8
Defpoints
 62
     0
100
AcDbPoint
 10
12.508
 20
42.74558096341165
 30
0.0
  0
ENDBLK
  5
EE
330
EC
100
AcDbEntity
  8
0
100
AcDbBlockEnd
  0
BLOCK
  5
101
330
100
100
AcDbEntity
  8
0
100
AcDbBlockBegin
  2
_D_1
 70
     0
 10
0.0
 20
0.0
 30
0.0
  3
_D_1
  1
_D_1
  0
LINE
  5
103
330
100
100
AcDbEntity
  8
치수문자_일반주서
 62
     0
370
    -2
100
AcDbLine
 10
63.30799999999999
 20
3.299999999999994
 30
0.0
 11
63.30799999999999
 21
61.67891454809687
 31
0.0
  0
LINE
  5
104
330
100
100
AcDbEntity
  8
치수문자_일반주서
 62
     0
370
    -2
100
AcDbLine
 10
-38.292
 20
5.602500000000017
 30
0.0
 11
-38.292
 21
61.67891454809687
 31
0.0
  0
LINE
  5
105
330
100
100
AcDbEntity
  8
치수문자_일반주서
 62
     0
370
    -2
100
AcDbLine
 10
60.00599999999999
 20
61.67891454809687
 30
0.0
 11
-34.99
 21
61.67891454809687
 31
0.0
  0
SOLID
  5
106
330
100
100
AcDbEntity
  8
치수문자_일반주서
 62
     0
100
AcDbTrace
 10
60.00599999999999
 20
61.12858121476354
 30
0.0
 11
60.00599999999999
 21
62.2292478814302
 31
0.0
 12
63.30799999999999
 22
61.67891454809687
 32
0.0
 13
63.30799999999999
 23
61.67891454809687
 33
0.0
  0
SOLID
  5
107
330
100
100
AcDbEntity
  8
치수문자_일반주서
 62
     0
100
AcDbTrace
 10
-34.99
 20
62.2292478814302
 30
0.0
 11
-34.99
 21
61.12858121476354
 31
0.0
 12
-38.292
 22
61.67891454809687
 32
0.0
 13
-38.292
 23
61.67891454809687
 33
0.0
  0
MTEXT
  5
108
330
100
100
AcDbEntity
  8
치수문자_일반주서
 62
     0
100
AcDbMText
 10
14.77998113366127
 20
66.05391454809687
 30
0.0
 40
3.5
 41
0.0
 71
     2
 72
     1
  1
\A1;101.60 [4]
  7
SLDTEXTSTYLE0
 73
     1
 44
1.0
  0
POINT
  5
109
330
100
100
AcDbEntity
  8
Defpoints
 62
     0
100
AcDbPoint
 10
63.30799999999999
 20
3.237499999999994
 30
0.0
  0
POINT
  5
10A
330
100
100
AcDbEntity
  8
Defpoints
 62
     0
100
AcDbPoint
 10
-38.292
 20
5.540000000000017
 30
0.0
  0
POINT
  5
10B
330
100
100
AcDbEntity
  8
Defpoints
 62
     0
100
AcDbPoint
 10
-38.292
 20
61.67891454809687
 30
0.0
  0
ENDBLK
  5
102
330
100
100
AcDbEntity
  8
0
100
AcDbBlockEnd
  0
BLOCK
  5
115
330
114
100
AcDbEntity
  8
0
100
AcDbBlockBegin
  2
_NONE
 70
     0
 10
0.0
 20
0.0
 30
0.0
  3
_NONE
  1
_NONE
  0
ENDBLK
  5
116
330
114
100
AcDbEntity
  8
0
100
AcDbBlockEnd
  0
BLOCK
  5
118
330
117
100
AcDbEntity
  8
0
100
AcDbBlockBegin
  2
_D_2
 70
     0
 10
0.0
 20
0.0
 30
0.0
  3
_D_2
  1
_D_2
  0
LINE
  5
11A
330
117
100
AcDbEntity
  8
치수문자_일반주서
100
AcDbLine
 10
-62.08488171604274
 20
-11.7643664310687
 30
0.0
 11
-62.08488171604274
 21
-12.4753039166332
 31
0.0
  0
LINE
  5
11B
330
117
100
AcDbEntity
  8
치수문자_일반주서
100
AcDbLine
 10
-62.08488171604274
 20
-12.4753039166332
 30
0.0
 11
-56.52863172498343
 21
-12.47530391663316
 31
0.0
  0
LINE
  5
11C
330
117
100
AcDbEntity
  8
치수문자_일반주서
100
AcDbLine
 10
-56.52863172498343
 20
-12.47530391663316
 30
0.0
 11
-56.52863172498344
 21
-11.76436643106866
 31
0.0
  0
LINE
  5
11D
330
117
100
AcDbEntity
  8
치수문자_일반주서
100
AcDbLine
 10
-62.08488171604282
 20
-0.9356335689314436
 30
0.0
 11
-62.08488171604282
 21
-0.2246960833669435
 31
0.0
  0
LINE
  5
11E
330
117
100
AcDbEntity
  8
치수문자_일반주서
100
AcDbLine
 10
-62.08488171604282
 20
-0.2246960833669435
 30
0.0
 11
-56.52863172498352
 21
-0.2246960833669043
 31
0.0
  0
LINE
  5
11F
330
117
100
AcDbEntity
  8
치수문자_일반주서
100
AcDbLine
 10
-56.52863172498352
 20
-0.2246960833669043
 30
0.0
 11
-56.52863172498351
 21
-0.9356335689314045
 31
0.0
  0
MTEXT
  5
120
330
117
100
AcDbEntity
  8
치수문자_일반주서
100
AcDbMText
 10
-61.04036863956234
 20
-10.87569453045732
 30
0.0
 40
3.5
 41
0.0
 71
     1
 72
     1
  1
0.00
  7
SLDTEXTSTYLE0
 11
-7.044195017643634E-15
 21
1.0
 31
0.0
 73
     1
 44
1.0
  0
MTEXT
  5
121
330
117
100
AcDbEntity
  8
치수문자_일반주서
100
AcDbMText
 10
-55.80373708920187
 20
-10.2822744123638
 30
0.0
 40
3.5
 41
0.0
 71
     1
 72
     1
  1
%%c
  7
SLDTEXTSTYLE0
 11
-7.044195017643634E-15
 21
1.0
 31
0.0
 73
     1
 44
1.0
  0
MTEXT
  5
122
330
117
100
AcDbEntity
  8
치수문자_일반주서
100
AcDbMText
 10
-55.8037370892019
 20
-5.003837013989717
 30
0.0
 40
3.5
 41
0.0
 71
     1
 72
     1
  1
0
  7
SLDTEXTSTYLE0
 11
-7.044195017643634E-15
 21
1.0
 31
0.0
 73
     1
 44
1.0
  0
ENDBLK
  5
119
330
117
100
AcDbEntity
  8
0
100
AcDbBlockEnd
  0
BLOCK
  5
124
330
123
100
AcDbEntity
  8
0
100
AcDbBlockBegin
  2
SW_DOWELSYMBOL_0
 70
     0
 10
0.0
 20
0.0
 30
0.0
  3
SW_DOWELSYMBOL_0
  1
SW_DOWELSYMBOL_0
  0
CIRCLE
  5
126
330
123
100
AcDbEntity
  8
외형선
 62
     0
100
AcDbCircle
 10
0.0
 20
0.0
 30
0.0
 40
3.000000000000001
  0
HATCH
  5
127
330
123
100
AcDbEntity
  8
0
  6
Continuous
 62
     0
370
    30
100
AcDbHatch
 10
0.0
 20
0.0
 30
0.0
210
0.0
220
0.0
230
1.0
  2
SOLID
 70
     1
 71
     0
 91
        1
 92
        0
 93
        3
 72
     2
 10
0.0
 20
0.0
 40
3.000000000000001
 50
0.0
 51
90.0
 73
     1
 72
     1
 10
0.0
 20
3.000000000000001
 11
0.0
 21
0.0
 72
     1
 10
0.0
 20
0.0
 11
3.000000000000003
 21
0.0
 97
        0
 75
     0
 76
     1
 98
        1
 10
0.0
 20
0.0
  0
HATCH
  5
128
330
123
100
AcDbEntity
  8
0
  6
Continuous
 62
     0
370
    30
100
AcDbHatch
 10
0.0
 20
0.0
 30
0.0
210
0.0
220
0.0
230
1.0
  2
SOLID
 70
     1
 71
     0
 91
        1
 92
        0
 93
        3
 72
     2
 10
0.0
 20
0.0
 40
3.000000000000001
 50
180.0
 51
270.0000000000008
 73
     1
 72
     1
 10
0.0
 20
-3.000000000000001
 11
0.0
 21
0.0
 72
     1
 10
0.0
 20
0.0
 11
-3.000000000000003
 21
0.0
 97
        0
 75
     0
 76
     1
 98
        1
 10
0.0
 20
0.0
  0
ENDBLK
  5
125
330
123
100
AcDbEntity
  8
0
100
AcDbBlockEnd
  0
BLOCK
  5
155
330
154
100
AcDbEntity
  8
0
100
AcDbBlockBegin
  2
*D7
 70
     1
 10
0.0
 20
0.0
 30
0.0
  3
*D7
  1
*D7
  0
LINE
  5
157
330
154
100
AcDbEntity
  8
치수문자_일반주서
 62
     0
370
    -2
100
AcDbLine
 10
63.43288100448176
 20
-3.175000000000006
 30
0.0
 11
82.20055262913073
 21
-3.175000000000006
 31
0.0
  0
LINE
  5
158
330
154
100
AcDbEntity
  8
치수문자_일반주서
 62
     0
370
    -2
100
AcDbLine
 10
63.37049999999999
 20
3.174999999999994
 30
0.0
 11
82.20055262913073
 21
3.174999999999992
 31
0.0
  0
LINE
  5
159
330
154
100
AcDbEntity
  8
치수문자_일반주서
 62
     0
370
    -2
100
AcDbLine
 10
82.20055262913073
 20
6.476999999999991
 30
0.0
 11
82.20055262913073
 21
35.15399999999999
 31
0.0
  0
LINE
  5
15A
330
154
100
AcDbEntity
  8
치수문자_일반주서
 62
     0
370
    -2
100
AcDbLine
 10
82.20055262913073
 20
-6.477000000000006
 30
0.0
 11
82.20055262913073
 21
-9.779000000000005
 31
0.0
  0
SOLID
  5
15B
330
154
100
AcDbEntity
  8
치수문자_일반주서
 62
     0
100
AcDbTrace
 10
82.75088596246405
 20
-6.477000000000006
 30
0.0
 11
81.6502192957974
 21
-6.477000000000006
 31
0.0
 12
82.20055262913073
 22
-3.175000000000006
 32
0.0
 13
82.20055262913073
 23
-3.175000000000006
 33
0.0
  0
SOLID
  5
15C
330
154
100
AcDbEntity
  8
치수문자_일반주서
 62
     0
100
AcDbTrace
 10
81.6502192957974
 20
6.476999999999991
 30
0.0
 11
82.75088596246405
 21
6.476999999999991
 31
0.0
 12
82.20055262913073
 22
3.174999999999992
 32
0.0
 13
82.20055262913073
 23
3.174999999999992
 33
0.0
  0
MTEXT
  5
15D
330
154
100
AcDbEntity
  8
치수문자_일반주서
 62
     0
100
AcDbMText
 10
79.57555262913073
 20
22.46649999999999
 30
0.0
 40
3.5
 41
0.0
 71
     5
 72
     1
  1
\A1;{%%c6.35 [1/4]}
  7
SLDTEXTSTYLE0
 11
0.0
 21
1.0
 31
0.0
 73
     1
 44
1.0
  0
POINT
  5
15E
330
154
100
AcDbEntity
  8
Defpoints
 62
     0
100
AcDbPoint
 10
63.37038100448176
 20
-3.175000000000006
 30
0.0
  0
POINT
  5
15F
330
154
100
AcDbEntity
  8
Defpoints
 62
     0
100
AcDbPoint
 10
63.30799999999999
 20
3.174999999999994
 30
0.0
  0
POINT
  5
160
330
154
100
AcDbEntity
  8
Defpoints
 62
     0
100
AcDbPoint
 10
82.20055262913073
 20
3.174999999999992
 30
0.0
  0
ENDBLK
  5
156
330
154
100
AcDbEntity
  8
0
100
AcDbBlockEnd
  0
BLOCK
  5
167
330
166
100
AcDbEntity
  8
0
100
AcDbBlockBegin
  2
*D8
 70
     1
 10
0.0
 20
0.0
 30
0.0
  3
*D8
  1
*D8
  0
LINE
  5
169
330
166
100
AcDbEntity
  8
치수문자_일반주서
 62
     0
370
    -2
100
AcDbLine
 10
-37.54450000000001
 20
-6.349999999999995
 30
0.0
 11
-58.06515589965134
 21
-6.349999999999993
 31
0.0
  0
LINE
  5
16A
330
166
100
AcDbEntity
  8
치수문자_일반주서
 62
     0
370
    -2
100
AcDbLine
 10
-37.54450000000001
 20
6.350000000000001
 30
0.0
 11
-58.06515589965134
 21
6.350000000000001
 31
0.0
  0
LINE
  5
16B
330
166
100
AcDbEntity
  8
치수문자_일반주서
 62
     0
370
    -2
100
AcDbLine
 10
-58.06515589965134
 20
6.350000000000001
 30
0.0
 11
-58.06515589965134
 21
34.15199999999999
 31
0.0
  0
LINE
  5
16C
330
166
100
AcDbEntity
  8
치수문자_일반주서
 62
     0
370
    -2
100
AcDbLine
 10
-58.06515589965134
 20
-3.047999999999993
 30
0.0
 11
-58.06515589965134
 21
3.048000000000002
 31
0.0
  0
SOLID
  5
16D
330
166
100
AcDbEntity
  8
치수문자_일반주서
 62
     0
100
AcDbTrace
 10
-58.61548923298467
 20
-3.047999999999993
 30
0.0
 11
-57.514822566318
 21
-3.047999999999993
 31
0.0
 12
-58.06515589965134
 22
-6.349999999999993
 32
0.0
 13
-58.06515589965134
 23
-6.349999999999993
 33
0.0
  0
SOLID
  5
16E
330
166
100
AcDbEntity
  8
치수문자_일반주서
 62
     0
100
AcDbTrace
 10
-57.514822566318
 20
3.048000000000002
 30
0.0
 11
-58.61548923298467
 21
3.048000000000002
 31
0.0
 12
-58.06515589965134
 22
6.350000000000001
 32
0.0
 13
-58.06515589965134
 23
6.350000000000001
 33
0.0
  0
MTEXT
  5
16F
330
166
100
AcDbEntity
  8
치수문자_일반주서
 62
     0
100
AcDbMText
 10
-60.69015589965134
 20
21.902
 30
0.0
 40
3.5
 41
0.0
 71
     5
 72
     1
  1
\A1;{%%c12.7 [1/2]}
  7
SLDTEXTSTYLE0
 11
0.0
 21
1.0
 31
0.0
 73
     1
 44
1.0
  0
POINT
  5
170
330
166
100
AcDbEntity
  8
Defpoints
 62
     0
100
AcDbPoint
 10
-37.48200000000001
 20
-6.349999999999995
 30
0.0
  0
POINT
  5
171
330
166
100
AcDbEntity
  8
Defpoints
 62
     0
100
AcDbPoint
 10
-37.48200000000001
 20
6.350000000000001
 30
0.0
  0
POINT
  5
172
330
166
100
AcDbEntity
  8
Defpoints
 62
     0
100
AcDbPoint
 10
-58.06515589965134
 20
6.350000000000001
 30
0.0
  0
ENDBLK
  5
168
330
166
100
AcDbEntity
  8
0
100
AcDbBlockEnd
  0
BLOCK
  5
179
330
178
100
AcDbEntity
  8
0
100
AcDbBlockBegin
  2
*D9
 70
     1
 10
0.0
 20
0.0
 30
0.0
  3
*D9
  1
*D9
  0
LINE
  5
17B
330
178
100
AcDbEntity
  8
치수문자_일반주서
 62
     0
370
    -2
100
AcDbLine
 10
30.553316859465
 20
10.81483259141048
 30
0.0
 11
31.02240300459862
 21
16.04383423497913
 31
0.0
  0
ARC
  5
17C
330
178
100
AcDbEntity
  8
치수문자_일반주서
 62
     0
370
    -2
100
AcDbCircle
 10
151.1085240044048
 20
-0.0000000000000053
 30
0.0
 40
121.039326558518
100
AcDbArc
 50
174.8738006652055
 51
176.4369003326028
  0
ARC
  5
17D
330
178
100
AcDbEntity
  8
치수문자_일반주서
 62
     0
370
    -2
100
AcDbCircle
 10
151.1085240044048
 20
-0.0000000000000053
 30
0.0
 40
121.039326558518
100
AcDbArc
 50
181.5630996673973
 51
183.1261993347945
  0
SOLID
  5
17E
330
178
100
AcDbEntity
  8
치수문자_일반주서
 62
     0
100
AcDbTrace
 10
29.7534862974896
 20
7.549027865041247
 30
0.0
 11
30.85285617626795
 21
7.495614563832667
 31
0.0
 12
30.14293133325303
 22
4.224211578101923
 32
0.0
 13
30.14293133325303
 23
4.224211578101923
 33
0.0
  0
SOLID
  5
17F
330
178
100
AcDbEntity
  8
치수문자_일반주서
 62
     0
100
AcDbTrace
 10
30.66451950415574
 20
-3.294186155140015
 30
0.0
 11
29.56395523447417
 21
-3.309199462949424
 31
0.0
 12
30.06919744588673
 22
-0.0000000000000053
 32
0.0
 13
30.06919744588673
 23
-0.0000000000000053
 33
0.0
  0
MTEXT
  5
180
330
178
100
AcDbEntity
  8
치수문자_일반주서
 62
     0
100
AcDbMText
 10
28.17335911024749
 20
13.66387648576161
 30
0.0
 40
3.5
 41
0.0
 71
     5
 72
     1
  1
\A1;2%%d
  7
SLDTEXTSTYLE0
 11
0.08934974193021399
 21
0.9960003130606959
 31
0.0
 73
     1
 44
1.0
  0
POINT
  5
181
330
178
100
AcDbEntity
  8
Defpoints
 62
     0
100
AcDbPoint
 10
30.07739083952476
 20
1.408324736930442
 30
0.0
  0
POINT
  5
182
330
178
100
AcDbEntity
  8
Defpoints
 62
     0
100
AcDbPoint
 10
32.83031605584382
 20
4.130366035668686
 30
0.0
  0
POINT
  5
183
330
178
100
AcDbEntity
  8
Defpoints
 62
     0
100
AcDbPoint
 10
-41.29200000000001
 20
-0.0000000000000061
 30
0.0
  0
POINT
  5
184
330
178
100
AcDbEntity
  8
Defpoints
 62
     0
100
AcDbPoint
 10
66.24380590203043
 20
-0.0000000000000061
 30
0.0
  0
POINT
  5
185
330
178
100
AcDbEntity
  8
Defpoints
 62
     0
100
AcDbPoint
 10
28.45807439797835
 20
4.283048078765223
 30
0.0
  0
ENDBLK
  5
17A
330
178
100
AcDbEntity
  8
0
100
AcDbBlockEnd
  0
ENDSEC
  0
SECTION
  2
ENTITIES
  0
LINE
  5
95
102
{ACAD_REACTORS
102
}
330
1F
100
AcDbEntity
  8
0
  6
Continuous
 62
     4
370
    15
100
AcDbLine
 10
10.22480524944753
 20
6.350000000000007
 30
0.0
 11
-37.48200000000001
 21
6.350000000000001
 31
0.0
  0
LINE
  5
96
102
{ACAD_REACTORS
102
}
330
1F
100
AcDbEntity
  8
0
  6
Continuous
 62
     4
370
    15
100
AcDbLine
 10
-37.48200000000001
 20
-6.349999999999995
 30
0.0
 11
10.22480524944753
 21
-6.349999999999989
 31
0.0
  0
LINE
  5
97
330
1F
100
AcDbEntity
  8
0
  6
Continuous
 62
     4
370
    15
100
AcDbLine
 10
-37.48200000000001
 20
6.35
 30
0.0
 11
-38.292
 21
5.540000000000017
 31
0.0
  0
LINE
  5
98
330
1F
100
AcDbEntity
  8
0
  6
Continuous
 62
     4
370
    15
100
AcDbLine
 10
-38.292
 20
-5.540000000000013
 30
0.0
 11
-37.48200000000001
 21
-6.349999999999996
 31
0.0
  0
LINE
  5
99
330
1F
100
AcDbEntity
  8
0
  6
Continuous
 62
     1
370
    15
100
AcDbLine
 10
50.0196307994233
 20
-3.530101937787028
 30
0.0
 11
53.90079836423361
 21
-3.394568579897439
 31
0.0
  0
LINE
  5
9A
330
1F
100
AcDbEntity
  8
0
  6
Continuous
 62
     1
370
    15
100
AcDbLine
 10
24.12275340158856
 20
-4.434440823952866
 30
0.0
 11
28.61909155092797
 21
-4.277425235882833
 31
0.0
  0
LINE
  5
9B
330
1F
100
AcDbEntity
  8
0
  6
Continuous
 62
     1
370
    15
100
AcDbLine
 10
15.96998331095509
 20
4.719141829007111
 30
0.0
 11
12.50800000000001
 21
4.840036950193251
 31
0.0
  0
LINE
  5
9C
330
1F
100
AcDbEntity
  8
0
  6
Continuous
 62
     1
370
    15
100
AcDbLine
 10
41.24888974393855
 20
3.836382964457437
 30
0.0
 11
37.10572788451963
 21
3.981065364717206
 31
0.0
  0
LINE
  5
9D
330
1F
100
AcDbEntity
  8
0
  6
Continuous
 62
     1
370
    15
100
AcDbLine
 10
41.42008031613361
 20
-3.830404857946635
 30
0.0
 11
45.46291966984785
 21
-3.689225796783413
 31
0.0
  0
LINE
  5
9E
330
1F
100
AcDbEntity
  8
0
  6
Continuous
 62
     1
370
    15
100
AcDbLine
 10
15.44171909934799
 20
-4.737589221771365
 30
0.0
 11
20.19102433403869
 21
-4.57173982842478
 31
0.0
  0
LINE
  5
9F
102
{ACAD_REACTORS
102
}
330
1F
100
AcDbEntity
  8
0
  6
Continuous
 62
     1
370
    15
100
AcDbLine
 10
32.83031605584382
 20
4.130366035668686
 30
0.0
 11
28.45807439797835
 21
4.283048078765223
 31
0.0
  0
LINE
  5
A0
330
1F
100
AcDbEntity
  8
0
  6
Continuous
 62
     1
370
    15
100
AcDbLine
 10
58.12925836232461
 20
3.246907502999046
 30
0.0
 11
54.30483943936225
 21
3.380459154647693
 31
0.0
  0
LINE
  5
A1
330
1F
100
AcDbEntity
  8
0
  6
Continuous
 62
     1
370
    15
100
AcDbLine
 10
58.57896373031321
 20
-3.231203445504295
 30
0.0
 11
60.24380590203043
 21
-3.173065875785617
 31
0.0
  0
LINE
  5
A2
330
1F
100
AcDbEntity
  8
0
  6
Continuous
 62
     1
370
    15
100
AcDbLine
 10
32.78237029302365
 20
-4.132040338600216
 30
0.0
 11
37.04146309365229
 21
-3.983309540665502
 31
0.0
  0
LINE
  5
A3
330
1F
100
AcDbEntity
  8
0
  6
Continuous
 62
     1
370
    15
100
AcDbLine
 10
24.40565708486157
 20
4.424561609640941
 30
0.0
 11
19.78638058991648
 21
4.585870299339567
 31
0.0
  0
LINE
  5
A4
330
1F
100
AcDbEntity
  8
0
  6
Continuous
 62
     1
370
    15
100
AcDbLine
 10
49.67950043416268
 20
3.541979551869456
 30
0.0
 11
45.72465560317045
 21
3.680085776588166
 31
0.0
  0
LINE
  5
A5
330
1F
100
AcDbEntity
  8
0
  6
Continuous
 62
     4
370
    15
100
AcDbLine
 10
10.22480524944753
 20
-6.349999999999987
 30
0.0
 11
11.492
 21
-4.991099999999991
 31
0.0
  0
LINE
  5
A6
330
1F
100
AcDbEntity
  8
0
  6
Continuous
 62
     4
370
    15
100
AcDbLine
 10
12.50800000000001
 20
4.840036950193251
 30
0.0
 11
11.492
 21
4.991100000000008
 31
0.0
  0
ARC
  5
A7
330
1F
100
AcDbEntity
  8
0
  6
Continuous
 62
     1
370
    15
100
AcDbCircle
 10
60.133
 20
0.0000000000000091
 30
0.0
 40
3.175
100
AcDbArc
 50
272.0000000000007
 51
293.3409628545136
  0
LINE
  5
A8
330
1F
100
AcDbEntity
  8
0
  6
Continuous
 62
     4
370
    15
100
AcDbLine
 10
11.492
 20
4.991100000000008
 30
0.0
 11
10.22480524944753
 21
6.350000000000004
 31
0.0
  0
LINE
  5
A9
330
1F
100
AcDbEntity
  8
0
  6
Continuous
 62
     4
370
    15
100
AcDbLine
 10
11.492
 20
-4.991099999999991
 30
0.0
 11
11.78522333965115
 21
-4.947502350430872
 31
0.0
  0
ARC
  5
AA
330
1F
100
AcDbEntity
  8
0
  6
Continuous
 62
     1
370
    15
100
AcDbCircle
 10
60.133
 20
0.0000000000000091
 30
0.0
 40
3.175000000000002
100
AcDbArc
 50
27.8561763744759
 51
44.48579129213291
  0
SPLINE
  5
AB
330
1F
100
AcDbEntity
  8
0
  6
Continuous
 62
     4
370
    15
100
AcDbSpline
210
0.0
220
0.0
230
1.0
 70
     8
 71
     3
 72
     8
 73
     4
 74
     0
 42
0.000000001
 43
0.00000001
 40
0.0
 40
0.0
 40
0.0
 40
0.0
 40
1.0
 40
1.0
 40
1.0
 40
1.0
 10
9.98800000008678
 20
6.346088332893291
 30
0.0
 10
10.06701873862219
 20
6.34163382548903
 30
0.0
 10
10.14590568766115
 20
6.333378732404115
 30
0.0
 10
10.22480524944753
 20
6.321322239417865
 30
0.0
  0
LINE
  5
AC
330
1F
100
AcDbEntity
  8
0
  6
Continuous
 62
     4
370
    15
100
AcDbLine
 10
9.987999999999996
 20
6.046839659420682
 30
0.0
 11
9.987999999999996
 21
6.346088332898183
 31
0.0
  0
SPLINE
  5
AD
330
1F
100
AcDbEntity
  8
0
  6
Continuous
 62
     4
370
    15
100
AcDbSpline
210
0.0
220
0.0
230
1.0
 70
     8
 71
     3
 72
     8
 73
     4
 74
     0
 42
0.000000001
 43
0.00000001
 40
0.0
 40
0.0
 40
0.0
 40
0.0
 40
0.0004255966247945
 40
0.0004255966247945
 40
0.0004255966247945
 40
0.0004255966247945
 10
10.22480524944753
 20
5.929542996085258
 30
0.0
 10
10.14582358733988
 20
5.971712043266961
 30
0.0
 10
10.06685673772338
 20
6.01083641278675
 30
0.0
 10
9.987999999999996
 20
6.046839659270463
 30
0.0
  0
LINE
  5
AE
330
1F
100
AcDbEntity
  8
0
  6
Continuous
 62
     4
370
    15
100
AcDbLine
 10
10.22480524944753
 20
5.929542996085252
 30
0.0
 11
10.22480524944753
 21
-3.68271366407675
 31
0.0
  0
SPLINE
  5
AF
330
1F
100
AcDbEntity
  8
0
  6
Continuous
 62
     4
370
    15
100
AcDbSpline
210
0.0
220
0.0
230
1.0
 70
     8
 71
     3
 72
     8
 73
     4
 74
     0
 42
0.000000001
 43
0.00000001
 40
0.0
 40
0.0
 40
0.0
 40
0.0
 40
1.0
 40
1.0
 40
1.0
 40
1.0
 10
9.988000000086782
 20
-3.366039382285805
 30
0.0
 10
10.06701873862219
 20
-3.473667303013993
 30
0.0
 10
10.14590568766115
 20
-3.579251527754587
 30
0.0
 10
10.22480524944753
 20
-3.682713664076747
 30
0.0
  0
LINE
  5
B0
330
1F
100
AcDbEntity
  8
0
  6
Continuous
 62
     4
370
    15
100
AcDbLine
 10
9.987999999999996
 20
-4.70231011794926
 30
0.0
 11
9.987999999999998
 21
-3.366039382167605
 31
0.0
  0
SPLINE
  5
B1
330
1F
100
AcDbEntity
  8
0
  6
Continuous
 62
     4
370
    15
100
AcDbSpline
210
0.0
220
0.0
230
1.0
 70
     8
 71
     3
 72
     8
 73
     4
 74
     0
 42
0.000000001
 43
0.00000001
 40
0.0
 40
0.0
 40
0.0
 40
0.0
 40
0.0004255966247945
 40
0.0004255966247945
 40
0.0004255966247945
 40
0.0004255966247945
 10
10.22480524944753
 20
-4.932578626087014
 30
0.0
 10
10.14582358733988
 20
-4.858362964459886
 30
0.0
 10
10.06685673772338
 20
-4.781562850887584
 30
0.0
 10
9.987999999999996
 20
-4.702310117988448
 30
0.0
  0
LINE
  5
B2
330
1F
100
AcDbEntity
  8
0
  6
Continuous
 62
     4
370
    15
100
AcDbLine
 10
10.22480524944753
 20
-4.932578626087015
 30
0.0
 11
10.22480524944753
 21
-6.349999999999989
 31
0.0
  0
LINE
  5
B3
330
1F
100
AcDbEntity
  8
0
  6
Continuous
 62
     4
370
    15
100
AcDbLine
 10
10.22480524944753
 20
6.350000000000007
 30
0.0
 11
10.22480524944753
 21
6.321322239417865
 31
0.0
  0
LINE
  5
B4
330
1F
100
AcDbEntity
  8
0
  6
Continuous
 62
     4
370
    15
100
AcDbLine
 10
-37.48200000000001
 20
6.350000000000001
 30
0.0
 11
-37.48200000000001
 21
-6.349999999999995
 31
0.0
  0
LINE
  5
B5
330
1F
100
AcDbEntity
  8
0
  6
Continuous
 62
     4
370
    15
100
AcDbLine
 10
-38.292
 20
-5.540000000000013
 30
0.0
 11
-38.292
 21
5.540000000000017
 31
0.0
  0
SPLINE
  5
B6
330
1F
100
AcDbEntity
  8
0
  6
Continuous
 62
     4
370
    15
100
AcDbSpline
210
0.0
220
0.0
230
1.0
 70
     8
 71
     3
 72
    14
 73
    10
 74
     0
 42
0.000000001
 43
0.00000001
 40
0.0
 40
0.0
 40
0.0
 40
0.0
 40
0.2500000000000001
 40
0.2500000000000001
 40
0.5
 40
0.5
 40
0.75
 40
0.75
 40
1.0
 40
1.0
 40
1.0
 40
1.0
 10
11.492
 20
2.814382248663804
 30
0.0
 10
11.34953252978831
 20
3.115315119354476
 30
0.0
 10
11.21868000971222
 20
3.412070929713928
 30
0.0
 10
10.97154038423774
 20
3.994717597029096
 30
0.0
 10
10.85446773709864
 20
4.283024881145077
 30
0.0
 10
10.64091352408611
 20
4.821261340408754
 30
0.0
 10
10.54313140519267
 20
5.074162799249997
 30
0.0
 10
10.36504887214504
 20
5.543183469824399
 30
0.0
 10
10.28731068911224
 20
5.752045601750237
 30
0.0
 10
10.22480524944753
 20
5.929542996085253
 30
0.0
  0
LINE
  5
B7
330
1F
100
AcDbEntity
  8
0
  6
Continuous
 62
     4
370
    15
100
AcDbLine
 10
11.492
 20
2.814382248663803
 30
0.0
 11
11.492
 21
-2.948603096418088
 31
0.0
  0
SPLINE
  5
B8
330
1F
100
AcDbEntity
  8
0
  6
Continuous
 62
     4
370
    15
100
AcDbSpline
210
0.0
220
0.0
230
1.0
 70
     8
 71
     3
 72
    16
 73
    12
 74
     0
 42
0.000000001
 43
0.00000001
 40
0.0
 40
0.0
 40
0.0
 40
0.0
 40
0.1249999999999999
 40
0.1249999999999999
 40
0.2499999999999998
 40
0.2499999999999998
 40
0.4999999999999999
 40
0.4999999999999999
 40
0.7499999999999999
 40
0.7499999999999999
 40
1.0
 40
1.0
 40
1.0
 40
1.0
 10
10.22480524944753
 20
-3.68271366407675
 30
0.0
 10
10.25845145883254
 20
-3.605989106202018
 30
0.0
 10
10.30035942362336
 20
-3.532861061554055
 30
0.0
 10
10.39780268355359
 20
-3.401855718559184
 30
0.0
 10
10.4521678177884
 20
-3.345453382084473
 30
0.0
 10
10.61903113175671
 20
-3.204262740584219
 30
0.0
 10
10.73493265720984
 20
-3.144746931312132
 30
0.0
 10
10.95752040637169
 20
-3.056258927522656
 30
0.0
 10
11.06647785576303
 20
-3.026896619984927
 30
0.0
 10
11.28164679213176
 20
-2.980087309043687
 30
0.0
 10
11.38762127212102
 20
-2.963081024940334
 30
0.0
 10
11.49200000000001
 20
-2.948603096418092
 30
0.0
  0
SPLINE
  5
B9
330
1F
100
AcDbEntity
  8
0
  6
Continuous
 62
     1
370
    15
100
AcDbSpline
210
0.0
220
0.0
230
1.0
 70
     8
 71
     3
 72
    10
 73
     6
 74
     0
 42
0.000000001
 43
0.00000001
 40
0.0
 40
0.0
 40
0.0
 40
0.0
 40
0.3231759098611101
 40
0.6499808557177126
 40
1.0
 40
1.0
 40
1.0
 40
1.0
 10
60.24380590203043
 20
2.748209489452691
 30
0.0
 10
60.01505156189629
 20
2.836673043388861
 30
0.0
 10
59.55497413281612
 20
3.014593534158029
 30
0.0
 10
58.84974267128955
 20
3.196125664675327
 30
0.0
 10
58.37428810362329
 20
3.213529532705342
 30
0.0
 10
58.12840707878345
 20
3.222529931898903
 30
0.0
  0
SPLINE
  5
BA
330
1F
100
AcDbEntity
  8
0
  6
Continuous
 62
     1
370
    15
100
AcDbSpline
210
0.0
220
0.0
230
1.0
 70
     8
 71
     3
 72
    23
 73
    19
 74
     0
 42
0.000000001
 43
0.00000001
 40
0.0
 40
0.0
 40
0.0
 40
0.0
 40
0.0301054664078321
 40
0.0974414659530713
 40
0.1626773121764893
 40
0.2298119593267279
 40
0.2948946465149337
 40
0.3618697211431974
 40
0.4268383301735372
 40
0.4936942534300859
 40
0.5585812493931059
 40
0.6253516773810806
 40
0.6901801170923273
 40
0.756888850042875
 40
0.8216838882710044
 40
0.888356924334594
 40
0.9531436013684179
 40
1.0
 40
1.0
 40
1.0
 40
1.0
 10
47.71558915054067
 20
-3.036223894714771
 30
0.0
 10
47.56111001009171
 20
-3.119249983674242
 30
0.0
 10
47.06111197981365
 20
-3.387978051559487
 30
0.0
 10
46.23106533174048
 20
-3.62676376530582
 30
0.0
 10
45.21593014961366
 20
-3.731674249714696
 30
0.0
 10
44.21674065538046
 20
-3.592957302989111
 30
0.0
 10
43.21325431986222
 20
-3.229338823137545
 30
0.0
 10
42.22492909247476
 20
-2.665577820588879
 30
0.0
 10
41.2321324309837
 20
-1.926385651636127
 30
0.0
 10
40.25384251336258
 20
-1.068626508463844
 30
0.0
 10
39.2710445777951
 20
-0.1278909963463399
 30
0.0
 10
38.30211606008643
 20
0.8236619041647718
 30
0.0
 10
37.3286932315285
 20
1.747652324656743
 30
0.0
 10
36.36865172642558
 20
2.573098800569835
 30
0.0
 10
35.40393084331243
 20
3.269856276012452
 30
0.0
 10
34.4524024117668
 20
3.774889169373191
 30
0.0
 10
33.59108822101642
 20
4.074156064505882
 30
0.0
 10
33.05461610091257
 20
4.09647598843689
 30
0.0
 10
32.82945971423569
 20
4.105843620481285
 30
0.0
  0
SPLINE
  5
BB
330
1F
100
AcDbEntity
  8
0
  6
Continuous
 62
     1
370
    15
100
AcDbSpline
210
0.0
220
0.0
230
1.0
 70
     8
 71
     3
 72
    18
 73
    14
 74
     0
 42
0.000000001
 43
0.00000001
 40
0.0
 40
0.0
 40
0.0
 40
0.0
 40
0.0694864295143872
 40
0.1612099404794996
 40
0.2555818529078637
 40
0.3474774907402464
 40
0.442025699293392
 40
0.5341108384456028
 40
0.6288533374867923
 40
0.7211441050536934
 40
0.8160975714689007
 40
0.906793740056349
 40
1.0
 40
1.0
 40
1.0
 40
1.0
 10
22.1094680373995
 20
-3.981588333722275
 30
0.0
 10
21.88257808892048
 20
-4.102536192403259
 30
0.0
 10
21.35618875872579
 20
-4.383137703163678
 30
0.0
 10
20.52605899096784
 20
-4.577914889885811
 30
0.0
 10
19.62572970266033
 20
-4.586478953899486
 30
0.0
 10
18.72013568268877
 20
-4.355999181504183
 30
0.0
 10
17.82501812505435
 20
-3.909578365985179
 30
0.0
 10
16.92427366052212
 20
-3.258527006552167
 30
0.0
 10
16.03404646505775
 20
-2.445640072075324
 30
0.0
 10
15.13791906453776
 20
-1.496135967724013
 30
0.0
 10
14.25809820351719
 20
-0.479580119943793
 30
0.0
 10
13.37821600608051
 20
0.5758086377279185
 30
0.0
 10
12.80069951698846
 20
1.249011569229607
 30
0.0
 10
12.508
 20
1.590207321398607
 30
0.0
  0
SPLINE
  5
BC
330
1F
100
AcDbEntity
  8
0
  6
Continuous
 62
     4
370
    15
100
AcDbSpline
210
0.0
220
0.0
230
1.0
 70
     8
 71
     3
 72
     8
 73
     4
 74
     0
 42
0.000000001
 43
0.00000001
 40
0.0
 40
0.0
 40
0.0
 40
0.0
 40
1.0
 40
1.0
 40
1.0
 40
1.0
 10
12.5080000000002
 20
1.590207321397941
 30
0.0
 10
12.16430311883325
 20
2.01473448840237
 30
0.0
 10
11.82814291235247
 20
2.424695639472072
 30
0.0
 10
11.49200000000001
 20
2.814382248663801
 30
0.0
  0
SPLINE
  5
BD
330
1F
100
AcDbEntity
  8
0
  6
Continuous
 62
     4
370
    15
100
AcDbSpline
210
0.0
220
0.0
230
1.0
 70
     8
 71
     3
 72
    16
 73
    12
 74
     0
 42
0.000000001
 43
0.00000001
 40
0.0
 40
0.0
 40
0.0
 40
0.0
 40
0.1249999999999996
 40
0.1249999999999996
 40
0.2499999999999992
 40
0.2499999999999992
 40
0.4999999999999994
 40
0.4999999999999994
 40
0.7499999999999997
 40
0.7499999999999997
 40
1.0
 40
1.0
 40
1.0
 40
1.0
 10
10.22480524944753
 20
6.321322239417865
 30
0.0
 10
10.25845145883254
 20
6.291906345124544
 30
0.0
 10
10.30035942362335
 20
6.251480525696434
 30
0.0
 10
10.39780268355359
 20
6.153186873163797
 30
0.0
 10
10.4521678177884
 20
6.096558652520421
 30
0.0
 10
10.6190311317567
 20
5.920649283178961
 30
0.0
 10
10.73493265720984
 20
5.796010251536263
 30
0.0
 10
10.95752040637169
 20
5.554996859344441
 30
0.0
 10
11.06647785576303
 20
5.435958112256482
 30
0.0
 10
11.28164679213176
 20
5.198344096891749
 30
0.0
 10
11.38762127212102
 20
5.079997379311145
 30
0.0
 10
11.49200000000001
 20
4.961795525601023
 30
0.0
  0
SPLINE
  5
BE
330
1F
100
AcDbEntity
  8
0
  6
Continuous
 62
     4
370
    15
100
AcDbSpline
210
0.0
220
0.0
230
1.0
 70
     8
 71
     3
 72
     8
 73
     4
 74
     0
 42
0.000000001
 43
0.00000001
 40
0.0
 40
0.0
 40
0.0
 40
0.0
 40
1.0
 40
1.0
 40
1.0
 40
1.0
 10
11.492
 20
4.961795525601023
 30
0.0
 10
11.82935478281546
 20
4.870442364170427
 30
0.0
 10
12.16613772733118
 20
4.736610897791405
 30
0.0
 10
12.50800000000001
 20
4.561975059743974
 30
0.0
  0
SPLINE
  5
BF
330
1F
100
AcDbEntity
  8
0
  6
Continuous
 62
     1
370
    15
100
AcDbSpline
210
0.0
220
0.0
230
1.0
 70
     8
 71
     3
 72
    21
 73
    17
 74
     0
 42
0.000000001
 43
0.00000001
 40
0.0
 40
0.0
 40
0.0
 40
0.0
 40
0.0501204169041875
 40
0.1007925945327685
 40
0.1807518755658922
 40
0.2630225723384831
 40
0.3430682273543172
 40
0.4254434129718993
 40
0.5053196818332248
 40
0.5875199063408465
 40
0.6672377394432155
 40
0.7492741712808535
 40
0.8288461754552623
 40
0.9107318387400237
 40
0.9901696145626532
 40
1.0
 40
1.0
 40
1.0
 40
1.0
 10
12.50800000000003
 20
4.561975059743948
 30
0.0
 10
12.69757141363169
 20
4.473829947554139
 30
0.0
 10
13.07880117605978
 20
4.296569359918233
 30
0.0
 10
13.76424260224381
 20
3.85658667063464
 30
0.0
 10
14.57480375627951
 20
3.213166569753026
 30
0.0
 10
15.50054422000261
 20
2.325592855779157
 30
0.0
 10
16.43900590110426
 20
1.322203475694936
 30
0.0
 10
17.37182630716777
 20
0.2708410541088154
 30
0.0
 10
18.31657190920826
 20
-0.7922115722934359
 30
0.0
 10
19.25452807468385
 20
-1.793698227197897
 30
0.0
 10
20.20456813251598
 20
-2.700689391896558
 30
0.0
 10
21.14798052372226
 20
-3.448621737125952
 30
0.0
 10
22.10338648270487
 20
-4.020747126422093
 30
0.0
 10
23.05280212248279
 20
-4.347492941290447
 30
0.0
 10
23.72875773779753
 20
-4.477436836365085
 30
0.0
 10
24.08326579950221
 20
-4.427137208430705
 30
0.0
 10
24.12230492429222
 20
-4.421598114503249
 30
0.0
  0
SPLINE
  5
C0
330
1F
100
AcDbEntity
  8
0
  6
Continuous
 62
     1
370
    15
100
AcDbSpline
210
0.0
220
0.0
230
1.0
 70
     8
 71
     3
 72
    22
 73
    18
 74
     0
 42
0.000000001
 43
0.00000001
 40
0.0
 40
0.0
 40
0.0
 40
0.0
 40
0.0545905465443937
 40
0.1234957775696296
 40
0.190430993018032
 40
0.2593066623907352
 40
0.3262256072380508
 40
0.3950834019604397
 40
0.4620052120811105
 40
0.5308647516530961
 40
0.597809894713357
 40
0.6666921643917417
 40
0.7336816607727594
 40
0.8026085534255053
 40
0.8696593914568642
 40
0.9386481913304157
 40
1.0
 40
1.0
 40
1.0
 40
1.0
 10
34.92972419708855
 20
3.490815797798044
 30
0.0
 10
35.19624071276263
 20
3.607712915875517
 30
0.0
 10
35.79915946741465
 20
3.872159810190572
 30
0.0
 10
36.7338696208615
 20
4.013818999284022
 30
0.0
 10
37.74201992668473
 20
3.951000884885111
 30
0.0
 10
38.74487544477557
 20
3.651591252959703
 30
0.0
 10
39.76108108404726
 20
3.137037991517907
 30
0.0
 10
40.77191031992417
 20
2.446017837453152
 30
0.0
 10
41.79645586949466
 20
1.609896638306053
 30
0.0
 10
42.81573346943492
 20
0.6944499135528608
 30
0.0
 10
43.84897889017224
 20
-0.2589807890408742
 30
0.0
 10
44.87720325205169
 20
-1.174900527655518
 30
0.0
 10
45.9195603210173
 20
-2.010974355754728
 30
0.0
 10
46.95713193734716
 20
-2.702121708410297
 30
0.0
 10
48.00913880028869
 20
-3.209468056550805
 30
0.0
 10
49.02635609652725
 20
-3.509479617844772
 30
0.0
 10
49.7015158398673
 20
-3.517372961992475
 30
0.0
 10
50.0193160393431
 20
-3.521088388407358
 30
0.0
  0
SPLINE
  5
C1
330
1F
100
AcDbEntity
  8
0
  6
Continuous
 62
     1
370
    15
100
AcDbSpline
210
0.0
220
0.0
230
1.0
 70
     8
 71
     3
 72
    13
 73
     9
 74
     0
 42
0.000000001
 43
0.00000001
 40
0.0
 40
0.0
 40
0.0
 40
0.0
 40
0.194558933033704
 40
0.3692682483628771
 40
0.5494494861691926
 40
0.7177843569112534
 40
0.890732110113321
 40
1.0
 40
1.0
 40
1.0
 40
1.0
 10
60.48068433306985
 20
2.616214113484907
 30
0.0
 10
60.63326350709095
 20
2.668546717722317
 30
0.0
 10
60.92285516679473
 20
2.767872761495742
 30
0.0
 10
61.34127108160219
 20
2.758147677507754
 30
0.0
 10
61.72450543747875
 20
2.67417220171329
 30
0.0
 10
62.07651735410739
 20
2.500809690099552
 30
0.0
 10
62.34829872766296
 20
2.289933177516174
 30
0.0
 10
62.48426795082471
 20
2.128437561436596
 30
0.0
 10
62.53691233985221
 20
2.065909896414797
 30
0.0
  0
SPLINE
  5
C2
330
1F
100
AcDbEntity
  8
0
  6
Continuous
 62
     1
370
    15
100
AcDbSpline
210
0.0
220
0.0
230
1.0
 70
     8
 71
     3
 72
    12
 73
     8
 74
     0
 42
0.000000001
 43
0.00000001
 40
0.0
 40
0.0
 40
0.0
 40
0.0
 40
0.1688368155196048
 40
0.4472547043935504
 40
0.7270692055145338
 40
0.9747771416967353
 40
1.0
 40
1.0
 40
1.0
 40
1.0
 10
61.43600884832312
 20
1.641304066866754
 30
0.0
 10
61.50684333635134
 20
1.612882413825507
 30
0.0
 10
61.69448640404624
 20
1.537592448244141
 30
0.0
 10
62.01080883377058
 20
1.570353087970073
 30
0.0
 10
62.31907950746176
 20
1.734580961430961
 30
0.0
 10
62.47372368057133
 20
1.940307658385455
 30
0.0
 10
62.53156677864607
 20
2.05528434337297
 30
0.0
 10
62.53691233985076
 20
2.065909896415039
 30
0.0
  0
SPLINE
  5
C3
330
1F
100
AcDbEntity
  8
0
  6
Continuous
 62
     1
370
    15
100
AcDbSpline
210
0.0
220
0.0
230
1.0
 70
     8
 71
     3
 72
    10
 73
     6
 74
     0
 42
0.000000001
 43
0.00000001
 40
0.0
 40
0.0
 40
0.0
 40
0.0
 40
0.5000000000000001
 40
0.5000000000000001
 40
1.0
 40
1.0
 40
1.0
 40
1.0
 10
61.52133938455618
 20
1.92751630708406
 30
0.0
 10
61.30776585641009
 20
2.095769347741826
 30
0.0
 10
61.09696829073023
 20
2.256459886438104
 30
0.0
 10
60.66925112606374
 20
2.539126124419526
 30
0.0
 10
60.45858794114531
 20
2.657566178820457
 30
0.0
 10
60.24380590203043
 20
2.748209489452694
 30
0.0
  0
SPLINE
  5
C4
330
1F
100
AcDbEntity
  8
0
  6
Continuous
 62
     1
370
    15
100
AcDbSpline
210
0.0
220
0.0
230
1.0
 70
     8
 71
     3
 72
    22
 73
    18
 74
     0
 42
0.000000001
 43
0.00000001
 40
0.0
 40
0.0
 40
0.0
 40
0.0
 40
0.0384114637225825
 40
0.1092391551889604
 40
0.1776391015111088
 40
0.2480407343125701
 40
0.316085320094582
 40
0.3861179414604441
 40
0.4538706845717559
 40
0.5236001344791571
 40
0.5911099691002166
 40
0.6605869940343255
 40
0.7278970888613437
 40
0.7971663591699556
 40
0.8643184250944522
 40
0.9334230490896073
 40
1.0
 40
1.0
 40
1.0
 40
1.0
 10
56.22375944773498
 20
-2.755510976247201
 30
0.0
 10
56.02544761065379
 20
-2.853265295924794
 30
0.0
 10
55.46146448043047
 20
-3.131270825075555
 30
0.0
 10
54.54983767214317
 20
-3.361150207017432
 30
0.0
 10
53.47850914359335
 20
-3.432171021818699
 30
0.0
 10
52.42636725060982
 20
-3.256938877873398
 30
0.0
 10
51.37101894377302
 20
-2.855191240049082
 30
0.0
 10
50.33372961026711
 20
-2.258484092787237
 30
0.0
 10
49.29295345315743
 20
-1.496103031552829
 30
0.0
 10
48.26927910659289
 20
-0.6319963186261386
 30
0.0
 10
47.24194911036695
 20
0.2936994996952944
 30
0.0
 10
46.23090755961115
 20
1.204565665294703
 30
0.0
 10
45.21597653420887
 20
2.059036545991952
 30
0.0
 10
44.21671593833856
 20
2.789280013558313
 30
0.0
 10
43.21330662487003
 20
3.357122855380006
 30
0.0
 10
42.22696508048794
 20
3.737440096665061
 30
0.0
 10
41.57082286370685
 20
3.803310789814164
 30
0.0
 10
41.24886353955188
 20
3.835632569003963
 30
0.0
  0
SPLINE
  5
C5
330
1F
100
AcDbEntity
  8
0
  6
Continuous
 62
     1
370
    15
100
AcDbSpline
210
0.0
220
0.0
230
1.0
 70
     8
 71
     3
 72
    25
 73
    21
 74
     0
 42
0.000000001
 43
0.00000001
 40
0.0
 40
0.0
 40
0.0
 40
0.0
 40
0.0014691775874387
 40
0.0624690849421352
 40
0.1252340596611426
 40
0.1862864459522202
 40
0.2491045830672545
 40
0.3102238304878974
 40
0.3731099726137324
 40
0.4343076702878095
 40
0.4972737757747744
 40
0.5585606721236823
 40
0.6216177980393963
 40
0.683007326344957
 40
0.7461694003684265
 40
0.8076741312766705
 40
0.8709541983406218
 40
0.9325857603798935
 40
0.9959958639120279
 40
1.0
 40
1.0
 40
1.0
 40
1.0
 10
30.68090513175111
 20
-3.66160264904088
 30
0.0
 10
30.6734561907875
 20
-3.666366241905588
 30
0.0
 10
30.35672897566857
 20
-3.868913088413069
 30
0.0
 10
29.72523813312543
 20
-4.101129750719695
 30
0.0
 10
28.79535024533676
 20
-4.30905532447372
 30
0.0
 10
27.86056858766519
 20
-4.265222446967179
 30
0.0
 10
26.93742013266701
 20
-3.999980775598538
 30
0.0
 10
26.00908202047988
 20
-3.514234874709323
 30
0.0
 10
25.09202513479974
 20
-2.843159872121142
 30
0.0
 10
24.16988415961999
 20
-2.008742160781022
 30
0.0
 10
23.25866101332145
 20
-1.068489449197376
 30
0.0
 10
22.34237835054675
 20
-0.0538894558702984
 30
0.0
 10
21.43676916636063
 20
0.965532779726823
 30
0.0
 10
20.52598843202402
 20
1.955540181946558
 30
0.0
 10
19.62574422828143
 20
2.849240515104256
 30
0.0
 10
18.72014639451758
 20
3.614369716122333
 30
0.0
 10
17.82495896191803
 20
4.207399746810732
 30
0.0
 10
16.92449509082579
 20
4.576449103887846
 30
0.0
 10
16.30880396333518
 20
4.740581000679314
 30
0.0
 10
15.98875475980208
 20
4.713905297491999
 30
0.0
 10
15.96974511772919
 20
4.712320867460506
 30
0.0
  0
SPLINE
  5
C6
330
1F
100
AcDbEntity
  8
0
  6
Continuous
 62
     1
370
    15
100
AcDbSpline
210
0.0
220
0.0
230
1.0
 70
     8
 71
     3
 72
    24
 73
    20
 74
     0
 42
0.000000001
 43
0.00000001
 40
0.0
 40
0.0
 40
0.0
 40
0.0
 40
0.0302716075461688
 40
0.0961369944436728
 40
0.1600132910276481
 40
0.2257474341524731
 40
0.2895068809490114
 40
0.3551202162642879
 40
0.418772108581803
 40
0.4842743064791966
 40
0.547825884759563
 40
0.6132245280950523
 40
0.6766820326481439
 40
0.741983089698409
 40
0.8053597874129332
 40
0.8705768847579195
 40
0.933886413416267
 40
0.9990335014951948
 40
1.0
 40
1.0
 40
1.0
 40
1.0
 10
17.87014483024271
 20
4.139347976082476
 30
0.0
 10
18.016074353582
 20
4.213257378572399
 30
0.0
 10
18.47951937390475
 20
4.447979892256948
 30
0.0
 10
19.25464556531098
 20
4.599674768267265
 30
0.0
 10
20.20454031057951
 20
4.589198938160965
 30
0.0
 10
21.1479713692445
 20
4.330988320619207
 30
0.0
 10
22.10344857568521
 20
3.849908713569497
 30
0.0
 10
23.05255743612684
 20
3.176956870003037
 30
0.0
 10
24.01368030749179
 20
2.337451260802102
 30
0.0
 10
24.96869353015719
 20
1.39173215618024
 30
0.0
 10
25.93570874504268
 20
0.3736645746694414
 30
0.0
 10
26.8967251420502
 20
-0.6431091828015286
 30
0.0
 10
27.86991887208445
 20
-1.621879275042149
 30
0.0
 10
28.8370659664856
 20
-2.492464746203308
 30
0.0
 10
29.81676580065502
 20
-3.220709441718227
 30
0.0
 10
30.79023529268596
 20
-3.763509091929771
 30
0.0
 10
31.77701176826227
 20
-4.066148087237418
 30
0.0
 10
32.43790954648888
 20
-4.181834951693496
 30
0.0
 10
32.77734849323506
 20
-4.131074976619126
 30
0.0
 10
32.78231066896103
 20
-4.130332928841227
 30
0.0
  0
SPLINE
  5
C7
330
1F
100
AcDbEntity
  8
0
  6
Continuous
 62
     1
370
    15
100
AcDbSpline
210
0.0
220
0.0
230
1.0
 70
     8
 71
     3
 72
    22
 73
    18
 74
     0
 42
0.000000001
 43
0.00000001
 40
0.0
 40
0.0
 40
0.0
 40
0.0
 40
0.0253408396169789
 40
0.09651383486853
 40
0.1657311113910855
 40
0.2369502135836125
 40
0.3062308717137833
 40
0.3775139398928122
 40
0.446879110611781
 40
0.5182477077007044
 40
0.5877220561328874
 40
0.659201277320429
 40
0.7288133285656444
 40
0.8004327421497661
 40
0.8702079611739193
 40
0.9419936357652837
 40
1.0
 40
1.0
 40
1.0
 40
1.0
 10
43.46849369597787
 20
3.184258539004571
 30
0.0
 10
43.59224200925161
 20
3.245673556084025
 30
0.0
 10
44.06355331752252
 20
3.479580518380684
 30
0.0
 10
44.87737675733983
 20
3.662477834194591
 30
0.0
 10
45.9195084832725
 20
3.710587348014257
 30
0.0
 10
46.95716232934507
 20
3.509941279190893
 30
0.0
 10
48.00906948088298
 20
3.087912618314204
 30
0.0
 10
49.05639861423251
 20
2.475426365468879
 30
0.0
 10
50.11836117932202
 20
1.704390613799505
 30
0.0
 10
51.17587879364819
 20
0.8389929177409253
 30
0.0
 10
52.24836965117075
 20
-0.0765860603201916
 30
0.0
 10
53.31665149830394
 20
-0.9653368630360508
 30
0.0
 10
54.40019356048732
 20
-1.78046178082139
 30
0.0
 10
55.47981993319057
 20
-2.454664484383234
 30
0.0
 10
56.57508215404011
 20
-2.94390382757729
 30
0.0
 10
57.60452577050791
 20
-3.220804816492073
 30
0.0
 10
58.27758863020216
 20
-3.216683453915
 30
0.0
 10
58.57839236011814
 20
-3.214841543879907
 30
0.0
  0
SPLINE
  5
C8
330
1F
100
AcDbEntity
  8
0
  6
Continuous
 62
     1
370
    15
100
AcDbSpline
210
0.0
220
0.0
230
1.0
 70
     8
 71
     3
 72
    18
 73
    14
 74
     0
 42
0.000000001
 43
0.00000001
 40
0.0
 40
0.0
 40
0.0
 40
0.0
 40
0.0635357870745852
 40
0.127785035924199
 40
0.227843388169786
 40
0.3307855248458503
 40
0.4310344958431676
 40
0.5342215163144357
 40
0.6338716180649292
 40
0.7364379247550679
 40
0.8355703109825712
 40
0.9375990145153713
 40
0.9999999999999999
 40
0.9999999999999999
 40
0.9999999999999999
 40
0.9999999999999999
 10
60.24380590203043
 20
-2.74770175281061
 30
0.0
 10
60.01503461256943
 20
-2.656886271178957
 30
0.0
 10
59.55492309450668
 20
-2.474235514540796
 30
0.0
 10
58.73791554457355
 20
-2.032468012196169
 30
0.0
 10
57.78202394602971
 20
-1.404236611532456
 30
0.0
 10
56.70295608313371
 20
-0.5722969781380582
 30
0.0
 10
55.61803687657462
 20
0.3239980481712589
 30
0.0
 10
54.54968822583088
 20
1.205019207205625
 30
0.0
 10
53.47855791913373
 20
2.021543709005111
 30
0.0
 10
52.42632391379436
 20
2.704579015251991
 30
0.0
 10
51.37114124819436
 20
3.207947047064395
 30
0.0
 10
50.45893299366982
 20
3.493829139508381
 30
0.0
 10
49.89325771864756
 20
3.509714480021072
 30
0.0
 10
49.67858423214638
 20
3.515742958872271
 30
0.0
  0
SPLINE
  5
C9
330
1F
100
AcDbEntity
  8
0
  6
Continuous
 62
     1
370
    15
100
AcDbSpline
210
0.0
220
0.0
230
1.0
 70
     8
 71
     3
 72
    23
 73
    19
 74
     0
 42
0.000000001
 43
0.00000001
 40
0.0
 40
0.0
 40
0.0
 40
0.0
 40
0.0607848007991256
 40
0.123569376619181
 40
0.1881749651610087
 40
0.2509271925556104
 40
0.315498209635966
 40
0.3782423394419149
 40
0.4428039237343162
 40
0.5055630539448664
 40
0.570139076883843
 40
0.6329342407702847
 40
0.6975464188001745
 40
0.7603956061032663
 40
0.8250625111239972
 40
0.887980527311767
 40
0.9527174387633847
 40
1.0
 40
1.0
 40
1.0
 40
1.0
 10
39.22172209697634
 20
-3.339361955979115
 30
0.0
 10
38.91196204852476
 20
-3.489962280736083
 30
0.0
 10
38.28225107496772
 20
-3.796117569627522
 30
0.0
 10
37.32874998683747
 20
-3.998391408414009
 30
0.0
 10
36.36863089879871
 20
-3.990410912983909
 30
0.0
 10
35.40395810598955
 20
-3.74734238069813
 30
0.0
 10
34.45231255628276
 20
-3.2919239207145
 30
0.0
 10
33.49574061862644
 20
-2.639717135678274
 30
0.0
 10
32.55201032326935
 20
-1.838111622052001
 30
0.0
 10
31.60305422178278
 20
-0.9173017081988047
 30
0.0
 10
30.66669036616467
 20
0.0569061677333561
 30
0.0
 10
29.72494975754781
 20
1.04782036055098
 30
0.0
 10
28.79542475691232
 20
1.985285033859333
 30
0.0
 10
27.86055274728049
 20
2.833734422486264
 30
0.0
 10
26.93740686333247
 20
3.535594936875415
 30
0.0
 10
26.00914906887294
 20
4.05545172241826
 30
0.0
 10
25.16738731955173
 20
4.363973591583495
 30
0.0
 10
24.63123541417047
 20
4.391933360321294
 30
0.0
 10
24.40492980238749
 20
4.403734964504753
 30
0.0
  0
SPLINE
  5
CA
330
1F
100
AcDbEntity
  8
0
  6
Continuous
 62
     1
370
    15
100
AcDbSpline
210
0.0
220
0.0
230
1.0
 70
     8
 71
     3
 72
     9
 73
     5
 74
     0
 42
0.000000001
 43
0.00000001
 40
0.0
 40
0.0
 40
0.0
 40
0.0
 40
0.1628679471459102
 40
1.0
 40
1.0
 40
1.0
 40
1.0
 10
13.55841614327475
 20
-4.311845535252123
 30
0.0
 10
13.50119574488706
 20
-4.347967609030021
 30
0.0
 10
13.14986572943332
 20
-4.569755102584757
 30
0.0
 10
12.80048108479869
 20
-4.670047166339995
 30
0.0
 10
12.508
 20
-4.75400486755639
 30
0.0
  0
SPLINE
  5
CB
330
1F
100
AcDbEntity
  8
0
  6
Continuous
 62
     4
370
    15
100
AcDbSpline
210
0.0
220
0.0
230
1.0
 70
     8
 71
     3
 72
     8
 73
     4
 74
     0
 42
0.000000001
 43
0.00000001
 40
0.0
 40
0.0
 40
0.0
 40
0.0
 40
1.0
 40
1.0
 40
1.0
 40
1.0
 10
12.5080000000002
 20
-4.754004867556191
 30
0.0
 10
12.16430311883325
 20
-4.885232827874261
 30
0.0
 10
11.82814291235247
 20
-4.960060779387334
 30
0.0
 10
11.49200000000001
 20
-4.976889826786286
 30
0.0
  0
SPLINE
  5
CC
330
1F
100
AcDbEntity
  8
0
  6
Continuous
 62
     4
370
    15
100
AcDbSpline
210
0.0
220
0.0
230
1.0
 70
     8
 71
     3
 72
    14
 73
    10
 74
     0
 42
0.000000001
 43
0.00000001
 40
0.0
 40
0.0
 40
0.0
 40
0.0
 40
0.2500000000000001
 40
0.2500000000000001
 40
0.5000000000000002
 40
0.5000000000000002
 40
0.7500000000000001
 40
0.7500000000000001
 40
1.0
 40
1.0
 40
1.0
 40
1.0
 10
11.49200000000001
 20
-4.976889826786287
 30
0.0
 10
11.34953252978831
 20
-5.109621243456421
 30
0.0
 10
11.21868000971222
 20
-5.208483996870617
 30
0.0
 10
10.97154038423774
 20
-5.341582900777755
 30
0.0
 10
10.85446773709864
 20
-5.37524758592604
 30
0.0
 10
10.64091352408611
 20
-5.372140666015392
 30
0.0
 10
10.54313140519268
 20
-5.336735994507888
 30
0.0
 10
10.36504887214504
 20
-5.190642629875082
 30
0.0
 10
10.28731068911224
 20
-5.082742466023532
 30
0.0
 10
10.22480524944753
 20
-4.932578626087017
 30
0.0
  0
SPLINE
  5
CD
330
1F
100
AcDbEntity
  8
0
  6
Continuous
 62
     4
370
    15
100
AcDbSpline
210
0.0
220
0.0
230
1.0
 70
     8
 71
     3
 72
     8
 73
     4
 74
     0
 42
0.000000001
 43
0.00000001
 40
0.0
 40
0.0
 40
0.0
 40
0.0
 40
1.0
 40
1.0
 40
1.0
 40
1.0
 10
11.492
 20
-2.948603096418088
 30
0.0
 10
11.82935478281546
 20
-3.228332774400472
 30
0.0
 10
12.16613772733118
 20
-3.473631687455283
 30
0.0
 10
12.50800000000001
 20
-3.681257477108057
 30
0.0
  0
SPLINE
  5
CE
330
1F
100
AcDbEntity
  8
0
  6
Continuous
 62
     1
370
    15
100
AcDbSpline
210
0.0
220
0.0
230
1.0
 70
     8
 71
     3
 72
    11
 73
     7
 74
     0
 42
0.000000001
 43
0.00000001
 40
0.0
 40
0.0
 40
0.0
 40
0.0
 40
0.1949661740062213
 40
0.3920786724855119
 40
0.7031166897693205
 40
1.0
 40
1.0
 40
1.0
 40
1.0
 10
12.50800000000003
 20
-3.681257477108129
 30
0.0
 10
12.69756946749137
 20
-3.812804146264661
 30
0.0
 10
13.07879531621433
 20
-4.077345642632833
 30
0.0
 10
13.76427206652816
 20
-4.431069372861326
 30
0.0
 10
14.55197010103328
 20
-4.709315649379707
 30
0.0
 10
15.14958297182124
 20
-4.722789519853151
 30
0.0
 10
15.44143206361307
 20
-4.729369593765231
 30
0.0
  0
SPLINE
  5
CF
330
1F
100
AcDbEntity
  8
0
  6
Continuous
 62
     1
370
    15
100
AcDbSpline
210
0.0
220
0.0
230
1.0
 70
     8
 71
     3
 72
    23
 73
    19
 74
     0
 42
0.000000001
 43
0.00000001
 40
0.0
 40
0.0
 40
0.0
 40
0.0
 40
0.0343747248659634
 40
0.0996408213227822
 40
0.166803013063384
 40
0.2319859996192159
 40
0.299061838732783
 40
0.3641757418582117
 40
0.4311795763831392
 40
0.4962397960134833
 40
0.5631874865535531
 40
0.6282088869460132
 40
0.6951159063880006
 40
0.7601100395579433
 40
0.8269883546181113
 40
0.8919666890249265
 40
0.958827647789232
 40
1.0
 40
1.0
 40
1.0
 40
1.0
 10
26.40627553856717
 20
3.803641291150184
 30
0.0
 10
26.57309375441775
 20
3.887132266806874
 30
0.0
 10
27.05664392401956
 20
4.129144658757979
 30
0.0
 10
27.87004198418625
 20
4.293230050430362
 30
0.0
 10
28.83703899624562
 20
4.292624421646984
 30
0.0
 10
29.81675397124452
 20
4.044063054093177
 30
0.0
 10
30.79031201012078
 20
3.580745021986028
 30
0.0
 10
31.77672370998397
 20
2.917750235576957
 30
0.0
 10
32.75709654422771
 20
2.105770300733288
 30
0.0
 10
33.75047589568954
 20
1.177099602364478
 30
0.0
 10
34.73806292003802
 20
0.2014566472069762
 30
0.0
 10
35.73869633127985
 20
-0.7818863827088193
 30
0.0
 10
36.73379758651775
 20
-1.698844219448451
 30
0.0
 10
37.74204667994442
 20
-2.511443041131428
 30
0.0
 10
38.74484137475714
 20
-3.161201314781039
 30
0.0
 10
39.76118864368595
 20
-3.609550067350261
 30
0.0
 10
40.64929043346939
 20
-3.836691602173004
 30
0.0
 10
41.2067153892831
 20
-3.812942782623318
 30
0.0
 10
41.41915446390453
 20
-3.80389191901223
 30
0.0
  0
SPLINE
  5
D0
330
1F
100
AcDbEntity
  8
0
  6
Continuous
 62
     1
370
    15
100
AcDbSpline
210
0.0
220
0.0
230
1.0
 70
     8
 71
     3
 72
    16
 73
    12
 74
     0
 42
0.000000001
 43
0.00000001
 40
0.0
 40
0.0
 40
0.0
 40
0.0
 40
0.0332101779129063
 40
0.1663705050419144
 40
0.2960524372444671
 40
0.4294739320957764
 40
0.5594598334023453
 40
0.6931910598056434
 40
0.8235315974784386
 40
0.9576244567273092
 40
1.0
 40
1.0
 40
1.0
 40
1.0
 10
51.96884181427657
 20
2.894235546042387
 30
0.0
 10
52.05886070939205
 20
2.938341200353451
 30
0.0
 10
52.50982152878157
 20
3.159293945688908
 30
0.0
 10
53.31687273415836
 20
3.345463882522518
 30
0.0
 10
54.40012706654687
 20
3.418442711944658
 30
0.0
 10
55.47986023820874
 20
3.238280667374081
 30
0.0
 10
56.57498802062941
 20
2.835574194221065
 30
0.0
 10
57.66655959950801
 20
2.240998024097809
 30
0.0
 10
58.77384316624012
 20
1.490051753582614
 30
0.0
 10
59.63131541674011
 20
0.8373314895073289
 30
0.0
 10
60.12520715821171
 20
0.4529312883534851
 30
0.0
 10
60.24380590203042
 20
0.3606248633772885
 30
0.0
  0
SPLINE
  5
D1
330
1F
100
AcDbEntity
  8
0
  6
Continuous
 62
     1
370
    15
100
AcDbSpline
210
0.0
220
0.0
230
1.0
 70
     8
 71
     3
 72
    14
 73
    10
 74
     0
 42
0.000000001
 43
0.00000001
 40
0.0
 40
0.0
 40
0.0
 40
0.0
 40
0.25
 40
0.25
 40
0.5
 40
0.5
 40
0.75
 40
0.75
 40
1.0
 40
1.0
 40
1.0
 40
1.0
 10
60.24380590203042
 20
0.3606248633772854
 30
0.0
 10
60.46119959562297
 20
0.191303531545682
 30
0.0
 10
60.67451188164794
 20
0.02239054686836
 30
0.0
 10
61.10241170904144
 20
-0.3022514240617808
 30
0.0
 10
61.31052615447324
 20
-0.452816518483159
 30
0.0
 10
61.71158395475038
 20
-0.7207386253125664
 30
0.0
 10
61.90601657380452
 20
-0.8384009027036792
 30
0.0
 10
62.25363462839996
 20
-1.034899642406482
 30
0.0
 10
62.41191548943549
 20
-1.116140714267227
 30
0.0
 10
62.53691233985223
 20
-1.192281881433398
 30
0.0
  0
SPLINE
  5
D2
330
1F
100
AcDbEntity
  8
0
  6
Continuous
 62
     1
370
    15
100
AcDbSpline
210
0.0
220
0.0
230
1.0
 70
     8
 71
     3
 72
    18
 73
    14
 74
     0
 42
0.000000001
 43
0.00000001
 40
0.0
 40
0.0
 40
0.0
 40
0.0
 40
0.2499999999999999
 40
0.2499999999999999
 40
0.375
 40
0.375
 40
0.5000000000000001
 40
0.5000000000000001
 40
0.75
 40
0.75
 40
0.875
 40
0.875
 40
1.0
 40
1.0
 40
1.0
 40
1.0
 10
60.88353475977379
 20
-2.171827910131362
 30
0.0
 10
61.01462843155448
 20
-2.050055978637941
 30
0.0
 10
61.15854983929896
 20
-1.927312329767768
 30
0.0
 10
61.38583577580399
 20
-1.751407077286042
 30
0.0
 10
61.46274083792987
 20
-1.69470005957239
 30
0.0
 10
61.61909605826503
 20
-1.585578899740333
 30
0.0
 10
61.69913703604489
 20
-1.532849274714416
 30
0.0
 10
61.93334237731474
 20
-1.388932173461483
 30
0.0
 10
62.08747180185052
 20
-1.308767091913771
 30
0.0
 10
62.28457271791359
 20
-1.232408489954272
 30
0.0
 10
62.3459935768598
 20
-1.213710696036429
 30
0.0
 10
62.45230412179431
 20
-1.192096074678689
 30
0.0
 10
62.49838809367367
 20
-1.18876513313701
 30
0.0
 10
62.53691233985076
 20
-1.192281881432755
 30
0.0
  0
SPLINE
  5
D3
330
1F
100
AcDbEntity
  8
0
  6
Continuous
 62
     1
370
    15
100
AcDbSpline
210
0.0
220
0.0
230
1.0
 70
     8
 71
     3
 72
     8
 73
     4
 74
     0
 42
0.000000001
 43
0.00000001
 40
0.0
 40
0.0
 40
0.0
 40
0.0
 40
1.0
 40
1.0
 40
1.0
 40
1.0
 10
60.88353475978568
 20
-2.171827910115553
 30
0.0
 10
61.10055365452379
 20
-2.377639535858169
 30
0.0
 10
61.31235617731178
 20
-2.583008728053875
 30
0.0
 10
61.52133938454939
 20
-2.788138796239494
 30
0.0
  0
SPLINE
  5
D4
330
1F
100
AcDbEntity
  8
0
  6
Continuous
 62
     1
370
    15
100
AcDbSpline
210
0.0
220
0.0
230
1.0
 70
     8
 71
     3
 72
    10
 73
     6
 74
     0
 42
0.000000001
 43
0.00000001
 40
0.0
 40
0.0
 40
0.0
 40
0.0
 40
0.5
 40
0.5
 40
1.0
 40
1.0
 40
1.0
 40
1.0
 10
61.52133938455616
 20
-2.788138796229133
 30
0.0
 10
61.30776585641007
 20
-2.860837627767332
 30
0.0
 10
61.0969682907302
 20
-2.889041136689916
 30
0.0
 10
60.6692511260637
 20
-2.871139024533976
 30
0.0
 10
60.45858794114532
 20
-2.82540072555615
 30
0.0
 10
60.24380590203043
 20
-2.74770175281061
 30
0.0
  0
LINE
  5
D5
330
1F
100
AcDbEntity
  8
0
  6
Continuous
 62
     4
370
    15
100
AcDbLine
 10
12.508
 20
1.59020732139861
 30
0.0
 11
12.50800000000001
 21
-3.68125747710805
 31
0.0
  0
LINE
  5
D6
330
1F
100
AcDbEntity
  8
0
  6
Continuous
 62
     4
370
    15
100
AcDbLine
 10
12.50800000000001
 20
4.840036950193251
 30
0.0
 11
12.50800000000001
 21
4.56197505974397
 31
0.0
  0
LINE
  5
D7
330
1F
100
AcDbEntity
  8
0
  6
Continuous
 62
     1
370
    15
100
AcDbLine
 10
60.24380590203043
 20
2.748209489452691
 30
0.0
 11
60.24380590203043
 21
0.3606248633772954
 31
0.0
  0
LINE
  5
D8
330
1F
100
AcDbEntity
  8
0
  6
Continuous
 62
     4
370
    15
100
AcDbLine
 10
11.49200000000001
 20
-4.976889826786287
 30
0.0
 11
11.492
 21
-4.991099999999991
 31
0.0
  0
ARC
  5
D9
330
1F
100
AcDbEntity
  8
0
  6
Continuous
 62
     1
370
    15
100
AcDbCircle
 10
59.153365580384
 20
2.328799319589454
 30
0.0
 40
2.401734371928384
100
AcDbArc
 50
336.4155573696831
 51
350.3818828813697
  0
LINE
  5
DA
330
1F
100
AcDbEntity
  8
0
  6
Continuous
 62
     1
370
    15
100
AcDbLine
 10
61.3544864462126
 20
1.367864916356787
 30
0.0
 11
63.308
 21
0.0000000000000181
 31
0.0
  0
ARC
  5
DB
330
1F
100
AcDbEntity
  8
0
  6
Continuous
 62
     1
370
    15
100
AcDbCircle
 10
61.10892727164463
 20
0.5767274694848281
 30
0.0
 40
2.273441320697474
100
AcDbArc
 50
308.9112672726252
 51
345.3045941682069
  0
LINE
  5
DC
330
1F
100
AcDbEntity
  8
0
  6
Continuous
 62
     4
370
    15
100
AcDbLine
 10
11.492
 20
4.991100000000008
 30
0.0
 11
11.492
 21
4.961795525601023
 31
0.0
  0
ARC
  5
DD
330
1F
100
AcDbEntity
  8
0
  6
Continuous
 62
     1
370
    15
100
AcDbCircle
 10
61.30190943427505
 20
-2.69333346114621
 30
0.0
 40
0.2390346306202429
100
AcDbArc
 50
291.867716886692
 51
336.6331037927436
  0
ARC
  5
DE
330
1F
100
AcDbEntity
  8
0
  6
Continuous
 62
     1
370
    15
100
AcDbCircle
 10
59.92860919123058
 20
0.1365497635732552
 30
0.0
 40
3.382148440906624
100
AcDbArc
 50
296.4495608561973
 51
357.686129886722
  0
ARC
  5
DF
330
1F
100
AcDbEntity
  8
0
  6
Continuous
 62
     1
370
    15
100
AcDbCircle
 10
60.17737191668886
 20
0.0083698017737444
 30
0.0
 40
3.13063927171403
100
AcDbArc
 50
359.8468188613709
 51
41.08871572941315
  0
LINE
  5
E0
330
1F
100
AcDbEntity
  8
0
  6
Continuous
 62
     8
370
    15
100
AcDbLine
 10
60.24380590203043
 20
-2.74770175281061
 30
0.0
 11
60.24380590203043
 21
-3.173065875785617
 31
0.0
  0
LINE
  5
E1
102
{ACAD_REACTORS
102
}
330
1F
100
AcDbEntity
  8
중심선
100
AcDbLine
 10
-41.29200000000001
 20
-0.0000000000000061
 30
0.0
 11
66.24380590203043
 21
-0.0000000000000061
 31
0.0
  0
CIRCLE
  5
E2
330
1F
100
AcDbEntity
  8
외형선
100
AcDbCircle
 10
0.0
 20
0.0
 30
0.0
 40
3.000000000000004
  0
INSERT
  5
E3
330
1F
100
AcDbEntity
  8
0
  6
Continuous
 62
     7
100
AcDbBlockReference
 66
     1
  2
블럭10
 10
-1.432773799681436
 20
-52.05975325537357
 30
0.0
  0
ATTRIB
  5
E4
330
E3
100
AcDbEntity
  8
FORMAT
 62
     2
100
AcDbText
 10
-10.61406908842272
 20
-49.98438634254138
 30
0.0
 40
4.233333333333333
  1
E5078216 [ 3 FLUTE ]
 41
0.75
  7
SLDTEXTSTYLE0
 11
-10.61406908842272
 21
-52.10105300920804
 31
0.0
100
AcDbAttribute
  2
AUTOATTR0
 70
     0
 74
     1
  0
SEQEND
  5
E5
330
E3
100
AcDbEntity
  8
0
  6
Continuous
 62
     7
  0
HATCH
  5
E6
330
1F
100
AcDbEntity
  8
중심선
100
AcDbHatch
 10
0.0
 20
0.0
 30
0.0
210
0.0
220
0.0
230
1.0
  2
SOLID
 70
     1
 71
     0
 91
        1
 92
        0
 93
        4
 72
     1
 10
4.282135504699413
 20
-35.81257895372963
 11
0.8358602608621313
 21
-35.81257895372963
 72
     1
 10
0.8358602608621313
 20
-35.81257895372963
 11
-1.292369598341891
 21
-38.34890453430223
 72
     1
 10
-1.292369598341891
 20
-38.34890453430223
 11
2.15393873060854
 21
-38.34886510499974
 72
     1
 10
2.15393873060854
 20
-38.34886510499974
 11
4.282135504699413
 21
-35.81257895372963
 97
        0
 75
     0
 76
     1
 98
        1
 10
0.0
 20
0.0
  0
HATCH
  5
E7
330
1F
100
AcDbEntity
  8
중심선
100
AcDbHatch
 10
0.0
 20
0.0
 30
0.0
210
0.0
220
0.0
230
1.0
  2
SOLID
 70
     1
 71
     0
 91
        1
 92
        0
 93
        4
 72
     1
 10
9.294899495735365
 20
-35.81257895372963
 11
5.848624251898082
 21
-35.81257895372963
 72
     1
 10
5.848624251898082
 20
-35.81257895372963
 11
1.317486243540694
 21
-41.21257895372965
 72
     1
 10
1.317486243540694
 20
-41.21257895372965
 11
4.763761487377977
 21
-41.21257895372965
 72
     1
 10
4.763761487377977
 20
-41.21257895372965
 11
9.294899495735365
 21
-35.81257895372963
 97
        0
 75
     0
 76
     1
 98
        1
 10
0.0
 20
0.0
  0
HATCH
  5
E8
330
1F
100
AcDbEntity
  8
중심선
100
AcDbHatch
 10
0.0
 20
0.0
 30
0.0
210
0.0
220
0.0
230
1.0
  2
SOLID
 70
     1
 71
     0
 91
        1
 92
        0
 93
        4
 72
     1
 10
14.30766348677126
 20
-35.81257895372966
 11
10.86138824293414
 21
-35.81257895372963
 72
     1
 10
10.86138824293414
 20
-35.81257895372963
 11
3.812951341044895
 21
-44.21257895372965
 72
     1
 10
3.812951341044895
 20
-44.21257895372965
 11
7.259226584882178
 21
-44.21257895372965
 72
     1
 10
7.259226584882178
 20
-44.21257895372965
 11
14.30766348677126
 21
-35.81257895372966
 97
        0
 75
     0
 76
     1
 98
        1
 10
0.0
 20
0.0
  0
HATCH
  5
E9
330
1F
100
AcDbEntity
  8
중심선
100
AcDbHatch
 10
0.0
 20
0.0
 30
0.0
210
0.0
220
0.0
230
1.0
  2
SOLID
 70
     1
 71
     0
 91
        1
 92
        0
 93
        6
 72
     3
 10
19.10755391778346
 20
-40.01257895378091
 11
3.960054785062284
 21
1.540850780301639E-10
 40
0.3939339440162633
 50
17.09539180608434
 51
320.0019657685079
 73
     0
 72
     1
 10
20.79055357348405
 20
-38.60047295836794
 11
23.09585544718509
 21
-36.66614624832001
 72
     3
 10
19.10755391773061
 20
-40.01257895372979
 11
6.600054785286829
 21
-1.249000902703301E-13
 40
0.6363583540795982
 50
39.99873849337412
 51
368.4976242363725
 73
     1
 72
     1
 10
25.53288640963122
 20
-39.05257895365965
 11
17.78762122456654
 21
-39.05257895365963
 72
     1
 10
17.78762122456654
 20
-39.05257895365963
 11
17.7875961801206
 21
-40.97257895365955
 72
     1
 10
17.7875961801206
 20
-40.97257895365955
 11
22.22897594959264
 21
-40.97257895365952
 97
        0
 75
     0
 76
     1
 98
        1
 10
0.0
 20
0.0
  0
DIMENSION
  5
EA
330
1F
100
AcDbEntity
  8
치수문자_일반주서
100
AcDbDimension
  2
_D
 10
12.508
 20
42.74558096341165
 30
0.0
 11
37.90799999999999
 21
42.74558096341165
 31
0.0
 70
   160
  1
<>
 71
     2
 42
50.8
  3
SLDDIMSTYLE0
100
AcDbAlignedDimension
 13
63.30799999999999
 23
3.174999999999994
 33
0.0
 14
12.508
 24
3.851774598917539
 34
0.0
100
AcDbRotatedDimension
1001
ACAD
1000
DSTYLE
1002
{
1070
   171
1070
     6
1070
   273
1070
     7
1002
}
  0
DIMENSION
  5
FE
102
{ACAD_REACTORS
102
}
330
1F
100
AcDbEntity
  8
치수문자_일반주서
100
AcDbDimension
  2
_D_1
 10
-38.292
 20
61.67891454809687
 30
0.0
 11
14.77998113366127
 21
61.67891454809687
 31
0.0
 70
   160
  1
<>
 71
     2
 42
101.6
  3
SLDDIMSTYLE1
100
AcDbAlignedDimension
 13
63.30799999999999
 23
3.237499999999994
 33
0.0
 14
-38.292
 24
5.540000000000017
 34
0.0
100
AcDbRotatedDimension
1001
ACAD
1000
DSTYLE
1002
{
1070
   171
1070
     6
1070
   273
1070
     7
1002
}
  0
INSERT
  5
129
330
1F
100
AcDbEntity
  8
외형선
100
AcDbBlockReference
  2
SW_DOWELSYMBOL_0
 10
0.0
 20
0.0
 30
0.0
  0
DIMENSION
  5
151
102
{ACAD_XDICTIONARY
360
152
102
}
330
1F
100
AcDbEntity
  8
치수문자_일반주서
100
AcDbDimension
  2
*D7
 10
82.20055262913073
 20
3.174999999999992
 30
0.0
 11
79.57555262913073
 21
22.46649999999999
 31
0.0
 70
    32
  1
{%%c<>[]}
 71
     5
 42
6.35
  3
SLDDIMSTYLE0
100
AcDbAlignedDimension
 13
63.37038100448176
 23
-3.175000000000006
 33
0.0
 14
63.30799999999999
 24
3.174999999999994
 34
0.0
 50
90.0
100
AcDbRotatedDimension
1001
ACAD
1000
DSTYLE
1002
{
1070
   283
1070
     1
1070
   170
1070
     1
1070
   171
1070
     6
1070
   273
1070
     7
1002
}
  0
DIMENSION
  5
163
102
{ACAD_REACTORS
102
}
102
{ACAD_XDICTIONARY
360
164
102
}
330
1F
100
AcDbEntity
  8
치수문자_일반주서
100
AcDbDimension
  2
*D8
 10
-58.06515589965134
 20
6.350000000000001
 30
0.0
 11
-60.69015589965134
 21
21.902
 31
0.0
 70
    32
  1
{%%c<>[]}
 71
     5
 42
12.7
  3
SLDDIMSTYLE0
100
AcDbAlignedDimension
 13
-37.48200000000001
 23
-6.349999999999995
 33
0.0
 14
-37.48200000000001
 24
6.350000000000001
 34
0.0
 50
90.0
100
AcDbRotatedDimension
1001
ACAD
1000
DSTYLE
1002
{
1070
   283
1070
     1
1070
   170
1070
     1
1070
   171
1070
     6
1070
   273
1070
     7
1002
}
  0
DIMENSION
  5
175
102
{ACAD_REACTORS
102
}
102
{ACAD_XDICTIONARY
360
176
102
}
330
1F
100
AcDbEntity
  8
치수문자_일반주서
100
AcDbDimension
  2
*D9
 10
28.45807439797835
 20
4.283048078765223
 30
0.0
 11
28.17335911024749
 21
13.66387648576161
 31
0.0
 70
    34
  1
<>
 71
     5
 42
0.0349065850398865
  3
SLDDIMSTYLE1
100
AcDb2LineAngularDimension
 13
-41.29200000000001
 23
-0.0000000000000061
 33
0.0
 14
66.24380590203043
 24
-0.0000000000000061
 34
0.0
 15
32.83031605584382
 25
4.130366035668686
 35
0.0
 16
30.07739083952476
 26
1.408324736930442
 36
0.0
1001
ACAD
1000
DSTYLE
1002
{
1070
   171
1070
     6
1070
   273
1070
     7
1002
}
  0
ENDSEC
  0
SECTION
  2
OBJECTS
  0
DICTIONARY
  5
C
330
0
100
AcDbDictionary
281
     1
  3
ACAD_GROUP
350
D
  3
ACAD_IMAGE_VARS
350
14D
  3
ACAD_LAYOUT
350
1A
  3
ACAD_MLINESTYLE
350
17
  3
ACAD_PLOTSETTINGS
350
19
  3
ACAD_PLOTSTYLENAME
350
E
  3
ACAD_SCALELIST
350
47
  3
APPDATA
350
14B
  3
DWGPROPS
350
187
  0
DICTIONARY
  5
152
330
151
100
AcDbDictionary
280
     1
281
     1
  0
DICTIONARY
  5
164
330
163
100
AcDbDictionary
280
     1
281
     1
  0
DICTIONARY
  5
176
330
175
100
AcDbDictionary
280
     1
281
     1
  0
DICTIONARY
  5
D
102
{ACAD_REACTORS
330
C
102
}
330
C
100
AcDbDictionary
281
     1
  0
RASTERVARIABLES
  5
14D
102
{ACAD_REACTORS
330
C
102
}
330
C
100
AcDbRasterVariables
 90
        0
 70
     1
 71
     1
 72
     1
  0
DICTIONARY
  5
1A
102
{ACAD_REACTORS
330
C
102
}
330
C
100
AcDbDictionary
281
     1
  3
Layout1
350
1E
  3
Layout2
350
26
  3
Model
350
22
  0
DICTIONARY
  5
17
102
{ACAD_REACTORS
330
C
102
}
330
C
100
AcDbDictionary
281
     1
  3
Standard
350
18
  0
DICTIONARY
  5
19
102
{ACAD_REACTORS
330
C
102
}
330
C
100
AcDbDictionary
281
     1
  0
ACDBDICTIONARYWDFLT
  5
E
102
{ACAD_REACTORS
330
C
102
}
330
C
100
AcDbDictionary
281
     1
  3
Normal
350
F
100
AcDbDictionaryWithDefault
340
F
  0
DICTIONARY
  5
47
102
{ACAD_REACTORS
330
C
102
}
330
C
100
AcDbDictionary
281
     1
  3
A0
350
48
  3
A1
350
49
  3
A2
350
4A
  3
A3
350
4B
  3
A4
350
4C
  3
A5
350
4D
  3
A6
350
4E
  3
A7
350
4F
  3
A8
350
50
  3
A9
350
51
  3
B0
350
52
  3
B1
350
53
  3
B2
350
54
  3
B3
350
55
  3
B4
350
56
  3
B5
350
57
  3
B6
350
58
  3
B7
350
59
  3
B8
350
5A
  3
B9
350
5B
  3
C0
350
5C
  3
C1
350
5D
  3
C2
350
5E
  3
C3
350
5F
  3
C4
350
60
  3
C5
350
61
  3
C6
350
62
  3
C7
350
63
  3
C8
350
64
  3
C9
350
65
  3
D0
350
66
  3
D1
350
67
  3
D2
350
68
  0
DICTIONARY
  5
14B
102
{ACAD_REACTORS
330
C
102
}
330
C
100
AcDbDictionary
281
     1
  0
XRECORD
  5
187
102
{ACAD_REACTORS
330
C
102
}
330
C
100
AcDbXrecord
280
     1
  1
DWGPROPS COOKIE
  2

  3

  4

  6

  7

  8
12015048
  9

300
=
301
=
302
=
303
=
304
=
305
=
306
=
307
=
308
=
309
=
 40
0.0
 41
2458340.218268067
 42
2458341.07819419
  1

 90
        0
  0
LAYOUT
  5
1E
102
{ACAD_REACTORS
330
1A
102
}
330
1A
100
AcDbPlotSettings
  1

  2
none_device
  4

  6

 40
0.0
 41
0.0
 42
0.0
 43
0.0
 44
0.0
 45
0.0
 46
0.0
 47
0.0
 48
0.0
 49
0.0
140
0.0
141
0.0
142
1.0
143
1.0
 70
   688
 72
     1
 73
     0
 74
     5
  7

 75
    16
147
1.0
148
0.0
149
0.0
100
AcDbLayout
  1
Layout1
 70
     1
 71
     1
 10
0.0
 20
0.0
 11
420.0
 21
297.0
 12
0.0
 22
0.0
 32
0.0
 14
1.000000000000000E+20
 24
1.000000000000000E+20
 34
1.000000000000000E+20
 15
-1.000000000000000E+20
 25
-1.000000000000000E+20
 35
-1.000000000000000E+20
146
0.0
 13
0.0
 23
0.0
 33
0.0
 16
1.0
 26
0.0
 36
0.0
 17
0.0
 27
1.0
 37
0.0
 76
     0
330
1B
  0
LAYOUT
  5
26
102
{ACAD_REACTORS
330
1A
102
}
330
1A
100
AcDbPlotSettings
  1

  2
none_device
  4

  6

 40
0.0
 41
0.0
 42
0.0
 43
0.0
 44
0.0
 45
0.0
 46
0.0
 47
0.0
 48
0.0
 49
0.0
140
0.0
141
0.0
142
1.0
143
1.0
 70
   688
 72
     1
 73
     0
 74
     5
  7

 75
    16
147
1.0
148
0.0
149
0.0
100
AcDbLayout
  1
Layout2
 70
     1
 71
     2
 10
0.0
 20
0.0
 11
0.0
 21
0.0
 12
0.0
 22
0.0
 32
0.0
 14
0.0
 24
0.0
 34
0.0
 15
0.0
 25
0.0
 35
0.0
146
0.0
 13
0.0
 23
0.0
 33
0.0
 16
1.0
 26
0.0
 36
0.0
 17
0.0
 27
1.0
 37
0.0
 76
     0
330
23
  0
LAYOUT
  5
22
102
{ACAD_REACTORS
330
1A
102
}
330
1A
100
AcDbPlotSettings
  1

  2
none_device
  4
ANSI_A_(11.00_x_8.50_Inches)
  6

 40
6.35
 41
19.05
 42
6.35000508
 43
19.05000254
 44
279.4
 45
215.9
 46
128.8678220215158
 47
99.21754914676035
 48
0.0
 49
0.0
140
0.0
141
0.0
142
0.084860214829052
143
1.0
 70
  1696
 72
     0
 73
     0
 74
     0
  7

 75
     0
147
0.0235690232323232
148
0.0
149
0.0
100
AcDbLayout
  1
Model
 70
     1
 71
     0
 10
0.0
 20
0.0
 11
420.0
 21
297.0
 12
0.0
 22
0.0
 32
0.0
 14
-62.44015589965133
 24
-49.98438634254138
 34
0.0
 15
82.75088596246405
 25
66.05391454809687
 35
0.0
146
0.0
 13
0.0
 23
0.0
 33
0.0
 16
1.0
 26
0.0
 36
0.0
 17
0.0
 27
1.0
 37
0.0
 76
     0
330
1F
331
29
  0
MLINESTYLE
  5
18
102
{ACAD_REACTORS
330
17
102
}
330
17
100
AcDbMlineStyle
  2
Standard
 70
     0
  3

 62
   256
 51
90.0
 52
90.0
 71
     2
 49
0.5
 62
   256
  6
BYLAYER
 49
-0.5
 62
   256
  6
BYLAYER
  0
ACDBPLACEHOLDER
  5
F
102
{ACAD_REACTORS
330
E
102
}
330
E
  0
SCALE
  5
48
102
{ACAD_REACTORS
330
47
102
}
330
47
100
AcDbScale
 70
     0
300
1:1
140
1.0
141
1.0
290
     1
  0
SCALE
  5
49
102
{ACAD_REACTORS
330
47
102
}
330
47
100
AcDbScale
 70
     0
300
1:2
140
1.0
141
2.0
290
     0
  0
SCALE
  5
4A
102
{ACAD_REACTORS
330
47
102
}
330
47
100
AcDbScale
 70
     0
300
1:4
140
1.0
141
4.0
290
     0
  0
SCALE
  5
4B
102
{ACAD_REACTORS
330
47
102
}
330
47
100
AcDbScale
 70
     0
300
1:5
140
1.0
141
5.0
290
     0
  0
SCALE
  5
4C
102
{ACAD_REACTORS
330
47
102
}
330
47
100
AcDbScale
 70
     0
300
1:8
140
1.0
141
8.0
290
     0
  0
SCALE
  5
4D
102
{ACAD_REACTORS
330
47
102
}
330
47
100
AcDbScale
 70
     0
300
1:10
140
1.0
141
10.0
290
     0
  0
SCALE
  5
4E
102
{ACAD_REACTORS
330
47
102
}
330
47
100
AcDbScale
 70
     0
300
1:16
140
1.0
141
16.0
290
     0
  0
SCALE
  5
4F
102
{ACAD_REACTORS
330
47
102
}
330
47
100
AcDbScale
 70
     0
300
1:20
140
1.0
141
20.0
290
     0
  0
SCALE
  5
50
102
{ACAD_REACTORS
330
47
102
}
330
47
100
AcDbScale
 70
     0
300
1:30
140
1.0
141
30.0
290
     0
  0
SCALE
  5
51
102
{ACAD_REACTORS
330
47
102
}
330
47
100
AcDbScale
 70
     0
300
1:40
140
1.0
141
40.0
290
     0
  0
SCALE
  5
52
102
{ACAD_REACTORS
330
47
102
}
330
47
100
AcDbScale
 70
     0
300
1:50
140
1.0
141
50.0
290
     0
  0
SCALE
  5
53
102
{ACAD_REACTORS
330
47
102
}
330
47
100
AcDbScale
 70
     0
300
1:100
140
1.0
141
100.0
290
     0
  0
SCALE
  5
54
102
{ACAD_REACTORS
330
47
102
}
330
47
100
AcDbScale
 70
     0
300
2:1
140
2.0
141
1.0
290
     0
  0
SCALE
  5
55
102
{ACAD_REACTORS
330
47
102
}
330
47
100
AcDbScale
 70
     0
300
4:1
140
4.0
141
1.0
290
     0
  0
SCALE
  5
56
102
{ACAD_REACTORS
330
47
102
}
330
47
100
AcDbScale
 70
     0
300
8:1
140
8.0
141
1.0
290
     0
  0
SCALE
  5
57
102
{ACAD_REACTORS
330
47
102
}
330
47
100
AcDbScale
 70
     0
300
10:1
140
10.0
141
1.0
290
     0
  0
SCALE
  5
58
102
{ACAD_REACTORS
330
47
102
}
330
47
100
AcDbScale
 70
     0
300
100:1
140
100.0
141
1.0
290
     0
  0
SCALE
  5
59
102
{ACAD_REACTORS
330
47
102
}
330
47
100
AcDbScale
 70
     0
300
1/128" = 1'-0"
140
0.0078125
141
12.0
290
     0
  0
SCALE
  5
5A
102
{ACAD_REACTORS
330
47
102
}
330
47
100
AcDbScale
 70
     0
300
1/64" = 1'-0"
140
0.015625
141
12.0
290
     0
  0
SCALE
  5
5B
102
{ACAD_REACTORS
330
47
102
}
330
47
100
AcDbScale
 70
     0
300
1/32" = 1'-0"
140
0.03125
141
12.0
290
     0
  0
SCALE
  5
5C
102
{ACAD_REACTORS
330
47
102
}
330
47
100
AcDbScale
 70
     0
300
1/16" = 1'-0"
140
0.0625
141
12.0
290
     0
  0
SCALE
  5
5D
102
{ACAD_REACTORS
330
47
102
}
330
47
100
AcDbScale
 70
     0
300
3/32" = 1'-0"
140
0.09375
141
12.0
290
     0
  0
SCALE
  5
5E
102
{ACAD_REACTORS
330
47
102
}
330
47
100
AcDbScale
 70
     0
300
1/8" = 1'-0"
140
0.125
141
12.0
290
     0
  0
SCALE
  5
5F
102
{ACAD_REACTORS
330
47
102
}
330
47
100
AcDbScale
 70
     0
300
3/16" = 1'-0"
140
0.1875
141
12.0
290
     0
  0
SCALE
  5
60
102
{ACAD_REACTORS
330
47
102
}
330
47
100
AcDbScale
 70
     0
300
1/4" = 1'-0"
140
0.25
141
12.0
290
     0
  0
SCALE
  5
61
102
{ACAD_REACTORS
330
47
102
}
330
47
100
AcDbScale
 70
     0
300
3/8" = 1'-0"
140
0.375
141
12.0
290
     0
  0
SCALE
  5
62
102
{ACAD_REACTORS
330
47
102
}
330
47
100
AcDbScale
 70
     0
300
1/2" = 1'-0"
140
0.5
141
12.0
290
     0
  0
SCALE
  5
63
102
{ACAD_REACTORS
330
47
102
}
330
47
100
AcDbScale
 70
     0
300
3/4" = 1'-0"
140
0.75
141
12.0
290
     0
  0
SCALE
  5
64
102
{ACAD_REACTORS
330
47
102
}
330
47
100
AcDbScale
 70
     0
300
1" = 1'-0"
140
1.0
141
12.0
290
     0
  0
SCALE
  5
65
102
{ACAD_REACTORS
330
47
102
}
330
47
100
AcDbScale
 70
     0
300
1-1/2" = 1'-0"
140
1.5
141
12.0
290
     0
  0
SCALE
  5
66
102
{ACAD_REACTORS
330
47
102
}
330
47
100
AcDbScale
 70
     0
300
3" = 1'-0"
140
3.0
141
12.0
290
     0
  0
SCALE
  5
67
102
{ACAD_REACTORS
330
47
102
}
330
47
100
AcDbScale
 70
     0
300
6" = 1'-0"
140
6.0
141
12.0
290
     0
  0
SCALE
  5
68
102
{ACAD_REACTORS
330
47
102
}
330
47
100
AcDbScale
 70
     0
300
1'-0" = 1'-0"
140
12.0
141
12.0
290
     0
  0
ENDSEC
  0
EOF
