  0
SECTION
  2
HEADER
  9
$ACADVER
  1
AC1015
  9
$ACADMAINTVER
 70
     6
  9
$DWGCODEPAGE
  3
ANSI_949
  9
$INSBASE
 10
0.0
 20
0.0
 30
0.0
  9
$EXTMIN
 10
-56.44867800321059
 20
-49.98438634254138
 30
0.0
  9
$EXTMAX
 10
77.86105274605184
 20
52.48680350528706
 30
0.0
  9
$LIMMIN
 10
0.0
 20
0.0
  9
$LIMMAX
 10
420.0
 20
297.0
  9
$ORTHOMODE
 70
     1
  9
$REGENMODE
 70
     1
  9
$FILLMODE
 70
     1
  9
$QTEXTMODE
 70
     0
  9
$MIRRTEXT
 70
     1
  9
$LTSCALE
 40
1.0
  9
$ATTMODE
 70
     1
  9
$TEXTSIZE
 40
3.5
  9
$TRACEWID
 40
1.0
  9
$TEXTSTYLE
  7
Standard
  9
$CLAYER
  8
0
  9
$CELTYPE
  6
ByLayer
  9
$CECOLOR
 62
   256
  9
$CELTSCALE
 40
1.0
  9
$DISPSILH
 70
     0
  9
$DIMSCALE
 40
1.0
  9
$DIMASZ
 40
3.302
  9
$DIMEXO
 40
1.0
  9
$DIMDLI
 40
3.75
  9
$DIMRND
 40
0.0
  9
$DIMDLE
 40
0.0
  9
$DIMEXE
 40
1.0
  9
$DIMTP
 40
0.0
  9
$DIMTM
 40
0.0
  9
$DIMTXT
 40
3.5
  9
$DIMCEN
 40
2.5
  9
$DIMTSZ
 40
0.0
  9
$DIMTOL
 70
     0
  9
$DIMLIM
 70
     0
  9
$DIMTIH
 70
     1
  9
$DIMTOH
 70
     1
  9
$DIMSE1
 70
     0
  9
$DIMSE2
 70
     0
  9
$DIMTAD
 70
     1
  9
$DIMZIN
 70
     0
  9
$DIMBLK
  1

  9
$DIMASO
 70
     1
  9
$DIMSHO
 70
     1
  9
$DIMPOST
  1

  9
$DIMAPOST
  1

  9
$DIMALT
 70
     0
  9
$DIMALTD
 70
     3
  9
$DIMALTF
 40
0.0393700787401575
  9
$DIMLFAC
 40
1.0
  9
$DIMTOFL
 70
     1
  9
$DIMTVP
 40
0.0
  9
$DIMTIX
 70
     0
  9
$DIMSOXD
 70
     0
  9
$DIMSAH
 70
     0
  9
$DIMBLK1
  1

  9
$DIMBLK2
  1

  9
$DIMSTYLE
  2
ISO-25
  9
$DIMCLRD
 70
     0
  9
$DIMCLRE
 70
     0
  9
$DIMCLRT
 70
     0
  9
$DIMTFAC
 40
1.0
  9
$DIMGAP
 40
1.524
  9
$DIMJUST
 70
     0
  9
$DIMSD1
 70
     0
  9
$DIMSD2
 70
     0
  9
$DIMTOLJ
 70
     0
  9
$DIMTZIN
 70
     0
  9
$DIMALTZ
 70
     0
  9
$DIMALTTZ
 70
     0
  9
$DIMUPT
 70
     0
  9
$DIMDEC
 70
     2
  9
$DIMTDEC
 70
     2
  9
$DIMALTU
 70
     2
  9
$DIMALTTD
 70
     3
  9
$DIMTXSTY
  7
Standard
  9
$DIMAUNIT
 70
     0
  9
$DIMADEC
 70
     2
  9
$DIMALTRND
 40
0.0
  9
$DIMAZIN
 70
     0
  9
$DIMDSEP
 70
    44
  9
$DIMATFIT
 70
     3
  9
$DIMFRAC
 70
     0
  9
$DIMLDRBLK
  1

  9
$DIMLUNIT
 70
     2
  9
$DIMLWD
 70
    -2
  9
$DIMLWE
 70
    -2
  9
$DIMTMOVE
 70
     0
  9
$LUNITS
 70
     2
  9
$LUPREC
 70
     2
  9
$SKETCHINC
 40
1.0
  9
$FILLETRAD
 40
10.0
  9
$AUNITS
 70
     0
  9
$AUPREC
 70
     2
  9
$MENU
  1
.
  9
$ELEVATION
 40
0.0
  9
$PELEVATION
 40
0.0
  9
$THICKNESS
 40
0.0
  9
$LIMCHECK
 70
     0
  9
$CHAMFERA
 40
0.0
  9
$CHAMFERB
 40
0.0
  9
$CHAMFERC
 40
0.0
  9
$CHAMFERD
 40
0.0
  9
$SKPOLY
 70
     0
  9
$TDCREATE
 40
2458340.593602442
  9
$TDUCREATE
 40
2458340.218602442
  9
$TDUPDATE
 40
2458341.594041065
  9
$TDUUPDATE
 40
2458341.219041065
  9
$TDINDWG
 40
0.1226785648
  9
$TDUSRTIMER
 40
2458341.08133838
  9
$USRTIMER
 70
     1
  9
$ANGBASE
 50
0.0
  9
$ANGDIR
 70
     0
  9
$PDMODE
 70
     0
  9
$PDSIZE
 40
-1.0
  9
$PLINEWID
 40
0.0
  9
$SPLFRAME
 70
     0
  9
$SPLINETYPE
 70
     6
  9
$SPLINESEGS
 70
     8
  9
$HANDSEED
  5
17F
  9
$SURFTAB1
 70
     6
  9
$SURFTAB2
 70
     6
  9
$SURFTYPE
 70
     6
  9
$SURFU
 70
     6
  9
$SURFV
 70
     6
  9
$UCSBASE
  2

  9
$UCSNAME
  2

  9
$UCSORG
 10
0.0
 20
0.0
 30
0.0
  9
$UCSXDIR
 10
1.0
 20
0.0
 30
0.0
  9
$UCSYDIR
 10
0.0
 20
1.0
 30
0.0
  9
$UCSORTHOREF
  2

  9
$UCSORTHOVIEW
 70
     0
  9
$UCSORGTOP
 10
0.0
 20
0.0
 30
0.0
  9
$UCSORGBOTTOM
 10
0.0
 20
0.0
 30
0.0
  9
$UCSORGLEFT
 10
0.0
 20
0.0
 30
0.0
  9
$UCSORGRIGHT
 10
0.0
 20
0.0
 30
0.0
  9
$UCSORGFRONT
 10
0.0
 20
0.0
 30
0.0
  9
$UCSORGBACK
 10
0.0
 20
0.0
 30
0.0
  9
$PUCSBASE
  2

  9
$PUCSNAME
  2

  9
$PUCSORG
 10
0.0
 20
0.0
 30
0.0
  9
$PUCSXDIR
 10
1.0
 20
0.0
 30
0.0
  9
$PUCSYDIR
 10
0.0
 20
1.0
 30
0.0
  9
$PUCSORTHOREF
  2

  9
$PUCSORTHOVIEW
 70
     0
  9
$PUCSORGTOP
 10
0.0
 20
0.0
 30
0.0
  9
$PUCSORGBOTTOM
 10
0.0
 20
0.0
 30
0.0
  9
$PUCSORGLEFT
 10
0.0
 20
0.0
 30
0.0
  9
$PUCSORGRIGHT
 10
0.0
 20
0.0
 30
0.0
  9
$PUCSORGFRONT
 10
0.0
 20
0.0
 30
0.0
  9
$PUCSORGBACK
 10
0.0
 20
0.0
 30
0.0
  9
$USERI1
 70
     0
  9
$USERI2
 70
     0
  9
$USERI3
 70
     0
  9
$USERI4
 70
     0
  9
$USERI5
 70
     0
  9
$USERR1
 40
0.0
  9
$USERR2
 40
0.0
  9
$USERR3
 40
0.0
  9
$USERR4
 40
0.0
  9
$USERR5
 40
0.0
  9
$WORLDVIEW
 70
     1
  9
$SHADEDGE
 70
     3
  9
$SHADEDIF
 70
    70
  9
$TILEMODE
 70
     1
  9
$MAXACTVP
 70
    64
  9
$PINSBASE
 10
0.0
 20
0.0
 30
0.0
  9
$PLIMCHECK
 70
     0
  9
$PEXTMIN
 10
1.000000000000000E+20
 20
1.000000000000000E+20
 30
1.000000000000000E+20
  9
$PEXTMAX
 10
-1.000000000000000E+20
 20
-1.000000000000000E+20
 30
-1.000000000000000E+20
  9
$PLIMMIN
 10
0.0
 20
0.0
  9
$PLIMMAX
 10
0.0
 20
0.0
  9
$UNITMODE
 70
     0
  9
$VISRETAIN
 70
     1
  9
$PLINEGEN
 70
     0
  9
$PSLTSCALE
 70
     1
  9
$TREEDEPTH
 70
  3020
  9
$CMLSTYLE
  2
Standard
  9
$CMLJUST
 70
     0
  9
$CMLSCALE
 40
20.0
  9
$PROXYGRAPHICS
 70
     1
  9
$MEASUREMENT
 70
     1
  9
$CELWEIGHT
370
    -1
  9
$ENDCAPS
280
     0
  9
$JOINSTYLE
280
     0
  9
$LWDISPLAY
290
     1
  9
$INSUNITS
 70
     4
  9
$HYPERLINKBASE
  1

  9
$STYLESHEET
  1

  9
$XEDIT
290
     1
  9
$CEPSNTYPE
380
     0
  9
$PSTYLEMODE
290
     1
  9
$FINGERPRINTGUID
  2
{EB13A339-D1B2-4C6C-9045-5CBC990DB475}
  9
$VERSIONGUID
  2
{FAEB1C32-E019-11D5-929B-00C0DF256EC4}
  9
$EXTNAMES
290
     1
  9
$PSVPSCALE
 40
0.0
  9
$OLESTARTUP
290
     0
  0
ENDSEC
  0
SECTION
  2
CLASSES
  0
CLASS
  1
ACDBDICTIONARYWDFLT
  2
AcDbDictionaryWithDefault
  3
ObjectDBX Classes
 90
        0
280
     0
281
     0
  0
CLASS
  1
VISUALSTYLE
  2
AcDbVisualStyle
  3
ObjectDBX Classes
 90
     4095
280
     0
281
     0
  0
CLASS
  1
MATERIAL
  2
AcDbMaterial
  3
ObjectDBX Classes
 90
     1153
280
     0
281
     0
  0
CLASS
  1
SCALE
  2
AcDbScale
  3
ObjectDBX Classes
 90
     1153
280
     0
281
     0
  0
CLASS
  1
SUN
  2
AcDbSun
  3
SCENEOE
 90
     1153
280
     0
281
     0
  0
CLASS
  1
ACDBPLACEHOLDER
  2
AcDbPlaceHolder
  3
ObjectDBX Classes
 90
        0
280
     0
281
     0
  0
CLASS
  1
LAYOUT
  2
AcDbLayout
  3
ObjectDBX Classes
 90
        0
280
     0
281
     0
  0
CLASS
  1
TABLESTYLE
  2
AcDbTableStyle
  3
ObjectDBX Classes
 90
     4095
280
     0
281
     0
  0
CLASS
  1
MLEADERSTYLE
  2
AcDbMLeaderStyle
  3
ACDB_MLEADERSTYLE_CLASS
 90
     4095
280
     0
281
     0
  0
CLASS
  1
RASTERVARIABLES
  2
AcDbRasterVariables
  3
ISM
 90
        0
280
     0
281
     0
  0
CLASS
  1
DIMASSOC
  2
AcDbDimAssoc
  3
"AcDbDimAssoc|Product Desc:     AcDim ARX App For Dimension|Company:          Autodesk, Inc.|WEB Address:      www.autodesk.com"
 90
        0
280
     0
281
     0
  0
CLASS
  1
DICTIONARYVAR
  2
AcDbDictionaryVar
  3
ObjectDBX Classes
 90
        0
280
     0
281
     0
  0
ENDSEC
  0
SECTION
  2
TABLES
  0
TABLE
  2
VPORT
  5
8
330
0
100
AcDbSymbolTable
 70
     1
  0
VPORT
  5
29
330
8
100
AcDbSymbolTableRecord
100
AcDbViewportTableRecord
  2
*Active
 70
     0
 10
0.0
 20
0.0
 11
1.0
 21
1.0
 12
11.43314537940428
 22
13.55846971323655
 13
0.0
 23
0.0
 14
10.0
 24
10.0
 15
10.0
 25
10.0
 16
0.0
 26
0.0
 36
1.0
 17
0.0
 27
0.0
 37
0.0
 40
148.6266686397788
 41
1.444267515923567
 42
50.0
 43
0.0
 44
0.0
 50
0.0
 51
0.0
 71
    16
 72
  2000
 73
     1
 74
     3
 75
     0
 76
     0
 77
     0
 78
     0
281
     0
 65
     1
110
0.0
120
0.0
130
0.0
111
1.0
121
0.0
131
0.0
112
0.0
122
1.0
132
0.0
 79
     0
146
0.0
  0
ENDTAB
  0
TABLE
  2
LTYPE
  5
5
330
0
100
AcDbSymbolTable
 70
     6
  0
LTYPE
  5
14
330
5
100
AcDbSymbolTableRecord
100
AcDbLinetypeTableRecord
  2
ByBlock
 70
     0
  3

 72
    65
 73
     0
 40
0.0
  0
LTYPE
  5
15
330
5
100
AcDbSymbolTableRecord
100
AcDbLinetypeTableRecord
  2
ByLayer
 70
     0
  3

 72
    65
 73
     0
 40
0.0
  0
LTYPE
  5
16
330
5
100
AcDbSymbolTableRecord
100
AcDbLinetypeTableRecord
  2
Continuous
 70
     0
  3
Solid line
 72
    65
 73
     0
 40
0.0
  0
LTYPE
  5
6A
330
5
100
AcDbSymbolTableRecord
100
AcDbLinetypeTableRecord
  2
HIDDEN
 70
     0
  3
Hidden __ __ __ __ __ __ __ __ __ __ __ __ __ __
 72
    65
 73
     2
 40
1.905
 49
1.27
 74
     0
 49
-0.635
 74
     0
  0
LTYPE
  5
6B
330
5
100
AcDbSymbolTableRecord
100
AcDbLinetypeTableRecord
  2
PHANTOM
 70
     0
  3
Phantom ______  __  __  ______  __  __  ______
 72
    65
 73
     6
 40
12.7
 49
6.35
 74
     0
 49
-1.27
 74
     0
 49
1.27
 74
     0
 49
-1.27
 74
     0
 49
1.27
 74
     0
 49
-1.27
 74
     0
  0
LTYPE
  5
6C
330
5
100
AcDbSymbolTableRecord
100
AcDbLinetypeTableRecord
  2
CENTER
 70
     0
  3
Center ____ _ ____ _ ____ _ ____ _ ____ _ ____
 72
    65
 73
     4
 40
10.16
 49
6.35
 74
     0
 49
-1.27
 74
     0
 49
1.27
 74
     0
 49
-1.27
 74
     0
  0
LTYPE
  5
6D
330
5
100
AcDbSymbolTableRecord
100
AcDbLinetypeTableRecord
  2
CENTERX2
 70
     0
  3
Center (2x) ________  __  ________  __  _____
 72
    65
 73
     4
 40
20.32
 49
12.7
 74
     0
 49
-2.54
 74
     0
 49
2.54
 74
     0
 49
-2.54
 74
     0
  0
LTYPE
  5
6E
330
5
100
AcDbSymbolTableRecord
100
AcDbLinetypeTableRecord
  2
DOT2
 70
     0
  3
Dot (.5x) ........................................
 72
    65
 73
     2
 40
0.635
 49
0.0
 74
     0
 49
-0.635
 74
     0
  0
ENDTAB
  0
TABLE
  2
LAYER
  5
2
330
0
100
AcDbSymbolTable
 70
    17
  0
LAYER
  5
10
330
2
100
AcDbSymbolTableRecord
100
AcDbLayerTableRecord
  2
0
 70
     0
 62
     7
  6
Continuous
370
    -3
390
F
  0
LAYER
  5
6F
330
2
100
AcDbSymbolTableRecord
100
AcDbLayerTableRecord
  2
FORMAT
 70
     0
 62
     2
  6
Continuous
370
    -3
390
F
  0
LAYER
  5
70
330
2
100
AcDbSymbolTableRecord
100
AcDbLayerTableRecord
  2
외형선
 70
     0
 62
   100
  6
Continuous
370
    30
390
F
  0
LAYER
  5
71
330
2
100
AcDbSymbolTableRecord
100
AcDbLayerTableRecord
  2
숨은선
 70
     0
 62
     2
  6
HIDDEN
370
    15
390
F
  0
LAYER
  5
72
330
2
100
AcDbSymbolTableRecord
100
AcDbLayerTableRecord
  2
중심선
 70
     0
 62
     1
  6
CENTERX2
370
    -3
390
F
  0
LAYER
  5
73
330
2
100
AcDbSymbolTableRecord
100
AcDbLayerTableRecord
  2
파단선
 70
     0
 62
     4
  6
Continuous
370
    -3
390
F
  0
LAYER
  5
74
330
2
100
AcDbSymbolTableRecord
100
AcDbLayerTableRecord
  2
해칭선
 70
     0
 62
     4
  6
Continuous
370
    -3
390
F
  0
LAYER
  5
75
330
2
100
AcDbSymbolTableRecord
100
AcDbLayerTableRecord
  2
가는실선
 70
     0
 62
     4
  6
Continuous
370
    -3
390
F
  0
LAYER
  5
76
330
2
100
AcDbSymbolTableRecord
100
AcDbLayerTableRecord
  2
치수_보조선
 70
     0
 62
     4
  6
Continuous
370
    -3
390
F
  0
LAYER
  5
77
330
2
100
AcDbSymbolTableRecord
100
AcDbLayerTableRecord
  2
치수문자_일반주서
 70
     0
 62
     7
  6
Continuous
370
    15
390
F
  0
LAYER
  5
78
330
2
100
AcDbSymbolTableRecord
100
AcDbLayerTableRecord
  2
개별주서
 70
     0
 62
   100
  6
Continuous
370
    30
390
F
  0
LAYER
  5
79
330
2
100
AcDbSymbolTableRecord
100
AcDbLayerTableRecord
  2
중간선
 70
     0
 62
     2
  6
Continuous
370
    15
390
F
  0
LAYER
  5
7A
330
2
100
AcDbSymbolTableRecord
100
AcDbLayerTableRecord
  2
윤곽선
 70
     0
 62
     3
  6
Continuous
370
    40
390
F
  0
LAYER
  5
7B
330
2
100
AcDbSymbolTableRecord
100
AcDbLayerTableRecord
  2
중심마크
 70
     0
 62
   100
  6
Continuous
370
    30
390
F
  0
LAYER
  5
7C
330
2
100
AcDbSymbolTableRecord
100
AcDbLayerTableRecord
  2
가상선
 70
     0
 62
     4
  6
PHANTOM
370
    -3
390
F
  0
LAYER
  5
7D
330
2
100
AcDbSymbolTableRecord
100
AcDbLayerTableRecord
  2
특수지정선
 70
     0
 62
     5
  6
CENTERX2
370
    60
390
F
  0
LAYER
  5
14F
330
2
100
AcDbSymbolTableRecord
100
AcDbLayerTableRecord
  2
Defpoints
 70
     0
 62
     7
  6
Continuous
290
     0
370
    -3
390
F
  0
ENDTAB
  0
TABLE
  2
STYLE
  5
3
330
0
100
AcDbSymbolTable
 70
     2
  0
STYLE
  5
11
330
3
100
AcDbSymbolTableRecord
100
AcDbTextStyleTableRecord
  2
Standard
 70
     0
 40
0.0
 41
1.0
 50
0.0
 71
     0
 42
3.5
  3
txt
  4

  0
STYLE
  5
93
330
3
100
AcDbSymbolTableRecord
100
AcDbTextStyleTableRecord
  2
SLDTEXTSTYLE0
 70
     0
 40
0.0
 41
0.75
 50
0.0
 71
     0
 42
3.5
  3
TXT
  4

  0
ENDTAB
  0
TABLE
  2
VIEW
  5
6
330
0
100
AcDbSymbolTable
 70
     0
  0
ENDTAB
  0
TABLE
  2
UCS
  5
7
330
0
100
AcDbSymbolTable
 70
     0
  0
ENDTAB
  0
TABLE
  2
APPID
  5
9
330
0
100
AcDbSymbolTable
 70
     2
  0
APPID
  5
12
330
9
100
AcDbSymbolTableRecord
100
AcDbRegAppTableRecord
  2
ACAD
 70
     0
  0
APPID
  5
17D
330
9
100
AcDbSymbolTableRecord
100
AcDbRegAppTableRecord
  2
PE_DIMMEASUREMENT
 70
     0
  0
ENDTAB
  0
TABLE
  2
DIMSTYLE
  5
A
330
0
100
AcDbSymbolTable
 70
     4
100
AcDbDimStyleTable
  0
DIMSTYLE
105
27
330
A
100
AcDbSymbolTableRecord
100
AcDbDimStyleTableRecord
  2
ISO-25
 70
     0
 41
2.5
 42
0.625
 43
3.75
 44
1.25
 73
     0
 74
     0
 77
     1
 78
     8
140
2.5
141
2.5
143
0.03937007874016
147
0.625
171
     3
172
     1
178
     0
271
     2
272
     2
274
     3
278
    44
283
     0
284
     8
340
11
  0
DIMSTYLE
105
EC
102
{ACAD_REACTORS
330
EB
330
150
330
16B
102
}
330
A
100
AcDbSymbolTableRecord
100
AcDbDimStyleTableRecord
  2
SLDDIMSTYLE0
 70
     0
 41
3.302
 44
0.0
 45
0.000000001
 73
     0
 74
     0
 77
     1
 78
    12
 79
     3
140
3.5
143
0.0393700787401575
147
0.875
148
0.000000001
170
     1
173
     1
178
     0
271
     2
272
     2
276
     2
284
    12
340
93
  0
DIMSTYLE
105
100
102
{ACAD_REACTORS
330
FF
102
}
330
A
100
AcDbSymbolTableRecord
100
AcDbDimStyleTableRecord
  2
SLDDIMSTYLE1
 70
     0
 41
3.302
 44
0.0
 45
0.000000001
 73
     0
 74
     0
 77
     1
 78
     4
 79
     1
140
3.5
143
0.0393700787401575
147
0.875
148
0.000000001
170
     1
173
     1
178
     0
271
     2
272
     2
276
     2
284
    12
340
93
  0
DIMSTYLE
105
114
330
A
100
AcDbSymbolTableRecord
100
AcDbDimStyleTableRecord
  2
SLDDIMSTYLE2
 70
     0
 41
3.302
 44
0.0
 45
0.000000001
 73
     0
 74
     0
 77
     1
 78
     8
 79
     2
140
3.5
143
0.0393700787401575
147
0.875
148
0.000000001
170
     1
172
     1
173
     1
178
     0
271
     2
272
     2
276
     2
284
    12
289
     0
340
93
341
115
343
115
344
115
  0
ENDTAB
  0
TABLE
  2
BLOCK_RECORD
  5
1
330
0
100
AcDbSymbolTable
 70
     9
  0
BLOCK_RECORD
  5
1F
330
1
100
AcDbSymbolTableRecord
100
AcDbBlockTableRecord
  2
*Model_Space
340
22
  0
BLOCK_RECORD
  5
1B
330
1
100
AcDbSymbolTableRecord
100
AcDbBlockTableRecord
  2
*Paper_Space
340
1E
  0
BLOCK_RECORD
  5
23
330
1
100
AcDbSymbolTableRecord
100
AcDbBlockTableRecord
  2
*Paper_Space0
340
26
  0
BLOCK_RECORD
  5
7E
330
1
100
AcDbSymbolTableRecord
100
AcDbBlockTableRecord
  2
블럭10
340
0
102
{BLKREFS
331
E4
102
}
  0
BLOCK_RECORD
  5
ED
330
1
100
AcDbSymbolTableRecord
100
AcDbBlockTableRecord
  2
_D
340
0
  0
BLOCK_RECORD
  5
101
330
1
100
AcDbSymbolTableRecord
100
AcDbBlockTableRecord
  2
_D_1
340
0
  0
BLOCK_RECORD
  5
115
330
1
100
AcDbSymbolTableRecord
100
AcDbBlockTableRecord
  2
_NONE
340
0
  0
BLOCK_RECORD
  5
118
330
1
100
AcDbSymbolTableRecord
100
AcDbBlockTableRecord
  2
_D_2
340
0
  0
BLOCK_RECORD
  5
124
330
1
100
AcDbSymbolTableRecord
100
AcDbBlockTableRecord
  2
SW_DOWELSYMBOL_0
340
0
102
{BLKREFS
331
12A
102
}
  0
BLOCK_RECORD
  5
153
330
1
100
AcDbSymbolTableRecord
100
AcDbBlockTableRecord
  2
*D7
340
0
  0
BLOCK_RECORD
  5
16E
330
1
100
AcDbSymbolTableRecord
100
AcDbBlockTableRecord
  2
*D8
340
0
  0
ENDTAB
  0
ENDSEC
  0
SECTION
  2
BLOCKS
  0
BLOCK
  5
20
330
1F
100
AcDbEntity
  8
0
100
AcDbBlockBegin
  2
*Model_Space
 70
     0
 10
0.0
 20
0.0
 30
0.0
  3
*Model_Space
  1
*Model_Space
  0
ENDBLK
  5
21
330
1F
100
AcDbEntity
  8
0
100
AcDbBlockEnd
  0
BLOCK
  5
1C
330
1B
100
AcDbEntity
 67
     1
  8
0
100
AcDbBlockBegin
  2
*Paper_Space
 70
     0
 10
0.0
 20
0.0
 30
0.0
  3
*Paper_Space
  1
*Paper_Space
  0
ENDBLK
  5
1D
330
1B
100
AcDbEntity
 67
     1
  8
0
100
AcDbBlockEnd
  0
BLOCK
  5
24
330
23
100
AcDbEntity
  8
0
100
AcDbBlockBegin
  2
*Paper_Space0
 70
     0
 10
0.0
 20
0.0
 30
0.0
  3
*Paper_Space0
  1
*Paper_Space0
  0
ENDBLK
  5
25
330
23
100
AcDbEntity
  8
0
100
AcDbBlockEnd
  0
BLOCK
  5
7F
330
7E
100
AcDbEntity
  8
0
100
AcDbBlockBegin
  2
블럭10
 70
     2
 10
0.0
 20
0.0
 30
0.0
  3
블럭10
  1
블럭10
  0
ELLIPSE
  5
81
330
7E
100
AcDbEntity
  8
중심선
100
AcDbEllipse
 10
20.54032771741204
 20
12.0471743016438
 30
0.0
 11
6.600054785286829
 21
-1.261213355974178E-13
 31
0.0
210
0.0
220
0.0
230
1.0
 40
0.636358354079598
 41
0.9219305317359503
 42
6.513795318482858
  0
ELLIPSE
  5
82
330
7E
100
AcDbEntity
  8
중심선
100
AcDbEllipse
 10
20.54032771746488
 20
12.04717430159265
 30
0.0
 11
3.960054785062283
 21
1.540847449632565E-10
 31
0.0
210
0.0
220
0.0
230
1.0
 40
0.3939339440162632
 41
1.131841032648279
 42
5.62031148352944
  0
LINE
  5
83
330
7E
100
AcDbEntity
  8
중심선
100
AcDbLine
 10
2.268634060543552
 20
16.24717430164393
 30
0.0
 11
5.714909304380834
 21
16.24717430164393
 31
0.0
  0
LINE
  5
84
330
7E
100
AcDbEntity
  8
중심선
100
AcDbLine
 10
5.245725140726316
 20
7.84717430164391
 30
0.0
 11
8.692000384563599
 21
7.84717430164391
 31
0.0
  0
LINE
  5
85
330
7E
100
AcDbEntity
  8
중심선
100
AcDbLine
 10
15.74043728645272
 20
16.24717430164393
 30
0.0
 11
8.692000384563599
 21
7.84717430164391
 31
0.0
  0
LINE
  5
86
330
7E
100
AcDbEntity
  8
중심선
100
AcDbLine
 10
0.1404042013395286
 20
13.71084872107135
 30
0.0
 11
3.58671253028996
 21
13.71088815037384
 31
0.0
  0
LINE
  5
87
330
7E
100
AcDbEntity
  8
중심선
100
AcDbLine
 10
2.750260043222114
 20
10.84717430164391
 30
0.0
 11
6.196535287059397
 21
10.84717430164391
 31
0.0
  0
LINE
  5
88
330
7E
100
AcDbEntity
  8
중심선
100
AcDbLine
 10
12.29416204261559
 20
16.24717430164393
 30
0.0
 11
5.245725140726316
 21
7.84717430164391
 31
0.0
  0
LINE
  5
89
330
7E
100
AcDbEntity
  8
중심선
100
AcDbLine
 10
10.72767329541681
 20
16.24717430164393
 30
0.0
 11
6.196535287059397
 21
10.84717430164391
 31
0.0
  0
LINE
  5
8A
330
7E
100
AcDbEntity
  8
중심선
100
AcDbLine
 10
7.28139805157953
 20
16.24717430164393
 30
0.0
 11
2.750260043222114
 21
10.84717430164391
 31
0.0
  0
LINE
  5
8B
330
7E
100
AcDbEntity
  8
중심선
100
AcDbLine
 10
5.714909304380834
 20
16.24717430164393
 30
0.0
 11
3.58671253028996
 21
13.71088815037384
 31
0.0
  0
LINE
  5
8C
330
7E
100
AcDbEntity
  8
중심선
100
AcDbLine
 10
2.268634060543552
 20
16.24717430164393
 30
0.0
 11
0.1404042013395286
 21
13.71084872107135
 31
0.0
  0
LINE
  5
8D
330
7E
100
AcDbEntity
  8
중심선
100
AcDbLine
 10
7.28139805157953
 20
16.24717430164393
 30
0.0
 11
10.72767329541681
 21
16.24717430164393
 31
0.0
  0
LINE
  5
8E
330
7E
100
AcDbEntity
  8
중심선
100
AcDbLine
 10
12.29416204261559
 20
16.24717430164393
 30
0.0
 11
15.74043728645272
 21
16.24717430164393
 31
0.0
  0
LINE
  5
8F
330
7E
100
AcDbEntity
  8
중심선
100
AcDbLine
 10
19.22036997980202
 20
11.08717430171403
 30
0.0
 11
23.66174974927406
 21
11.08717430171406
 31
0.0
  0
LINE
  5
90
330
7E
100
AcDbEntity
  8
중심선
100
AcDbLine
 10
19.22039502424796
 20
13.00717430171391
 30
0.0
 11
19.22036997980202
 21
11.08717430171403
 31
0.0
  0
LINE
  5
91
330
7E
100
AcDbEntity
  8
중심선
100
AcDbLine
 10
19.22039502424796
 20
13.00717430171391
 30
0.0
 11
26.96566020931264
 21
13.00717430171391
 31
0.0
  0
LINE
  5
92
330
7E
100
AcDbEntity
  8
중심선
100
AcDbLine
 10
22.22332737316547
 20
13.45928029700563
 30
0.0
 11
24.52862924686651
 21
15.39360700705356
 31
0.0
  0
ATTDEF
  5
94
330
7E
100
AcDbEntity
  8
FORMAT
 62
     2
100
AcDbText
 10
-9.18129528874128
 20
2.075366912832191
 30
0.0
 40
4.233333333333333
  1
E5078312 [ 3 FLUTE ]
 41
0.75
  7
SLDTEXTSTYLE0
 11
-9.18129528874128
 21
-0.0412997538344756
 31
0.0
100
AcDbAttributeDefinition
  3

  2
AUTOATTR0
 70
     0
 74
     1
  0
ENDBLK
  5
80
330
7E
100
AcDbEntity
  8
0
100
AcDbBlockEnd
  0
BLOCK
  5
EE
330
ED
100
AcDbEntity
  8
0
100
AcDbBlockBegin
  2
_D
 70
     0
 10
0.0
 20
0.0
 30
0.0
  3
_D
  1
_D
  0
LINE
  5
F0
330
ED
100
AcDbEntity
  8
치수문자_일반주서
 62
     0
370
    -2
100
AcDbLine
 10
56.95800000000001
 20
2.046874999999995
 30
0.0
 11
56.95800000000001
 21
34.62180332619884
 31
0.0
  0
LINE
  5
F1
330
ED
100
AcDbEntity
  8
치수문자_일반주서
 62
     0
370
    -2
100
AcDbLine
 10
12.50799999999997
 20
4.241977980715307
 30
0.0
 11
12.50799999999997
 21
34.62180332619884
 31
0.0
  0
LINE
  5
F2
330
ED
100
AcDbEntity
  8
치수문자_일반주서
 62
     0
370
    -2
100
AcDbLine
 10
53.65600000000001
 20
34.62180332619884
 30
0.0
 11
15.80999999999997
 21
34.62180332619884
 31
0.0
  0
SOLID
  5
F3
330
ED
100
AcDbEntity
  8
치수문자_일반주서
 62
     0
100
AcDbTrace
 10
53.65600000000001
 20
34.07146999286551
 30
0.0
 11
53.65600000000001
 21
35.17213665953218
 31
0.0
 12
56.95800000000001
 22
34.62180332619884
 32
0.0
 13
56.95800000000001
 23
34.62180332619884
 33
0.0
  0
SOLID
  5
F4
330
ED
100
AcDbEntity
  8
치수문자_일반주서
 62
     0
100
AcDbTrace
 10
15.80999999999997
 20
35.17213665953218
 30
0.0
 11
15.80999999999997
 21
34.07146999286551
 31
0.0
 12
12.50799999999997
 22
34.62180332619884
 32
0.0
 13
12.50799999999997
 23
34.62180332619884
 33
0.0
  0
MTEXT
  5
F5
330
ED
100
AcDbEntity
  8
치수문자_일반주서
 62
     0
100
AcDbMText
 10
34.34206692949721
 20
38.99680332619884
 30
0.0
 40
3.5
 41
0.0
 71
     2
 72
     1
  1
\A1;44.45 [1 3/4]
  7
SLDTEXTSTYLE0
 73
     1
 44
1.0
  0
POINT
  5
F6
330
ED
100
AcDbEntity
  8
Defpoints
 62
     0
100
AcDbPoint
 10
56.95800000000001
 20
1.984374999999994
 30
0.0
  0
POINT
  5
F7
330
ED
100
AcDbEntity
  8
Defpoints
 62
     0
100
AcDbPoint
 10
12.50799999999997
 20
4.179477980715307
 30
0.0
  0
POINT
  5
F8
330
ED
100
AcDbEntity
  8
Defpoints
 62
     0
100
AcDbPoint
 10
12.50799999999997
 20
34.62180332619884
 30
0.0
  0
ENDBLK
  5
EF
330
ED
100
AcDbEntity
  8
0
100
AcDbBlockEnd
  0
BLOCK
  5
102
330
101
100
AcDbEntity
  8
0
100
AcDbBlockBegin
  2
_D_1
 70
     0
 10
0.0
 20
0.0
 30
0.0
  3
_D_1
  1
_D_1
  0
LINE
  5
104
330
101
100
AcDbEntity
  8
치수문자_일반주서
 62
     0
370
    -2
100
AcDbLine
 10
56.95800000000001
 20
2.046874999999995
 30
0.0
 11
56.958
 21
48.11180350528705
 31
0.0
  0
LINE
  5
105
330
101
100
AcDbEntity
  8
치수문자_일반주서
 62
     0
370
    -2
100
AcDbLine
 10
-31.942
 20
4.015000000000013
 30
0.0
 11
-31.94200000000001
 21
48.11180350528705
 31
0.0
  0
LINE
  5
106
330
101
100
AcDbEntity
  8
치수문자_일반주서
 62
     0
370
    -2
100
AcDbLine
 10
53.656
 20
48.11180350528705
 30
0.0
 11
-28.64000000000001
 21
48.11180350528705
 31
0.0
  0
SOLID
  5
107
330
101
100
AcDbEntity
  8
치수문자_일반주서
 62
     0
100
AcDbTrace
 10
53.656
 20
47.56147017195372
 30
0.0
 11
53.656
 21
48.66213683862038
 31
0.0
 12
56.958
 22
48.11180350528705
 32
0.0
 13
56.958
 23
48.11180350528705
 33
0.0
  0
SOLID
  5
108
330
101
100
AcDbEntity
  8
치수문자_일반주서
 62
     0
100
AcDbTrace
 10
-28.64000000000001
 20
48.66213683862038
 30
0.0
 11
-28.64000000000001
 21
47.56147017195372
 31
0.0
 12
-31.94200000000001
 22
48.11180350528705
 32
0.0
 13
-31.94200000000001
 23
48.11180350528705
 33
0.0
  0
MTEXT
  5
109
330
101
100
AcDbEntity
  8
치수문자_일반주서
 62
     0
100
AcDbMText
 10
14.49598349195362
 20
52.48680350528705
 30
0.0
 40
3.5
 41
0.0
 71
     2
 72
     1
  1
\A1;88.90 [3 1/2]
  7
SLDTEXTSTYLE0
 73
     1
 44
1.0
  0
POINT
  5
10A
330
101
100
AcDbEntity
  8
Defpoints
 62
     0
100
AcDbPoint
 10
56.95800000000001
 20
1.984374999999994
 30
0.0
  0
POINT
  5
10B
330
101
100
AcDbEntity
  8
Defpoints
 62
     0
100
AcDbPoint
 10
-31.942
 20
3.952500000000013
 30
0.0
  0
POINT
  5
10C
330
101
100
AcDbEntity
  8
Defpoints
 62
     0
100
AcDbPoint
 10
-31.942
 20
48.11180350528705
 30
0.0
  0
ENDBLK
  5
103
330
101
100
AcDbEntity
  8
0
100
AcDbBlockEnd
  0
BLOCK
  5
116
330
115
100
AcDbEntity
  8
0
100
AcDbBlockBegin
  2
_NONE
 70
     0
 10
0.0
 20
0.0
 30
0.0
  3
_NONE
  1
_NONE
  0
ENDBLK
  5
117
330
115
100
AcDbEntity
  8
0
100
AcDbBlockEnd
  0
BLOCK
  5
119
330
118
100
AcDbEntity
  8
0
100
AcDbBlockBegin
  2
_D_2
 70
     0
 10
0.0
 20
0.0
 30
0.0
  3
_D_2
  1
_D_2
  0
LINE
  5
11B
330
118
100
AcDbEntity
  8
치수문자_일반주서
100
AcDbLine
 10
-55.73488171604274
 20
-10.1768664310687
 30
0.0
 11
-55.73488171604273
 21
-10.8878039166332
 31
0.0
  0
LINE
  5
11C
330
118
100
AcDbEntity
  8
치수문자_일반주서
100
AcDbLine
 10
-55.73488171604273
 20
-10.8878039166332
 30
0.0
 11
-50.17863172498343
 21
-10.88780391663316
 31
0.0
  0
LINE
  5
11D
330
118
100
AcDbEntity
  8
치수문자_일반주서
100
AcDbLine
 10
-50.17863172498343
 20
-10.88780391663316
 30
0.0
 11
-50.17863172498343
 21
-10.17686643106866
 31
0.0
  0
LINE
  5
11E
330
118
100
AcDbEntity
  8
치수문자_일반주서
100
AcDbLine
 10
-55.73488171604281
 20
0.651866431068562
 30
0.0
 11
-55.73488171604281
 21
1.362803916633062
 31
0.0
  0
LINE
  5
11F
330
118
100
AcDbEntity
  8
치수문자_일반주서
100
AcDbLine
 10
-55.73488171604281
 20
1.362803916633062
 30
0.0
 11
-50.17863172498351
 21
1.362803916633101
 31
0.0
  0
LINE
  5
120
330
118
100
AcDbEntity
  8
치수문자_일반주서
100
AcDbLine
 10
-50.17863172498351
 20
1.362803916633101
 30
0.0
 11
-50.1786317249835
 21
0.651866431068601
 31
0.0
  0
MTEXT
  5
121
330
118
100
AcDbEntity
  8
치수문자_일반주서
100
AcDbMText
 10
-54.69036863956233
 20
-9.288194530457316
 30
0.0
 40
3.5
 41
0.0
 71
     1
 72
     1
  1
0.00
  7
SLDTEXTSTYLE0
 11
-7.044195017643634E-15
 21
1.0
 31
0.0
 73
     1
 44
1.0
  0
MTEXT
  5
122
330
118
100
AcDbEntity
  8
치수문자_일반주서
100
AcDbMText
 10
-49.45373708920187
 20
-8.694774412363792
 30
0.0
 40
3.5
 41
0.0
 71
     1
 72
     1
  1
%%c
  7
SLDTEXTSTYLE0
 11
-7.044195017643634E-15
 21
1.0
 31
0.0
 73
     1
 44
1.0
  0
MTEXT
  5
123
330
118
100
AcDbEntity
  8
치수문자_일반주서
100
AcDbMText
 10
-49.4537370892019
 20
-3.416337013989711
 30
0.0
 40
3.5
 41
0.0
 71
     1
 72
     1
  1
0
  7
SLDTEXTSTYLE0
 11
-7.044195017643634E-15
 21
1.0
 31
0.0
 73
     1
 44
1.0
  0
ENDBLK
  5
11A
330
118
100
AcDbEntity
  8
0
100
AcDbBlockEnd
  0
BLOCK
  5
125
330
124
100
AcDbEntity
  8
0
100
AcDbBlockBegin
  2
SW_DOWELSYMBOL_0
 70
     0
 10
0.0
 20
0.0
 30
0.0
  3
SW_DOWELSYMBOL_0
  1
SW_DOWELSYMBOL_0
  0
CIRCLE
  5
127
330
124
100
AcDbEntity
  8
외형선
 62
     0
100
AcDbCircle
 10
0.0
 20
0.0
 30
0.0
 40
2.999999999999997
  0
HATCH
  5
128
330
124
100
AcDbEntity
  8
0
  6
Continuous
 62
     0
370
    30
100
AcDbHatch
 10
0.0
 20
0.0
 30
0.0
210
0.0
220
0.0
230
1.0
  2
SOLID
 70
     1
 71
     0
 91
        1
 92
        0
 93
        3
 72
     2
 10
0.0
 20
0.0
 40
2.999999999999997
 50
0.0
 51
90.0
 73
     1
 72
     1
 10
0.0
 20
2.999999999999997
 11
0.0
 21
0.0
 72
     1
 10
0.0
 20
0.0
 11
2.999999999999999
 21
0.0
 97
        0
 75
     0
 76
     1
 98
        1
 10
0.0
 20
0.0
  0
HATCH
  5
129
330
124
100
AcDbEntity
  8
0
  6
Continuous
 62
     0
370
    30
100
AcDbHatch
 10
0.0
 20
0.0
 30
0.0
210
0.0
220
0.0
230
1.0
  2
SOLID
 70
     1
 71
     0
 91
        1
 92
        0
 93
        3
 72
     2
 10
0.0
 20
0.0
 40
2.999999999999997
 50
180.0
 51
270.0000000000008
 73
     1
 72
     1
 10
0.0
 20
-2.999999999999997
 11
0.0
 21
0.0
 72
     1
 10
0.0
 20
0.0
 11
-2.999999999999999
 21
0.0
 97
        0
 75
     0
 76
     1
 98
        1
 10
0.0
 20
0.0
  0
ENDBLK
  5
126
330
124
100
AcDbEntity
  8
0
100
AcDbBlockEnd
  0
BLOCK
  5
154
330
153
100
AcDbEntity
  8
0
100
AcDbBlockBegin
  2
*D7
 70
     1
 10
0.0
 20
0.0
 30
0.0
  3
*D7
  1
*D7
  0
LINE
  5
156
330
153
100
AcDbEntity
  8
치수문자_일반주서
 62
     0
370
    -2
100
AcDbLine
 10
-31.1945
 20
-4.762499999999996
 30
0.0
 11
-52.07367800321059
 21
-4.762499999999994
 31
0.0
  0
LINE
  5
157
330
153
100
AcDbEntity
  8
치수문자_일반주서
 62
     0
370
    -2
100
AcDbLine
 10
-31.1945
 20
4.762500000000002
 30
0.0
 11
-52.07367800321059
 21
4.762500000000003
 31
0.0
  0
LINE
  5
158
330
153
100
AcDbEntity
  8
치수문자_일반주서
 62
     0
370
    -2
100
AcDbLine
 10
-52.07367800321059
 20
4.762500000000003
 30
0.0
 11
-52.07367800321059
 21
34.3145
 31
0.0
  0
LINE
  5
159
330
153
100
AcDbEntity
  8
치수문자_일반주서
 62
     0
370
    -2
100
AcDbLine
 10
-52.07367800321059
 20
-1.460499999999994
 30
0.0
 11
-52.07367800321059
 21
1.460500000000003
 31
0.0
  0
SOLID
  5
15A
330
153
100
AcDbEntity
  8
치수문자_일반주서
 62
     0
100
AcDbTrace
 10
-52.62401133654392
 20
-1.460499999999994
 30
0.0
 11
-51.52334466987725
 21
-1.460499999999994
 31
0.0
 12
-52.07367800321059
 22
-4.762499999999994
 32
0.0
 13
-52.07367800321059
 23
-4.762499999999994
 33
0.0
  0
SOLID
  5
15B
330
153
100
AcDbEntity
  8
치수문자_일반주서
 62
     0
100
AcDbTrace
 10
-51.52334466987725
 20
1.460500000000003
 30
0.0
 11
-52.62401133654392
 21
1.460500000000003
 31
0.0
 12
-52.07367800321059
 22
4.762500000000003
 32
0.0
 13
-52.07367800321059
 23
4.762500000000003
 33
0.0
  0
MTEXT
  5
15C
330
153
100
AcDbEntity
  8
치수문자_일반주서
 62
     0
100
AcDbMText
 10
-54.69867800321059
 20
21.1895
 30
0.0
 40
3.5
 41
0.0
 71
     5
 72
     1
  1
\A1;{%%c9.53 [3/8]}
  7
SLDTEXTSTYLE0
 11
0.0
 21
1.0
 31
0.0
 73
     1
 44
1.0
  0
POINT
  5
15D
330
153
100
AcDbEntity
  8
Defpoints
 62
     0
100
AcDbPoint
 10
-31.132
 20
-4.762499999999996
 30
0.0
  0
POINT
  5
15E
330
153
100
AcDbEntity
  8
Defpoints
 62
     0
100
AcDbPoint
 10
-31.132
 20
4.762500000000002
 30
0.0
  0
POINT
  5
15F
330
153
100
AcDbEntity
  8
Defpoints
 62
     0
100
AcDbPoint
 10
-52.07367800321059
 20
4.762500000000003
 30
0.0
  0
ENDBLK
  5
155
330
153
100
AcDbEntity
  8
0
100
AcDbBlockEnd
  0
BLOCK
  5
16F
330
16E
100
AcDbEntity
  8
0
100
AcDbBlockBegin
  2
*D8
 70
     1
 10
0.0
 20
0.0
 30
0.0
  3
*D8
  1
*D8
  0
LINE
  5
171
330
16E
100
AcDbEntity
  8
치수문자_일반주서
 62
     0
370
    -2
100
AcDbLine
 10
57.01434796390734
 20
-1.984375000000006
 30
0.0
 11
77.31071941271851
 21
-1.984375000000007
 31
0.0
  0
LINE
  5
172
330
16E
100
AcDbEntity
  8
치수문자_일반주서
 62
     0
370
    -2
100
AcDbLine
 10
57.02050000000001
 20
1.984374999999994
 30
0.0
 11
77.31071941271851
 21
1.984374999999993
 31
0.0
  0
LINE
  5
173
330
16E
100
AcDbEntity
  8
치수문자_일반주서
 62
     0
370
    -2
100
AcDbLine
 10
77.31071941271851
 20
5.286374999999992
 30
0.0
 11
77.31071941271851
 21
37.46337499999999
 31
0.0
  0
LINE
  5
174
330
16E
100
AcDbEntity
  8
치수문자_일반주서
 62
     0
370
    -2
100
AcDbLine
 10
77.31071941271851
 20
-5.286375000000007
 30
0.0
 11
77.31071941271851
 21
-8.588375000000006
 31
0.0
  0
SOLID
  5
175
330
16E
100
AcDbEntity
  8
치수문자_일반주서
 62
     0
100
AcDbTrace
 10
77.86105274605184
 20
-5.286375000000007
 30
0.0
 11
76.76038607938519
 21
-5.286375000000007
 31
0.0
 12
77.31071941271851
 22
-1.984375000000007
 32
0.0
 13
77.31071941271851
 23
-1.984375000000007
 33
0.0
  0
SOLID
  5
176
330
16E
100
AcDbEntity
  8
치수문자_일반주서
 62
     0
100
AcDbTrace
 10
76.76038607938519
 20
5.286374999999992
 30
0.0
 11
77.86105274605184
 21
5.286374999999992
 31
0.0
 12
77.31071941271851
 22
1.984374999999993
 32
0.0
 13
77.31071941271851
 23
1.984374999999993
 33
0.0
  0
MTEXT
  5
177
330
16E
100
AcDbEntity
  8
치수문자_일반주서
 62
     0
100
AcDbMText
 10
74.68571941271851
 20
23.02587499999999
 30
0.0
 40
3.5
 41
0.0
 71
     5
 72
     1
  1
\A1;{%%c3.97 [5/32]}
  7
SLDTEXTSTYLE0
 11
0.0
 21
1.0
 31
0.0
 73
     1
 44
1.0
  0
POINT
  5
178
330
16E
100
AcDbEntity
  8
Defpoints
 62
     0
100
AcDbPoint
 10
56.95184796390734
 20
-1.984375000000006
 30
0.0
  0
POINT
  5
179
330
16E
100
AcDbEntity
  8
Defpoints
 62
     0
100
AcDbPoint
 10
56.95800000000001
 20
1.984374999999994
 30
0.0
  0
POINT
  5
17A
330
16E
100
AcDbEntity
  8
Defpoints
 62
     0
100
AcDbPoint
 10
77.31071941271851
 20
1.984374999999993
 30
0.0
  0
ENDBLK
  5
170
330
16E
100
AcDbEntity
  8
0
100
AcDbBlockEnd
  0
ENDSEC
  0
SECTION
  2
ENTITIES
  0
LINE
  5
95
102
{ACAD_REACTORS
102
}
330
1F
100
AcDbEntity
  8
0
  6
Continuous
 62
     4
370
    15
100
AcDbLine
 10
11.13293687521491
 20
4.762500000000007
 30
0.0
 11
-31.132
 21
4.762500000000002
 31
0.0
  0
LINE
  5
96
330
1F
100
AcDbEntity
  8
0
  6
Continuous
 62
     4
370
    15
100
AcDbLine
 10
-31.132
 20
-4.762499999999995
 30
0.0
 11
11.13293687521491
 21
-4.76249999999999
 31
0.0
  0
LINE
  5
97
330
1F
100
AcDbEntity
  8
0
  6
Continuous
 62
     4
370
    15
100
AcDbLine
 10
-31.132
 20
4.762500000000001
 30
0.0
 11
-31.942
 21
3.952500000000013
 31
0.0
  0
LINE
  5
98
102
{ACAD_REACTORS
102
}
330
1F
100
AcDbEntity
  8
0
  6
Continuous
 62
     4
370
    15
100
AcDbLine
 10
-31.942
 20
-3.952500000000008
 30
0.0
 11
-31.132
 21
-4.762499999999996
 31
0.0
  0
LINE
  5
99
330
1F
100
AcDbEntity
  8
0
  6
Continuous
 62
     4
370
    15
100
AcDbLine
 10
11.13293687521491
 20
-4.762499999999987
 30
0.0
 11
11.492
 21
-4.363719999999991
 31
0.0
  0
LINE
  5
9A
330
1F
100
AcDbEntity
  8
0
  6
Continuous
 62
     4
370
    15
100
AcDbLine
 10
11.492
 20
4.363720000000009
 30
0.0
 11
11.13293687521491
 21
4.762500000000005
 31
0.0
  0
LINE
  5
9B
330
1F
100
AcDbEntity
  8
0
  6
Continuous
 62
     4
370
    15
100
AcDbLine
 10
12.21302724681246
 20
4.256493704159925
 30
0.0
 11
11.492
 21
4.363720000000009
 31
0.0
  0
LINE
  5
9C
330
1F
100
AcDbEntity
  8
0
  6
Continuous
 62
     4
370
    15
100
AcDbLine
 10
11.492
 20
-4.363719999999991
 30
0.0
 11
12.50799999999999
 21
-4.212627351206013
 31
0.0
  0
LINE
  5
9D
330
1F
100
AcDbEntity
  8
0
  6
Continuous
 62
     1
370
    15
100
AcDbLine
 10
48.76729274428653
 20
-2.312358340104264
 30
0.0
 11
51.1992131151007
 21
-2.184906794076702
 31
0.0
  0
LINE
  5
9E
330
1F
100
AcDbEntity
  8
0
  6
Continuous
 62
     1
370
    15
100
AcDbLine
 10
32.66694536672352
 20
-3.156141791847878
 30
0.0
 11
35.73364599803189
 21
-2.995422822035106
 31
0.0
  0
LINE
  5
9F
330
1F
100
AcDbEntity
  8
0
  6
Continuous
 62
     1
370
    15
100
AcDbLine
 10
16.38297996939412
 20
-4.009548256243798
 30
0.0
 11
20.09928833202816
 21
-3.814784787827154
 31
0.0
  0
LINE
  5
A0
330
1F
100
AcDbEntity
  8
0
  6
Continuous
 62
     1
370
    15
100
AcDbLine
 10
27.94771107708112
 20
3.403466380884435
 30
0.0
 11
24.54030839136743
 21
3.58204078876576
 31
0.0
  0
LINE
  5
A1
330
1F
100
AcDbEntity
  8
0
  6
Continuous
 62
     1
370
    15
100
AcDbLine
 10
43.47193103463339
 20
2.589876487807652
 30
0.0
 11
40.75051993727877
 21
2.732499599936232
 31
0.0
  0
LINE
  5
A2
330
1F
100
AcDbEntity
  8
0
  6
Continuous
 62
     1
370
    15
100
AcDbLine
 10
54.05267192765977
 20
-2.035363354434858
 30
0.0
 11
55.07747916316959
 21
-1.981655483028595
 31
0.0
  0
LINE
  5
A3
330
1F
100
AcDbEntity
  8
0
  6
Continuous
 62
     1
370
    15
100
AcDbLine
 10
38.06243871574158
 20
-2.873375967289423
 30
0.0
 11
40.89633364089932
 21
-2.724857827540425
 31
0.0
  0
LINE
  5
A4
330
1F
100
AcDbEntity
  8
0
  6
Continuous
 62
     1
370
    15
100
AcDbLine
 10
21.82405779617406
 20
-3.724393450436066
 30
0.0
 11
25.33889582092469
 21
-3.540188595019295
 31
0.0
  0
LINE
  5
A5
330
1F
100
AcDbEntity
  8
0
  6
Continuous
 62
     1
370
    15
100
AcDbLine
 10
17.47046768524579
 20
3.952555440058444
 30
0.0
 11
13.65819975918235
 21
4.152347936095395
 31
0.0
  0
LINE
  5
A6
330
1F
100
AcDbEntity
  8
0
  6
Continuous
 62
     1
370
    15
100
AcDbLine
 10
33.14486647535397
 20
3.131095007872085
 30
0.0
 11
29.9624652499852
 21
3.297877588881292
 31
0.0
  0
LINE
  5
A7
330
1F
100
AcDbEntity
  8
0
  6
Continuous
 62
     1
370
    15
100
AcDbLine
 10
48.61924504373875
 20
2.320117191317952
 30
0.0
 11
46.103337553823
 21
2.451970315746007
 31
0.0
  0
LINE
  5
A8
330
1F
100
AcDbEntity
  8
0
  6
Continuous
 62
     1
370
    15
100
AcDbLine
 10
43.43196670847823
 20
-2.591970929391969
 30
0.0
 11
46.04631293047557
 21
-2.454958849620079
 31
0.0
  0
LINE
  5
A9
330
1F
100
AcDbEntity
  8
0
  6
Continuous
 62
     1
370
    15
100
AcDbLine
 10
27.25310463964122
 20
-3.439869161746347
 30
0.0
 11
30.54973736102265
 21
-3.267099961706938
 31
0.0
  0
LINE
  5
AA
330
1F
100
AcDbEntity
  8
0
  6
Continuous
 62
     1
370
    15
100
AcDbLine
 10
12.50799999999998
 20
-4.212627351206013
 30
0.0
 11
14.83507670124571
 21
-4.09067042907242
 31
0.0
  0
LINE
  5
AB
330
1F
100
AcDbEntity
  8
0
  6
Continuous
 62
     1
370
    15
100
AcDbLine
 10
22.72271872988194
 20
3.677296626572029
 30
0.0
 11
19.10510287678413
 21
3.86688783973201
 31
0.0
  0
LINE
  5
AC
330
1F
100
AcDbEntity
  8
0
  6
Continuous
 62
     1
370
    15
100
AcDbLine
 10
38.31582646585409
 20
2.860096478008518
 30
0.0
 11
35.36594430342416
 21
3.014693251288126
 31
0.0
  0
LINE
  5
AD
330
1F
100
AcDbEntity
  8
0
  6
Continuous
 62
     1
370
    15
100
AcDbLine
 10
53.78574742192624
 20
2.049352275016595
 30
0.0
 11
51.41777079192047
 21
2.173452671589336
 31
0.0
  0
ARC
  5
AE
330
1F
100
AcDbEntity
  8
0
  6
Continuous
 62
     1
370
    15
100
AcDbCircle
 10
54.97362500000001
 20
0.0000000000000084
 30
0.0
 40
1.984374999999997
100
AcDbArc
 50
273.0000000000007
 51
288.9407102666347
  0
ARC
  5
AF
330
1F
100
AcDbEntity
  8
0
  6
Continuous
 62
     1
370
    15
100
AcDbCircle
 10
54.97362500000001
 20
0.0000000000000084
 30
0.0
 40
1.984374999999999
100
AcDbArc
 50
27.85617637447613
 51
44.32976583502155
  0
SPLINE
  5
B0
330
1F
100
AcDbEntity
  8
0
  6
Continuous
 62
     1
370
    15
100
AcDbSpline
210
0.0
220
0.0
230
1.0
 70
     8
 71
     3
 72
     9
 73
     5
 74
     0
 42
0.000000001
 43
0.00000001
 40
0.0
 40
0.0
 40
0.0
 40
0.0
 40
0.6386322296570218
 40
1.0
 40
1.0
 40
1.0
 40
1.0
 10
55.0774791631696
 20
1.717419520171002
 30
0.0
 10
54.80067575980458
 20
1.828234547968138
 30
0.0
 10
54.36724413748622
 20
2.001753864174038
 30
0.0
 10
53.93957459909191
 20
2.026642577353571
 30
0.0
 10
53.78502861155874
 20
2.035636556141965
 30
0.0
  0
SPLINE
  5
B1
330
1F
100
AcDbEntity
  8
0
  6
Continuous
 62
     1
370
    15
100
AcDbSpline
210
0.0
220
0.0
230
1.0
 70
     8
 71
     3
 72
    24
 73
    20
 74
     0
 42
0.000000001
 43
0.00000001
 40
0.0
 40
0.0
 40
0.0
 40
0.0
 40
0.0015825465447877
 40
0.0650572107510594
 40
0.1266405929058832
 40
0.1900108123624829
 40
0.2515564793979476
 40
0.3148849519223624
 40
0.3764438647636467
 40
0.4397834417936726
 40
0.5014039321689565
 40
0.5648047875622868
 40
0.6265224390381805
 40
0.6900212203391389
 40
0.751874460374134
 40
0.815511230089232
 40
0.8775278838767026
 40
0.9413311583269568
 40
0.9999999999999999
 40
0.9999999999999999
 40
0.9999999999999999
 40
0.9999999999999999
 10
47.39159286388249
 20
-2.033735943209748
 30
0.0
 10
47.38655262508004
 20
-2.036931327493543
 30
0.0
 10
47.17935247726324
 20
-2.168290995533767
 30
0.0
 10
46.7794710787776
 20
-2.323276969367607
 30
0.0
 10
46.18672355803209
 20
-2.468781012828674
 30
0.0
 10
45.60404010897502
 20
-2.461459444029866
 30
0.0
 10
45.01955235556603
 20
-2.316531964250403
 30
0.0
 10
44.44415332893961
 20
-2.039810873173969
 30
0.0
 10
43.86685549275655
 20
-1.642221710807937
 30
0.0
 10
43.29813161912755
 20
-1.151445737127452
 30
0.0
 10
42.72733281993924
 20
-0.5851285473560445
 30
0.0
 10
42.1646709711047
 20
0.0171963801928745
 30
0.0
 10
41.59977928726388
 20
0.6340784174026031
 30
0.0
 10
41.04265927194702
 20
1.222950462585206
 30
0.0
 10
40.48318291038619
 20
1.762746769256867
 30
0.0
 10
39.93112540825472
 20
2.217401182333779
 30
0.0
 10
39.37663637432548
 20
2.566920535898818
 30
0.0
 10
38.8393675567687
 20
2.797240844046561
 30
0.0
 10
38.48526480063978
 20
2.837281233542278
 30
0.0
 10
38.31563599701561
 20
2.856462116066479
 30
0.0
  0
SPLINE
  5
B2
330
1F
100
AcDbEntity
  8
0
  6
Continuous
 62
     1
370
    15
100
AcDbSpline
210
0.0
220
0.0
230
1.0
 70
     8
 71
     3
 72
    25
 73
    21
 74
     0
 42
0.000000001
 43
0.00000001
 40
0.0
 40
0.0
 40
0.0
 40
0.0
 40
0.0280422556188742
 40
0.0842703747437883
 40
0.1421120813550562
 40
0.1986340244002045
 40
0.256777711557932
 40
0.3135961635663557
 40
0.372044366655344
 40
0.4291749069070295
 40
0.4879438414010461
 40
0.5453893191415717
 40
0.604481941230862
 40
0.6622530505176859
 40
0.7216802616086783
 40
0.779784688820623
 40
0.8395547106997256
 40
0.8979946035549605
 40
0.9581093252215688
 40
0.9999999999999999
 40
0.9999999999999999
 40
0.9999999999999999
 40
0.9999999999999999
 10
31.58575716387121
 20
-2.919192218280788
 30
0.0
 10
31.49927763437989
 20
-2.972161194698666
 30
0.0
 10
31.23939617345365
 20
-3.131339384684396
 30
0.0
 10
30.80404674569089
 20
-3.255925405916968
 30
0.0
 10
30.28345842304196
 20
-3.287983419290495
 30
0.0
 10
29.75988905462457
 20
-3.166674861528295
 30
0.0
 10
29.24183037507085
 20
-2.906977817898816
 30
0.0
 10
28.72061438922118
 20
-2.512709325614703
 30
0.0
 10
28.20491223553169
 20
-2.006913527028737
 30
0.0
 10
27.68597904281145
 20
-1.402512556512382
 30
0.0
 10
27.17239453740206
 20
-0.7345127514249434
 30
0.0
 10
26.65560179486972
 20
-0.0205349110873673
 30
0.0
 10
26.14412494847503
 20
0.6979263169347976
 30
0.0
 10
25.62934000775286
 20
1.40160511411922
 30
0.0
 10
25.11975297477456
 20
2.049592419574037
 30
0.0
 10
24.60691783877893
 20
2.62389116478065
 30
0.0
 10
24.09917650496433
 20
3.092461860870245
 30
0.0
 10
23.58816810941025
 20
3.435591576724057
 30
0.0
 10
23.13020354836351
 20
3.636523821629579
 30
0.0
 10
22.84078759895027
 20
3.654796432424934
 30
0.0
 10
22.72193281444784
 20
3.662300466749172
 30
0.0
  0
SPLINE
  5
B3
330
1F
100
AcDbEntity
  8
0
  6
Continuous
 62
     1
370
    15
100
AcDbSpline
210
0.0
220
0.0
230
1.0
 70
     8
 71
     3
 72
    14
 73
    10
 74
     0
 42
0.000000001
 43
0.00000001
 40
0.0
 40
0.0
 40
0.0
 40
0.0
 40
0.0138187148061579
 40
0.1748264252812335
 40
0.3323316005223265
 40
0.4943485649895353
 40
0.6528230081861706
 40
0.815836568919041
 40
1.0
 40
1.0
 40
1.0
 40
1.0
 10
15.59834942636797
 20
-3.859688481567069
 30
0.0
 10
15.58389742445653
 20
-3.869209085037966
 30
0.0
 10
15.40105901525744
 20
-3.989658279820909
 30
0.0
 10
15.05546741734029
 20
-4.080131252463257
 30
0.0
 10
14.55720413127376
 20
-4.109699197531938
 30
0.0
 10
14.06373943452368
 20
-3.965685902080583
 30
0.0
 10
13.56675254828196
 20
-3.666874963321655
 30
0.0
 10
13.04911240390511
 20
-3.210666969977178
 30
0.0
 10
12.69555041515703
 20
-2.776711433546867
 30
0.0
 10
12.508
 20
-2.546515474684364
 30
0.0
  0
SPLINE
  5
B4
330
1F
100
AcDbEntity
  8
0
  6
Continuous
 62
     4
370
    15
100
AcDbSpline
210
0.0
220
0.0
230
1.0
 70
     8
 71
     3
 72
     8
 73
     4
 74
     0
 42
0.000000001
 43
0.00000001
 40
0.0
 40
0.0
 40
0.0
 40
0.0
 40
1.0
 40
1.0
 40
1.0
 40
1.0
 10
12.50799999999997
 20
-2.546515474684287
 30
0.0
 10
12.16280144903266
 20
-2.094894078824941
 30
0.0
 10
11.82618389839427
 20
-1.556348271400585
 30
0.0
 10
11.492
 20
-0.9706054512273731
 30
0.0
  0
SPLINE
  5
B5
330
1F
100
AcDbEntity
  8
0
  6
Continuous
 62
     4
370
    15
100
AcDbSpline
210
0.0
220
0.0
230
1.0
 70
     8
 71
     3
 72
    10
 73
     6
 74
     0
 42
0.000000001
 43
0.00000001
 40
0.0
 40
0.0
 40
0.0
 40
0.0
 40
0.5
 40
0.5
 40
1.0
 40
1.0
 40
1.0
 40
1.0
 10
11.492
 20
-0.9706054512273732
 30
0.0
 10
11.41795959626581
 20
-0.7810281193732705
 30
0.0
 10
11.35087546519492
 20
-0.5796728199782372
 30
0.0
 10
11.22986233794051
 20
-0.1528098147605275
 30
0.0
 10
11.17526312397121
 20
0.0745791778948796
 30
0.0
 10
11.13293687521491
 20
0.3092922034362631
 30
0.0
  0
SPLINE
  5
B6
330
1F
100
AcDbEntity
  8
0
  6
Continuous
 62
     4
370
    15
100
AcDbSpline
210
0.0
220
0.0
230
1.0
 70
     8
 71
     3
 72
     8
 73
     4
 74
     0
 42
0.000000001
 43
0.00000001
 40
0.0
 40
0.0
 40
0.0
 40
0.0
 40
1.0
 40
1.0
 40
1.0
 40
1.0
 10
11.13293687521491
 20
0.3092922034362895
 30
0.0
 10
10.96054856498256
 20
0.6070520590374355
 30
0.0
 10
10.78930338604892
 20
0.9020929085179747
 30
0.0
 10
10.61799999999999
 20
1.19159815512696
 30
0.0
  0
SPLINE
  5
B7
330
1F
100
AcDbEntity
  8
0
  6
Continuous
 62
     4
370
    15
100
AcDbSpline
210
0.0
220
0.0
230
1.0
 70
     8
 71
     3
 72
     8
 73
     4
 74
     0
 42
0.000000001
 43
0.00000001
 40
0.0
 40
0.0
 40
0.0
 40
0.0
 40
1.0
 40
1.0
 40
1.0
 40
1.0
 10
10.61799999999999
 20
2.23942658520477
 30
0.0
 10
10.79056761547516
 20
1.940054521147473
 30
0.0
 10
10.96146103207492
 20
1.625264629411529
 30
0.0
 10
11.13293687521491
 20
1.298365748192725
 30
0.0
  0
SPLINE
  5
B8
330
1F
100
AcDbEntity
  8
0
  6
Continuous
 62
     4
370
    15
100
AcDbSpline
210
0.0
220
0.0
230
1.0
 70
     8
 71
     3
 72
    12
 73
     8
 74
     0
 42
0.000000001
 43
0.00000001
 40
0.0
 40
0.0
 40
0.0
 40
0.0
 40
0.2499999999999999
 40
0.2499999999999999
 40
0.4999999999999999
 40
0.4999999999999999
 40
1.0
 40
1.0
 40
1.0
 40
1.0
 10
11.13293687521502
 20
1.298365748191046
 30
0.0
 10
11.15381496809716
 20
1.327647487421621
 30
0.0
 10
11.18077421818598
 20
1.346230791915742
 30
0.0
 10
11.24064126854978
 20
1.359366393896894
 30
0.0
 10
11.2730540357227
 20
1.354635848183685
 30
0.0
 10
11.368974541658
 20
1.322029966166572
 30
0.0
 10
11.43154252360855
 20
1.278195531549361
 30
0.0
 10
11.492
 20
1.22897884242182
 30
0.0
  0
SPLINE
  5
B9
330
1F
100
AcDbEntity
  8
0
  6
Continuous
 62
     4
370
    15
100
AcDbSpline
210
0.0
220
0.0
230
1.0
 70
     8
 71
     3
 72
     8
 73
     4
 74
     0
 42
0.000000001
 43
0.00000001
 40
0.0
 40
0.0
 40
0.0
 40
0.0
 40
1.0
 40
1.0
 40
1.0
 40
1.0
 10
11.492
 20
1.228978842421821
 30
0.0
 10
11.82844691701353
 20
0.7079395249840937
 30
0.0
 10
12.16551790474345
 20
0.1733305417523886
 30
0.0
 10
12.50799999999998
 20
-0.34512424765038
 30
0.0
  0
SPLINE
  5
BA
330
1F
100
AcDbEntity
  8
0
  6
Continuous
 62
     1
370
    15
100
AcDbSpline
210
0.0
220
0.0
230
1.0
 70
     8
 71
     3
 72
    15
 73
    11
 74
     0
 42
0.000000001
 43
0.00000001
 40
0.0
 40
0.0
 40
0.0
 40
0.0
 40
0.1467340547979235
 40
0.2795850441641638
 40
0.4162872800217822
 40
0.5490830615290292
 40
0.6857724544090634
 40
0.8177981806652121
 40
0.9536957249996737
 40
1.0
 40
1.0
 40
1.0
 40
1.0
 10
12.508
 20
-0.3451242476504047
 30
0.0
 10
12.69456506990388
 20
-0.6425118008904186
 30
0.0
 10
13.05004358087667
 20
-1.209149943078926
 30
0.0
 10
13.58233748756987
 20
-1.987824460401062
 30
0.0
 10
14.09909338756061
 20
-2.658403113942241
 30
0.0
 10
14.62312939212904
 20
-3.221902908357017
 30
0.0
 10
15.14364203490061
 20
-3.648997526123672
 30
0.0
 10
15.67068479182536
 20
-3.916892226195922
 30
0.0
 10
16.0814845186538
 20
-4.031237689110041
 30
0.0
 10
16.32113145723675
 20
-3.999561209094854
 30
0.0
 10
16.38203467866255
 20
-3.991511034584957
 30
0.0
  0
SPLINE
  5
BB
330
1F
100
AcDbEntity
  8
0
  6
Continuous
 62
     1
370
    15
100
AcDbSpline
210
0.0
220
0.0
230
1.0
 70
     8
 71
     3
 72
    25
 73
    21
 74
     0
 42
0.000000001
 43
0.00000001
 40
0.0
 40
0.0
 40
0.0
 40
0.0
 40
0.0048408739829104
 40
0.0660574532272767
 40
0.1290673244995028
 40
0.1899546329941297
 40
0.2526251090700316
 40
0.3131928277285039
 40
0.3755341169765578
 40
0.4357877359069747
 40
0.4978051957698822
 40
0.5577551702692585
 40
0.6194598166685417
 40
0.6791122616651041
 40
0.7405100158968155
 40
0.7998772067514236
 40
0.8609810683664109
 40
0.9200692907507743
 40
0.9808852126363908
 40
1.0
 40
1.0
 40
1.0
 40
1.0
 10
23.61588076755474
 20
3.397767369217448
 30
0.0
 10
23.629850317581
 20
3.405675287028175
 30
0.0
 10
23.82047558498589
 20
3.513584915072904
 30
0.0
 10
24.19537343930212
 20
3.584771543682657
 30
0.0
 10
24.73483482619802
 20
3.590236270788099
 30
0.0
 10
25.28147693128673
 20
3.422313878533138
 30
0.0
 10
25.82375770419679
 20
3.113260668990693
 30
0.0
 10
26.37298653464338
 20
2.666381559856811
 30
0.0
 10
26.91797426456251
 20
2.112652146863175
 30
0.0
 10
27.47000189361366
 20
1.466490848984266
 30
0.0
 10
28.0178298898429
 20
0.7701138861244543
 30
0.0
 10
28.57275023562095
 20
0.041792284016178
 30
0.0
 10
29.12351772609498
 20
-0.6712198441213933
 30
0.0
 10
29.68148952898071
 20
-1.350194826778026
 30
0.0
 10
30.23535790024878
 20
-1.951540958796863
 30
0.0
 10
30.7965200570526
 20
-2.458727191021812
 30
0.0
 10
31.35356914151873
 20
-2.842836618958828
 30
0.0
 10
31.91821467279282
 20
-3.080916088458535
 30
0.0
 10
32.35369511509391
 20
-3.179686772264506
 30
0.0
 10
32.60581583665963
 20
-3.14779884134989
 30
0.0
 10
32.66610848297735
 20
-3.140173098695739
 30
0.0
  0
SPLINE
  5
BC
330
1F
100
AcDbEntity
  8
0
  6
Continuous
 62
     1
370
    15
100
AcDbSpline
210
0.0
220
0.0
230
1.0
 70
     8
 71
     3
 72
    23
 73
    19
 74
     0
 42
0.000000001
 43
0.00000001
 40
0.0
 40
0.0
 40
0.0
 40
0.0
 40
0.0529244780635104
 40
0.1203243754029346
 40
0.1856236687058962
 40
0.2528252517544591
 40
0.3179502975692333
 40
0.3849711657199337
 40
0.4499456635649887
 40
0.5168101510402447
 40
0.5816588461562358
 40
0.6483924885659228
 40
0.7131392856689467
 40
0.779766355293892
 40
0.8444402354118032
 40
0.9109904848698861
 40
0.975621708280666
 40
1.0
 40
1.0
 40
1.0
 40
1.0
 10
39.50793442742997
 20
2.466330233810925
 30
0.0
 10
39.66429120527905
 20
2.534145416426681
 30
0.0
 10
40.01977003706135
 20
2.688323970276278
 30
0.0
 10
40.57225083955345
 20
2.757611729906955
 30
0.0
 10
41.1701482055984
 20
2.698480123797674
 30
0.0
 10
41.76487364372479
 20
2.492926195588438
 30
0.0
 10
42.36809465460906
 20
2.154497423663461
 30
0.0
 10
42.96818135356354
 20
1.707598787692854
 30
0.0
 10
43.57696823589539
 20
1.170079299709978
 30
0.0
 10
44.18276613492448
 20
0.582315454588966
 30
0.0
 10
44.79744807508891
 20
-0.0326074425700331
 30
0.0
 10
45.40929195768695
 20
-0.6282489541952425
 30
0.0
 10
46.03020131908391
 20
-1.181120771011578
 30
0.0
 10
46.64845818975338
 20
-1.648505392545064
 30
0.0
 10
47.27592855036765
 20
-2.014841527403112
 30
0.0
 10
47.90117794657111
 20
-2.240388274039141
 30
0.0
 10
48.39991560679873
 20
-2.335777330153392
 30
0.0
 10
48.68759997460813
 20
-2.303903686356934
 30
0.0
 10
48.76639215127933
 20
-2.295174001833966
 30
0.0
  0
SPLINE
  5
BD
330
1F
100
AcDbEntity
  8
0
  6
Continuous
 62
     1
370
    15
100
AcDbSpline
210
0.0
220
0.0
230
1.0
 70
     8
 71
     3
 72
    11
 73
     7
 74
     0
 42
0.000000001
 43
0.00000001
 40
0.0
 40
0.0
 40
0.0
 40
0.0
 40
0.2489980534858437
 40
0.6103660142253505
 40
0.9589639572899419
 40
1.0
 40
1.0
 40
1.0
 40
1.0
 10
55.2374132644647
 20
1.631726043729124
 30
0.0
 10
55.35526117704893
 20
1.668303635719047
 30
0.0
 10
55.64414038586936
 20
1.757965858858153
 30
0.0
 10
56.07411753437552
 20
1.650646737690051
 30
0.0
 10
56.35705959132583
 20
1.440726614288661
 30
0.0
 10
56.46631557775102
 20
1.303667055172827
 30
0.0
 10
56.47782235972838
 20
1.289232015810137
 30
0.0
  0
SPLINE
  5
BE
330
1F
100
AcDbEntity
  8
0
  6
Continuous
 62
     1
370
    15
100
AcDbSpline
210
0.0
220
0.0
230
1.0
 70
     8
 71
     3
 72
    13
 73
     9
 74
     0
 42
0.000000001
 43
0.00000001
 40
0.0
 40
0.0
 40
0.0
 40
0.0
 40
0.1930817247649485
 40
0.414149197845709
 40
0.5945526909445935
 40
0.7761262932746692
 40
0.9301995433984255
 40
1.0
 40
1.0
 40
1.0
 40
1.0
 10
55.33571305247331
 20
1.386933897285758
 30
0.0
 10
55.3975713018
 20
1.306723326168813
 30
0.0
 10
55.53025368989226
 20
1.134676263054637
 30
0.0
 10
55.78997053599495
 20
1.004137028917594
 30
0.0
 10
56.05119434986311
 20
0.9628648995019811
 30
0.0
 10
56.27229248080223
 20
1.032778500301242
 30
0.0
 10
56.40921463063385
 20
1.164402081822931
 30
0.0
 10
56.46151567900802
 20
1.259562444979858
 30
0.0
 10
56.47782235972839
 20
1.289232015810141
 30
0.0
  0
SPLINE
  5
BF
330
1F
100
AcDbEntity
  8
0
  6
Continuous
 62
     1
370
    15
100
AcDbSpline
210
0.0
220
0.0
230
1.0
 70
     8
 71
     3
 72
     8
 73
     4
 74
     0
 42
0.000000001
 43
0.00000001
 40
0.0
 40
0.0
 40
0.0
 40
0.0
 40
1.0
 40
1.0
 40
1.0
 40
1.0
 10
55.36031926140912
 20
1.565872407334909
 30
0.0
 10
55.26623722121629
 20
1.624328470511807
 30
0.0
 10
55.17249473797476
 20
1.675249253209484
 30
0.0
 10
55.0774791631696
 20
1.717419520171
 30
0.0
  0
LINE
  5
C0
330
1F
100
AcDbEntity
  8
0
  6
Continuous
 62
     4
370
    15
100
AcDbLine
 10
10.61799999999999
 20
1.191598155126961
 30
0.0
 11
10.61799999999999
 21
2.23942658520477
 31
0.0
  0
LINE
  5
C1
330
1F
100
AcDbEntity
  8
0
  6
Continuous
 62
     4
370
    15
100
AcDbLine
 10
11.13293687521491
 20
0.3092922034362601
 30
0.0
 11
11.13293687521491
 21
-4.76249999999999
 31
0.0
  0
LINE
  5
C2
330
1F
100
AcDbEntity
  8
0
  6
Continuous
 62
     4
370
    15
100
AcDbLine
 10
11.13293687521491
 20
4.762500000000007
 30
0.0
 11
11.13293687521502
 21
1.298365748191046
 31
0.0
  0
LINE
  5
C3
330
1F
100
AcDbEntity
  8
0
  6
Continuous
 62
     4
370
    15
100
AcDbLine
 10
-31.132
 20
4.762500000000002
 30
0.0
 11
-31.132
 21
-4.762499999999995
 31
0.0
  0
LINE
  5
C4
330
1F
100
AcDbEntity
  8
0
  6
Continuous
 62
     4
370
    15
100
AcDbLine
 10
-31.942
 20
-3.952500000000008
 30
0.0
 11
-31.942
 21
3.952500000000013
 31
0.0
  0
LINE
  5
C5
330
1F
100
AcDbEntity
  8
0
  6
Continuous
 62
     4
370
    15
100
AcDbLine
 10
11.492
 20
-0.9706054512273736
 30
0.0
 11
11.492
 21
-4.363719999999991
 31
0.0
  0
LINE
  5
C6
330
1F
100
AcDbEntity
  8
0
  6
Continuous
 62
     4
370
    15
100
AcDbLine
 10
11.492
 20
4.363720000000009
 30
0.0
 11
11.492
 21
1.228978842421821
 31
0.0
  0
LINE
  5
C7
330
1F
100
AcDbEntity
  8
0
  6
Continuous
 62
     4
370
    15
100
AcDbLine
 10
12.50799999999997
 20
4.179477980715307
 30
0.0
 11
12.20945714420326
 21
4.232487081204481
 31
0.0
  0
LINE
  5
C8
330
1F
100
AcDbEntity
  8
0
  6
Continuous
 62
     4
370
    15
100
AcDbLine
 10
12.508
 20
4.179477980715284
 30
0.0
 11
12.50799999999998
 21
-0.3451242476503814
 31
0.0
  0
SPLINE
  5
C9
330
1F
100
AcDbEntity
  8
0
  6
Continuous
 62
     1
370
    15
100
AcDbSpline
210
0.0
220
0.0
230
1.0
 70
     8
 71
     3
 72
    23
 73
    19
 74
     0
 42
0.000000001
 43
0.00000001
 40
0.0
 40
0.0
 40
0.0
 40
0.0
 40
0.0309344023561132
 40
0.0989098581238774
 40
0.1644521302868966
 40
0.2319147622169243
 40
0.2970837629148773
 40
0.364156322784039
 40
0.4290583634569073
 40
0.495851235354317
 40
0.560573860507808
 40
0.6271778824829682
 40
0.6917973805084384
 40
0.7582918085142665
 40
0.8228717320312293
 40
0.889322354943744
 40
0.9539161772966133
 40
1.0
 40
1.0
 40
1.0
 40
1.0
 10
52.61171211760807
 20
-1.76001513361247
 30
0.0
 10
52.51248041676324
 20
-1.813184743551376
 30
0.0
 10
52.19519633482221
 20
-1.983189598179507
 30
0.0
 10
51.67244639079878
 20
-2.139372141234923
 30
0.0
 10
51.03726195253581
 20
-2.213829627109667
 30
0.0
 10
50.41537188669629
 20
-2.138121578592016
 30
0.0
 10
49.79302654415693
 20
-1.923104971591006
 30
0.0
 10
49.18267439192427
 20
-1.584196884798288
 30
0.0
 10
48.57151402189553
 20
-1.136311929631397
 30
0.0
 10
47.97141132751725
 20
-0.6147006723613404
 30
0.0
 10
47.37016325363076
 20
-0.0409433634832531
 30
0.0
 10
46.77919867313265
 20
0.5407074719524122
 30
0.0
 10
46.18679659535618
 20
1.106908041824398
 30
0.0
 10
45.60402639095336
 20
1.614416640427587
 30
0.0
 10
45.01953636713169
 20
2.044830282713922
 30
0.0
 10
44.44423322648691
 20
2.359525901058174
 30
0.0
 10
43.92616217296987
 20
2.548652336734424
 30
0.0
 10
43.6049025367482
 20
2.567058463342359
 30
0.0
 10
43.47113684169869
 20
2.574722383864204
 30
0.0
  0
SPLINE
  5
CA
330
1F
100
AcDbEntity
  8
0
  6
Continuous
 62
     1
370
    15
100
AcDbSpline
210
0.0
220
0.0
230
1.0
 70
     8
 71
     3
 72
    25
 73
    21
 74
     0
 42
0.000000001
 43
0.00000001
 40
0.0
 40
0.0
 40
0.0
 40
0.0
 40
0.0241438020063679
 40
0.0815112491416671
 40
0.1405283606825645
 40
0.198131033186547
 40
0.2573891667414611
 40
0.3152448646318514
 40
0.3747627298817746
 40
0.4328836698565217
 40
0.4926735795412934
 40
0.5510769107169216
 40
0.611156944243908
 40
0.669849355389402
 40
0.7302260722104585
 40
0.7892251846043523
 40
0.8499171167779154
 40
0.909225733139783
 40
0.9702355271681632
 40
0.9999999999999999
 40
0.9999999999999999
 40
0.9999999999999999
 40
0.9999999999999999
 10
36.87262656545385
 20
-2.612921801140484
 30
0.0
 10
36.79747111209181
 20
-2.659944446646138
 30
0.0
 10
36.54374078073254
 20
-2.818696352087572
 30
0.0
 10
36.10946591409412
 20
-2.95940518527139
 30
0.0
 10
35.57388902487606
 20
-3.022724466432337
 30
0.0
 10
35.03563000662925
 20
-2.935410525907621
 30
0.0
 10
34.50358655241435
 20
-2.711460260597472
 30
0.0
 10
33.96866001556219
 20
-2.354101947454054
 30
0.0
 10
33.43982642864861
 20
-1.885415900610723
 30
0.0
 10
32.90799887109836
 20
-1.31848554078282
 30
0.0
 10
32.38212349559902
 20
-0.6877127379707033
 30
0.0
 10
31.85323497417977
 20
-0.0111975572725843
 30
0.0
 10
31.33014298224496
 20
0.6698879061096223
 30
0.0
 10
30.80395692493369
 20
1.335753390617292
 30
0.0
 10
30.28348071211186
 20
1.946075467176868
 30
0.0
 10
29.75988816471906
 20
2.482317945666648
 30
0.0
 10
29.24181057978822
 20
2.914148721393714
 30
0.0
 10
28.72069306879931
 20
3.219074010421519
 30
0.0
 10
28.29027349894423
 20
3.381402721337472
 30
0.0
 10
28.03159602940462
 20
3.384593944207324
 30
0.0
 10
27.94677685343511
 20
3.385640331798164
 30
0.0
  0
SPLINE
  5
CB
330
1F
100
AcDbEntity
  8
0
  6
Continuous
 62
     1
370
    15
100
AcDbSpline
210
0.0
220
0.0
230
1.0
 70
     8
 71
     3
 72
    24
 73
    20
 74
     0
 42
0.000000001
 43
0.00000001
 40
0.0
 40
0.0
 40
0.0
 40
0.0
 40
0.0433573518287448
 40
0.1019508398288631
 40
0.1592584419819522
 40
0.2182079950084319
 40
0.2758620024147759
 40
0.3351676293554789
 40
0.3931792637015115
 40
0.4528527703634692
 40
0.5112189261800411
 40
0.5712570286341775
 40
0.6299849408588587
 40
0.6903950078597801
 40
0.749490924205844
 40
0.8102796631418286
 40
0.8697392486684762
 40
0.9309019103625938
 40
1.0
 40
1.0
 40
1.0
 40
1.0
 10
20.93589617780584
 20
-3.549937245682772
 30
0.0
 10
20.80952247627979
 20
-3.615866972782413
 30
0.0
 10
20.51236629723655
 20
-3.770894684669557
 30
0.0
 10
20.05075528592788
 20
-3.839458373198526
 30
0.0
 10
19.54608663169208
 20
-3.77715754398838
 30
0.0
 10
19.04630777592277
 20
-3.558505289872361
 30
0.0
 10
18.54305556668631
 20
-3.193565054219311
 30
0.0
 10
18.0446707989566
 20
-2.699829661652152
 30
0.0
 10
17.54281942695481
 20
-2.088607813391555
 30
0.0
 10
17.045671367349
 20
-1.392706658595197
 30
0.0
 10
16.5451227495937
 20
-0.6280086692193975
 30
0.0
 10
16.04931610797001
 20
0.1639364782474776
 30
0.0
 10
15.54997583653349
 20
0.9646601091250232
 30
0.0
 10
15.05533068594961
 20
1.730525034851258
 30
0.0
 10
14.55724161025961
 20
2.443163627238767
 30
0.0
 10
14.06372953514133
 20
3.064313719082564
 30
0.0
 10
13.56675523660491
 20
3.574964507771079
 30
0.0
 10
13.04911162022676
 20
3.981595892960529
 30
0.0
 10
12.69555014353288
 20
4.110891736077924
 30
0.0
 10
12.508
 20
4.179477980715281
 30
0.0
  0
SPLINE
  5
CC
330
1F
100
AcDbEntity
  8
0
  6
Continuous
 62
     1
370
    15
100
AcDbSpline
210
0.0
220
0.0
230
1.0
 70
     8
 71
     3
 72
    25
 73
    21
 74
     0
 42
0.000000001
 43
0.00000001
 40
0.0
 40
0.0
 40
0.0
 40
0.0
 40
0.0182836205350016
 40
0.0775569114741672
 40
0.1385484888547878
 40
0.1977971480504951
 40
0.2587829953605268
 40
0.3176880838447528
 40
0.3783206370660812
 40
0.4368784897159543
 40
0.4971530523472326
 40
0.5553748833423575
 40
0.6153038436189436
 40
0.6731872456653388
 40
0.7327672591407072
 40
0.7903237526755007
 40
0.8495674412557919
 40
0.9067962116498033
 40
0.96570203927206
 40
1.0
 40
1.0
 40
1.0
 40
1.0
 10
12.91178523011915
 20
4.001710616422656
 30
0.0
 10
12.96391631160972
 20
4.028425852378605
 30
0.0
 10
13.18505006706456
 20
4.14174865877138
 30
0.0
 10
13.58242232969028
 20
4.174062131932136
 30
0.0
 10
14.09907302396914
 20
4.09892054657365
 30
0.0
 10
14.62312808740914
 20
3.847029553416008
 30
0.0
 10
15.1436686959374
 20
3.449862717290336
 30
0.0
 10
15.67058259898625
 20
2.912827465927742
 30
0.0
 10
16.19292358616761
 20
2.270371174868086
 30
0.0
 10
16.72166699144764
 20
1.536448010694248
 30
0.0
 10
17.24592662800541
 20
0.7561117125732497
 30
0.0
 10
17.776621835037
 20
-0.0538033320410224
 30
0.0
 10
18.30280485699895
 20
-0.8439750315942582
 30
0.0
 10
18.83550181339216
 20
-1.597423218481144
 30
0.0
 10
19.36374426950274
 20
-2.268735322336463
 30
0.0
 10
19.89852738780516
 20
-2.843233186735267
 30
0.0
 10
20.42883597186813
 20
-3.28881565812915
 30
0.0
 10
20.96588825732974
 20
-3.587752246912857
 30
0.0
 10
21.42854912675522
 20
-3.733472861883919
 30
0.0
 10
21.71696055853431
 20
-3.713375292870649
 30
0.0
 10
21.82309276770462
 20
-3.705979610302959
 30
0.0
  0
SPLINE
  5
CD
330
1F
100
AcDbEntity
  8
0
  6
Continuous
 62
     1
370
    15
100
AcDbSpline
210
0.0
220
0.0
230
1.0
 70
     8
 71
     3
 72
    24
 73
    20
 74
     0
 42
0.000000001
 43
0.00000001
 40
0.0
 40
0.0
 40
0.0
 40
0.0
 40
0.0223554978014631
 40
0.0845929542717358
 40
0.1486513521561635
 40
0.2105911931264545
 40
0.2743429626917677
 40
0.3359917462204994
 40
0.3994430983197089
 40
0.4608160333730246
 40
0.5239831365128347
 40
0.5850872944769862
 40
0.6479767807942497
 40
0.7088293033490674
 40
0.7714593516329019
 40
0.8320692810331425
 40
0.8944486499308303
 40
0.9548332404798209
 40
1.0
 40
1.0
 40
1.0
 40
1.0
 10
28.93497564670348
 20
3.074767526702796
 30
0.0
 10
29.00002286448249
 20
3.1087935756427
 30
0.0
 10
29.24616081085931
 20
3.237547765219852
 30
0.0
 10
29.68161382873738
 20
3.312839835680351
 30
0.0
 10
30.23532787198928
 20
3.291802092251501
 30
0.0
 10
30.79651953333099
 20
3.108363391304605
 30
0.0
 10
31.35360269124789
 20
2.788189597320904
 30
0.0
 10
31.91808485179352
 20
2.33794326696363
 30
0.0
 10
32.47858086676152
 20
1.789319139844188
 30
0.0
 10
33.0465646742934
 20
1.15840336885165
 30
0.0
 10
33.61061219711567
 20
0.4879973554174899
 30
0.0
 10
34.18224332980078
 20
-0.2020851443050657
 30
0.0
 10
34.75003058450621
 20
-0.8652027019678963
 30
0.0
 10
35.32552597483866
 20
-1.481903380328673
 30
0.0
 10
35.89725144231939
 20
-2.010169940975936
 30
0.0
 10
36.47674980702288
 20
-2.436247453269779
 30
0.0
 10
37.05267716829132
 20
-2.725123253284842
 30
0.0
 10
37.58255465674296
 20
-2.877857174415511
 30
0.0
 10
37.91807298578094
 20
-2.864119550236591
 30
0.0
 10
38.06164552817231
 20
-2.858241046861114
 30
0.0
  0
SPLINE
  5
CE
330
1F
100
AcDbEntity
  8
0
  6
Continuous
 62
     1
370
    15
100
AcDbSpline
210
0.0
220
0.0
230
1.0
 70
     8
 71
     3
 72
    23
 73
    19
 74
     0
 42
0.000000001
 43
0.00000001
 40
0.0
 40
0.0
 40
0.0
 40
0.0
 40
0.0045946015467822
 40
0.0744459171502517
 40
0.1422175656838663
 40
0.2119573296178481
 40
0.2796526546187412
 40
0.349312009488773
 40
0.4169626849395323
 40
0.4865742063787202
 40
0.5542125138715274
 40
0.6238091271805947
 40
0.6914719735078346
 40
0.7610915726126924
 40
0.8288173693283568
 40
0.8984993565710855
 40
0.9663286359066967
 40
0.9999999999999999
 40
0.9999999999999999
 40
0.9999999999999999
 40
0.9999999999999999
 10
44.75142281249448
 20
2.173051160724977
 30
0.0
 10
44.7650180430274
 20
2.180520261655262
 30
0.0
 10
44.98530034511332
 20
2.301541434738766
 30
0.0
 10
45.4095326894054
 20
2.412657183482016
 30
0.0
 10
46.03013833237173
 20
2.481512425633198
 30
0.0
 10
46.64846390741447
 20
2.39045739678194
 30
0.0
 10
47.27596613896037
 20
2.161605218036787
 30
0.0
 10
47.90101797618262
 20
1.80921619794487
 30
0.0
 10
48.53556456205381
 20
1.350772567258451
 30
0.0
 10
49.16783204741171
 20
0.8229928777031744
 30
0.0
 10
49.80982875902141
 20
0.2504019399884529
 30
0.0
 10
50.4497627533362
 20
-0.3204861603011126
 30
0.0
 10
51.09967389475182
 20
-0.8628285520306571
 30
0.0
 10
51.74777518606978
 20
-1.33149533702146
 30
0.0
 10
52.40606075213893
 20
-1.706437674023623
 30
0.0
 10
53.06299450247915
 20
-1.946915713470105
 30
0.0
 10
53.61347956467912
 20
-2.055435166225874
 30
0.0
 10
53.94254124056404
 20
-2.026475723456153
 30
0.0
 10
54.05170267169953
 20
-2.016868848972432
 30
0.0
  0
LINE
  5
CF
330
1F
100
AcDbEntity
  8
0
  6
Continuous
 62
     4
370
    15
100
AcDbLine
 10
12.508
 20
-2.546515474684364
 30
0.0
 11
12.50799999999999
 21
-4.212627351206013
 31
0.0
  0
SPLINE
  5
D0
330
1F
100
AcDbEntity
  8
0
  6
Continuous
 62
     1
370
    15
100
AcDbSpline
210
0.0
220
0.0
230
1.0
 70
     8
 71
     3
 72
    17
 73
    13
 74
     0
 42
0.000000001
 43
0.00000001
 40
0.0
 40
0.0
 40
0.0
 40
0.0
 40
0.1241676487916112
 40
0.2214820828090284
 40
0.3216035669262765
 40
0.419051281261544
 40
0.519363796283421
 40
0.6160856216343706
 40
0.7156413539565866
 40
0.8118123363742487
 40
0.9107924328434452
 40
1.0
 40
1.0
 40
1.0
 40
1.0
 10
55.07747916316959
 20
-1.714905697861836
 30
0.0
 10
54.80084950054786
 20
-1.596868180538292
 30
0.0
 10
54.30741570808676
 20
-1.386320622934934
 30
0.0
 10
53.59937333551161
 20
-0.9057988106878991
 30
0.0
 10
52.95418245955705
 20
-0.3998576276265874
 30
0.0
 10
52.30736761559285
 20
0.1550188188976586
 30
0.0
 10
51.67228966729822
 20
0.7068478689575549
 30
0.0
 10
51.03730833653459
 20
1.228106417277936
 30
0.0
 10
50.41534584678627
 20
1.67525688311646
 30
0.0
 10
49.79308394632151
 20
2.024038492352718
 30
0.0
 10
49.19625505066453
 20
2.255247672471391
 30
0.0
 10
48.80465257083307
 20
2.296332686454664
 30
0.0
 10
48.6190192309787
 20
2.315808427177657
 30
0.0
  0
SPLINE
  5
D1
330
1F
100
AcDbEntity
  8
0
  6
Continuous
 62
     1
370
    15
100
AcDbSpline
210
0.0
220
0.0
230
1.0
 70
     8
 71
     3
 72
    24
 73
    20
 74
     0
 42
0.000000001
 43
0.00000001
 40
0.0
 40
0.0
 40
0.0
 40
0.0
 40
0.0579671847002193
 40
0.1186259668674154
 40
0.1777128050200319
 40
0.2385034040344713
 40
0.2977463472179471
 40
0.3586960040009411
 40
0.418123164534195
 40
0.4792612580498977
 40
0.5388944370576592
 40
0.6002432486605863
 40
0.6601044085669049
 40
0.7216869423482428
 40
0.781793552664366
 40
0.8436275854759456
 40
0.9039982199708047
 40
0.9661032747870948
 40
1.0
 40
1.0
 40
1.0
 40
1.0
 10
42.15087020819353
 20
-2.318772901951592
 30
0.0
 10
41.96890784483329
 20
-2.413152453913136
 30
0.0
 10
41.59653403715711
 20
-2.606293895262268
 30
0.0
 10
41.04270197607778
 20
-2.734048531765149
 30
0.0
 10
40.48316860429002
 20
-2.732143516195873
 30
0.0
 10
39.93113921774514
 20
-2.588025025443499
 30
0.0
 10
39.37659598437304
 20
-2.30865009948031
 30
0.0
 10
38.82920757206016
 20
-1.911016596898232
 30
0.0
 10
38.27923344306003
 20
-1.407762761960367
 30
0.0
 10
37.73615120025691
 20
-0.8313072256441115
 30
0.0
 10
37.19036578127968
 20
-0.1999723262504808
 30
0.0
 10
36.65123762887858
 20
0.4455859281045482
 30
0.0
 10
36.10935124843238
 20
1.084830757193992
 30
0.0
 10
35.573917850498
 20
1.676812446191821
 30
0.0
 10
35.03562726475639
 20
2.202041594934665
 30
0.0
 10
34.5035674950617
 20
2.628973235364477
 30
0.0
 10
33.96873750013606
 20
2.935358582617417
 30
0.0
 10
33.51683560920578
 20
3.10371110309118
 30
0.0
 10
33.24126759617861
 20
3.111290908296925
 30
0.0
 10
33.14396884596578
 20
3.113967218821046
 30
0.0
  0
SPLINE
  5
D2
330
1F
100
AcDbEntity
  8
0
  6
Continuous
 62
     1
370
    15
100
AcDbSpline
210
0.0
220
0.0
230
1.0
 70
     8
 71
     3
 72
    26
 73
    22
 74
     0
 42
0.000000001
 43
0.00000001
 40
0.0
 40
0.0
 40
0.0
 40
0.0
 40
0.0144702913968572
 40
0.0698914947140254
 40
0.1269014359996316
 40
0.1826423991539472
 40
0.2399812070066267
 40
0.2960439903553652
 40
0.3537134769373014
 40
0.4101105141431395
 40
0.4681237820533976
 40
0.5248531524399881
 40
0.5832080679348999
 40
0.6402801394988632
 40
0.6989873730481133
 40
0.7564062245037924
 40
0.815470214296352
 40
0.8732361434700445
 40
0.9326568984110293
 40
0.9907811487734479
 40
1.0
 40
1.0
 40
1.0
 40
1.0
 10
26.2734497743371
 20
-3.235058791813628
 30
0.0
 10
26.22917109010799
 20
-3.263798469370576
 30
0.0
 10
26.01530508424336
 20
-3.40261108668183
 30
0.0
 10
25.62946449034584
 20
-3.518491413666086
 30
0.0
 10
25.11972097683633
 20
-3.565000599117079
 30
0.0
 10
24.60692335055185
 20
-3.450431149393292
 30
0.0
 10
24.09918755700731
 20
-3.19382925420622
 30
0.0
 10
23.58811930424589
 20
-2.797071722620276
 30
0.0
 10
23.08216067579449
 20
-2.282743997740166
 30
0.0
 10
22.57284734404901
 20
-1.662834732485734
 30
0.0
 10
22.06849735852157
 20
-0.9719368852916616
 30
0.0
 10
21.56080578558345
 20
-0.2269354887320719
 30
0.0
 10
21.05810900356385
 20
0.5304321802854937
 30
0.0
 10
20.55197055292671
 20
1.281328222951102
 30
0.0
 10
20.05071027064544
 20
1.98338242667717
 30
0.0
 10
19.54609675561105
 20
2.619274488898165
 30
0.0
 10
19.04631360416907
 20
3.151500197971606
 30
0.0
 10
18.54302283730664
 20
3.571301432293531
 30
0.0
 10
18.0447989917118
 20
3.835728278566128
 30
0.0
 10
17.68563109511686
 20
3.958542939496323
 30
0.0
 10
17.4958955752431
 20
3.944117248588826
 30
0.0
 10
17.46992196415544
 20
3.942142461339969
 30
0.0
  0
SPLINE
  5
D3
330
1F
100
AcDbEntity
  8
0
  6
Continuous
 62
     1
370
    15
100
AcDbSpline
210
0.0
220
0.0
230
1.0
 70
     8
 71
     3
 72
    25
 73
    21
 74
     0
 42
0.000000001
 43
0.00000001
 40
0.0
 40
0.0
 40
0.0
 40
0.0
 40
0.0056568240065571
 40
0.0659145448881995
 40
0.1279384704903198
 40
0.1878558734025702
 40
0.2495296784012596
 40
0.3091059152996695
 40
0.3704280006242159
 40
0.4296739382432054
 40
0.4906560569933539
 40
0.5495733105142234
 40
0.610216632685015
 40
0.668814868839047
 40
0.7291296946986596
 40
0.7874127436045635
 40
0.8474026908102357
 40
0.9053798193115277
 40
0.9650546596014727
 40
1.0
 40
1.0
 40
1.0
 40
1.0
 10
18.26061583909945
 20
3.70077689029281
 30
0.0
 10
18.27685460270535
 20
3.709914503078154
 30
0.0
 10
18.46607221163037
 20
3.816387956629527
 30
0.0
 10
18.83567058545151
 20
3.87719613036088
 30
0.0
 10
19.36370158431584
 20
3.863300908301145
 30
0.0
 10
19.89853426921987
 20
3.67167266296695
 30
0.0
 10
20.42885244489702
 20
3.335986138041847
 30
0.0
 10
20.96581787878855
 20
2.859403111397487
 30
0.0
 10
21.49836853575155
 20
2.273865999376274
 30
0.0
 10
22.0375684454383
 20
1.593120922780115
 30
0.0
 10
22.57239153247318
 20
0.8602348901201488
 30
0.0
 10
23.11396715900359
 20
0.0926106195632341
 30
0.0
 10
23.65118855668705
 20
-0.6616443240867775
 30
0.0
 10
24.19519051486214
 20
-1.384797167254249
 30
0.0
 10
24.73488112334508
 20
-2.031859745062397
 30
0.0
 10
25.28146940080278
 20
-2.587209334536809
 30
0.0
 10
25.82374010541085
 20
-3.018812506239839
 30
0.0
 10
26.3730619359193
 20
-3.308554935231068
 30
0.0
 10
26.84707456213042
 20
-3.449598475891759
 30
0.0
 10
27.14290973540385
 20
-3.429444999354315
 30
0.0
 10
27.25216825464018
 20
-3.422001871549122
 30
0.0
  0
SPLINE
  5
D4
330
1F
100
AcDbEntity
  8
0
  6
Continuous
 62
     1
370
    15
100
AcDbSpline
210
0.0
220
0.0
230
1.0
 70
     8
 71
     3
 72
    23
 73
    19
 74
     0
 42
0.000000001
 43
0.00000001
 40
0.0
 40
0.0
 40
0.0
 40
0.0
 40
0.0605322877705219
 40
0.1240060975138094
 40
0.1893340017991223
 40
0.2525547684294509
 40
0.3176211950472032
 40
0.3806069161153839
 40
0.4454306460713888
 40
0.508195758714464
 40
0.5727915133072002
 40
0.6353523786823219
 40
0.6997366965532349
 40
0.7621143947801541
 40
0.8263092712595338
 40
0.8885205181102553
 40
0.9525427651660421
 40
1.0
 40
1.0
 40
1.0
 40
1.0
 10
34.22207044398737
 20
2.77170767052183
 30
0.0
 10
34.40011706457609
 20
2.844658993267936
 30
0.0
 10
34.76486235023969
 20
2.99410665459721
 30
0.0
 10
35.32557417186743
 20
3.039467040000678
 30
0.0
 10
35.89723400861975
 20
2.94791085009584
 30
0.0
 10
36.4767720697646
 20
2.70693479467642
 30
0.0
 10
37.05260429328499
 20
2.338357257756647
 30
0.0
 10
37.63639438737218
 20
1.853780862322674
 30
0.0
 10
38.21658810888994
 20
1.288061552215048
 30
0.0
 10
38.80485550045021
 20
0.6602229496652611
 30
0.0
 10
39.38961587781975
 20
0.0148546170889634
 30
0.0
 10
39.98259518485216
 20
-0.6261615898835208
 30
0.0
 10
40.57218999046803
 20
-1.217436394385334
 30
0.0
 10
41.17016957109322
 20
-1.738405217490059
 30
0.0
 10
41.76484988530255
 20
-2.153726114512707
 30
0.0
 10
42.36816692540631
 20
-2.443400213903947
 30
0.0
 10
42.92137645373374
 20
-2.596430943062916
 30
0.0
 10
43.27904071061005
 20
-2.584376043907167
 30
0.0
 10
43.43129973031989
 20
-2.579244227985204
 30
0.0
  0
SPLINE
  5
D5
330
1F
100
AcDbEntity
  8
0
  6
Continuous
 62
     1
370
    15
100
AcDbSpline
210
0.0
220
0.0
230
1.0
 70
     8
 71
     3
 72
    15
 73
    11
 74
     0
 42
0.000000001
 43
0.00000001
 40
0.0
 40
0.0
 40
0.0
 40
0.0
 40
0.0917655469375673
 40
0.2194404042668049
 40
0.3508075114092175
 40
0.4786011515313318
 40
0.6100859805408284
 40
0.7380748848212648
 40
0.8697559328629204
 40
1.0
 40
1.0
 40
1.0
 40
1.0
 10
50.00081370294853
 20
1.890813715749139
 30
0.0
 10
50.15252989241716
 20
1.954971903973713
 30
0.0
 10
50.51533121668178
 20
2.108394394558383
 30
0.0
 10
51.09976808165334
 20
2.194492619511597
 30
0.0
 10
51.7477401376324
 20
2.161799279619335
 30
0.0
 10
52.406107810706
 20
1.980662567513681
 30
0.0
 10
53.06283839531444
 20
1.673465665118412
 30
0.0
 10
53.73018199552839
 20
1.255489063361484
 30
0.0
 10
54.3992905421112
 20
0.7616841717453335
 30
0.0
 10
54.85224462594562
 20
0.4019667549533663
 30
0.0
 10
55.07747916317083
 20
0.2230947924420236
 30
0.0
  0
SPLINE
  5
D6
330
1F
100
AcDbEntity
  8
0
  6
Continuous
 62
     1
370
    15
100
AcDbSpline
210
0.0
220
0.0
230
1.0
 70
     8
 71
     3
 72
    14
 73
    10
 74
     0
 42
0.000000001
 43
0.00000001
 40
0.0
 40
0.0
 40
0.0
 40
0.0
 40
0.25
 40
0.25
 40
0.5
 40
0.5
 40
0.75
 40
0.75
 40
1.0
 40
1.0
 40
1.0
 40
1.0
 10
55.0774791631696
 20
0.2230947924429973
 30
0.0
 10
55.21059134035061
 20
0.1174731083475847
 30
0.0
 10
55.34067384402275
 20
0.0128780251423525
 30
0.0
 10
55.60032245404152
 20
-0.1872311009290893
 30
0.0
 10
55.7294993789732
 20
-0.2821732898150966
 30
0.0
 10
55.97378308447202
 20
-0.4482876931766884
 30
0.0
 10
56.09251342663498
 20
-0.5216890131470371
 30
0.0
 10
56.30514888377778
 20
-0.6448334805243395
 30
0.0
 10
56.40090348807027
 20
-0.6953561854369453
 30
0.0
 10
56.47782235972071
 20
-0.7434160067161057
 30
0.0
  0
SPLINE
  5
D7
330
1F
100
AcDbEntity
  8
0
  6
Continuous
 62
     1
370
    15
100
AcDbSpline
210
0.0
220
0.0
230
1.0
 70
     8
 71
     3
 72
    18
 73
    14
 74
     0
 42
0.000000001
 43
0.00000001
 40
0.0
 40
0.0
 40
0.0
 40
0.0
 40
0.2500000000000001
 40
0.2500000000000001
 40
0.5000000000000002
 40
0.5000000000000002
 40
0.6250000000000001
 40
0.6250000000000001
 40
0.7500000000000001
 40
0.7500000000000001
 40
0.875
 40
0.875
 40
1.0
 40
1.0
 40
1.0
 40
1.0
 10
55.19073291144389
 20
-1.628870932588465
 30
0.0
 10
55.26948593498724
 20
-1.534887236614855
 30
0.0
 10
55.36220646616692
 20
-1.437834335642135
 30
0.0
 10
55.57659204372406
 20
-1.239742136227776
 30
0.0
 10
55.697366881603
 20
-1.139804609956974
 30
0.0
 10
55.88804013759987
 20
-1.002415759102876
 30
0.0
 10
55.95166862922476
 20
-0.9597656570064086
 30
0.0
 10
56.07909110111434
 20
-0.8818256458313585
 30
0.0
 10
56.14158656629507
 20
-0.847455166358658
 30
0.0
 10
56.25779859949113
 20
-0.7922906133062942
 30
0.0
 10
56.31282951546335
 20
-0.7710409193980363
 30
0.0
 10
56.40641027510691
 20
-0.7455341705773765
 30
0.0
 10
56.44646027856266
 20
-0.7407925028763597
 30
0.0
 10
56.47782235972835
 20
-0.7434160067209009
 30
0.0
  0
SPLINE
  5
D8
330
1F
100
AcDbEntity
  8
0
  6
Continuous
 62
     1
370
    15
100
AcDbSpline
210
0.0
220
0.0
230
1.0
 70
     8
 71
     3
 72
     8
 73
     4
 74
     0
 42
0.000000001
 43
0.00000001
 40
0.0
 40
0.0
 40
0.0
 40
0.0
 40
1.0
 40
1.0
 40
1.0
 40
1.0
 10
55.19073291144388
 20
-1.628870932588461
 30
0.0
 10
55.24765953170191
 20
-1.680577089480012
 30
0.0
 10
55.30416412461023
 20
-1.732298074843025
 30
0.0
 10
55.36031926140908
 20
-1.784031338794019
 30
0.0
  0
SPLINE
  5
D9
330
1F
100
AcDbEntity
  8
0
  6
Continuous
 62
     1
370
    15
100
AcDbSpline
210
0.0
220
0.0
230
1.0
 70
     8
 71
     3
 72
     8
 73
     4
 74
     0
 42
0.000000001
 43
0.00000001
 40
0.0
 40
0.0
 40
0.0
 40
0.0
 40
1.0
 40
1.0
 40
1.0
 40
1.0
 10
55.3603192614088
 20
-1.78403133879398
 30
0.0
 10
55.26623722121607
 20
-1.771939307939803
 30
0.0
 10
55.17249473797466
 20
-1.74861784314722
 30
0.0
 10
55.0774791631696
 20
-1.714905697861839
 30
0.0
  0
LINE
  5
DA
330
1F
100
AcDbEntity
  8
0
  6
Continuous
 62
     1
370
    15
100
AcDbLine
 10
55.07747916316959
 20
1.717419520170999
 30
0.0
 11
55.07747916317022
 21
0.2230947924412354
 31
0.0
  0
ARC
  5
DB
330
1F
100
AcDbEntity
  8
0
  6
Continuous
 62
     1
370
    15
100
AcDbCircle
 10
54.43561740619435
 20
1.491532949124196
 30
0.0
 40
0.9276852246773204
100
AcDbArc
 50
339.0356220593031
 51
4.596288571855012
  0
LINE
  5
DC
330
1F
100
AcDbEntity
  8
0
  6
Continuous
 62
     1
370
    15
100
AcDbLine
 10
55.30189269970708
 20
1.159618815749244
 30
0.0
 11
56.958
 21
0.0000000000000163
 31
0.0
  0
ARC
  5
DD
330
1F
100
AcDbEntity
  8
0
  6
Continuous
 62
     1
370
    15
100
AcDbCircle
 10
55.58681166596381
 20
0.3588771476006182
 30
0.0
 40
1.417374422820908
100
AcDbArc
 50
308.949462188656
 51
345.3331330828466
  0
ARC
  5
DE
330
1F
100
AcDbEntity
  8
0
  6
Continuous
 62
     1
370
    15
100
AcDbCircle
 10
55.00097981326417
 20
0.0051406908076461
 30
0.0
 40
1.957026938494597
100
AcDbArc
 50
359.8494960800047
 51
41.00644496495691
  0
ARC
  5
DF
330
1F
100
AcDbEntity
  8
0
  6
Continuous
 62
     1
370
    15
100
AcDbCircle
 10
55.22546498715314
 20
-1.826227035580683
 30
0.0
 40
0.141301635207835
100
AcDbArc
 50
302.7437977521764
 51
17.37482199927375
  0
ARC
  5
E0
330
1F
100
AcDbEntity
  8
0
  6
Continuous
 62
     1
370
    15
100
AcDbCircle
 10
54.93916395605067
 20
0.0413372490377092
 30
0.0
 40
2.01925920587402
100
AcDbArc
 50
280.3484748239678
 51
358.8269879567853
  0
LINE
  5
E1
330
1F
100
AcDbEntity
  8
0
  6
Continuous
 62
     8
370
    15
100
AcDbLine
 10
55.07747916316959
 20
-1.714905697861842
 30
0.0
 11
55.07747916316959
 21
-1.981655483028595
 31
0.0
  0
LINE
  5
E2
330
1F
100
AcDbEntity
  8
중심선
100
AcDbLine
 10
-34.94200000000001
 20
-0.0000000000000052
 30
0.0
 11
61.07747916316958
 21
-0.0000000000000056
 31
0.0
  0
CIRCLE
  5
E3
330
1F
100
AcDbEntity
  8
외형선
100
AcDbCircle
 10
0.0
 20
0.0
 30
0.0
 40
3.0
  0
INSERT
  5
E4
330
1F
100
AcDbEntity
  8
0
  6
Continuous
 62
     7
100
AcDbBlockReference
 66
     1
  2
블럭10
 10
-1.432773799681436
 20
-52.05975325537357
 30
0.0
  0
ATTRIB
  5
E5
330
E4
100
AcDbEntity
  8
FORMAT
 62
     2
100
AcDbText
 10
-10.61406908842272
 20
-49.98438634254138
 30
0.0
 40
4.233333333333333
  1
E5078312 [ 3 FLUTE ]
 41
0.75
  7
SLDTEXTSTYLE0
 11
-10.61406908842272
 21
-52.10105300920804
 31
0.0
100
AcDbAttribute
  2
AUTOATTR0
 70
     0
 74
     1
  0
SEQEND
  5
E6
330
E4
100
AcDbEntity
  8
0
  6
Continuous
 62
     7
  0
HATCH
  5
E7
330
1F
100
AcDbEntity
  8
중심선
100
AcDbHatch
 10
0.0
 20
0.0
 30
0.0
210
0.0
220
0.0
230
1.0
  2
SOLID
 70
     1
 71
     0
 91
        1
 92
        0
 93
        4
 72
     1
 10
4.282135504699413
 20
-35.81257895372963
 11
0.8358602608621313
 21
-35.81257895372963
 72
     1
 10
0.8358602608621313
 20
-35.81257895372963
 11
-1.292369598341891
 21
-38.34890453430223
 72
     1
 10
-1.292369598341891
 20
-38.34890453430223
 11
2.15393873060854
 21
-38.34886510499974
 72
     1
 10
2.15393873060854
 20
-38.34886510499974
 11
4.282135504699413
 21
-35.81257895372963
 97
        0
 75
     0
 76
     1
 98
        1
 10
0.0
 20
0.0
  0
HATCH
  5
E8
330
1F
100
AcDbEntity
  8
중심선
100
AcDbHatch
 10
0.0
 20
0.0
 30
0.0
210
0.0
220
0.0
230
1.0
  2
SOLID
 70
     1
 71
     0
 91
        1
 92
        0
 93
        4
 72
     1
 10
9.294899495735365
 20
-35.81257895372963
 11
5.848624251898082
 21
-35.81257895372963
 72
     1
 10
5.848624251898082
 20
-35.81257895372963
 11
1.317486243540694
 21
-41.21257895372965
 72
     1
 10
1.317486243540694
 20
-41.21257895372965
 11
4.763761487377977
 21
-41.21257895372965
 72
     1
 10
4.763761487377977
 20
-41.21257895372965
 11
9.294899495735365
 21
-35.81257895372963
 97
        0
 75
     0
 76
     1
 98
        1
 10
0.0
 20
0.0
  0
HATCH
  5
E9
330
1F
100
AcDbEntity
  8
중심선
100
AcDbHatch
 10
0.0
 20
0.0
 30
0.0
210
0.0
220
0.0
230
1.0
  2
SOLID
 70
     1
 71
     0
 91
        1
 92
        0
 93
        4
 72
     1
 10
14.30766348677126
 20
-35.81257895372966
 11
10.86138824293414
 21
-35.81257895372963
 72
     1
 10
10.86138824293414
 20
-35.81257895372963
 11
3.812951341044895
 21
-44.21257895372965
 72
     1
 10
3.812951341044895
 20
-44.21257895372965
 11
7.259226584882178
 21
-44.21257895372965
 72
     1
 10
7.259226584882178
 20
-44.21257895372965
 11
14.30766348677126
 21
-35.81257895372966
 97
        0
 75
     0
 76
     1
 98
        1
 10
0.0
 20
0.0
  0
HATCH
  5
EA
330
1F
100
AcDbEntity
  8
중심선
100
AcDbHatch
 10
0.0
 20
0.0
 30
0.0
210
0.0
220
0.0
230
1.0
  2
SOLID
 70
     1
 71
     0
 91
        1
 92
        0
 93
        6
 72
     3
 10
19.10755391778346
 20
-40.01257895378091
 11
3.960054785062284
 21
1.540850780301639E-10
 40
0.3939339440162633
 50
17.09539180608434
 51
320.0019657685079
 73
     0
 72
     1
 10
20.79055357348405
 20
-38.60047295836794
 11
23.09585544718509
 21
-36.66614624832001
 72
     3
 10
19.10755391773061
 20
-40.01257895372979
 11
6.600054785286829
 21
-1.249000902703301E-13
 40
0.6363583540795982
 50
39.99873849337412
 51
368.4976242363725
 73
     1
 72
     1
 10
25.53288640963122
 20
-39.05257895365965
 11
17.78762122456654
 21
-39.05257895365963
 72
     1
 10
17.78762122456654
 20
-39.05257895365963
 11
17.7875961801206
 21
-40.97257895365955
 72
     1
 10
17.7875961801206
 20
-40.97257895365955
 11
22.22897594959264
 21
-40.97257895365952
 97
        0
 75
     0
 76
     1
 98
        1
 10
0.0
 20
0.0
  0
DIMENSION
  5
EB
330
1F
100
AcDbEntity
  8
치수문자_일반주서
100
AcDbDimension
  2
_D
 10
12.50799999999997
 20
34.62180332619884
 30
0.0
 11
34.34206692949721
 21
34.62180332619884
 31
0.0
 70
   160
  1
<>
 71
     2
 42
44.45000000000004
  3
SLDDIMSTYLE0
100
AcDbAlignedDimension
 13
56.95800000000001
 23
1.984374999999994
 33
0.0
 14
12.50799999999997
 24
4.179477980715307
 34
0.0
100
AcDbRotatedDimension
1001
ACAD
1000
DSTYLE
1002
{
1070
   171
1070
     6
1070
   273
1070
     7
1002
}
  0
DIMENSION
  5
FF
102
{ACAD_REACTORS
102
}
330
1F
100
AcDbEntity
  8
치수문자_일반주서
100
AcDbDimension
  2
_D_1
 10
-31.94200000000001
 20
48.11180350528705
 30
0.0
 11
14.49598349195362
 21
48.11180350528705
 31
0.0
 70
   160
  1
<>
 71
     2
 42
88.9
  3
SLDDIMSTYLE1
100
AcDbAlignedDimension
 13
56.95800000000001
 23
1.984374999999994
 33
0.0
 14
-31.942
 24
3.952500000000013
 34
0.0
100
AcDbRotatedDimension
1001
ACAD
1000
DSTYLE
1002
{
1070
   171
1070
     6
1070
   273
1070
     7
1002
}
  0
INSERT
  5
12A
330
1F
100
AcDbEntity
  8
외형선
100
AcDbBlockReference
  2
SW_DOWELSYMBOL_0
 10
0.0
 20
0.0
 30
0.0
  0
DIMENSION
  5
150
102
{ACAD_REACTORS
102
}
102
{ACAD_XDICTIONARY
360
151
102
}
330
1F
100
AcDbEntity
  8
치수문자_일반주서
100
AcDbDimension
  2
*D7
 10
-52.07367800321059
 20
4.762500000000003
 30
0.0
 11
-54.69867800321059
 21
21.1895
 31
0.0
 70
    32
  1
{%%c<>[]}
 71
     5
 42
9.524999999999999
  3
SLDDIMSTYLE0
100
AcDbAlignedDimension
 13
-31.132
 23
-4.762499999999996
 33
0.0
 14
-31.132
 24
4.762500000000002
 34
0.0
 50
90.0
100
AcDbRotatedDimension
1001
ACAD
1000
DSTYLE
1002
{
1070
   283
1070
     1
1070
   170
1070
     1
1070
   171
1070
     6
1070
   273
1070
     7
1002
}
  0
DIMENSION
  5
16B
102
{ACAD_XDICTIONARY
360
16C
102
}
330
1F
100
AcDbEntity
  8
치수문자_일반주서
100
AcDbDimension
  2
*D8
 10
77.31071941271851
 20
1.984374999999993
 30
0.0
 11
74.68571941271851
 21
23.02587499999999
 31
0.0
 70
    32
  1
{%%c<>[]}
 71
     5
 42
3.96875
  3
SLDDIMSTYLE0
100
AcDbAlignedDimension
 13
56.95184796390734
 23
-1.984375000000006
 33
0.0
 14
56.95800000000001
 24
1.984374999999994
 34
0.0
 50
90.0
100
AcDbRotatedDimension
1001
ACAD
1000
DSTYLE
1002
{
1070
   283
1070
     1
1070
   170
1070
     1
1070
   171
1070
     6
1070
   273
1070
     7
1002
}
  0
ENDSEC
  0
SECTION
  2
OBJECTS
  0
DICTIONARY
  5
C
330
0
100
AcDbDictionary
281
     1
  3
ACAD_DETAILVIEWSTYLE
350
167
  3
ACAD_GROUP
350
D
  3
ACAD_IMAGE_VARS
350
14E
  3
ACAD_LAYOUT
350
1A
  3
ACAD_MLINESTYLE
350
17
  3
ACAD_PLOTSETTINGS
350
19
  3
ACAD_PLOTSTYLENAME
350
E
  3
ACAD_SCALELIST
350
47
  3
ACAD_SECTIONVIEWSTYLE
350
168
  3
AcDbVariableDictionary
350
162
  3
APPDATA
350
14C
  3
DWGPROPS
350
17E
  0
DICTIONARY
  5
151
330
150
100
AcDbDictionary
280
     1
281
     1
  0
DICTIONARY
  5
16C
330
16B
100
AcDbDictionary
280
     1
281
     1
  0
DICTIONARY
  5
167
102
{ACAD_REACTORS
330
C
102
}
330
C
100
AcDbDictionary
281
     1
  0
DICTIONARY
  5
D
102
{ACAD_REACTORS
330
C
102
}
330
C
100
AcDbDictionary
281
     1
  0
RASTERVARIABLES
  5
14E
102
{ACAD_REACTORS
330
C
102
}
330
C
100
AcDbRasterVariables
 90
        0
 70
     1
 71
     1
 72
     1
  0
DICTIONARY
  5
1A
102
{ACAD_REACTORS
330
C
102
}
330
C
100
AcDbDictionary
281
     1
  3
Layout1
350
1E
  3
Layout2
350
26
  3
Model
350
22
  0
DICTIONARY
  5
17
102
{ACAD_REACTORS
330
C
102
}
330
C
100
AcDbDictionary
281
     1
  3
Standard
350
18
  0
DICTIONARY
  5
19
102
{ACAD_REACTORS
330
C
102
}
330
C
100
AcDbDictionary
281
     1
  0
ACDBDICTIONARYWDFLT
  5
E
102
{ACAD_REACTORS
330
C
102
}
330
C
100
AcDbDictionary
281
     1
  3
Normal
350
F
100
AcDbDictionaryWithDefault
340
F
  0
DICTIONARY
  5
47
102
{ACAD_REACTORS
330
C
102
}
330
C
100
AcDbDictionary
281
     1
  3
A0
350
48
  3
A1
350
49
  3
A2
350
4A
  3
A3
350
4B
  3
A4
350
4C
  3
A5
350
4D
  3
A6
350
4E
  3
A7
350
4F
  3
A8
350
50
  3
A9
350
51
  3
B0
350
52
  3
B1
350
53
  3
B2
350
54
  3
B3
350
55
  3
B4
350
56
  3
B5
350
57
  3
B6
350
58
  3
B7
350
59
  3
B8
350
5A
  3
B9
350
5B
  3
C0
350
5C
  3
C1
350
5D
  3
C2
350
5E
  3
C3
350
5F
  3
C4
350
60
  3
C5
350
61
  3
C6
350
62
  3
C7
350
63
  3
C8
350
64
  3
C9
350
65
  3
D0
350
66
  3
D1
350
67
  3
D2
350
68
  0
DICTIONARY
  5
168
102
{ACAD_REACTORS
330
C
102
}
330
C
100
AcDbDictionary
281
     1
  0
DICTIONARY
  5
162
102
{ACAD_REACTORS
330
C
102
}
330
C
100
AcDbDictionary
281
     1
  0
DICTIONARY
  5
14C
102
{ACAD_REACTORS
330
C
102
}
330
C
100
AcDbDictionary
281
     1
  0
XRECORD
  5
17E
102
{ACAD_REACTORS
330
C
102
}
330
C
100
AcDbXrecord
280
     1
  1
DWGPROPS COOKIE
  2

  3

  4

  6

  7

  8
12015048
  9

300
=
301
=
302
=
303
=
304
=
305
=
306
=
307
=
308
=
309
=
 40
0.0
 41
2458340.218602442
 42
2458341.219041065
  1

 90
        0
  0
LAYOUT
  5
1E
102
{ACAD_REACTORS
330
1A
102
}
330
1A
100
AcDbPlotSettings
  1

  2
none_device
  4

  6

 40
0.0
 41
0.0
 42
0.0
 43
0.0
 44
0.0
 45
0.0
 46
0.0
 47
0.0
 48
0.0
 49
0.0
140
0.0
141
0.0
142
1.0
143
1.0
 70
   688
 72
     1
 73
     0
 74
     5
  7

 75
    16
147
1.0
148
0.0
149
0.0
100
AcDbLayout
  1
Layout1
 70
     1
 71
     1
 10
0.0
 20
0.0
 11
420.0
 21
297.0
 12
0.0
 22
0.0
 32
0.0
 14
1.000000000000000E+20
 24
1.000000000000000E+20
 34
1.000000000000000E+20
 15
-1.000000000000000E+20
 25
-1.000000000000000E+20
 35
-1.000000000000000E+20
146
0.0
 13
0.0
 23
0.0
 33
0.0
 16
1.0
 26
0.0
 36
0.0
 17
0.0
 27
1.0
 37
0.0
 76
     0
330
1B
  0
LAYOUT
  5
26
102
{ACAD_REACTORS
330
1A
102
}
330
1A
100
AcDbPlotSettings
  1

  2
none_device
  4

  6

 40
0.0
 41
0.0
 42
0.0
 43
0.0
 44
0.0
 45
0.0
 46
0.0
 47
0.0
 48
0.0
 49
0.0
140
0.0
141
0.0
142
1.0
143
1.0
 70
   688
 72
     1
 73
     0
 74
     5
  7

 75
    16
147
1.0
148
0.0
149
0.0
100
AcDbLayout
  1
Layout2
 70
     1
 71
     2
 10
0.0
 20
0.0
 11
0.0
 21
0.0
 12
0.0
 22
0.0
 32
0.0
 14
0.0
 24
0.0
 34
0.0
 15
0.0
 25
0.0
 35
0.0
146
0.0
 13
0.0
 23
0.0
 33
0.0
 16
1.0
 26
0.0
 36
0.0
 17
0.0
 27
1.0
 37
0.0
 76
     0
330
23
  0
LAYOUT
  5
22
102
{ACAD_REACTORS
330
1A
102
}
330
1A
100
AcDbPlotSettings
  1

  2
none_device
  4
ANSI_A_(11.00_x_8.50_Inches)
  6

 40
6.35
 41
19.05
 42
6.35000508
 43
19.05000254
 44
279.4
 45
215.9
 46
127.1359587449277
 47
100.0349995745547
 48
0.0
 49
0.0
140
0.0
141
0.0
142
0.0915836148719576
143
1.0
 70
  1696
 72
     0
 73
     0
 74
     0
  7

 75
     0
147
0.0235690232323232
148
0.0
149
0.0
100
AcDbLayout
  1
Model
 70
     1
 71
     0
 10
0.0
 20
0.0
 11
420.0
 21
297.0
 12
0.0
 22
0.0
 32
0.0
 14
-56.44867800321059
 24
-49.98438634254138
 34
0.0
 15
77.86105274605184
 25
52.48680350528706
 35
0.0
146
0.0
 13
0.0
 23
0.0
 33
0.0
 16
1.0
 26
0.0
 36
0.0
 17
0.0
 27
1.0
 37
0.0
 76
     0
330
1F
331
29
  0
MLINESTYLE
  5
18
102
{ACAD_REACTORS
330
17
102
}
330
17
100
AcDbMlineStyle
  2
Standard
 70
     0
  3

 62
   256
 51
90.0
 52
90.0
 71
     2
 49
0.5
 62
   256
  6
BYLAYER
 49
-0.5
 62
   256
  6
BYLAYER
  0
ACDBPLACEHOLDER
  5
F
102
{ACAD_REACTORS
330
E
102
}
330
E
  0
SCALE
  5
48
102
{ACAD_REACTORS
330
47
102
}
330
47
100
AcDbScale
 70
     0
300
1:1
140
1.0
141
1.0
290
     1
  0
SCALE
  5
49
102
{ACAD_REACTORS
330
47
102
}
330
47
100
AcDbScale
 70
     0
300
1:2
140
1.0
141
2.0
290
     0
  0
SCALE
  5
4A
102
{ACAD_REACTORS
330
47
102
}
330
47
100
AcDbScale
 70
     0
300
1:4
140
1.0
141
4.0
290
     0
  0
SCALE
  5
4B
102
{ACAD_REACTORS
330
47
102
}
330
47
100
AcDbScale
 70
     0
300
1:5
140
1.0
141
5.0
290
     0
  0
SCALE
  5
4C
102
{ACAD_REACTORS
330
47
102
}
330
47
100
AcDbScale
 70
     0
300
1:8
140
1.0
141
8.0
290
     0
  0
SCALE
  5
4D
102
{ACAD_REACTORS
330
47
102
}
330
47
100
AcDbScale
 70
     0
300
1:10
140
1.0
141
10.0
290
     0
  0
SCALE
  5
4E
102
{ACAD_REACTORS
330
47
102
}
330
47
100
AcDbScale
 70
     0
300
1:16
140
1.0
141
16.0
290
     0
  0
SCALE
  5
4F
102
{ACAD_REACTORS
330
47
102
}
330
47
100
AcDbScale
 70
     0
300
1:20
140
1.0
141
20.0
290
     0
  0
SCALE
  5
50
102
{ACAD_REACTORS
330
47
102
}
330
47
100
AcDbScale
 70
     0
300
1:30
140
1.0
141
30.0
290
     0
  0
SCALE
  5
51
102
{ACAD_REACTORS
330
47
102
}
330
47
100
AcDbScale
 70
     0
300
1:40
140
1.0
141
40.0
290
     0
  0
SCALE
  5
52
102
{ACAD_REACTORS
330
47
102
}
330
47
100
AcDbScale
 70
     0
300
1:50
140
1.0
141
50.0
290
     0
  0
SCALE
  5
53
102
{ACAD_REACTORS
330
47
102
}
330
47
100
AcDbScale
 70
     0
300
1:100
140
1.0
141
100.0
290
     0
  0
SCALE
  5
54
102
{ACAD_REACTORS
330
47
102
}
330
47
100
AcDbScale
 70
     0
300
2:1
140
2.0
141
1.0
290
     0
  0
SCALE
  5
55
102
{ACAD_REACTORS
330
47
102
}
330
47
100
AcDbScale
 70
     0
300
4:1
140
4.0
141
1.0
290
     0
  0
SCALE
  5
56
102
{ACAD_REACTORS
330
47
102
}
330
47
100
AcDbScale
 70
     0
300
8:1
140
8.0
141
1.0
290
     0
  0
SCALE
  5
57
102
{ACAD_REACTORS
330
47
102
}
330
47
100
AcDbScale
 70
     0
300
10:1
140
10.0
141
1.0
290
     0
  0
SCALE
  5
58
102
{ACAD_REACTORS
330
47
102
}
330
47
100
AcDbScale
 70
     0
300
100:1
140
100.0
141
1.0
290
     0
  0
SCALE
  5
59
102
{ACAD_REACTORS
330
47
102
}
330
47
100
AcDbScale
 70
     0
300
1/128" = 1'-0"
140
0.0078125
141
12.0
290
     0
  0
SCALE
  5
5A
102
{ACAD_REACTORS
330
47
102
}
330
47
100
AcDbScale
 70
     0
300
1/64" = 1'-0"
140
0.015625
141
12.0
290
     0
  0
SCALE
  5
5B
102
{ACAD_REACTORS
330
47
102
}
330
47
100
AcDbScale
 70
     0
300
1/32" = 1'-0"
140
0.03125
141
12.0
290
     0
  0
SCALE
  5
5C
102
{ACAD_REACTORS
330
47
102
}
330
47
100
AcDbScale
 70
     0
300
1/16" = 1'-0"
140
0.0625
141
12.0
290
     0
  0
SCALE
  5
5D
102
{ACAD_REACTORS
330
47
102
}
330
47
100
AcDbScale
 70
     0
300
3/32" = 1'-0"
140
0.09375
141
12.0
290
     0
  0
SCALE
  5
5E
102
{ACAD_REACTORS
330
47
102
}
330
47
100
AcDbScale
 70
     0
300
1/8" = 1'-0"
140
0.125
141
12.0
290
     0
  0
SCALE
  5
5F
102
{ACAD_REACTORS
330
47
102
}
330
47
100
AcDbScale
 70
     0
300
3/16" = 1'-0"
140
0.1875
141
12.0
290
     0
  0
SCALE
  5
60
102
{ACAD_REACTORS
330
47
102
}
330
47
100
AcDbScale
 70
     0
300
1/4" = 1'-0"
140
0.25
141
12.0
290
     0
  0
SCALE
  5
61
102
{ACAD_REACTORS
330
47
102
}
330
47
100
AcDbScale
 70
     0
300
3/8" = 1'-0"
140
0.375
141
12.0
290
     0
  0
SCALE
  5
62
102
{ACAD_REACTORS
330
47
102
}
330
47
100
AcDbScale
 70
     0
300
1/2" = 1'-0"
140
0.5
141
12.0
290
     0
  0
SCALE
  5
63
102
{ACAD_REACTORS
330
47
102
}
330
47
100
AcDbScale
 70
     0
300
3/4" = 1'-0"
140
0.75
141
12.0
290
     0
  0
SCALE
  5
64
102
{ACAD_REACTORS
330
47
102
}
330
47
100
AcDbScale
 70
     0
300
1" = 1'-0"
140
1.0
141
12.0
290
     0
  0
SCALE
  5
65
102
{ACAD_REACTORS
330
47
102
}
330
47
100
AcDbScale
 70
     0
300
1-1/2" = 1'-0"
140
1.5
141
12.0
290
     0
  0
SCALE
  5
66
102
{ACAD_REACTORS
330
47
102
}
330
47
100
AcDbScale
 70
     0
300
3" = 1'-0"
140
3.0
141
12.0
290
     0
  0
SCALE
  5
67
102
{ACAD_REACTORS
330
47
102
}
330
47
100
AcDbScale
 70
     0
300
6" = 1'-0"
140
6.0
141
12.0
290
     0
  0
SCALE
  5
68
102
{ACAD_REACTORS
330
47
102
}
330
47
100
AcDbScale
 70
     0
300
1'-0" = 1'-0"
140
12.0
141
12.0
290
     0
  0
ENDSEC
  0
EOF
