  0
SECTION
  2
HEADER
  9
$ACADVER
  1
AC1015
  9
$ACADMAINTVER
 70
     6
  9
$DWGCODEPAGE
  3
ANSI_949
  9
$INSBASE
 10
0.0
 20
0.0
 30
0.0
  9
$EXTMIN
 10
-62.75719731477348
 20
-49.98438634254138
 30
0.0
  9
$EXTMAX
 10
78.59211393601514
 20
97.17970327693648
 30
0.0
  9
$LIMMIN
 10
0.0
 20
0.0
  9
$LIMMAX
 10
420.0
 20
297.0
  9
$ORTHOMODE
 70
     1
  9
$REGENMODE
 70
     1
  9
$FILLMODE
 70
     1
  9
$QTEXTMODE
 70
     0
  9
$MIRRTEXT
 70
     1
  9
$LTSCALE
 40
1.0
  9
$ATTMODE
 70
     1
  9
$TEXTSIZE
 40
3.5
  9
$TRACEWID
 40
1.0
  9
$TEXTSTYLE
  7
Standard
  9
$CLAYER
  8
0
  9
$CELTYPE
  6
ByLayer
  9
$CECOLOR
 62
   256
  9
$CELTSCALE
 40
1.0
  9
$DISPSILH
 70
     0
  9
$DIMSCALE
 40
1.0
  9
$DIMASZ
 40
3.302
  9
$DIMEXO
 40
1.0
  9
$DIMDLI
 40
3.75
  9
$DIMRND
 40
0.0
  9
$DIMDLE
 40
0.0
  9
$DIMEXE
 40
1.0
  9
$DIMTP
 40
0.0
  9
$DIMTM
 40
0.0
  9
$DIMTXT
 40
3.5
  9
$DIMCEN
 40
2.5
  9
$DIMTSZ
 40
0.0
  9
$DIMTOL
 70
     0
  9
$DIMLIM
 70
     0
  9
$DIMTIH
 70
     1
  9
$DIMTOH
 70
     1
  9
$DIMSE1
 70
     0
  9
$DIMSE2
 70
     0
  9
$DIMTAD
 70
     1
  9
$DIMZIN
 70
     0
  9
$DIMBLK
  1

  9
$DIMASO
 70
     1
  9
$DIMSHO
 70
     1
  9
$DIMPOST
  1

  9
$DIMAPOST
  1

  9
$DIMALT
 70
     0
  9
$DIMALTD
 70
     3
  9
$DIMALTF
 40
0.0393700787401575
  9
$DIMLFAC
 40
1.0
  9
$DIMTOFL
 70
     1
  9
$DIMTVP
 40
0.0
  9
$DIMTIX
 70
     0
  9
$DIMSOXD
 70
     0
  9
$DIMSAH
 70
     0
  9
$DIMBLK1
  1

  9
$DIMBLK2
  1

  9
$DIMSTYLE
  2
ISO-25
  9
$DIMCLRD
 70
     0
  9
$DIMCLRE
 70
     0
  9
$DIMCLRT
 70
     0
  9
$DIMTFAC
 40
1.0
  9
$DIMGAP
 40
1.524
  9
$DIMJUST
 70
     0
  9
$DIMSD1
 70
     0
  9
$DIMSD2
 70
     0
  9
$DIMTOLJ
 70
     0
  9
$DIMTZIN
 70
     0
  9
$DIMALTZ
 70
     0
  9
$DIMALTTZ
 70
     0
  9
$DIMUPT
 70
     0
  9
$DIMDEC
 70
     2
  9
$DIMTDEC
 70
     2
  9
$DIMALTU
 70
     2
  9
$DIMALTTD
 70
     3
  9
$DIMTXSTY
  7
Standard
  9
$DIMAUNIT
 70
     0
  9
$DIMADEC
 70
     2
  9
$DIMALTRND
 40
0.0
  9
$DIMAZIN
 70
     0
  9
$DIMDSEP
 70
    44
  9
$DIMATFIT
 70
     3
  9
$DIMFRAC
 70
     0
  9
$DIMLDRBLK
  1

  9
$DIMLUNIT
 70
     2
  9
$DIMLWD
 70
    -2
  9
$DIMLWE
 70
    -2
  9
$DIMTMOVE
 70
     0
  9
$LUNITS
 70
     2
  9
$LUPREC
 70
     2
  9
$SKETCHINC
 40
1.0
  9
$FILLETRAD
 40
10.0
  9
$AUNITS
 70
     0
  9
$AUPREC
 70
     2
  9
$MENU
  1
.
  9
$ELEVATION
 40
0.0
  9
$PELEVATION
 40
0.0
  9
$THICKNESS
 40
0.0
  9
$LIMCHECK
 70
     0
  9
$CHAMFERA
 40
0.0
  9
$CHAMFERB
 40
0.0
  9
$CHAMFERC
 40
0.0
  9
$CHAMFERD
 40
0.0
  9
$SKPOLY
 70
     0
  9
$TDCREATE
 40
2458340.593742372
  9
$TDUCREATE
 40
2458340.218742372
  9
$TDUPDATE
 40
2458341.613618264
  9
$TDUUPDATE
 40
2458341.238618264
  9
$TDINDWG
 40
0.0172518634
  9
$TDUSRTIMER
 40
2458341.219061632
  9
$USRTIMER
 70
     1
  9
$ANGBASE
 50
0.0
  9
$ANGDIR
 70
     0
  9
$PDMODE
 70
     0
  9
$PDSIZE
 40
-1.0
  9
$PLINEWID
 40
0.0
  9
$SPLFRAME
 70
     0
  9
$SPLINETYPE
 70
     6
  9
$SPLINESEGS
 70
     8
  9
$HANDSEED
  5
192
  9
$SURFTAB1
 70
     6
  9
$SURFTAB2
 70
     6
  9
$SURFTYPE
 70
     6
  9
$SURFU
 70
     6
  9
$SURFV
 70
     6
  9
$UCSBASE
  2

  9
$UCSNAME
  2

  9
$UCSORG
 10
0.0
 20
0.0
 30
0.0
  9
$UCSXDIR
 10
1.0
 20
0.0
 30
0.0
  9
$UCSYDIR
 10
0.0
 20
1.0
 30
0.0
  9
$UCSORTHOREF
  2

  9
$UCSORTHOVIEW
 70
     0
  9
$UCSORGTOP
 10
0.0
 20
0.0
 30
0.0
  9
$UCSORGBOTTOM
 10
0.0
 20
0.0
 30
0.0
  9
$UCSORGLEFT
 10
0.0
 20
0.0
 30
0.0
  9
$UCSORGRIGHT
 10
0.0
 20
0.0
 30
0.0
  9
$UCSORGFRONT
 10
0.0
 20
0.0
 30
0.0
  9
$UCSORGBACK
 10
0.0
 20
0.0
 30
0.0
  9
$PUCSBASE
  2

  9
$PUCSNAME
  2

  9
$PUCSORG
 10
0.0
 20
0.0
 30
0.0
  9
$PUCSXDIR
 10
1.0
 20
0.0
 30
0.0
  9
$PUCSYDIR
 10
0.0
 20
1.0
 30
0.0
  9
$PUCSORTHOREF
  2

  9
$PUCSORTHOVIEW
 70
     0
  9
$PUCSORGTOP
 10
0.0
 20
0.0
 30
0.0
  9
$PUCSORGBOTTOM
 10
0.0
 20
0.0
 30
0.0
  9
$PUCSORGLEFT
 10
0.0
 20
0.0
 30
0.0
  9
$PUCSORGRIGHT
 10
0.0
 20
0.0
 30
0.0
  9
$PUCSORGFRONT
 10
0.0
 20
0.0
 30
0.0
  9
$PUCSORGBACK
 10
0.0
 20
0.0
 30
0.0
  9
$USERI1
 70
     0
  9
$USERI2
 70
     0
  9
$USERI3
 70
     0
  9
$USERI4
 70
     0
  9
$USERI5
 70
     0
  9
$USERR1
 40
0.0
  9
$USERR2
 40
0.0
  9
$USERR3
 40
0.0
  9
$USERR4
 40
0.0
  9
$USERR5
 40
0.0
  9
$WORLDVIEW
 70
     1
  9
$SHADEDGE
 70
     3
  9
$SHADEDIF
 70
    70
  9
$TILEMODE
 70
     1
  9
$MAXACTVP
 70
    64
  9
$PINSBASE
 10
0.0
 20
0.0
 30
0.0
  9
$PLIMCHECK
 70
     0
  9
$PEXTMIN
 10
1.000000000000000E+20
 20
1.000000000000000E+20
 30
1.000000000000000E+20
  9
$PEXTMAX
 10
-1.000000000000000E+20
 20
-1.000000000000000E+20
 30
-1.000000000000000E+20
  9
$PLIMMIN
 10
0.0
 20
0.0
  9
$PLIMMAX
 10
0.0
 20
0.0
  9
$UNITMODE
 70
     0
  9
$VISRETAIN
 70
     1
  9
$PLINEGEN
 70
     0
  9
$PSLTSCALE
 70
     1
  9
$TREEDEPTH
 70
  3020
  9
$CMLSTYLE
  2
Standard
  9
$CMLJUST
 70
     0
  9
$CMLSCALE
 40
20.0
  9
$PROXYGRAPHICS
 70
     1
  9
$MEASUREMENT
 70
     1
  9
$CELWEIGHT
370
    -1
  9
$ENDCAPS
280
     0
  9
$JOINSTYLE
280
     0
  9
$LWDISPLAY
290
     1
  9
$INSUNITS
 70
     4
  9
$HYPERLINKBASE
  1

  9
$STYLESHEET
  1

  9
$XEDIT
290
     1
  9
$CEPSNTYPE
380
     0
  9
$PSTYLEMODE
290
     1
  9
$FINGERPRINTGUID
  2
{53F49E3B-C355-4429-B31D-2E4D0E8BB668}
  9
$VERSIONGUID
  2
{FAEB1C32-E019-11D5-929B-00C0DF256EC4}
  9
$EXTNAMES
290
     1
  9
$PSVPSCALE
 40
0.0
  9
$OLESTARTUP
290
     0
  0
ENDSEC
  0
SECTION
  2
CLASSES
  0
CLASS
  1
ACDBDICTIONARYWDFLT
  2
AcDbDictionaryWithDefault
  3
ObjectDBX Classes
 90
        0
280
     0
281
     0
  0
CLASS
  1
VISUALSTYLE
  2
AcDbVisualStyle
  3
ObjectDBX Classes
 90
     4095
280
     0
281
     0
  0
CLASS
  1
MATERIAL
  2
AcDbMaterial
  3
ObjectDBX Classes
 90
     1153
280
     0
281
     0
  0
CLASS
  1
SCALE
  2
AcDbScale
  3
ObjectDBX Classes
 90
     1153
280
     0
281
     0
  0
CLASS
  1
SUN
  2
AcDbSun
  3
SCENEOE
 90
     1153
280
     0
281
     0
  0
CLASS
  1
ACDBPLACEHOLDER
  2
AcDbPlaceHolder
  3
ObjectDBX Classes
 90
        0
280
     0
281
     0
  0
CLASS
  1
LAYOUT
  2
AcDbLayout
  3
ObjectDBX Classes
 90
        0
280
     0
281
     0
  0
CLASS
  1
TABLESTYLE
  2
AcDbTableStyle
  3
ObjectDBX Classes
 90
     4095
280
     0
281
     0
  0
CLASS
  1
MLEADERSTYLE
  2
AcDbMLeaderStyle
  3
ACDB_MLEADERSTYLE_CLASS
 90
     4095
280
     0
281
     0
  0
CLASS
  1
RASTERVARIABLES
  2
AcDbRasterVariables
  3
ISM
 90
        0
280
     0
281
     0
  0
CLASS
  1
DIMASSOC
  2
AcDbDimAssoc
  3
"AcDbDimAssoc|Product Desc:     AcDim ARX App For Dimension|Company:          Autodesk, Inc.|WEB Address:      www.autodesk.com"
 90
        0
280
     0
281
     0
  0
CLASS
  1
DICTIONARYVAR
  2
AcDbDictionaryVar
  3
ObjectDBX Classes
 90
        0
280
     0
281
     0
  0
ENDSEC
  0
SECTION
  2
TABLES
  0
TABLE
  2
VPORT
  5
8
330
0
100
AcDbSymbolTable
 70
     1
  0
VPORT
  5
29
330
8
100
AcDbSymbolTableRecord
100
AcDbViewportTableRecord
  2
*Active
 70
     0
 10
0.0
 20
0.0
 11
1.0
 21
1.0
 12
17.77498542562449
 22
22.09725597260316
 13
0.0
 23
0.0
 14
10.0
 24
10.0
 15
10.0
 25
10.0
 16
0.0
 26
0.0
 36
1.0
 17
0.0
 27
0.0
 37
0.0
 40
185.7833357997235
 41
1.444267515923567
 42
50.0
 43
0.0
 44
0.0
 50
0.0
 51
0.0
 71
    16
 72
  2000
 73
     1
 74
     3
 75
     0
 76
     0
 77
     0
 78
     0
281
     0
 65
     1
110
0.0
120
0.0
130
0.0
111
1.0
121
0.0
131
0.0
112
0.0
122
1.0
132
0.0
 79
     0
146
0.0
  0
ENDTAB
  0
TABLE
  2
LTYPE
  5
5
330
0
100
AcDbSymbolTable
 70
     6
  0
LTYPE
  5
14
330
5
100
AcDbSymbolTableRecord
100
AcDbLinetypeTableRecord
  2
ByBlock
 70
     0
  3

 72
    65
 73
     0
 40
0.0
  0
LTYPE
  5
15
330
5
100
AcDbSymbolTableRecord
100
AcDbLinetypeTableRecord
  2
ByLayer
 70
     0
  3

 72
    65
 73
     0
 40
0.0
  0
LTYPE
  5
16
330
5
100
AcDbSymbolTableRecord
100
AcDbLinetypeTableRecord
  2
Continuous
 70
     0
  3
Solid line
 72
    65
 73
     0
 40
0.0
  0
LTYPE
  5
6A
330
5
100
AcDbSymbolTableRecord
100
AcDbLinetypeTableRecord
  2
HIDDEN
 70
     0
  3
Hidden __ __ __ __ __ __ __ __ __ __ __ __ __ __
 72
    65
 73
     2
 40
1.905
 49
1.27
 74
     0
 49
-0.635
 74
     0
  0
LTYPE
  5
6B
330
5
100
AcDbSymbolTableRecord
100
AcDbLinetypeTableRecord
  2
PHANTOM
 70
     0
  3
Phantom ______  __  __  ______  __  __  ______
 72
    65
 73
     6
 40
12.7
 49
6.35
 74
     0
 49
-1.27
 74
     0
 49
1.27
 74
     0
 49
-1.27
 74
     0
 49
1.27
 74
     0
 49
-1.27
 74
     0
  0
LTYPE
  5
6C
330
5
100
AcDbSymbolTableRecord
100
AcDbLinetypeTableRecord
  2
CENTER
 70
     0
  3
Center ____ _ ____ _ ____ _ ____ _ ____ _ ____
 72
    65
 73
     4
 40
10.16
 49
6.35
 74
     0
 49
-1.27
 74
     0
 49
1.27
 74
     0
 49
-1.27
 74
     0
  0
LTYPE
  5
6D
330
5
100
AcDbSymbolTableRecord
100
AcDbLinetypeTableRecord
  2
CENTERX2
 70
     0
  3
Center (2x) ________  __  ________  __  _____
 72
    65
 73
     4
 40
20.32
 49
12.7
 74
     0
 49
-2.54
 74
     0
 49
2.54
 74
     0
 49
-2.54
 74
     0
  0
LTYPE
  5
6E
330
5
100
AcDbSymbolTableRecord
100
AcDbLinetypeTableRecord
  2
DOT2
 70
     0
  3
Dot (.5x) ........................................
 72
    65
 73
     2
 40
0.635
 49
0.0
 74
     0
 49
-0.635
 74
     0
  0
ENDTAB
  0
TABLE
  2
LAYER
  5
2
330
0
100
AcDbSymbolTable
 70
    17
  0
LAYER
  5
10
330
2
100
AcDbSymbolTableRecord
100
AcDbLayerTableRecord
  2
0
 70
     0
 62
     7
  6
Continuous
370
    -3
390
F
  0
LAYER
  5
6F
330
2
100
AcDbSymbolTableRecord
100
AcDbLayerTableRecord
  2
FORMAT
 70
     0
 62
     2
  6
Continuous
370
    -3
390
F
  0
LAYER
  5
70
330
2
100
AcDbSymbolTableRecord
100
AcDbLayerTableRecord
  2
외형선
 70
     0
 62
   100
  6
Continuous
370
    30
390
F
  0
LAYER
  5
71
330
2
100
AcDbSymbolTableRecord
100
AcDbLayerTableRecord
  2
숨은선
 70
     0
 62
     2
  6
HIDDEN
370
    15
390
F
  0
LAYER
  5
72
330
2
100
AcDbSymbolTableRecord
100
AcDbLayerTableRecord
  2
중심선
 70
     0
 62
     1
  6
CENTERX2
370
    -3
390
F
  0
LAYER
  5
73
330
2
100
AcDbSymbolTableRecord
100
AcDbLayerTableRecord
  2
파단선
 70
     0
 62
     4
  6
Continuous
370
    -3
390
F
  0
LAYER
  5
74
330
2
100
AcDbSymbolTableRecord
100
AcDbLayerTableRecord
  2
해칭선
 70
     0
 62
     4
  6
Continuous
370
    -3
390
F
  0
LAYER
  5
75
330
2
100
AcDbSymbolTableRecord
100
AcDbLayerTableRecord
  2
가는실선
 70
     0
 62
     4
  6
Continuous
370
    -3
390
F
  0
LAYER
  5
76
330
2
100
AcDbSymbolTableRecord
100
AcDbLayerTableRecord
  2
치수_보조선
 70
     0
 62
     4
  6
Continuous
370
    -3
390
F
  0
LAYER
  5
77
330
2
100
AcDbSymbolTableRecord
100
AcDbLayerTableRecord
  2
치수문자_일반주서
 70
     0
 62
     7
  6
Continuous
370
    15
390
F
  0
LAYER
  5
78
330
2
100
AcDbSymbolTableRecord
100
AcDbLayerTableRecord
  2
개별주서
 70
     0
 62
   100
  6
Continuous
370
    30
390
F
  0
LAYER
  5
79
330
2
100
AcDbSymbolTableRecord
100
AcDbLayerTableRecord
  2
중간선
 70
     0
 62
     2
  6
Continuous
370
    15
390
F
  0
LAYER
  5
7A
330
2
100
AcDbSymbolTableRecord
100
AcDbLayerTableRecord
  2
윤곽선
 70
     0
 62
     3
  6
Continuous
370
    40
390
F
  0
LAYER
  5
7B
330
2
100
AcDbSymbolTableRecord
100
AcDbLayerTableRecord
  2
중심마크
 70
     0
 62
   100
  6
Continuous
370
    30
390
F
  0
LAYER
  5
7C
330
2
100
AcDbSymbolTableRecord
100
AcDbLayerTableRecord
  2
가상선
 70
     0
 62
     4
  6
PHANTOM
370
    -3
390
F
  0
LAYER
  5
7D
330
2
100
AcDbSymbolTableRecord
100
AcDbLayerTableRecord
  2
특수지정선
 70
     0
 62
     5
  6
CENTERX2
370
    60
390
F
  0
LAYER
  5
150
330
2
100
AcDbSymbolTableRecord
100
AcDbLayerTableRecord
  2
Defpoints
 70
     0
 62
     7
  6
Continuous
290
     0
370
    -3
390
F
  0
ENDTAB
  0
TABLE
  2
STYLE
  5
3
330
0
100
AcDbSymbolTable
 70
     2
  0
STYLE
  5
11
330
3
100
AcDbSymbolTableRecord
100
AcDbTextStyleTableRecord
  2
Standard
 70
     0
 40
0.0
 41
1.0
 50
0.0
 71
     0
 42
3.5
  3
txt
  4

  0
STYLE
  5
93
330
3
100
AcDbSymbolTableRecord
100
AcDbTextStyleTableRecord
  2
SLDTEXTSTYLE0
 70
     0
 40
0.0
 41
0.75
 50
0.0
 71
     0
 42
3.5
  3
TXT
  4

  0
ENDTAB
  0
TABLE
  2
VIEW
  5
6
330
0
100
AcDbSymbolTable
 70
     0
  0
ENDTAB
  0
TABLE
  2
UCS
  5
7
330
0
100
AcDbSymbolTable
 70
     0
  0
ENDTAB
  0
TABLE
  2
APPID
  5
9
330
0
100
AcDbSymbolTable
 70
     2
  0
APPID
  5
12
330
9
100
AcDbSymbolTableRecord
100
AcDbRegAppTableRecord
  2
ACAD
 70
     0
  0
APPID
  5
165
330
9
100
AcDbSymbolTableRecord
100
AcDbRegAppTableRecord
  2
PE_DIMMEASUREMENT
 70
     0
  0
ENDTAB
  0
TABLE
  2
DIMSTYLE
  5
A
330
0
100
AcDbSymbolTable
 70
     4
100
AcDbDimStyleTable
  0
DIMSTYLE
105
27
330
A
100
AcDbSymbolTableRecord
100
AcDbDimStyleTableRecord
  2
ISO-25
 70
     0
 41
2.5
 42
0.625
 43
3.75
 44
1.25
 73
     0
 74
     0
 77
     1
 78
     8
140
2.5
141
2.5
143
0.03937007874016
147
0.625
171
     3
172
     1
178
     0
271
     2
272
     2
274
     3
278
    44
283
     0
284
     8
340
11
  0
DIMSTYLE
105
ED
102
{ACAD_REACTORS
330
EC
330
17F
102
}
330
A
100
AcDbSymbolTableRecord
100
AcDbDimStyleTableRecord
  2
SLDDIMSTYLE0
 70
     0
 41
3.302
 44
0.0
 45
0.000000001
 73
     0
 74
     0
 77
     1
 78
    12
 79
     3
140
3.5
143
0.0393700787401575
147
0.875
148
0.000000001
170
     1
173
     1
178
     0
271
     2
272
     2
276
     2
284
    12
340
93
  0
DIMSTYLE
105
101
102
{ACAD_REACTORS
330
100
330
166
330
153
102
}
330
A
100
AcDbSymbolTableRecord
100
AcDbDimStyleTableRecord
  2
SLDDIMSTYLE1
 70
     0
 41
3.302
 44
0.0
 45
0.000000001
 73
     0
 74
     0
 77
     1
 78
     4
 79
     1
140
3.5
143
0.0393700787401575
147
0.875
148
0.000000001
170
     1
173
     1
178
     0
271
     2
272
     2
276
     2
284
    12
340
93
  0
DIMSTYLE
105
115
330
A
100
AcDbSymbolTableRecord
100
AcDbDimStyleTableRecord
  2
SLDDIMSTYLE2
 70
     0
 41
3.302
 44
0.0
 45
0.000000001
 73
     0
 74
     0
 77
     1
 78
     8
 79
     2
140
3.5
143
0.0393700787401575
147
0.875
148
0.000000001
170
     1
172
     1
173
     1
178
     0
271
     2
272
     2
276
     2
284
    12
289
     0
340
93
341
116
343
116
344
116
  0
ENDTAB
  0
TABLE
  2
BLOCK_RECORD
  5
1
330
0
100
AcDbSymbolTable
 70
    10
  0
BLOCK_RECORD
  5
1F
330
1
100
AcDbSymbolTableRecord
100
AcDbBlockTableRecord
  2
*Model_Space
340
22
  0
BLOCK_RECORD
  5
1B
330
1
100
AcDbSymbolTableRecord
100
AcDbBlockTableRecord
  2
*Paper_Space
340
1E
  0
BLOCK_RECORD
  5
23
330
1
100
AcDbSymbolTableRecord
100
AcDbBlockTableRecord
  2
*Paper_Space0
340
26
  0
BLOCK_RECORD
  5
7E
330
1
100
AcDbSymbolTableRecord
100
AcDbBlockTableRecord
  2
블럭10
340
0
102
{BLKREFS
331
E5
102
}
  0
BLOCK_RECORD
  5
EE
330
1
100
AcDbSymbolTableRecord
100
AcDbBlockTableRecord
  2
_D
340
0
  0
BLOCK_RECORD
  5
102
330
1
100
AcDbSymbolTableRecord
100
AcDbBlockTableRecord
  2
_D_1
340
0
  0
BLOCK_RECORD
  5
116
330
1
100
AcDbSymbolTableRecord
100
AcDbBlockTableRecord
  2
_NONE
340
0
  0
BLOCK_RECORD
  5
119
330
1
100
AcDbSymbolTableRecord
100
AcDbBlockTableRecord
  2
_D_2
340
0
  0
BLOCK_RECORD
  5
125
330
1
100
AcDbSymbolTableRecord
100
AcDbBlockTableRecord
  2
SW_DOWELSYMBOL_0
340
0
102
{BLKREFS
331
12B
102
}
  0
BLOCK_RECORD
  5
156
330
1
100
AcDbSymbolTableRecord
100
AcDbBlockTableRecord
  2
*D7
340
0
  0
BLOCK_RECORD
  5
169
330
1
100
AcDbSymbolTableRecord
100
AcDbBlockTableRecord
  2
*D8
340
0
  0
BLOCK_RECORD
  5
182
330
1
100
AcDbSymbolTableRecord
100
AcDbBlockTableRecord
  2
*D9
340
0
  0
ENDTAB
  0
ENDSEC
  0
SECTION
  2
BLOCKS
  0
BLOCK
  5
20
330
1F
100
AcDbEntity
  8
0
100
AcDbBlockBegin
  2
*Model_Space
 70
     0
 10
0.0
 20
0.0
 30
0.0
  3
*Model_Space
  1
*Model_Space
  0
ENDBLK
  5
21
330
1F
100
AcDbEntity
  8
0
100
AcDbBlockEnd
  0
BLOCK
  5
1C
330
1B
100
AcDbEntity
 67
     1
  8
0
100
AcDbBlockBegin
  2
*Paper_Space
 70
     0
 10
0.0
 20
0.0
 30
0.0
  3
*Paper_Space
  1
*Paper_Space
  0
ENDBLK
  5
1D
330
1B
100
AcDbEntity
 67
     1
  8
0
100
AcDbBlockEnd
  0
BLOCK
  5
24
330
23
100
AcDbEntity
  8
0
100
AcDbBlockBegin
  2
*Paper_Space0
 70
     0
 10
0.0
 20
0.0
 30
0.0
  3
*Paper_Space0
  1
*Paper_Space0
  0
ENDBLK
  5
25
330
23
100
AcDbEntity
  8
0
100
AcDbBlockEnd
  0
BLOCK
  5
7F
330
7E
100
AcDbEntity
  8
0
100
AcDbBlockBegin
  2
블럭10
 70
     2
 10
0.0
 20
0.0
 30
0.0
  3
블럭10
  1
블럭10
  0
ELLIPSE
  5
81
330
7E
100
AcDbEntity
  8
중심선
100
AcDbEllipse
 10
20.54032771741204
 20
12.0471743016438
 30
0.0
 11
6.600054785286829
 21
-1.261213355974178E-13
 31
0.0
210
0.0
220
0.0
230
1.0
 40
0.636358354079598
 41
0.9219305317359503
 42
6.513795318482858
  0
ELLIPSE
  5
82
330
7E
100
AcDbEntity
  8
중심선
100
AcDbEllipse
 10
20.54032771746488
 20
12.04717430159265
 30
0.0
 11
3.960054785062283
 21
1.540847449632565E-10
 31
0.0
210
0.0
220
0.0
230
1.0
 40
0.3939339440162632
 41
1.131841032648279
 42
5.62031148352944
  0
LINE
  5
83
330
7E
100
AcDbEntity
  8
중심선
100
AcDbLine
 10
2.268634060543552
 20
16.24717430164393
 30
0.0
 11
5.714909304380834
 21
16.24717430164393
 31
0.0
  0
LINE
  5
84
330
7E
100
AcDbEntity
  8
중심선
100
AcDbLine
 10
5.245725140726316
 20
7.84717430164391
 30
0.0
 11
8.692000384563599
 21
7.84717430164391
 31
0.0
  0
LINE
  5
85
330
7E
100
AcDbEntity
  8
중심선
100
AcDbLine
 10
15.74043728645272
 20
16.24717430164393
 30
0.0
 11
8.692000384563599
 21
7.84717430164391
 31
0.0
  0
LINE
  5
86
330
7E
100
AcDbEntity
  8
중심선
100
AcDbLine
 10
0.1404042013395286
 20
13.71084872107135
 30
0.0
 11
3.58671253028996
 21
13.71088815037384
 31
0.0
  0
LINE
  5
87
330
7E
100
AcDbEntity
  8
중심선
100
AcDbLine
 10
2.750260043222114
 20
10.84717430164391
 30
0.0
 11
6.196535287059397
 21
10.84717430164391
 31
0.0
  0
LINE
  5
88
330
7E
100
AcDbEntity
  8
중심선
100
AcDbLine
 10
12.29416204261559
 20
16.24717430164393
 30
0.0
 11
5.245725140726316
 21
7.84717430164391
 31
0.0
  0
LINE
  5
89
330
7E
100
AcDbEntity
  8
중심선
100
AcDbLine
 10
10.72767329541681
 20
16.24717430164393
 30
0.0
 11
6.196535287059397
 21
10.84717430164391
 31
0.0
  0
LINE
  5
8A
330
7E
100
AcDbEntity
  8
중심선
100
AcDbLine
 10
7.28139805157953
 20
16.24717430164393
 30
0.0
 11
2.750260043222114
 21
10.84717430164391
 31
0.0
  0
LINE
  5
8B
330
7E
100
AcDbEntity
  8
중심선
100
AcDbLine
 10
5.714909304380834
 20
16.24717430164393
 30
0.0
 11
3.58671253028996
 21
13.71088815037384
 31
0.0
  0
LINE
  5
8C
330
7E
100
AcDbEntity
  8
중심선
100
AcDbLine
 10
2.268634060543552
 20
16.24717430164393
 30
0.0
 11
0.1404042013395286
 21
13.71084872107135
 31
0.0
  0
LINE
  5
8D
330
7E
100
AcDbEntity
  8
중심선
100
AcDbLine
 10
7.28139805157953
 20
16.24717430164393
 30
0.0
 11
10.72767329541681
 21
16.24717430164393
 31
0.0
  0
LINE
  5
8E
330
7E
100
AcDbEntity
  8
중심선
100
AcDbLine
 10
12.29416204261559
 20
16.24717430164393
 30
0.0
 11
15.74043728645272
 21
16.24717430164393
 31
0.0
  0
LINE
  5
8F
330
7E
100
AcDbEntity
  8
중심선
100
AcDbLine
 10
19.22036997980202
 20
11.08717430171403
 30
0.0
 11
23.66174974927406
 21
11.08717430171406
 31
0.0
  0
LINE
  5
90
330
7E
100
AcDbEntity
  8
중심선
100
AcDbLine
 10
19.22039502424796
 20
13.00717430171391
 30
0.0
 11
19.22036997980202
 21
11.08717430171403
 31
0.0
  0
LINE
  5
91
330
7E
100
AcDbEntity
  8
중심선
100
AcDbLine
 10
19.22039502424796
 20
13.00717430171391
 30
0.0
 11
26.96566020931264
 21
13.00717430171391
 31
0.0
  0
LINE
  5
92
330
7E
100
AcDbEntity
  8
중심선
100
AcDbLine
 10
22.22332737316547
 20
13.45928029700563
 30
0.0
 11
24.52862924686651
 21
15.39360700705356
 31
0.0
  0
ATTDEF
  5
94
330
7E
100
AcDbEntity
  8
FORMAT
 62
     2
100
AcDbText
 10
-9.18129528874128
 20
2.075366912832191
 30
0.0
 40
4.233333333333333
  1
E5078316 [ 3 FLUTE ]
 41
0.75
  7
SLDTEXTSTYLE0
 11
-9.18129528874128
 21
-0.0412997538344756
 31
0.0
100
AcDbAttributeDefinition
  3

  2
AUTOATTR0
 70
     0
 74
     1
  0
ENDBLK
  5
80
330
7E
100
AcDbEntity
  8
0
100
AcDbBlockEnd
  0
BLOCK
  5
EF
330
EE
100
AcDbEntity
  8
0
100
AcDbBlockBegin
  2
_D
 70
     0
 10
0.0
 20
0.0
 30
0.0
  3
_D
  1
_D
  0
LINE
  5
F1
330
EE
100
AcDbEntity
  8
치수문자_일반주서
 62
     0
370
    -2
100
AcDbLine
 10
63.30799999999999
 20
3.237499999999994
 30
0.0
 11
63.30799999999999
 21
64.33074456559343
 31
0.0
  0
LINE
  5
F2
330
EE
100
AcDbEntity
  8
치수문자_일반주서
 62
     0
370
    -2
100
AcDbLine
 10
12.50800000000003
 20
5.737777686898243
 30
0.0
 11
12.50800000000002
 21
64.33074456559343
 31
0.0
  0
LINE
  5
F3
330
EE
100
AcDbEntity
  8
치수문자_일반주서
 62
     0
370
    -2
100
AcDbLine
 10
60.00599999999999
 20
64.33074456559343
 30
0.0
 11
15.81000000000002
 21
64.33074456559343
 31
0.0
  0
SOLID
  5
F4
330
EE
100
AcDbEntity
  8
치수문자_일반주서
 62
     0
100
AcDbTrace
 10
60.00599999999999
 20
63.7804112322601
 30
0.0
 11
60.00599999999999
 21
64.88107789892676
 31
0.0
 12
63.30799999999999
 22
64.33074456559343
 32
0.0
 13
63.30799999999999
 23
64.33074456559343
 33
0.0
  0
SOLID
  5
F5
330
EE
100
AcDbEntity
  8
치수문자_일반주서
 62
     0
100
AcDbTrace
 10
15.81000000000002
 20
64.88107789892676
 30
0.0
 11
15.81000000000002
 21
63.7804112322601
 31
0.0
 12
12.50800000000002
 22
64.33074456559343
 32
0.0
 13
12.50800000000002
 23
64.33074456559343
 33
0.0
  0
MTEXT
  5
F6
330
EE
100
AcDbEntity
  8
치수문자_일반주서
 62
     0
100
AcDbMText
 10
34.34206692949721
 20
68.70574456559343
 30
0.0
 40
3.5
 41
0.0
 71
     2
 72
     1
  1
\A1;50.8 [2]
  7
SLDTEXTSTYLE0
 73
     1
 44
1.0
  0
POINT
  5
F7
330
EE
100
AcDbEntity
  8
Defpoints
 62
     0
100
AcDbPoint
 10
63.30799999999999
 20
3.174999999999994
 30
0.0
  0
POINT
  5
F8
330
EE
100
AcDbEntity
  8
Defpoints
 62
     0
100
AcDbPoint
 10
12.50800000000003
 20
5.675277686898243
 30
0.0
  0
POINT
  5
F9
330
EE
100
AcDbEntity
  8
Defpoints
 62
     0
100
AcDbPoint
 10
12.50800000000003
 20
64.33074456559343
 30
0.0
  0
ENDBLK
  5
F0
330
EE
100
AcDbEntity
  8
0
100
AcDbBlockEnd
  0
BLOCK
  5
103
330
102
100
AcDbEntity
  8
0
100
AcDbBlockBegin
  2
_D_1
 70
     0
 10
0.0
 20
0.0
 30
0.0
  3
_D_1
  1
_D_1
  0
LINE
  5
105
330
102
100
AcDbEntity
  8
치수문자_일반주서
 62
     0
370
    -2
100
AcDbLine
 10
63.30799999999999
 20
3.299999999999994
 30
0.0
 11
63.30799999999999
 21
92.80470327693648
 31
0.0
  0
LINE
  5
106
330
102
100
AcDbEntity
  8
치수문자_일반주서
 62
     0
370
    -2
100
AcDbLine
 10
-38.292
 20
5.602500000000017
 30
0.0
 11
-38.292
 21
92.80470327693648
 31
0.0
  0
LINE
  5
107
330
102
100
AcDbEntity
  8
치수문자_일반주서
 62
     0
370
    -2
100
AcDbLine
 10
60.00599999999999
 20
92.80470327693648
 30
0.0
 11
-34.99
 21
92.80470327693648
 31
0.0
  0
SOLID
  5
108
330
102
100
AcDbEntity
  8
치수문자_일반주서
 62
     0
100
AcDbTrace
 10
60.00599999999999
 20
92.25436994360315
 30
0.0
 11
60.00599999999999
 21
93.3550366102698
 31
0.0
 12
63.30799999999999
 22
92.80470327693648
 32
0.0
 13
63.30799999999999
 23
92.80470327693648
 33
0.0
  0
SOLID
  5
109
330
102
100
AcDbEntity
  8
치수문자_일반주서
 62
     0
100
AcDbTrace
 10
-34.99
 20
93.3550366102698
 30
0.0
 11
-34.99
 21
92.25436994360315
 31
0.0
 12
-38.292
 22
92.80470327693648
 32
0.0
 13
-38.292
 23
92.80470327693648
 33
0.0
  0
MTEXT
  5
10A
330
102
100
AcDbEntity
  8
치수문자_일반주서
 62
     0
100
AcDbMText
 10
14.77998113366128
 20
97.17970327693648
 30
0.0
 40
3.5
 41
0.0
 71
     2
 72
     1
  1
\A1;101.60 [4]
  7
SLDTEXTSTYLE0
 73
     1
 44
1.0
  0
POINT
  5
10B
330
102
100
AcDbEntity
  8
Defpoints
 62
     0
100
AcDbPoint
 10
63.30799999999999
 20
3.237499999999994
 30
0.0
  0
POINT
  5
10C
330
102
100
AcDbEntity
  8
Defpoints
 62
     0
100
AcDbPoint
 10
-38.292
 20
5.540000000000017
 30
0.0
  0
POINT
  5
10D
330
102
100
AcDbEntity
  8
Defpoints
 62
     0
100
AcDbPoint
 10
-38.292
 20
92.80470327693648
 30
0.0
  0
ENDBLK
  5
104
330
102
100
AcDbEntity
  8
0
100
AcDbBlockEnd
  0
BLOCK
  5
117
330
116
100
AcDbEntity
  8
0
100
AcDbBlockBegin
  2
_NONE
 70
     0
 10
0.0
 20
0.0
 30
0.0
  3
_NONE
  1
_NONE
  0
ENDBLK
  5
118
330
116
100
AcDbEntity
  8
0
100
AcDbBlockEnd
  0
BLOCK
  5
11A
330
119
100
AcDbEntity
  8
0
100
AcDbBlockBegin
  2
_D_2
 70
     0
 10
0.0
 20
0.0
 30
0.0
  3
_D_2
  1
_D_2
  0
LINE
  5
11C
330
119
100
AcDbEntity
  8
치수문자_일반주서
100
AcDbLine
 10
-62.08488171604274
 20
-11.7643664310687
 30
0.0
 11
-62.08488171604274
 21
-12.4753039166332
 31
0.0
  0
LINE
  5
11D
330
119
100
AcDbEntity
  8
치수문자_일반주서
100
AcDbLine
 10
-62.08488171604274
 20
-12.4753039166332
 30
0.0
 11
-56.52863172498343
 21
-12.47530391663316
 31
0.0
  0
LINE
  5
11E
330
119
100
AcDbEntity
  8
치수문자_일반주서
100
AcDbLine
 10
-56.52863172498343
 20
-12.47530391663316
 30
0.0
 11
-56.52863172498344
 21
-11.76436643106866
 31
0.0
  0
LINE
  5
11F
330
119
100
AcDbEntity
  8
치수문자_일반주서
100
AcDbLine
 10
-62.08488171604282
 20
-0.9356335689314436
 30
0.0
 11
-62.08488171604282
 21
-0.2246960833669435
 31
0.0
  0
LINE
  5
120
330
119
100
AcDbEntity
  8
치수문자_일반주서
100
AcDbLine
 10
-62.08488171604282
 20
-0.2246960833669435
 30
0.0
 11
-56.52863172498352
 21
-0.2246960833669043
 31
0.0
  0
LINE
  5
121
330
119
100
AcDbEntity
  8
치수문자_일반주서
100
AcDbLine
 10
-56.52863172498352
 20
-0.2246960833669043
 30
0.0
 11
-56.52863172498351
 21
-0.9356335689314045
 31
0.0
  0
MTEXT
  5
122
330
119
100
AcDbEntity
  8
치수문자_일반주서
100
AcDbMText
 10
-61.04036863956234
 20
-10.87569453045732
 30
0.0
 40
3.5
 41
0.0
 71
     1
 72
     1
  1
0.00
  7
SLDTEXTSTYLE0
 11
-7.044195017643634E-15
 21
1.0
 31
0.0
 73
     1
 44
1.0
  0
MTEXT
  5
123
330
119
100
AcDbEntity
  8
치수문자_일반주서
100
AcDbMText
 10
-55.80373708920187
 20
-10.2822744123638
 30
0.0
 40
3.5
 41
0.0
 71
     1
 72
     1
  1
%%c
  7
SLDTEXTSTYLE0
 11
-7.044195017643634E-15
 21
1.0
 31
0.0
 73
     1
 44
1.0
  0
MTEXT
  5
124
330
119
100
AcDbEntity
  8
치수문자_일반주서
100
AcDbMText
 10
-55.8037370892019
 20
-5.003837013989717
 30
0.0
 40
3.5
 41
0.0
 71
     1
 72
     1
  1
0
  7
SLDTEXTSTYLE0
 11
-7.044195017643634E-15
 21
1.0
 31
0.0
 73
     1
 44
1.0
  0
ENDBLK
  5
11B
330
119
100
AcDbEntity
  8
0
100
AcDbBlockEnd
  0
BLOCK
  5
126
330
125
100
AcDbEntity
  8
0
100
AcDbBlockBegin
  2
SW_DOWELSYMBOL_0
 70
     0
 10
0.0
 20
0.0
 30
0.0
  3
SW_DOWELSYMBOL_0
  1
SW_DOWELSYMBOL_0
  0
CIRCLE
  5
128
330
125
100
AcDbEntity
  8
외형선
 62
     0
100
AcDbCircle
 10
0.0
 20
0.0
 30
0.0
 40
3.000000000000001
  0
HATCH
  5
129
330
125
100
AcDbEntity
  8
0
  6
Continuous
 62
     0
370
    30
100
AcDbHatch
 10
0.0
 20
0.0
 30
0.0
210
0.0
220
0.0
230
1.0
  2
SOLID
 70
     1
 71
     0
 91
        1
 92
        0
 93
        3
 72
     2
 10
0.0
 20
0.0
 40
3.000000000000001
 50
0.0
 51
90.0
 73
     1
 72
     1
 10
0.0
 20
3.000000000000001
 11
0.0
 21
0.0
 72
     1
 10
0.0
 20
0.0
 11
3.000000000000003
 21
0.0
 97
        0
 75
     0
 76
     1
 98
        1
 10
0.0
 20
0.0
  0
HATCH
  5
12A
330
125
100
AcDbEntity
  8
0
  6
Continuous
 62
     0
370
    30
100
AcDbHatch
 10
0.0
 20
0.0
 30
0.0
210
0.0
220
0.0
230
1.0
  2
SOLID
 70
     1
 71
     0
 91
        1
 92
        0
 93
        3
 72
     2
 10
0.0
 20
0.0
 40
3.000000000000001
 50
180.0
 51
270.0000000000008
 73
     1
 72
     1
 10
0.0
 20
-3.000000000000001
 11
0.0
 21
0.0
 72
     1
 10
0.0
 20
0.0
 11
-3.000000000000003
 21
0.0
 97
        0
 75
     0
 76
     1
 98
        1
 10
0.0
 20
0.0
  0
ENDBLK
  5
127
330
125
100
AcDbEntity
  8
0
100
AcDbBlockEnd
  0
BLOCK
  5
157
330
156
100
AcDbEntity
  8
0
100
AcDbBlockBegin
  2
*D7
 70
     1
 10
0.0
 20
0.0
 30
0.0
  3
*D7
  1
*D7
  0
LINE
  5
159
330
156
100
AcDbEntity
  8
치수문자_일반주서
 62
     0
370
    -2
100
AcDbLine
 10
63.2532766721921
 20
-3.175000000000006
 30
0.0
 11
78.04178060268183
 21
-3.175000000000007
 31
0.0
  0
LINE
  5
15A
330
156
100
AcDbEntity
  8
치수문자_일반주서
 62
     0
370
    -2
100
AcDbLine
 10
63.37049999999999
 20
3.174999999999994
 30
0.0
 11
78.04178060268183
 21
3.174999999999993
 31
0.0
  0
LINE
  5
15B
330
156
100
AcDbEntity
  8
치수문자_일반주서
 62
     0
370
    -2
100
AcDbLine
 10
78.04178060268183
 20
6.476999999999992
 30
0.0
 11
78.04178060268183
 21
35.15399999999999
 31
0.0
  0
LINE
  5
15C
330
156
100
AcDbEntity
  8
치수문자_일반주서
 62
     0
370
    -2
100
AcDbLine
 10
78.04178060268183
 20
-6.477000000000007
 30
0.0
 11
78.04178060268183
 21
-9.779000000000007
 31
0.0
  0
SOLID
  5
15D
330
156
100
AcDbEntity
  8
치수문자_일반주서
 62
     0
100
AcDbTrace
 10
78.59211393601515
 20
-6.477000000000007
 30
0.0
 11
77.4914472693485
 21
-6.477000000000007
 31
0.0
 12
78.04178060268183
 22
-3.175000000000007
 32
0.0
 13
78.04178060268183
 23
-3.175000000000007
 33
0.0
  0
SOLID
  5
15E
330
156
100
AcDbEntity
  8
치수문자_일반주서
 62
     0
100
AcDbTrace
 10
77.4914472693485
 20
6.476999999999992
 30
0.0
 11
78.59211393601515
 21
6.476999999999992
 31
0.0
 12
78.04178060268183
 22
3.174999999999993
 32
0.0
 13
78.04178060268183
 23
3.174999999999993
 33
0.0
  0
MTEXT
  5
15F
330
156
100
AcDbEntity
  8
치수문자_일반주서
 62
     0
100
AcDbMText
 10
75.41678060268183
 20
22.46649999999999
 30
0.0
 40
3.5
 41
0.0
 71
     5
 72
     1
  1
\A1;{%%c6.35 [1/4]}
  7
SLDTEXTSTYLE0
 11
0.0
 21
1.0
 31
0.0
 73
     1
 44
1.0
  0
POINT
  5
160
330
156
100
AcDbEntity
  8
Defpoints
 62
     0
100
AcDbPoint
 10
63.1907766721921
 20
-3.175000000000006
 30
0.0
  0
POINT
  5
161
330
156
100
AcDbEntity
  8
Defpoints
 62
     0
100
AcDbPoint
 10
63.30799999999999
 20
3.174999999999994
 30
0.0
  0
POINT
  5
177
330
156
100
AcDbEntity
  8
Defpoints
 62
     0
100
AcDbPoint
 10
78.04178060268183
 20
3.174999999999993
 30
0.0
  0
ENDBLK
  5
158
330
156
100
AcDbEntity
  8
0
100
AcDbBlockEnd
  0
BLOCK
  5
16A
330
169
100
AcDbEntity
  8
0
100
AcDbBlockBegin
  2
*D8
 70
     1
 10
0.0
 20
0.0
 30
0.0
  3
*D8
  1
*D8
  0
LINE
  5
16C
330
169
100
AcDbEntity
  8
치수문자_일반주서
 62
     0
370
    -2
100
AcDbLine
 10
-37.54450000000001
 20
-6.349999999999996
 30
0.0
 11
-58.38219731477347
 21
-6.349999999999993
 31
0.0
  0
LINE
  5
16D
330
169
100
AcDbEntity
  8
치수문자_일반주서
 62
     0
370
    -2
100
AcDbLine
 10
-37.54450000000001
 20
6.35
 30
0.0
 11
-58.38219731477347
 21
6.350000000000001
 31
0.0
  0
LINE
  5
16E
330
169
100
AcDbEntity
  8
치수문자_일반주서
 62
     0
370
    -2
100
AcDbLine
 10
-58.38219731477347
 20
6.350000000000001
 30
0.0
 11
-58.38219731477347
 21
36.33949999999999
 31
0.0
  0
LINE
  5
16F
330
169
100
AcDbEntity
  8
치수문자_일반주서
 62
     0
370
    -2
100
AcDbLine
 10
-58.38219731477347
 20
-3.047999999999994
 30
0.0
 11
-58.38219731477347
 21
3.048000000000001
 31
0.0
  0
SOLID
  5
170
330
169
100
AcDbEntity
  8
치수문자_일반주서
 62
     0
100
AcDbTrace
 10
-58.93253064810681
 20
-3.047999999999994
 30
0.0
 11
-57.83186398144014
 21
-3.047999999999994
 31
0.0
 12
-58.38219731477347
 22
-6.349999999999993
 32
0.0
 13
-58.38219731477347
 23
-6.349999999999993
 33
0.0
  0
SOLID
  5
171
330
169
100
AcDbEntity
  8
치수문자_일반주서
 62
     0
100
AcDbTrace
 10
-57.83186398144014
 20
3.048000000000001
 30
0.0
 11
-58.93253064810681
 21
3.048000000000001
 31
0.0
 12
-58.38219731477347
 22
6.350000000000001
 32
0.0
 13
-58.38219731477347
 23
6.350000000000001
 33
0.0
  0
MTEXT
  5
172
330
169
100
AcDbEntity
  8
치수문자_일반주서
 62
     0
100
AcDbMText
 10
-61.00719731477347
 20
22.99575
 30
0.0
 40
3.5
 41
0.0
 71
     5
 72
     1
  1
\A1;{%%c12.70 [1/2]}
  7
SLDTEXTSTYLE0
 11
0.0
 21
1.0
 31
0.0
 73
     1
 44
1.0
  0
POINT
  5
173
330
169
100
AcDbEntity
  8
Defpoints
 62
     0
100
AcDbPoint
 10
-37.48200000000001
 20
-6.349999999999996
 30
0.0
  0
POINT
  5
174
330
169
100
AcDbEntity
  8
Defpoints
 62
     0
100
AcDbPoint
 10
-37.48200000000001
 20
6.35
 30
0.0
  0
POINT
  5
175
330
169
100
AcDbEntity
  8
Defpoints
 62
     0
100
AcDbPoint
 10
-58.38219731477347
 20
6.350000000000001
 30
0.0
  0
ENDBLK
  5
16B
330
169
100
AcDbEntity
  8
0
100
AcDbBlockEnd
  0
BLOCK
  5
183
330
182
100
AcDbEntity
  8
0
100
AcDbBlockBegin
  2
*D9
 70
     1
 10
0.0
 20
0.0
 30
0.0
  3
*D9
  1
*D9
  0
LINE
  5
185
330
182
100
AcDbEntity
  8
치수문자_일반주서
 62
     0
370
    -2
100
AcDbLine
 10
23.2024439240507
 20
11.72320517097646
 30
0.0
 11
23.82856963362137
 21
16.93573494027414
 31
0.0
  0
ARC
  5
186
330
182
100
AcDbEntity
  8
치수문자_일반주서
 62
     0
370
    -2
100
AcDbCircle
 10
120.7987492845198
 20
-0.0000000000000061
 30
0.0
 40
98.2978756611491
100
AcDbArc
 50
173.1504852677501
 51
175.075242633875
  0
ARC
  5
187
330
182
100
AcDbEntity
  8
치수문자_일반주서
 62
     0
370
    -2
100
AcDbCircle
 10
120.7987492845198
 20
-0.0000000000000061
 30
0.0
 40
98.2978756611491
100
AcDbArc
 50
181.9247573661249
 51
183.8495147322499
  0
SOLID
  5
188
330
182
100
AcDbEntity
  8
치수문자_일반주서
 62
     0
100
AcDbTrace
 10
22.31474257075172
 20
8.476649172552163
 30
0.0
 11
23.41277824610131
 21
8.400591518297821
 31
0.0
 12
22.63558744566349
 22
5.144513319376212
 32
0.0
 13
22.63558744566349
 23
5.144513319376212
 33
0.0
  0
SOLID
  5
189
330
182
100
AcDbEntity
  8
치수문자_일반주서
 62
     0
100
AcDbTrace
 10
23.10658934468505
 20
-3.292290880637736
 30
0.0
 11
22.00607793900176
 21
-3.310777553461987
 31
0.0
 12
22.50087362337065
 22
-0.0000000000000061
 32
0.0
 13
22.50087362337065
 23
-0.0000000000000061
 33
0.0
  0
MTEXT
  5
18A
330
182
100
AcDbEntity
  8
치수문자_일반주서
 62
     0
100
AcDbMText
 10
20.90924189418719
 20
14.64253291041063
 30
0.0
 40
3.5
 41
0.0
 71
     5
 72
     1
  1
\A1;3%%d
  7
SLDTEXTSTYLE0
 11
0.1192620399182227
 21
0.9928628131995599
 31
0.0
 73
     1
 44
1.0
  0
POINT
  5
18B
330
182
100
AcDbEntity
  8
Defpoints
 62
     0
100
AcDbPoint
 10
22.51584486595029
 20
1.715534477959923
 30
0.0
  0
POINT
  5
18C
330
182
100
AcDbEntity
  8
Defpoints
 62
     0
100
AcDbPoint
 10
-41.29200000000001
 20
-0.0000000000000061
 30
0.0
  0
POINT
  5
18D
330
182
100
AcDbEntity
  8
Defpoints
 62
     0
100
AcDbPoint
 10
25.20703951216697
 20
5.009749227037979
 30
0.0
  0
POINT
  5
18E
330
182
100
AcDbEntity
  8
Defpoints
 62
     0
100
AcDbPoint
 10
20.11507441631842
 20
5.276607809898159
 30
0.0
  0
POINT
  5
18F
330
182
100
AcDbEntity
  8
Defpoints
 62
     0
100
AcDbPoint
 10
66.29916666107059
 20
-0.0000000000000061
 30
0.0
  0
ENDBLK
  5
184
330
182
100
AcDbEntity
  8
0
100
AcDbBlockEnd
  0
ENDSEC
  0
SECTION
  2
ENTITIES
  0
LINE
  5
95
330
1F
100
AcDbEntity
  8
0
  6
Continuous
 62
     4
370
    15
100
AcDbLine
 10
9.987999999999996
 20
6.350000000000007
 30
0.0
 11
-37.48200000000001
 21
6.350000000000001
 31
0.0
  0
LINE
  5
96
330
1F
100
AcDbEntity
  8
0
  6
Continuous
 62
     4
370
    15
100
AcDbLine
 10
-37.48200000000001
 20
-6.349999999999995
 30
0.0
 11
11.075761218402
 21
-6.349999999999989
 31
0.0
  0
LINE
  5
97
102
{ACAD_REACTORS
102
}
330
1F
100
AcDbEntity
  8
0
  6
Continuous
 62
     4
370
    15
100
AcDbLine
 10
-37.48200000000001
 20
6.35
 30
0.0
 11
-38.292
 21
5.540000000000017
 31
0.0
  0
LINE
  5
98
102
{ACAD_REACTORS
102
}
330
1F
100
AcDbEntity
  8
0
  6
Continuous
 62
     4
370
    15
100
AcDbLine
 10
-38.292
 20
-5.540000000000013
 30
0.0
 11
-37.48200000000001
 21
-6.349999999999996
 31
0.0
  0
LINE
  5
99
330
1F
100
AcDbEntity
  8
0
  6
Continuous
 62
     1
370
    15
100
AcDbLine
 10
50.20284487341013
 20
-3.69977457666407
 30
0.0
 11
54.09396977190846
 21
-3.495849361820823
 31
0.0
  0
LINE
  5
9A
330
1F
100
AcDbEntity
  8
0
  6
Continuous
 62
     1
370
    15
100
AcDbLine
 10
24.44222775383171
 20
-5.04983131286187
 30
0.0
 11
29.34910959325562
 21
-4.792672532453378
 31
0.0
  0
LINE
  5
9B
330
1F
100
AcDbEntity
  8
0
  6
Continuous
 62
     1
370
    15
100
AcDbLine
 10
16.89160296956367
 20
5.445542790004867
 30
0.0
 11
12.50800000000003
 21
5.675277686898243
 31
0.0
  0
LINE
  5
9C
330
1F
100
AcDbEntity
  8
0
  6
Continuous
 62
     1
370
    15
100
AcDbLine
 10
41.73032575638393
 20
4.143800488520545
 30
0.0
 11
37.37599566568624
 21
4.372001258839335
 31
0.0
  0
LINE
  5
9D
330
1F
100
AcDbEntity
  8
0
  6
Continuous
 62
     1
370
    15
100
AcDbLine
 10
41.66636085401548
 20
-4.147152747005713
 30
0.0
 11
45.84931562705322
 21
-3.927933376509408
 31
0.0
  0
LINE
  5
9E
330
1F
100
AcDbEntity
  8
0
  6
Continuous
 62
     1
370
    15
100
AcDbLine
 10
15.78010912257522
 20
-5.503793714212279
 30
0.0
 11
21.05486473203455
 21
-5.22735548645975
 31
0.0
  0
LINE
  5
9F
330
1F
100
AcDbEntity
  8
0
  6
Continuous
 62
     1
370
    15
100
AcDbLine
 10
33.48053088884691
 20
4.576153917068792
 30
0.0
 11
28.76065722896675
 21
4.82351201407963
 31
0.0
  0
LINE
  5
A0
330
1F
100
AcDbEntity
  8
0
  6
Continuous
 62
     1
370
    15
100
AcDbLine
 10
58.23238878408465
 20
3.278964011649971
 30
0.0
 11
54.44363747507767
 21
3.477524054010742
 31
0.0
  0
LINE
  5
A1
330
1F
100
AcDbEntity
  8
0
  6
Continuous
 62
     1
370
    15
100
AcDbLine
 10
58.65947512178752
 20
-3.256581365128818
 30
0.0
 11
60.29916666107135
 21
-3.170648772845761
 31
0.0
  0
LINE
  5
A2
330
1F
100
AcDbEntity
  8
0
  6
Continuous
 62
     1
370
    15
100
AcDbLine
 10
33.07510013722548
 20
-4.597401642414307
 30
0.0
 11
37.60937623787159
 21
-4.359770301323276
 31
0.0
  0
LINE
  5
A3
330
1F
100
AcDbEntity
  8
0
  6
Continuous
 62
     1
370
    15
100
AcDbLine
 10
12.50800000000003
 20
-5.675277686898225
 30
0.0
 11
12.71647216354754
 21
-5.664352123764369
 31
0.0
  0
LINE
  5
A4
102
{ACAD_REACTORS
102
}
330
1F
100
AcDbEntity
  8
0
  6
Continuous
 62
     1
370
    15
100
AcDbLine
 10
25.20703951216697
 20
5.009749227037979
 30
0.0
 11
20.11507441631842
 21
5.276607809898159
 31
0.0
  0
LINE
  5
A5
330
1F
100
AcDbEntity
  8
0
  6
Continuous
 62
     1
370
    15
100
AcDbLine
 10
49.96599650615912
 20
3.712187273618528
 30
0.0
 11
45.94049098757715
 21
3.923155078339036
 31
0.0
  0
LINE
  5
A6
330
1F
100
AcDbEntity
  8
0
  6
Continuous
 62
     4
370
    15
100
AcDbLine
 10
11.075761218402
 20
-6.349999999999986
 30
0.0
 11
11.492
 21
-5.887719999999991
 31
0.0
  0
LINE
  5
A7
330
1F
100
AcDbEntity
  8
0
  6
Continuous
 62
     4
370
    15
100
AcDbLine
 10
11.492
 20
-5.887719999999991
 30
0.0
 11
12.50800000000003
 21
-5.675277686898226
 31
0.0
  0
ARC
  5
A8
330
1F
100
AcDbEntity
  8
0
  6
Continuous
 62
     1
370
    15
100
AcDbCircle
 10
60.133
 20
0.0000000000000091
 30
0.0
 40
3.175
100
AcDbArc
 50
273.0000000000009
 51
293.3409628545136
  0
LINE
  5
A9
330
1F
100
AcDbEntity
  8
0
  6
Continuous
 62
     4
370
    15
100
AcDbLine
 10
12.50800000000003
 20
5.675277686898244
 30
0.0
 11
11.492
 21
5.887720000000009
 31
0.0
  0
ARC
  5
AA
330
1F
100
AcDbEntity
  8
0
  6
Continuous
 62
     1
370
    15
100
AcDbCircle
 10
60.133
 20
0.0000000000000091
 30
0.0
 40
3.175
100
AcDbArc
 50
27.85617637447594
 51
44.37470779515472
  0
LINE
  5
AB
330
1F
100
AcDbEntity
  8
0
  6
Continuous
 62
     4
370
    15
100
AcDbLine
 10
11.492
 20
5.887720000000009
 30
0.0
 11
11.075761218402
 21
6.350000000000004
 31
0.0
  0
SPLINE
  5
AC
330
1F
100
AcDbEntity
  8
0
  6
Continuous
 62
     4
370
    15
100
AcDbSpline
210
0.0
220
0.0
230
1.0
 70
     8
 71
     3
 72
     8
 73
     4
 74
     0
 42
0.000000001
 43
0.00000001
 40
0.0
 40
0.0
 40
0.0
 40
0.0
 40
1.0
 40
1.0
 40
1.0
 40
1.0
 10
9.988000000004542
 20
6.125388186952564
 30
0.0
 10
10.35178726927844
 20
6.277792843502792
 30
0.0
 10
10.71226186401196
 20
6.35321297624308
 30
0.0
 10
11.07576121840201
 20
6.34989552182326
 30
0.0
  0
LINE
  5
AD
330
1F
100
AcDbEntity
  8
0
  6
Continuous
 62
     4
370
    15
100
AcDbLine
 10
9.987999999999996
 20
6.098646423449902
 30
0.0
 11
9.987999999999996
 21
6.350000000000007
 31
0.0
  0
SPLINE
  5
AE
330
1F
100
AcDbEntity
  8
0
  6
Continuous
 62
     4
370
    15
100
AcDbSpline
210
0.0
220
0.0
230
1.0
 70
     8
 71
     3
 72
     8
 73
     4
 74
     0
 42
0.000000001
 43
0.00000001
 40
0.0
 40
0.0
 40
0.0
 40
0.0
 40
1.0
 40
1.0
 40
1.0
 40
1.0
 10
11.075761218402
 20
5.432825299294873
 30
0.0
 10
10.7123929313905
 20
5.720543284589842
 30
0.0
 10
10.35136746394944
 20
5.943829081192168
 30
0.0
 10
9.987999999999996
 20
6.098646423450122
 30
0.0
  0
LINE
  5
AF
330
1F
100
AcDbEntity
  8
0
  6
Continuous
 62
     4
370
    15
100
AcDbLine
 10
11.075761218402
 20
5.432825299294868
 30
0.0
 11
11.075761218402
 21
-3.206493702754591
 31
0.0
  0
SPLINE
  5
B0
330
1F
100
AcDbEntity
  8
0
  6
Continuous
 62
     4
370
    15
100
AcDbSpline
210
0.0
220
0.0
230
1.0
 70
     8
 71
     3
 72
     8
 73
     4
 74
     0
 42
0.000000001
 43
0.00000001
 40
0.0
 40
0.0
 40
0.0
 40
0.0
 40
1.0
 40
1.0
 40
1.0
 40
1.0
 10
9.988000000004543
 20
-1.613008034580593
 30
0.0
 10
10.35178726927844
 20
-2.172179249709278
 30
0.0
 10
10.71226186401196
 20
-2.707323613318465
 30
0.0
 10
11.07576121840201
 20
-3.206493702754613
 30
0.0
  0
LINE
  5
B1
330
1F
100
AcDbEntity
  8
0
  6
Continuous
 62
     4
370
    15
100
AcDbLine
 10
9.987999999999998
 20
-4.581236672500846
 30
0.0
 11
9.987999999999998
 21
-1.613008034573604
 31
0.0
  0
SPLINE
  5
B2
330
1F
100
AcDbEntity
  8
0
  6
Continuous
 62
     4
370
    15
100
AcDbSpline
210
0.0
220
0.0
230
1.0
 70
     8
 71
     3
 72
     8
 73
     4
 74
     0
 42
0.000000001
 43
0.00000001
 40
0.0
 40
0.0
 40
0.0
 40
0.0
 40
1.0
 40
1.0
 40
1.0
 40
1.0
 10
11.075761218402
 20
-5.563372774149753
 30
0.0
 10
10.7123929313905
 20
-5.295444769118641
 30
0.0
 10
10.35136746394944
 20
-4.966081379985433
 30
0.0
 10
9.987999999999998
 20
-4.581236672500903
 30
0.0
  0
LINE
  5
B3
330
1F
100
AcDbEntity
  8
0
  6
Continuous
 62
     4
370
    15
100
AcDbLine
 10
11.075761218402
 20
-5.563372774149752
 30
0.0
 11
11.075761218402
 21
-6.349999999999989
 31
0.0
  0
LINE
  5
B4
330
1F
100
AcDbEntity
  8
0
  6
Continuous
 62
     4
370
    15
100
AcDbLine
 10
11.075761218402
 20
6.350000000000004
 30
0.0
 11
11.075761218402
 21
6.349895521823256
 31
0.0
  0
LINE
  5
B5
330
1F
100
AcDbEntity
  8
0
  6
Continuous
 62
     4
370
    15
100
AcDbLine
 10
-37.48200000000001
 20
6.350000000000001
 30
0.0
 11
-37.48200000000001
 21
-6.349999999999995
 31
0.0
  0
LINE
  5
B6
330
1F
100
AcDbEntity
  8
0
  6
Continuous
 62
     4
370
    15
100
AcDbLine
 10
-38.292
 20
-5.540000000000013
 30
0.0
 11
-38.292
 21
5.540000000000017
 31
0.0
  0
SPLINE
  5
B7
330
1F
100
AcDbEntity
  8
0
  6
Continuous
 62
     4
370
    15
100
AcDbSpline
210
0.0
220
0.0
230
1.0
 70
     8
 71
     3
 72
     8
 73
     4
 74
     0
 42
0.000000001
 43
0.00000001
 40
0.0
 40
0.0
 40
0.0
 40
0.0
 40
1.0
 40
1.0
 40
1.0
 40
1.0
 10
11.492
 20
4.423208387334581
 30
0.0
 10
11.34022795951393
 20
4.781969715620338
 30
0.0
 10
11.20277130873682
 20
5.119051848934625
 30
0.0
 10
11.075761218402
 20
5.43282529929487
 30
0.0
  0
LINE
  5
B8
330
1F
100
AcDbEntity
  8
0
  6
Continuous
 62
     4
370
    15
100
AcDbLine
 10
11.492
 20
4.423208387334591
 30
0.0
 11
11.492
 21
-3.113608852189416
 31
0.0
  0
SPLINE
  5
B9
330
1F
100
AcDbEntity
  8
0
  6
Continuous
 62
     4
370
    15
100
AcDbSpline
210
0.0
220
0.0
230
1.0
 70
     8
 71
     3
 72
     8
 73
     4
 74
     0
 42
0.000000001
 43
0.00000001
 40
0.0
 40
0.0
 40
0.0
 40
0.0
 40
1.0
 40
1.0
 40
1.0
 40
1.0
 10
11.075761218402
 20
-3.206493702754591
 30
0.0
 10
11.21985920493199
 20
-3.148550817123946
 30
0.0
 10
11.35722426373047
 20
-3.126846494561914
 30
0.0
 10
11.492
 20
-3.11360885218942
 30
0.0
  0
SPLINE
  5
BA
330
1F
100
AcDbEntity
  8
0
  6
Continuous
 62
     1
370
    15
100
AcDbSpline
210
0.0
220
0.0
230
1.0
 70
     8
 71
     3
 72
    10
 73
     6
 74
     0
 42
0.000000001
 43
0.00000001
 40
0.0
 40
0.0
 40
0.0
 40
0.0
 40
0.3179291377722396
 40
0.6394245938625331
 40
1.0
 40
1.0
 40
1.0
 40
1.0
 10
60.29916666107135
 20
2.7478731759848
 30
0.0
 10
60.07870772138514
 20
2.838156607857738
 30
0.0
 10
59.63531687976556
 20
3.019736211295113
 30
0.0
 10
58.94566511029706
 20
3.213662082788332
 30
0.0
 10
58.4783052030324
 20
3.2419953155311
 30
0.0
 10
58.23123631663559
 20
3.2569736227264
 30
0.0
  0
SPLINE
  5
BB
330
1F
100
AcDbEntity
  8
0
  6
Continuous
 62
     1
370
    15
100
AcDbSpline
210
0.0
220
0.0
230
1.0
 70
     8
 71
     3
 72
    24
 73
    20
 74
     0
 42
0.000000001
 43
0.00000001
 40
0.0
 40
0.0
 40
0.0
 40
0.0
 40
0.001621783427649
 40
0.065097670815263
 40
0.126684653640199
 40
0.1900586015565485
 40
0.2516081798196858
 40
0.3149407065116334
 40
0.376501473750584
 40
0.439842863341193
 40
0.501461441844994
 40
0.5648600947353389
 40
0.6265764866817513
 40
0.6900738895492466
 40
0.7519236268146852
 40
0.8155566135456948
 40
0.8775711565270992
 40
0.941372318512278
 40
1.0
 40
1.0
 40
1.0
 40
1.0
 10
48.00153181993909
 20
-3.25404996817984
 30
0.0
 10
47.99326748922452
 20
-3.259288332764642
 30
0.0
 10
47.66154090280565
 20
-3.46955397461188
 30
0.0
 10
47.02155168307627
 20
-3.717551873852023
 30
0.0
 10
46.07312442514058
 20
-3.950140681461227
 30
0.0
 10
45.14075395522678
 20
-3.938232604354728
 30
0.0
 10
44.20560703164833
 20
-3.706086724440168
 30
0.0
 10
43.28484543999206
 20
-3.263162033919353
 30
0.0
 10
42.36127565802279
 20
-2.626725991992116
 30
0.0
 10
41.45120937043642
 20
-1.841437543150378
 30
0.0
 10
40.53806318797098
 20
-0.9351694933766428
 30
0.0
 10
39.6377596486038
 20
0.0284661266022128
 30
0.0
 10
38.73404756869827
 20
1.015491916858516
 30
0.0
 10
37.84268251655545
 20
1.957560763616642
 30
0.0
 10
36.9475564946428
 20
2.821069198795576
 30
0.0
 10
36.06436824524734
 20
3.548364066797876
 30
0.0
 10
35.17716514206217
 20
4.107391835027362
 30
0.0
 10
34.31788047693522
 20
4.475704413529293
 30
0.0
 10
33.75146383112224
 20
4.539655647665674
 30
0.0
 10
33.48022305355647
 20
4.570280069814399
 30
0.0
  0
SPLINE
  5
BC
330
1F
100
AcDbEntity
  8
0
  6
Continuous
 62
     1
370
    15
100
AcDbSpline
210
0.0
220
0.0
230
1.0
 70
     8
 71
     3
 72
    20
 73
    16
 74
     0
 42
0.000000001
 43
0.00000001
 40
0.0
 40
0.0
 40
0.0
 40
0.0
 40
0.0394675894218858
 40
0.1185359557743119
 40
0.1998738864167384
 40
0.2793508608109254
 40
0.3611085306771735
 40
0.4410076076246053
 40
0.5231989610343863
 40
0.6035325346510131
 40
0.6861703770163066
 40
0.7669498577393147
 40
0.850045975632769
 40
0.92414565956286
 40
1.0
 40
1.0
 40
1.0
 40
1.0
 10
22.71237028671106
 20
-4.670755473310646
 30
0.0
 10
22.57389601682739
 20
-4.755573169484704
 30
0.0
 10
22.15800591126881
 20
-5.01031248419421
 30
0.0
 10
21.46109036102407
 20
-5.209586703348267
 30
0.0
 10
20.6283866104358
 20
-5.260698804433828
 30
0.0
 10
19.79035057109072
 20
-5.066505877125277
 30
0.0
 10
18.96174257311069
 20
-4.650726883074132
 30
0.0
 10
18.12749908371719
 20
-4.019841053269162
 30
0.0
 10
17.30260571085024
 20
-3.210248600617785
 30
0.0
 10
16.47196823702055
 20
-2.243247268759364
 30
0.0
 10
15.65057484597781
 20
-1.174217947133676
 30
0.0
 10
14.82333661022431
 20
-0.0315758312471796
 30
0.0
 10
14.02907672186184
 20
1.083124422034131
 30
0.0
 10
13.25425352198252
 20
2.148373989495776
 30
0.0
 10
12.75868410888108
 20
2.77249406735694
 30
0.0
 10
12.508
 20
3.088205613342502
 30
0.0
  0
SPLINE
  5
BD
330
1F
100
AcDbEntity
  8
0
  6
Continuous
 62
     4
370
    15
100
AcDbSpline
210
0.0
220
0.0
230
1.0
 70
     8
 71
     3
 72
     8
 73
     4
 74
     0
 42
0.000000001
 43
0.00000001
 40
0.0
 40
0.0
 40
0.0
 40
0.0
 40
1.0
 40
1.0
 40
1.0
 40
1.0
 10
12.50800000000003
 20
3.088205613342464
 30
0.0
 10
12.1621800502746
 20
3.57053132212067
 30
0.0
 10
11.82663060814494
 20
4.017252749484336
 30
0.0
 10
11.49199999999999
 20
4.423208387334588
 30
0.0
  0
SPLINE
  5
BE
330
1F
100
AcDbEntity
  8
0
  6
Continuous
 62
     4
370
    15
100
AcDbSpline
210
0.0
220
0.0
230
1.0
 70
     8
 71
     3
 72
     8
 73
     4
 74
     0
 42
0.000000001
 43
0.00000001
 40
0.0
 40
0.0
 40
0.0
 40
0.0
 40
1.0
 40
1.0
 40
1.0
 40
1.0
 10
11.075761218402
 20
6.349895521823256
 30
0.0
 10
11.21985920493199
 20
6.18970913940088
 30
0.0
 10
11.35722426373047
 20
6.036602143723017
 30
0.0
 10
11.492
 20
5.884392095394532
 30
0.0
  0
SPLINE
  5
BF
330
1F
100
AcDbEntity
  8
0
  6
Continuous
 62
     4
370
    15
100
AcDbSpline
210
0.0
220
0.0
230
1.0
 70
     8
 71
     3
 72
     8
 73
     4
 74
     0
 42
0.000000001
 43
0.00000001
 40
0.0
 40
0.0
 40
0.0
 40
0.0
 40
1.0
 40
1.0
 40
1.0
 40
1.0
 10
11.492
 20
5.88439209539453
 30
0.0
 10
11.82930486755705
 20
5.799234632350069
 30
0.0
 10
12.16586922382425
 20
5.666451654203811
 30
0.0
 10
12.50800000000003
 20
5.48676084843907
 30
0.0
  0
SPLINE
  5
C0
330
1F
100
AcDbEntity
  8
0
  6
Continuous
 62
     1
370
    15
100
AcDbSpline
210
0.0
220
0.0
230
1.0
 70
     8
 71
     3
 72
    22
 73
    18
 74
     0
 42
0.000000001
 43
0.00000001
 40
0.0
 40
0.0
 40
0.0
 40
0.0
 40
0.0434262290832421
 40
0.0872730449768687
 40
0.1609194127579139
 40
0.2366979770364969
 40
0.3103611490890017
 40
0.386180787964739
 40
0.4594731384385392
 40
0.5349106843739557
 40
0.6078405675221642
 40
0.6829043984081511
 40
0.7554835676160107
 40
0.830185722193857
 40
0.9024267613248826
 40
0.9767801405934636
 40
1.0
 40
1.0
 40
1.0
 40
1.0
 10
12.508
 20
5.486760848439081
 30
0.0
 10
12.67484871824506
 20
5.412380677636849
 30
0.0
 10
13.01016209910118
 20
5.262899957600868
 30
0.0
 10
13.6305864470036
 20
4.868201010863672
 30
0.0
 10
14.37922567163373
 20
4.25965191310651
 30
0.0
 10
15.24801742359173
 20
3.375580270226699
 30
0.0
 10
16.12933955508698
 20
2.343588650400571
 30
0.0
 10
17.00591427094167
 20
1.229314766711031
 30
0.0
 10
17.8936676018799
 20
0.0640123827161126
 30
0.0
 10
18.77489850906477
 20
-1.07660720472936
 30
0.0
 10
19.66761477973129
 20
-2.162693530325579
 30
0.0
 10
20.55368775555028
 20
-3.124524064418067
 30
0.0
 10
21.45160273856366
 20
-3.935500345517247
 30
0.0
 10
22.34270312977072
 20
-4.549654418433686
 30
0.0
 10
23.24627448649514
 20
-4.929972198157054
 30
0.0
 10
23.9422368230392
 20
-5.087639660593958
 30
0.0
 10
24.34503756493201
 20
-5.036534432232064
 30
0.0
 10
24.44089352628573
 20
-5.024372734684509
 30
0.0
  0
SPLINE
  5
C1
330
1F
100
AcDbEntity
  8
0
  6
Continuous
 62
     1
370
    15
100
AcDbSpline
210
0.0
220
0.0
230
1.0
 70
     8
 71
     3
 72
    23
 73
    19
 74
     0
 42
0.000000001
 43
0.00000001
 40
0.0
 40
0.0
 40
0.0
 40
0.0
 40
0.0530861067429409
 40
0.1204858968989504
 40
0.1857814753501482
 40
0.2529792155601836
 40
0.3181011137663003
 40
0.385118706793286
 40
0.4500905754780137
 40
0.5169522650261564
 40
0.5817995820093441
 40
0.6485315599267817
 40
0.7132804623084307
 40
0.7799097280378823
 40
0.8445850901565947
 40
0.9111370240575121
 40
0.9757674306935533
 40
1.0
 40
1.0
 40
1.0
 40
1.0
 10
35.38772382272268
 20
3.946214666407661
 30
0.0
 10
35.63865359796277
 20
4.054941330167457
 30
0.0
 10
36.2081717051175
 20
4.301710784619334
 30
0.0
 10
37.09294883783887
 20
4.412239101538717
 30
0.0
 10
38.04956081958717
 20
4.31707636000442
 30
0.0
 10
39.00106104625595
 20
3.987702291231094
 30
0.0
 10
39.96625334380513
 20
3.445836698072117
 30
0.0
 10
40.92629853918167
 20
2.73043577544003
 30
0.0
 10
41.90040864285562
 20
1.870242911924261
 30
0.0
 10
42.86961882209621
 20
0.9296644682248384
 30
0.0
 10
43.85313081705916
 20
-0.0541834976633628
 30
0.0
 10
44.8321024841512
 20
-1.007110764877872
 30
0.0
 10
45.82556809769976
 20
-1.891537570292508
 30
0.0
 10
46.81487193895003
 20
-2.639027834875307
 30
0.0
 10
47.81883570972169
 20
-3.224817387412582
 30
0.0
 10
48.81930695023521
 20
-3.585158897169931
 30
0.0
 10
49.61654382412352
 20
-3.737374848944461
 30
0.0
 10
50.07609100342977
 20
-3.686282987317117
 30
0.0
 10
50.20140763562682
 20
-3.672350446067528
 30
0.0
  0
SPLINE
  5
C2
330
1F
100
AcDbEntity
  8
0
  6
Continuous
 62
     1
370
    15
100
AcDbSpline
210
0.0
220
0.0
230
1.0
 70
     8
 71
     3
 72
    14
 73
    10
 74
     0
 42
0.000000001
 43
0.00000001
 40
0.0
 40
0.0
 40
0.0
 40
0.0
 40
0.0843325525343093
 40
0.2623629642661016
 40
0.4399288978567964
 40
0.6174961312550908
 40
0.7886201965447754
 40
0.9597821119289333
 40
1.0
 40
1.0
 40
1.0
 40
1.0
 10
60.51574573597367
 20
2.622672956095445
 30
0.0
 10
60.58078298302017
 20
2.646248952191754
 30
0.0
 10
60.78311724671847
 20
2.719595104246586
 30
0.0
 10
61.11805496492993
 20
2.75694070285764
 30
0.0
 10
61.51391299599915
 20
2.726112876622555
 30
0.0
 10
61.88324777113085
 20
2.60524697355314
 30
0.0
 10
62.21471488221928
 20
2.403107092707306
 30
0.0
 10
62.42454169651079
 20
2.207290312172743
 30
0.0
 10
62.52136911937652
 20
2.085800923108696
 30
0.0
 10
62.53979185603995
 20
2.062685911308454
 30
0.0
  0
SPLINE
  5
C3
330
1F
100
AcDbEntity
  8
0
  6
Continuous
 62
     1
370
    15
100
AcDbSpline
210
0.0
220
0.0
230
1.0
 70
     8
 71
     3
 72
    12
 73
     8
 74
     0
 42
0.000000001
 43
0.00000001
 40
0.0
 40
0.0
 40
0.0
 40
0.0
 40
0.1576618080590381
 40
0.4354110518841242
 40
0.7146058831315375
 40
0.9604726386966278
 40
1.0
 40
1.0
 40
1.0
 40
1.0
 10
61.43846867035055
 20
1.653571471335545
 30
0.0
 10
61.50405300089849
 20
1.625231437130242
 30
0.0
 10
61.68517576425222
 20
1.54696540519978
 30
0.0
 10
61.99691407268389
 20
1.56995583226941
 30
0.0
 10
62.30753154612689
 20
1.722674765623049
 30
0.0
 10
62.46993751795349
 20
1.9270670379867
 30
0.0
 10
62.53129393317042
 20
2.046187598437571
 30
0.0
 10
62.53979185603992
 20
2.062685911308442
 30
0.0
  0
SPLINE
  5
C4
330
1F
100
AcDbEntity
  8
0
  6
Continuous
 62
     1
370
    15
100
AcDbSpline
210
0.0
220
0.0
230
1.0
 70
     8
 71
     3
 72
    10
 73
     6
 74
     0
 42
0.000000001
 43
0.00000001
 40
0.0
 40
0.0
 40
0.0
 40
0.0
 40
0.5
 40
0.5
 40
1.0
 40
1.0
 40
1.0
 40
1.0
 10
61.52390665542046
 20
1.94423050817019
 30
0.0
 10
61.31926109026517
 20
2.107372475132327
 30
0.0
 10
61.11631991348358
 20
2.263859442244245
 30
0.0
 10
60.70677917864229
 20
2.53973431741978
 30
0.0
 10
60.504886644198
 20
2.656568903162181
 30
0.0
 10
60.29916666106993
 20
2.747873175985431
 30
0.0
  0
SPLINE
  5
C5
330
1F
100
AcDbEntity
  8
0
  6
Continuous
 62
     1
370
    15
100
AcDbSpline
210
0.0
220
0.0
230
1.0
 70
     8
 71
     3
 72
    23
 73
    19
 74
     0
 42
0.000000001
 43
0.00000001
 40
0.0
 40
0.0
 40
0.0
 40
0.0
 40
0.0309900220679223
 40
0.098966345598551
 40
0.1645103340447124
 40
0.2319747427936455
 40
0.2971430712086685
 40
0.3642149391290299
 40
0.4291145974738808
 40
0.4959050045834183
 40
0.560628326498597
 40
0.6272331364442586
 40
0.6918559318867685
 40
0.7583537774497491
 40
0.8229373245440719
 40
0.8893917071025547
 40
0.953986994711869
 40
1.0
 40
1.0
 40
1.0
 40
1.0
 10
56.35384659132914
 20
-2.816064864603115
 30
0.0
 10
56.19479161643581
 20
-2.901267934155852
 30
0.0
 10
55.68685104188691
 20
-3.173363139797598
 30
0.0
 10
54.85016260073728
 20
-3.423215201487583
 30
0.0
 10
53.83388499348661
 20
-3.54211965685607
 30
0.0
 10
52.83883456418626
 20
-3.420772993823804
 30
0.0
 10
51.84310479672524
 20
-3.076537546273496
 30
0.0
 10
50.86658927686548
 20
-2.534104053614509
 30
0.0
 10
49.88873224593619
 20
-1.817414746608423
 30
0.0
 10
48.92866003233693
 20
-0.9827123489945581
 30
0.0
 10
47.96662919943117
 20
-0.064721469727986
 30
0.0
 10
47.02111469625769
 20
0.8659722254088104
 30
0.0
 10
46.07324157534573
 20
1.771857408103203
 30
0.0
 10
45.1407320164476
 20
2.583778732063044
 30
0.0
 10
44.20558113356479
 20
3.272364590029888
 30
0.0
 10
43.28497456109545
 20
3.775653849716315
 30
0.0
 10
42.45648599145886
 20
4.078004890175205
 30
0.0
 10
41.94276170227178
 20
4.107314517998618
 30
0.0
 10
41.72905260491753
 20
4.11950731136613
 30
0.0
  0
SPLINE
  5
C6
330
1F
100
AcDbEntity
  8
0
  6
Continuous
 62
     1
370
    15
100
AcDbSpline
210
0.0
220
0.0
230
1.0
 70
     8
 71
     3
 72
    25
 73
    21
 74
     0
 42
0.000000001
 43
0.00000001
 40
0.0
 40
0.0
 40
0.0
 40
0.0
 40
0.0241765633680508
 40
0.0815426731118189
 40
0.1405585237332751
 40
0.1981613517039935
 40
0.2574199499691011
 40
0.315275554205638
 40
0.3747934983831399
 40
0.4329163763195066
 40
0.4927086503960733
 40
0.5511119497667916
 40
0.6111921421518692
 40
0.6698878332753618
 40
0.7302683150515034
 40
0.7892673326823741
 40
0.8499594040988533
 40
0.9092717657664183
 40
0.9702857782636466
 40
1.0
 40
1.0
 40
1.0
 40
1.0
 10
31.17149949176919
 20
-4.180643578455939
 30
0.0
 10
31.05110515568028
 20
-4.255976117141403
 30
0.0
 10
30.64503933719483
 20
-4.510057579555946
 30
0.0
 10
29.94983744047241
 20
-4.735145307456847
 30
0.0
 10
29.0931680793618
 20
-4.836330632418369
 30
0.0
 10
28.23171391476412
 20
-4.696568933323233
 30
0.0
 10
27.3807242662168
 20
-4.338037942665953
 30
0.0
 10
26.52455536605643
 20
-3.766302619013754
 30
0.0
 10
25.67866839685409
 20
-3.016160889897494
 30
0.0
 10
24.8274791584004
 20
-2.1091513753482
 30
0.0
 10
23.98634173783855
 20
-1.099628795713274
 30
0.0
 10
23.13980988231809
 20
-0.017396257217908
 30
0.0
 10
22.3031172614657
 20
1.072558740312967
 30
0.0
 10
21.460945941326
 20
2.137783839059839
 30
0.0
 10
20.62842242839268
 20
3.114433184077919
 30
0.0
 10
19.79034920835936
 20
3.972176548766936
 30
0.0
 10
18.96171048627829
 20
4.663118835085948
 30
0.0
 10
18.12762655047225
 20
5.150783309120661
 30
0.0
 10
17.43936722443832
 20
5.410354543390606
 30
0.0
 10
17.02561542479096
 20
5.415379174283681
 30
0.0
 10
16.89010840404498
 20
5.417024781053851
 30
0.0
  0
SPLINE
  5
C7
330
1F
100
AcDbEntity
  8
0
  6
Continuous
 62
     1
370
    15
100
AcDbSpline
210
0.0
220
0.0
230
1.0
 70
     8
 71
     3
 72
    24
 73
    20
 74
     0
 42
0.000000001
 43
0.00000001
 40
0.0
 40
0.0
 40
0.0
 40
0.0
 40
0.022496714841808
 40
0.0847312410682492
 40
0.1487867660502039
 40
0.2107220114472179
 40
0.2744689008916836
 40
0.3361156038664933
 40
0.3995648668073279
 40
0.4609344819059417
 40
0.5240978755275759
 40
0.5852025660555399
 40
0.6480925813544358
 40
0.7089451605120949
 40
0.7715749669618693
 40
0.8321887547714
 40
0.8945720622768172
 40
0.954960607608716
 40
1.0
 40
1.0
 40
1.0
 40
1.0
 10
18.47123466578607
 20
4.919608896509531
 30
0.0
 10
18.57597080457932
 20
4.974342456306887
 30
0.0
 10
18.97044720200231
 20
5.180489997506758
 30
0.0
 10
19.66781389107681
 20
5.300758716331433
 30
0.0
 10
20.55363972073727
 20
5.266483481851435
 30
0.0
 10
21.45160164806816
 20
4.972501266619706
 30
0.0
 10
22.34275783178445
 20
4.459748792541084
 30
0.0
 10
23.24606302893509
 20
3.739085847339296
 30
0.0
 10
24.14262120884571
 20
2.860908738347065
 30
0.0
 10
25.05154186261985
 20
1.851424791669574
 30
0.0
 10
25.9538158429336
 20
0.7785916904633007
 30
0.0
 10
26.86858687508618
 20
-0.3253698418701894
 30
0.0
 10
27.77691762664666
 20
-1.386362346072299
 30
0.0
 10
28.69779580397332
 20
-2.372803728355777
 30
0.0
 10
29.61253568325305
 20
-3.217781660477694
 30
0.0
 10
30.5397814773578
 20
-3.899152646757206
 30
0.0
 10
31.46138565813299
 20
-4.360901013863282
 30
0.0
 10
32.30850559073059
 20
-4.604770928470512
 30
0.0
 10
32.84474185588989
 20
-4.582558442454483
 30
0.0
 10
33.07382492516475
 20
-4.573069146777573
 30
0.0
  0
SPLINE
  5
C8
330
1F
100
AcDbEntity
  8
0
  6
Continuous
 62
     1
370
    15
100
AcDbSpline
210
0.0
220
0.0
230
1.0
 70
     8
 71
     3
 72
    23
 73
    19
 74
     0
 42
0.000000001
 43
0.00000001
 40
0.0
 40
0.0
 40
0.0
 40
0.0
 40
0.0047240567004404
 40
0.07457524800707
 40
0.1423506700506152
 40
0.2120943481541833
 40
0.2797927924857608
 40
0.3494555240848556
 40
0.4171069116062149
 40
0.4867192167799377
 40
0.5543575130084941
 40
0.6239541546521793
 40
0.6916164708204866
 40
0.761235404615003
 40
0.8289623826011434
 40
0.8986455472997222
 40
0.9664767593200745
 40
1.0
 40
1.0
 40
1.0
 40
1.0
 10
43.77764794030338
 20
3.476801740048712
 30
0.0
 10
43.80001331363776
 20
3.489082781184231
 30
0.0
 10
44.15307919936829
 20
3.682954647366753
 30
0.0
 10
44.83248727070838
 20
3.860728325603857
 30
0.0
 10
45.82546745092902
 20
3.970358676881945
 30
0.0
 10
46.81488093887107
 20
3.824195137283526
 30
0.0
 10
47.81889630288443
 20
3.457538375483913
 30
0.0
 10
48.81904930698729
 20
2.89331764952169
 30
0.0
 10
49.83433165260945
 20
2.15947383052715
 30
0.0
 10
50.84596626259007
 20
1.314824430715295
 30
0.0
 10
51.87318235452135
 20
0.3986282461662715
 30
0.0
 10
52.89705118544756
 20
-0.5147523313777302
 30
0.0
 10
53.93693731853286
 20
-1.382266994064964
 30
0.0
 10
54.97387604676264
 20
-2.131857691020013
 30
0.0
 10
56.02714809651484
 20
-2.731374982139573
 30
0.0
 10
57.07828615072972
 20
-3.115644916429801
 30
0.0
 10
57.95828240336903
 20
-3.288837355506469
 30
0.0
 10
58.4840319112351
 20
-3.242370225314207
 30
0.0
 10
58.65792488603776
 20
-3.227001104889404
 30
0.0
  0
SPLINE
  5
C9
330
1F
100
AcDbEntity
  8
0
  6
Continuous
 62
     1
370
    15
100
AcDbSpline
210
0.0
220
0.0
230
1.0
 70
     8
 71
     3
 72
    18
 73
    14
 74
     0
 42
0.000000001
 43
0.00000001
 40
0.0
 40
0.0
 40
0.0
 40
0.0
 40
0.0618585869738504
 40
0.1244110625714358
 40
0.2217077983602366
 40
0.3218112037074161
 40
0.4192425688688678
 40
0.5195382655739706
 40
0.6162451723997994
 40
0.7157855642131818
 40
0.8119382032794382
 40
0.9108994205531881
 40
1.0
 40
1.0
 40
1.0
 40
1.0
 10
60.29916666107135
 20
-2.743847164303387
 30
0.0
 10
60.07868395969057
 20
-2.657649225290972
 30
0.0
 10
59.63524532813891
 20
-2.484286435925355
 30
0.0
 10
58.8498212956605
 20
-2.060149980195066
 30
0.0
 10
57.93298408518285
 20
-1.451880243708277
 30
0.0
 10
56.90101637276793
 20
-0.6381067724190044
 30
0.0
 10
55.86602471823148
 20
0.2486111717924991
 30
0.0
 10
54.84991705674907
 20
1.131822067321443
 30
0.0
 10
53.83395787538359
 20
1.965713030249931
 30
0.0
 10
52.8387929082305
 20
2.681030103755836
 30
0.0
 10
51.84319786153282
 20
3.238903019207577
 30
0.0
 10
50.88860627884551
 20
3.608552188069278
 30
0.0
 10
50.26234367884497
 20
3.67413620782578
 30
0.0
 10
49.96563078170708
 20
3.705208835359156
 30
0.0
  0
SPLINE
  5
CA
330
1F
100
AcDbEntity
  8
0
  6
Continuous
 62
     1
370
    15
100
AcDbSpline
210
0.0
220
0.0
230
1.0
 70
     8
 71
     3
 72
    24
 73
    20
 74
     0
 42
0.000000001
 43
0.00000001
 40
0.0
 40
0.0
 40
0.0
 40
0.0
 40
0.0580338418012146
 40
0.1186898768715921
 40
0.177771975717347
 40
0.238557527574379
 40
0.2977970574462234
 40
0.3587432590881943
 40
0.4181667657532498
 40
0.4793010945839259
 40
0.538932072039603
 40
0.6002788284320245
 40
0.6601381578784133
 40
0.7217189284882309
 40
0.7818252643012057
 40
0.8436593327420697
 40
0.9040294308676614
 40
0.966134116794702
 40
1.0
 40
1.0
 40
1.0
 40
1.0
 10
39.61675263249213
 20
-3.710055733702704
 30
0.0
 10
39.32528952545483
 20
-3.861187394581949
 30
0.0
 10
38.72919388172053
 20
-4.170279428891856
 30
0.0
 10
37.84275262418267
 20
-4.374574420921885
 30
0.0
 10
36.94753286384713
 20
-4.371322629293815
 30
0.0
 10
36.06439151011568
 20
-4.140550874350669
 30
0.0
 10
35.17709664393365
 20
-3.693465352507855
 30
0.0
 10
34.30146095927692
 20
-3.057066108107828
 30
0.0
 10
33.42138018839059
 20
-2.251932322122308
 30
0.0
 10
32.55266582008323
 20
-1.329444459408661
 30
0.0
 10
31.67924240686697
 20
-0.319480996674455
 30
0.0
 10
30.81690724396924
 20
0.713590741162149
 30
0.0
 10
29.94965668828238
 20
1.73613726592677
 30
0.0
 10
29.09321346108292
 20
2.683415043386333
 30
0.0
 10
28.23170982238048
 20
3.523573094775418
 30
0.0
 10
27.38069334231847
 20
4.206707597580831
 30
0.0
 10
26.5246807532316
 20
4.696728934695254
 30
0.0
 10
25.80199210068393
 20
4.966008941464169
 30
0.0
 10
25.36116211667956
 20
4.978079538144947
 30
0.0
 10
25.20560300218583
 20
4.982338983734416
 30
0.0
  0
SPLINE
  5
CB
330
1F
100
AcDbEntity
  8
0
  6
Continuous
 62
     1
370
    15
100
AcDbSpline
210
0.0
220
0.0
230
1.0
 70
     8
 71
     3
 72
    10
 73
     6
 74
     0
 42
0.000000001
 43
0.00000001
 40
0.0
 40
0.0
 40
0.0
 40
0.0
 40
0.12447694290818
 40
0.5571160939931341
 40
1.0
 40
1.0
 40
1.0
 40
1.0
 10
14.21313455188252
 20
-5.175843346989796
 30
0.0
 10
14.14193221132238
 20
-5.222019132326738
 30
0.0
 10
13.82325496130915
 20
-5.428686106651115
 30
0.0
 10
13.2544115862999
 20
-5.617090791157648
 30
0.0
 10
12.75873720640273
 20
-5.650680525394658
 30
0.0
 10
12.508
 20
-5.667671914233732
 30
0.0
  0
SPLINE
  5
CC
330
1F
100
AcDbEntity
  8
0
  6
Continuous
 62
     4
370
    15
100
AcDbSpline
210
0.0
220
0.0
230
1.0
 70
     8
 71
     3
 72
     8
 73
     4
 74
     0
 42
0.000000001
 43
0.00000001
 40
0.0
 40
0.0
 40
0.0
 40
0.0
 40
1.0
 40
1.0
 40
1.0
 40
1.0
 10
12.50800000000003
 20
-5.667671914233728
 30
0.0
 10
12.1621800502746
 20
-5.712558941841544
 30
0.0
 10
11.82663060814495
 20
-5.682308064220025
 30
0.0
 10
11.492
 20
-5.576920786569032
 30
0.0
  0
SPLINE
  5
CD
330
1F
100
AcDbEntity
  8
0
  6
Continuous
 62
     4
370
    15
100
AcDbSpline
210
0.0
220
0.0
230
1.0
 70
     8
 71
     3
 72
     8
 73
     4
 74
     0
 42
0.000000001
 43
0.00000001
 40
0.0
 40
0.0
 40
0.0
 40
0.0
 40
1.0
 40
1.0
 40
1.0
 40
1.0
 10
11.492
 20
-5.576920786569033
 30
0.0
 10
11.34022795951393
 20
-5.623823024865799
 30
0.0
 10
11.20277130873682
 20
-5.619595386763012
 30
0.0
 10
11.075761218402
 20
-5.563372774149753
 30
0.0
  0
SPLINE
  5
CE
330
1F
100
AcDbEntity
  8
0
  6
Continuous
 62
     4
370
    15
100
AcDbSpline
210
0.0
220
0.0
230
1.0
 70
     8
 71
     3
 72
     8
 73
     4
 74
     0
 42
0.000000001
 43
0.00000001
 40
0.0
 40
0.0
 40
0.0
 40
0.0
 40
1.0
 40
1.0
 40
1.0
 40
1.0
 10
11.492
 20
-3.113608852189416
 30
0.0
 10
11.82930486755705
 20
-3.446626911727257
 30
0.0
 10
12.16586922382425
 20
-3.743260074192103
 30
0.0
 10
12.50800000000003
 20
-3.999634443747815
 30
0.0
  0
SPLINE
  5
CF
330
1F
100
AcDbEntity
  8
0
  6
Continuous
 62
     1
370
    15
100
AcDbSpline
210
0.0
220
0.0
230
1.0
 70
     8
 71
     3
 72
    12
 73
     8
 74
     0
 42
0.000000001
 43
0.00000001
 40
0.0
 40
0.0
 40
0.0
 40
0.0
 40
0.1544678890746962
 40
0.310431813106704
 40
0.572393286836107
 40
0.8419390224049572
 40
1.0
 40
1.0
 40
1.0
 40
1.0
 10
12.508
 20
-3.999634443747788
 30
0.0
 10
12.67484989806145
 20
-4.149350743946548
 30
0.0
 10
13.01016564997697
 20
-4.450233359749329
 30
0.0
 10
13.63056801132614
 20
-4.902467758391798
 30
0.0
 10
14.37935049106423
 20
-5.296595781270184
 30
0.0
 10
15.13380720854514
 20
-5.519446119073947
 30
0.0
 10
15.60458775109762
 20
-5.48709882472707
 30
0.0
 10
15.77860754661951
 20
-5.475141938154378
 30
0.0
  0
SPLINE
  5
D0
330
1F
100
AcDbEntity
  8
0
  6
Continuous
 62
     1
370
    15
100
AcDbSpline
210
0.0
220
0.0
230
1.0
 70
     8
 71
     3
 72
    23
 73
    19
 74
     0
 42
0.000000001
 43
0.00000001
 40
0.0
 40
0.0
 40
0.0
 40
0.0
 40
0.0606664385604236
 40
0.1241390771429213
 40
0.1894654630464502
 40
0.252689028916728
 40
0.3177583026547129
 40
0.3807469280413813
 40
0.4455736662277091
 40
0.5083412068292408
 40
0.5729396786291586
 40
0.6355001176184623
 40
0.6998842487623818
 40
0.7622583166398795
 40
0.8264494381291836
 40
0.8886575967115558
 40
0.9526766313170306
 40
1.0
 40
1.0
 40
1.0
 40
1.0
 10
26.93035027091808
 20
4.434859730839155
 30
0.0
 10
27.21584010655687
 20
4.551727992366569
 30
0.0
 10
27.80002545797792
 20
4.790870399232286
 30
0.0
 10
28.69786908786705
 20
4.863098439723714
 30
0.0
 10
29.61250887259336
 20
4.71613558950201
 30
0.0
 10
30.53981650184632
 20
4.330119506743651
 30
0.0
 10
31.46127036490497
 20
3.740000665032017
 30
0.0
 10
32.39530005321419
 20
2.964237353120103
 30
0.0
 10
33.3237842218484
 20
2.058868751764392
 30
0.0
 10
34.26495052898218
 20
1.054023009396533
 30
0.0
 10
35.20073258118819
 20
0.021471994214717
 30
0.0
 10
36.14945014319392
 20
-1.004156937786723
 30
0.0
 10
37.09285396405289
 20
-1.949925941632446
 30
0.0
 10
38.04959430210039
 20
-2.783141216076961
 30
0.0
 10
39.00102330351476
 20
-3.447242557435915
 30
0.0
 10
39.96636858902182
 20
-3.910180883048224
 30
0.0
 10
40.85074667083888
 20
-4.154486476114356
 30
0.0
 10
41.42234378725592
 20
-4.134963547499621
 30
0.0
 10
41.66528717880686
 20
-4.126665803591464
 30
0.0
  0
SPLINE
  5
D1
330
1F
100
AcDbEntity
  8
0
  6
Continuous
 62
     1
370
    15
100
AcDbSpline
210
0.0
220
0.0
230
1.0
 70
     8
 71
     3
 72
    15
 73
    11
 74
     0
 42
0.000000001
 43
0.00000001
 40
0.0
 40
0.0
 40
0.0
 40
0.0
 40
0.092061558967506
 40
0.2197319211815399
 40
0.3510941771290179
 40
0.4788865481386638
 40
0.6103699998011497
 40
0.7383590474493774
 40
0.8700400922940378
 40
0.9999999999999999
 40
0.9999999999999999
 40
0.9999999999999999
 40
0.9999999999999999
 10
52.17637814176028
 20
3.02534432790798
 30
0.0
 10
52.41991016660401
 20
3.128240208027528
 30
0.0
 10
53.00117079577747
 20
3.373831415409906
 30
0.0
 10
53.93708733378032
 20
3.511327360829152
 30
0.0
 10
54.97382006830713
 20
3.458499657464158
 30
0.0
 10
56.02722365429128
 20
3.168212843910112
 30
0.0
 10
57.07803519305406
 20
2.676302406357868
 30
0.0
 10
58.14577549502658
 20
2.007180921240541
 30
0.0
 10
59.21563456935861
 20
1.217480752969898
 30
0.0
 10
59.93957671904929
 20
0.642544176375129
 30
0.0
 10
60.29916666107128
 20
0.35696692364524
 30
0.0
  0
SPLINE
  5
D2
330
1F
100
AcDbEntity
  8
0
  6
Continuous
 62
     1
370
    15
100
AcDbSpline
210
0.0
220
0.0
230
1.0
 70
     8
 71
     3
 72
    16
 73
    12
 74
     0
 42
0.000000001
 43
0.00000001
 40
0.0
 40
0.0
 40
0.0
 40
0.0
 40
0.2499999999999999
 40
0.2499999999999999
 40
0.3749999999999999
 40
0.3749999999999999
 40
0.5
 40
0.5
 40
0.75
 40
0.75
 40
1.0
 40
1.0
 40
1.0
 40
1.0
 10
60.29916666107135
 20
0.3569669236452096
 30
0.0
 10
60.51216034131257
 20
0.1879816363279143
 30
0.0
 10
60.72030363866457
 20
0.0206357107421452
 30
0.0
 10
61.03188204979765
 20
-0.2195070745147893
 30
0.0
 10
61.13637062185587
 20
-0.2983244061209807
 30
0.0
 10
61.34034342748117
 20
-0.4474128220914473
 30
0.0
 10
61.44012246265832
 20
-0.51794033150186
 30
0.0
 10
61.73325915421685
 20
-0.7172889245391472
 30
0.0
 10
61.92325377316902
 20
-0.834691437806157
 30
0.0
 10
62.26351308715811
 20
-1.031657496337227
 30
0.0
 10
62.41672561678909
 20
-1.11248913992516
 30
0.0
 10
62.53979185604
 20
-1.189389134798804
 30
0.0
  0
SPLINE
  5
D3
330
1F
100
AcDbEntity
  8
0
  6
Continuous
 62
     1
370
    15
100
AcDbSpline
210
0.0
220
0.0
230
1.0
 70
     8
 71
     3
 72
    18
 73
    14
 74
     0
 42
0.000000001
 43
0.00000001
 40
0.0
 40
0.0
 40
0.0
 40
0.0
 40
0.2499999999999963
 40
0.2499999999999963
 40
0.374999999999998
 40
0.374999999999998
 40
0.4999999999999997
 40
0.4999999999999997
 40
0.7500000000000029
 40
0.7500000000000029
 40
0.8750000000000013
 40
0.8750000000000013
 40
1.0
 40
1.0
 40
1.0
 40
1.0
 10
60.8942191219647
 20
-2.171827910117971
 30
0.0
 10
61.02332582809762
 20
-2.050749222895003
 30
0.0
 10
61.16592738502179
 20
-1.928062757853352
 30
0.0
 10
61.39101458172096
 20
-1.752452391093992
 30
0.0
 10
61.46735090699229
 20
-1.695713536827612
 30
0.0
 10
61.62295814686673
 20
-1.586271904549351
 30
0.0
 10
61.70255673770596
 20
-1.533432280808187
 30
0.0
 10
61.93579126213029
 20
-1.388985995736086
 30
0.0
 10
62.08965323254864
 20
-1.308239017994787
 30
0.0
 10
62.28701683321482
 20
-1.230906148912115
 30
0.0
 10
62.34848165144381
 20
-1.211925974194555
 30
0.0
 10
62.45485762152216
 20
-1.189765515498938
 30
0.0
 10
62.5011867838279
 20
-1.186151771289842
 30
0.0
 10
62.5397918560399
 20
-1.189389134798764
 30
0.0
  0
SPLINE
  5
D4
330
1F
100
AcDbEntity
  8
0
  6
Continuous
 62
     1
370
    15
100
AcDbSpline
210
0.0
220
0.0
230
1.0
 70
     8
 71
     3
 72
     8
 73
     4
 74
     0
 42
0.000000001
 43
0.00000001
 40
0.0
 40
0.0
 40
0.0
 40
0.0
 40
1.0
 40
1.0
 40
1.0
 40
1.0
 10
60.89421912196469
 20
-2.171827910117951
 30
0.0
 10
61.10864861107197
 20
-2.375490974757186
 30
0.0
 10
61.31775996172392
 20
-2.5787044457892
 30
0.0
 10
61.52390665542126
 20
-2.78166728573572
 30
0.0
  0
SPLINE
  5
D5
330
1F
100
AcDbEntity
  8
0
  6
Continuous
 62
     1
370
    15
100
AcDbSpline
210
0.0
220
0.0
230
1.0
 70
     8
 71
     3
 72
    10
 73
     6
 74
     0
 42
0.000000001
 43
0.00000001
 40
0.0
 40
0.0
 40
0.0
 40
0.0
 40
0.5
 40
0.5
 40
1.0
 40
1.0
 40
1.0
 40
1.0
 10
61.52390665542043
 20
-2.781667285737007
 30
0.0
 10
61.31926109026515
 20
-2.849750382360705
 30
0.0
 10
61.11631991348356
 20
-2.876401634921137
 30
0.0
 10
60.70677917864229
 20
-2.859697579292558
 30
0.0
 10
60.50488664419799
 20
-2.816838954279398
 30
0.0
 10
60.29916666106993
 20
-2.743847164302883
 30
0.0
  0
LINE
  5
D6
330
1F
100
AcDbEntity
  8
0
  6
Continuous
 62
     4
370
    15
100
AcDbLine
 10
12.508
 20
3.088205613342497
 30
0.0
 11
12.50800000000003
 21
-3.999634443747813
 31
0.0
  0
LINE
  5
D7
330
1F
100
AcDbEntity
  8
0
  6
Continuous
 62
     1
370
    15
100
AcDbLine
 10
12.50800000000003
 20
5.675277686898243
 30
0.0
 11
12.50800000000003
 21
5.48676084843907
 31
0.0
  0
LINE
  5
D8
330
1F
100
AcDbEntity
  8
0
  6
Continuous
 62
     1
370
    15
100
AcDbLine
 10
60.29916666107059
 20
2.74787317598586
 30
0.0
 11
60.29916666107135
 21
0.3569669236452033
 31
0.0
  0
LINE
  5
D9
330
1F
100
AcDbEntity
  8
0
  6
Continuous
 62
     4
370
    15
100
AcDbLine
 10
12.508
 20
-5.667671914233726
 30
0.0
 11
12.50800000000003
 21
-5.675277686898225
 31
0.0
  0
ARC
  5
DA
330
1F
100
AcDbEntity
  8
0
  6
Continuous
 62
     1
370
    15
100
AcDbCircle
 10
59.17152242696013
 20
2.322620856010988
 30
0.0
 40
2.382622675468342
100
AcDbArc
 50
336.3770293450711
 51
350.8620217459686
  0
LINE
  5
DB
330
1F
100
AcDbEntity
  8
0
  6
Continuous
 62
     1
370
    15
100
AcDbLine
 10
61.3544864462126
 20
1.367864916356787
 30
0.0
 11
63.308
 21
0.000000000000018
 31
0.0
  0
ARC
  5
DC
330
1F
100
AcDbEntity
  8
0
  6
Continuous
 62
     1
370
    15
100
AcDbCircle
 10
61.11423906395414
 20
0.5741349603596979
 30
0.0
 40
2.267645915311304
100
AcDbArc
 50
308.9505006874901
 51
345.3339086623288
  0
LINE
  5
DD
330
1F
100
AcDbEntity
  8
0
  6
Continuous
 62
     4
370
    15
100
AcDbLine
 10
11.492
 20
-5.576920786569031
 30
0.0
 11
11.492
 21
-5.887719999999991
 31
0.0
  0
ARC
  5
DE
330
1F
100
AcDbEntity
  8
0
  6
Continuous
 62
     1
370
    15
100
AcDbCircle
 10
61.3024427438869
 20
-2.694059098309035
 30
0.0
 40
0.238162672593187
100
AcDbArc
 50
291.8136691096798
 51
338.4169053201425
  0
ARC
  5
DF
330
1F
100
AcDbEntity
  8
0
  6
Continuous
 62
     1
370
    15
100
AcDbCircle
 10
59.92860919123025
 20
0.1365497635733987
 30
0.0
 40
3.382148440906967
100
AcDbArc
 50
296.4495608562719
 51
357.6861298867198
  0
ARC
  5
E0
330
1F
100
AcDbEntity
  8
0
  6
Continuous
 62
     1
370
    15
100
AcDbCircle
 10
60.17675132584818
 20
0.0082211878395331
 30
0.0
 40
3.131259466621543
100
AcDbArc
 50
359.8495685483801
 51
41.00421097919993
  0
LINE
  5
E1
330
1F
100
AcDbEntity
  8
0
  6
Continuous
 62
     4
370
    15
100
AcDbLine
 10
11.492
 20
5.887720000000009
 30
0.0
 11
11.492
 21
5.88439209539453
 31
0.0
  0
LINE
  5
E2
330
1F
100
AcDbEntity
  8
0
  6
Continuous
 62
     8
370
    15
100
AcDbLine
 10
60.29916666107059
 20
-2.743847164302295
 30
0.0
 11
60.29916666107135
 21
-3.170648772845761
 31
0.0
  0
LINE
  5
E3
102
{ACAD_REACTORS
102
}
330
1F
100
AcDbEntity
  8
중심선
100
AcDbLine
 10
-41.29200000000001
 20
-0.0000000000000061
 30
0.0
 11
66.29916666107059
 21
-0.0000000000000061
 31
0.0
  0
CIRCLE
  5
E4
330
1F
100
AcDbEntity
  8
외형선
100
AcDbCircle
 10
0.0
 20
0.0
 30
0.0
 40
3.0
  0
INSERT
  5
E5
330
1F
100
AcDbEntity
  8
0
  6
Continuous
 62
     7
100
AcDbBlockReference
 66
     1
  2
블럭10
 10
-1.432773799681436
 20
-52.05975325537357
 30
0.0
  0
ATTRIB
  5
E6
330
E5
100
AcDbEntity
  8
FORMAT
 62
     2
100
AcDbText
 10
-10.61406908842272
 20
-49.98438634254138
 30
0.0
 40
4.233333333333333
  1
E5078316 [ 3 FLUTE ]
 41
0.75
  7
SLDTEXTSTYLE0
 11
-10.61406908842272
 21
-52.10105300920804
 31
0.0
100
AcDbAttribute
  2
AUTOATTR0
 70
     0
 74
     1
  0
SEQEND
  5
E7
330
E5
100
AcDbEntity
  8
0
  6
Continuous
 62
     7
  0
HATCH
  5
E8
330
1F
100
AcDbEntity
  8
중심선
100
AcDbHatch
 10
0.0
 20
0.0
 30
0.0
210
0.0
220
0.0
230
1.0
  2
SOLID
 70
     1
 71
     0
 91
        1
 92
        0
 93
        4
 72
     1
 10
4.282135504699413
 20
-35.81257895372963
 11
0.8358602608621313
 21
-35.81257895372963
 72
     1
 10
0.8358602608621313
 20
-35.81257895372963
 11
-1.292369598341891
 21
-38.34890453430223
 72
     1
 10
-1.292369598341891
 20
-38.34890453430223
 11
2.15393873060854
 21
-38.34886510499974
 72
     1
 10
2.15393873060854
 20
-38.34886510499974
 11
4.282135504699413
 21
-35.81257895372963
 97
        0
 75
     0
 76
     1
 98
        1
 10
0.0
 20
0.0
  0
HATCH
  5
E9
330
1F
100
AcDbEntity
  8
중심선
100
AcDbHatch
 10
0.0
 20
0.0
 30
0.0
210
0.0
220
0.0
230
1.0
  2
SOLID
 70
     1
 71
     0
 91
        1
 92
        0
 93
        4
 72
     1
 10
9.294899495735365
 20
-35.81257895372963
 11
5.848624251898082
 21
-35.81257895372963
 72
     1
 10
5.848624251898082
 20
-35.81257895372963
 11
1.317486243540694
 21
-41.21257895372965
 72
     1
 10
1.317486243540694
 20
-41.21257895372965
 11
4.763761487377977
 21
-41.21257895372965
 72
     1
 10
4.763761487377977
 20
-41.21257895372965
 11
9.294899495735365
 21
-35.81257895372963
 97
        0
 75
     0
 76
     1
 98
        1
 10
0.0
 20
0.0
  0
HATCH
  5
EA
330
1F
100
AcDbEntity
  8
중심선
100
AcDbHatch
 10
0.0
 20
0.0
 30
0.0
210
0.0
220
0.0
230
1.0
  2
SOLID
 70
     1
 71
     0
 91
        1
 92
        0
 93
        4
 72
     1
 10
14.30766348677126
 20
-35.81257895372966
 11
10.86138824293414
 21
-35.81257895372963
 72
     1
 10
10.86138824293414
 20
-35.81257895372963
 11
3.812951341044895
 21
-44.21257895372965
 72
     1
 10
3.812951341044895
 20
-44.21257895372965
 11
7.259226584882178
 21
-44.21257895372965
 72
     1
 10
7.259226584882178
 20
-44.21257895372965
 11
14.30766348677126
 21
-35.81257895372966
 97
        0
 75
     0
 76
     1
 98
        1
 10
0.0
 20
0.0
  0
HATCH
  5
EB
330
1F
100
AcDbEntity
  8
중심선
100
AcDbHatch
 10
0.0
 20
0.0
 30
0.0
210
0.0
220
0.0
230
1.0
  2
SOLID
 70
     1
 71
     0
 91
        1
 92
        0
 93
        6
 72
     3
 10
19.10755391778346
 20
-40.01257895378091
 11
3.960054785062284
 21
1.540850780301639E-10
 40
0.3939339440162633
 50
17.09539180608434
 51
320.0019657685079
 73
     0
 72
     1
 10
20.79055357348405
 20
-38.60047295836794
 11
23.09585544718509
 21
-36.66614624832001
 72
     3
 10
19.10755391773061
 20
-40.01257895372979
 11
6.600054785286829
 21
-1.249000902703301E-13
 40
0.6363583540795982
 50
39.99873849337412
 51
368.4976242363725
 73
     1
 72
     1
 10
25.53288640963122
 20
-39.05257895365965
 11
17.78762122456654
 21
-39.05257895365963
 72
     1
 10
17.78762122456654
 20
-39.05257895365963
 11
17.7875961801206
 21
-40.97257895365955
 72
     1
 10
17.7875961801206
 20
-40.97257895365955
 11
22.22897594959264
 21
-40.97257895365952
 97
        0
 75
     0
 76
     1
 98
        1
 10
0.0
 20
0.0
  0
DIMENSION
  5
EC
330
1F
100
AcDbEntity
  8
치수문자_일반주서
100
AcDbDimension
  2
_D
 10
12.50800000000002
 20
64.33074456559343
 30
0.0
 11
34.34206692949721
 21
64.33074456559343
 31
0.0
 70
   160
  1
<>
 71
     2
 42
50.79999999999997
  3
SLDDIMSTYLE0
100
AcDbAlignedDimension
 13
63.30799999999999
 23
3.174999999999994
 33
0.0
 14
12.50800000000003
 24
5.675277686898243
 34
0.0
100
AcDbRotatedDimension
1001
ACAD
1000
DSTYLE
1002
{
1070
   171
1070
     6
1070
   273
1070
     7
1002
}
  0
DIMENSION
  5
100
330
1F
100
AcDbEntity
  8
치수문자_일반주서
100
AcDbDimension
  2
_D_1
 10
-38.292
 20
92.80470327693648
 30
0.0
 11
14.77998113366128
 21
92.80470327693648
 31
0.0
 70
   160
  1
<>
 71
     2
 42
101.6
  3
SLDDIMSTYLE1
100
AcDbAlignedDimension
 13
63.30799999999999
 23
3.237499999999994
 33
0.0
 14
-38.292
 24
5.540000000000017
 34
0.0
100
AcDbRotatedDimension
1001
ACAD
1000
DSTYLE
1002
{
1070
   171
1070
     6
1070
   273
1070
     7
1002
}
  0
INSERT
  5
12B
330
1F
100
AcDbEntity
  8
외형선
100
AcDbBlockReference
  2
SW_DOWELSYMBOL_0
 10
0.0
 20
0.0
 30
0.0
  0
DIMENSION
  5
153
102
{ACAD_XDICTIONARY
360
154
102
}
330
1F
100
AcDbEntity
  8
치수문자_일반주서
100
AcDbDimension
  2
*D7
 10
78.04178060268183
 20
3.174999999999993
 30
0.0
 11
75.41678060268183
 21
22.46649999999999
 31
0.0
 70
    32
  1
{%%c<>[]}
 71
     5
 42
6.35
  3
SLDDIMSTYLE1
100
AcDbAlignedDimension
 13
63.1907766721921
 23
-3.175000000000006
 33
0.0
 14
63.30799999999999
 24
3.174999999999994
 34
0.0
 50
90.0
100
AcDbRotatedDimension
1001
ACAD
1000
DSTYLE
1002
{
1070
   171
1070
     6
1070
   273
1070
     7
1002
}
  0
DIMENSION
  5
166
102
{ACAD_REACTORS
102
}
102
{ACAD_XDICTIONARY
360
167
102
}
330
1F
100
AcDbEntity
  8
치수문자_일반주서
100
AcDbDimension
  2
*D8
 10
-58.38219731477347
 20
6.350000000000001
 30
0.0
 11
-61.00719731477347
 21
22.99575
 31
0.0
 70
    32
  1
{%%c<>[]}
 71
     5
 42
12.7
  3
SLDDIMSTYLE1
100
AcDbAlignedDimension
 13
-37.48200000000001
 23
-6.349999999999996
 33
0.0
 14
-37.48200000000001
 24
6.35
 34
0.0
 50
90.0
100
AcDbRotatedDimension
1001
ACAD
1000
DSTYLE
1002
{
1070
   283
1070
     1
1070
   170
1070
     1
1070
   171
1070
     6
1070
   273
1070
     7
1002
}
  0
DIMENSION
  5
17F
102
{ACAD_REACTORS
102
}
102
{ACAD_XDICTIONARY
360
180
102
}
330
1F
100
AcDbEntity
  8
치수문자_일반주서
100
AcDbDimension
  2
*D9
 10
66.29916666107059
 20
-0.0000000000000061
 30
0.0
 11
20.90924189418719
 21
14.64253291041063
 31
0.0
 70
    34
  1
<>
 71
     5
 42
0.0523598775598298
  3
SLDDIMSTYLE0
100
AcDb2LineAngularDimension
 13
25.20703951216697
 23
5.009749227037979
 33
0.0
 14
20.11507441631842
 24
5.276607809898159
 34
0.0
 15
-41.29200000000001
 25
-0.0000000000000061
 35
0.0
 16
22.51584486595029
 26
1.715534477959923
 36
0.0
1001
ACAD
1000
DSTYLE
1002
{
1070
   171
1070
     6
1070
   273
1070
     7
1002
}
  0
ENDSEC
  0
SECTION
  2
OBJECTS
  0
DICTIONARY
  5
C
330
0
100
AcDbDictionary
281
     1
  3
ACAD_DETAILVIEWSTYLE
350
17D
  3
ACAD_GROUP
350
D
  3
ACAD_IMAGE_VARS
350
14F
  3
ACAD_LAYOUT
350
1A
  3
ACAD_MLINESTYLE
350
17
  3
ACAD_PLOTSETTINGS
350
19
  3
ACAD_PLOTSTYLENAME
350
E
  3
ACAD_SCALELIST
350
47
  3
ACAD_SECTIONVIEWSTYLE
350
17E
  3
AcDbVariableDictionary
350
178
  3
APPDATA
350
14D
  3
DWGPROPS
350
191
  0
DICTIONARY
  5
154
330
153
100
AcDbDictionary
280
     1
281
     1
  0
DICTIONARY
  5
167
330
166
100
AcDbDictionary
280
     1
281
     1
  0
DICTIONARY
  5
180
330
17F
100
AcDbDictionary
280
     1
281
     1
  0
DICTIONARY
  5
17D
102
{ACAD_REACTORS
330
C
102
}
330
C
100
AcDbDictionary
281
     1
  0
DICTIONARY
  5
D
102
{ACAD_REACTORS
330
C
102
}
330
C
100
AcDbDictionary
281
     1
  0
RASTERVARIABLES
  5
14F
102
{ACAD_REACTORS
330
C
102
}
330
C
100
AcDbRasterVariables
 90
        0
 70
     1
 71
     1
 72
     1
  0
DICTIONARY
  5
1A
102
{ACAD_REACTORS
330
C
102
}
330
C
100
AcDbDictionary
281
     1
  3
Layout1
350
1E
  3
Layout2
350
26
  3
Model
350
22
  0
DICTIONARY
  5
17
102
{ACAD_REACTORS
330
C
102
}
330
C
100
AcDbDictionary
281
     1
  3
Standard
350
18
  0
DICTIONARY
  5
19
102
{ACAD_REACTORS
330
C
102
}
330
C
100
AcDbDictionary
281
     1
  0
ACDBDICTIONARYWDFLT
  5
E
102
{ACAD_REACTORS
330
C
102
}
330
C
100
AcDbDictionary
281
     1
  3
Normal
350
F
100
AcDbDictionaryWithDefault
340
F
  0
DICTIONARY
  5
47
102
{ACAD_REACTORS
330
C
102
}
330
C
100
AcDbDictionary
281
     1
  3
A0
350
48
  3
A1
350
49
  3
A2
350
4A
  3
A3
350
4B
  3
A4
350
4C
  3
A5
350
4D
  3
A6
350
4E
  3
A7
350
4F
  3
A8
350
50
  3
A9
350
51
  3
B0
350
52
  3
B1
350
53
  3
B2
350
54
  3
B3
350
55
  3
B4
350
56
  3
B5
350
57
  3
B6
350
58
  3
B7
350
59
  3
B8
350
5A
  3
B9
350
5B
  3
C0
350
5C
  3
C1
350
5D
  3
C2
350
5E
  3
C3
350
5F
  3
C4
350
60
  3
C5
350
61
  3
C6
350
62
  3
C7
350
63
  3
C8
350
64
  3
C9
350
65
  3
D0
350
66
  3
D1
350
67
  3
D2
350
68
  0
DICTIONARY
  5
17E
102
{ACAD_REACTORS
330
C
102
}
330
C
100
AcDbDictionary
281
     1
  0
DICTIONARY
  5
178
102
{ACAD_REACTORS
330
C
102
}
330
C
100
AcDbDictionary
281
     1
  0
DICTIONARY
  5
14D
102
{ACAD_REACTORS
330
C
102
}
330
C
100
AcDbDictionary
281
     1
  0
XRECORD
  5
191
102
{ACAD_REACTORS
330
C
102
}
330
C
100
AcDbXrecord
280
     1
  1
DWGPROPS COOKIE
  2

  3

  4

  6

  7

  8
12015048
  9

300
=
301
=
302
=
303
=
304
=
305
=
306
=
307
=
308
=
309
=
 40
0.0
 41
2458340.218742372
 42
2458341.238618264
  1

 90
        0
  0
LAYOUT
  5
1E
102
{ACAD_REACTORS
330
1A
102
}
330
1A
100
AcDbPlotSettings
  1

  2
none_device
  4

  6

 40
0.0
 41
0.0
 42
0.0
 43
0.0
 44
0.0
 45
0.0
 46
0.0
 47
0.0
 48
0.0
 49
0.0
140
0.0
141
0.0
142
1.0
143
1.0
 70
   688
 72
     1
 73
     0
 74
     5
  7

 75
    16
147
1.0
148
0.0
149
0.0
100
AcDbLayout
  1
Layout1
 70
     1
 71
     1
 10
0.0
 20
0.0
 11
420.0
 21
297.0
 12
0.0
 22
0.0
 32
0.0
 14
1.000000000000000E+20
 24
1.000000000000000E+20
 34
1.000000000000000E+20
 15
-1.000000000000000E+20
 25
-1.000000000000000E+20
 35
-1.000000000000000E+20
146
0.0
 13
0.0
 23
0.0
 33
0.0
 16
1.0
 26
0.0
 36
0.0
 17
0.0
 27
1.0
 37
0.0
 76
     0
330
1B
  0
LAYOUT
  5
26
102
{ACAD_REACTORS
330
1A
102
}
330
1A
100
AcDbPlotSettings
  1

  2
none_device
  4

  6

 40
0.0
 41
0.0
 42
0.0
 43
0.0
 44
0.0
 45
0.0
 46
0.0
 47
0.0
 48
0.0
 49
0.0
140
0.0
141
0.0
142
1.0
143
1.0
 70
   688
 72
     1
 73
     0
 74
     5
  7

 75
    16
147
1.0
148
0.0
149
0.0
100
AcDbLayout
  1
Layout2
 70
     1
 71
     2
 10
0.0
 20
0.0
 11
0.0
 21
0.0
 12
0.0
 22
0.0
 32
0.0
 14
0.0
 24
0.0
 34
0.0
 15
0.0
 25
0.0
 35
0.0
146
0.0
 13
0.0
 23
0.0
 33
0.0
 16
1.0
 26
0.0
 36
0.0
 17
0.0
 27
1.0
 37
0.0
 76
     0
330
23
  0
LAYOUT
  5
22
102
{ACAD_REACTORS
330
1A
102
}
330
1A
100
AcDbPlotSettings
  1

  2
none_device
  4
ANSI_A_(11.00_x_8.50_Inches)
  6

 40
6.35
 41
19.05
 42
6.35000508
 43
19.05000254
 44
279.4
 45
215.9
 46
128.8101168586334
 47
99.2131000938622
 48
0.0
 49
0.0
140
0.0
141
0.0
142
0.0848236220750095
143
1.0
 70
  1696
 72
     0
 73
     0
 74
     0
  7

 75
     0
147
0.0235690232323232
148
0.0
149
0.0
100
AcDbLayout
  1
Model
 70
     1
 71
     0
 10
0.0
 20
0.0
 11
420.0
 21
297.0
 12
0.0
 22
0.0
 32
0.0
 14
-62.75719731477348
 24
-49.98438634254138
 34
0.0
 15
78.59211393601514
 25
97.17970327693648
 35
0.0
146
0.0
 13
0.0
 23
0.0
 33
0.0
 16
1.0
 26
0.0
 36
0.0
 17
0.0
 27
1.0
 37
0.0
 76
     0
330
1F
331
29
  0
MLINESTYLE
  5
18
102
{ACAD_REACTORS
330
17
102
}
330
17
100
AcDbMlineStyle
  2
Standard
 70
     0
  3

 62
   256
 51
90.0
 52
90.0
 71
     2
 49
0.5
 62
   256
  6
BYLAYER
 49
-0.5
 62
   256
  6
BYLAYER
  0
ACDBPLACEHOLDER
  5
F
102
{ACAD_REACTORS
330
E
102
}
330
E
  0
SCALE
  5
48
102
{ACAD_REACTORS
330
47
102
}
330
47
100
AcDbScale
 70
     0
300
1:1
140
1.0
141
1.0
290
     1
  0
SCALE
  5
49
102
{ACAD_REACTORS
330
47
102
}
330
47
100
AcDbScale
 70
     0
300
1:2
140
1.0
141
2.0
290
     0
  0
SCALE
  5
4A
102
{ACAD_REACTORS
330
47
102
}
330
47
100
AcDbScale
 70
     0
300
1:4
140
1.0
141
4.0
290
     0
  0
SCALE
  5
4B
102
{ACAD_REACTORS
330
47
102
}
330
47
100
AcDbScale
 70
     0
300
1:5
140
1.0
141
5.0
290
     0
  0
SCALE
  5
4C
102
{ACAD_REACTORS
330
47
102
}
330
47
100
AcDbScale
 70
     0
300
1:8
140
1.0
141
8.0
290
     0
  0
SCALE
  5
4D
102
{ACAD_REACTORS
330
47
102
}
330
47
100
AcDbScale
 70
     0
300
1:10
140
1.0
141
10.0
290
     0
  0
SCALE
  5
4E
102
{ACAD_REACTORS
330
47
102
}
330
47
100
AcDbScale
 70
     0
300
1:16
140
1.0
141
16.0
290
     0
  0
SCALE
  5
4F
102
{ACAD_REACTORS
330
47
102
}
330
47
100
AcDbScale
 70
     0
300
1:20
140
1.0
141
20.0
290
     0
  0
SCALE
  5
50
102
{ACAD_REACTORS
330
47
102
}
330
47
100
AcDbScale
 70
     0
300
1:30
140
1.0
141
30.0
290
     0
  0
SCALE
  5
51
102
{ACAD_REACTORS
330
47
102
}
330
47
100
AcDbScale
 70
     0
300
1:40
140
1.0
141
40.0
290
     0
  0
SCALE
  5
52
102
{ACAD_REACTORS
330
47
102
}
330
47
100
AcDbScale
 70
     0
300
1:50
140
1.0
141
50.0
290
     0
  0
SCALE
  5
53
102
{ACAD_REACTORS
330
47
102
}
330
47
100
AcDbScale
 70
     0
300
1:100
140
1.0
141
100.0
290
     0
  0
SCALE
  5
54
102
{ACAD_REACTORS
330
47
102
}
330
47
100
AcDbScale
 70
     0
300
2:1
140
2.0
141
1.0
290
     0
  0
SCALE
  5
55
102
{ACAD_REACTORS
330
47
102
}
330
47
100
AcDbScale
 70
     0
300
4:1
140
4.0
141
1.0
290
     0
  0
SCALE
  5
56
102
{ACAD_REACTORS
330
47
102
}
330
47
100
AcDbScale
 70
     0
300
8:1
140
8.0
141
1.0
290
     0
  0
SCALE
  5
57
102
{ACAD_REACTORS
330
47
102
}
330
47
100
AcDbScale
 70
     0
300
10:1
140
10.0
141
1.0
290
     0
  0
SCALE
  5
58
102
{ACAD_REACTORS
330
47
102
}
330
47
100
AcDbScale
 70
     0
300
100:1
140
100.0
141
1.0
290
     0
  0
SCALE
  5
59
102
{ACAD_REACTORS
330
47
102
}
330
47
100
AcDbScale
 70
     0
300
1/128" = 1'-0"
140
0.0078125
141
12.0
290
     0
  0
SCALE
  5
5A
102
{ACAD_REACTORS
330
47
102
}
330
47
100
AcDbScale
 70
     0
300
1/64" = 1'-0"
140
0.015625
141
12.0
290
     0
  0
SCALE
  5
5B
102
{ACAD_REACTORS
330
47
102
}
330
47
100
AcDbScale
 70
     0
300
1/32" = 1'-0"
140
0.03125
141
12.0
290
     0
  0
SCALE
  5
5C
102
{ACAD_REACTORS
330
47
102
}
330
47
100
AcDbScale
 70
     0
300
1/16" = 1'-0"
140
0.0625
141
12.0
290
     0
  0
SCALE
  5
5D
102
{ACAD_REACTORS
330
47
102
}
330
47
100
AcDbScale
 70
     0
300
3/32" = 1'-0"
140
0.09375
141
12.0
290
     0
  0
SCALE
  5
5E
102
{ACAD_REACTORS
330
47
102
}
330
47
100
AcDbScale
 70
     0
300
1/8" = 1'-0"
140
0.125
141
12.0
290
     0
  0
SCALE
  5
5F
102
{ACAD_REACTORS
330
47
102
}
330
47
100
AcDbScale
 70
     0
300
3/16" = 1'-0"
140
0.1875
141
12.0
290
     0
  0
SCALE
  5
60
102
{ACAD_REACTORS
330
47
102
}
330
47
100
AcDbScale
 70
     0
300
1/4" = 1'-0"
140
0.25
141
12.0
290
     0
  0
SCALE
  5
61
102
{ACAD_REACTORS
330
47
102
}
330
47
100
AcDbScale
 70
     0
300
3/8" = 1'-0"
140
0.375
141
12.0
290
     0
  0
SCALE
  5
62
102
{ACAD_REACTORS
330
47
102
}
330
47
100
AcDbScale
 70
     0
300
1/2" = 1'-0"
140
0.5
141
12.0
290
     0
  0
SCALE
  5
63
102
{ACAD_REACTORS
330
47
102
}
330
47
100
AcDbScale
 70
     0
300
3/4" = 1'-0"
140
0.75
141
12.0
290
     0
  0
SCALE
  5
64
102
{ACAD_REACTORS
330
47
102
}
330
47
100
AcDbScale
 70
     0
300
1" = 1'-0"
140
1.0
141
12.0
290
     0
  0
SCALE
  5
65
102
{ACAD_REACTORS
330
47
102
}
330
47
100
AcDbScale
 70
     0
300
1-1/2" = 1'-0"
140
1.5
141
12.0
290
     0
  0
SCALE
  5
66
102
{ACAD_REACTORS
330
47
102
}
330
47
100
AcDbScale
 70
     0
300
3" = 1'-0"
140
3.0
141
12.0
290
     0
  0
SCALE
  5
67
102
{ACAD_REACTORS
330
47
102
}
330
47
100
AcDbScale
 70
     0
300
6" = 1'-0"
140
6.0
141
12.0
290
     0
  0
SCALE
  5
68
102
{ACAD_REACTORS
330
47
102
}
330
47
100
AcDbScale
 70
     0
300
1'-0" = 1'-0"
140
12.0
141
12.0
290
     0
  0
ENDSEC
  0
EOF
