  0
SECTION
  2
HEADER
  9
$ACADVER
  1
AC1015
  9
$ACADMAINTVER
 70
     6
  9
$DWGCODEPAGE
  3
ANSI_949
  9
$INSBASE
 10
0.0
 20
0.0
 30
0.0
  9
$EXTMIN
 10
-79.27777425592504
 20
-49.98438634254138
 30
0.0
  9
$EXTMAX
 10
61.77822755129509
 20
74.58960137457225
 30
0.0
  9
$LIMMIN
 10
0.0
 20
0.0
  9
$LIMMAX
 10
420.0
 20
297.0
  9
$ORTHOMODE
 70
     1
  9
$REGENMODE
 70
     1
  9
$FILLMODE
 70
     1
  9
$QTEXTMODE
 70
     0
  9
$MIRRTEXT
 70
     1
  9
$LTSCALE
 40
1.0
  9
$ATTMODE
 70
     1
  9
$TEXTSIZE
 40
3.5
  9
$TRACEWID
 40
1.0
  9
$TEXTSTYLE
  7
Standard
  9
$CLAYER
  8
0
  9
$CELTYPE
  6
ByLayer
  9
$CECOLOR
 62
   256
  9
$CELTSCALE
 40
1.0
  9
$DISPSILH
 70
     0
  9
$DIMSCALE
 40
1.0
  9
$DIMASZ
 40
3.302
  9
$DIMEXO
 40
1.0
  9
$DIMDLI
 40
3.75
  9
$DIMRND
 40
0.0
  9
$DIMDLE
 40
0.0
  9
$DIMEXE
 40
1.0
  9
$DIMTP
 40
0.0
  9
$DIMTM
 40
0.0
  9
$DIMTXT
 40
3.5
  9
$DIMCEN
 40
2.5
  9
$DIMTSZ
 40
0.0
  9
$DIMTOL
 70
     0
  9
$DIMLIM
 70
     0
  9
$DIMTIH
 70
     1
  9
$DIMTOH
 70
     1
  9
$DIMSE1
 70
     0
  9
$DIMSE2
 70
     0
  9
$DIMTAD
 70
     1
  9
$DIMZIN
 70
     0
  9
$DIMBLK
  1

  9
$DIMASO
 70
     1
  9
$DIMSHO
 70
     1
  9
$DIMPOST
  1

  9
$DIMAPOST
  1

  9
$DIMALT
 70
     0
  9
$DIMALTD
 70
     3
  9
$DIMALTF
 40
0.0393700787401575
  9
$DIMLFAC
 40
1.0
  9
$DIMTOFL
 70
     1
  9
$DIMTVP
 40
0.0
  9
$DIMTIX
 70
     0
  9
$DIMSOXD
 70
     0
  9
$DIMSAH
 70
     0
  9
$DIMBLK1
  1

  9
$DIMBLK2
  1

  9
$DIMSTYLE
  2
ISO-25
  9
$DIMCLRD
 70
     0
  9
$DIMCLRE
 70
     0
  9
$DIMCLRT
 70
     0
  9
$DIMTFAC
 40
1.0
  9
$DIMGAP
 40
1.524
  9
$DIMJUST
 70
     0
  9
$DIMSD1
 70
     0
  9
$DIMSD2
 70
     0
  9
$DIMTOLJ
 70
     0
  9
$DIMTZIN
 70
     0
  9
$DIMALTZ
 70
     0
  9
$DIMALTTZ
 70
     0
  9
$DIMUPT
 70
     0
  9
$DIMDEC
 70
     2
  9
$DIMTDEC
 70
     2
  9
$DIMALTU
 70
     2
  9
$DIMALTTD
 70
     3
  9
$DIMTXSTY
  7
Standard
  9
$DIMAUNIT
 70
     0
  9
$DIMADEC
 70
     2
  9
$DIMALTRND
 40
0.0
  9
$DIMAZIN
 70
     0
  9
$DIMDSEP
 70
    44
  9
$DIMATFIT
 70
     3
  9
$DIMFRAC
 70
     0
  9
$DIMLDRBLK
  1

  9
$DIMLUNIT
 70
     2
  9
$DIMLWD
 70
    -2
  9
$DIMLWE
 70
    -2
  9
$DIMTMOVE
 70
     0
  9
$LUNITS
 70
     2
  9
$LUPREC
 70
     2
  9
$SKETCHINC
 40
1.0
  9
$FILLETRAD
 40
10.0
  9
$AUNITS
 70
     0
  9
$AUPREC
 70
     2
  9
$MENU
  1
.
  9
$ELEVATION
 40
0.0
  9
$PELEVATION
 40
0.0
  9
$THICKNESS
 40
0.0
  9
$LIMCHECK
 70
     0
  9
$CHAMFERA
 40
0.0
  9
$CHAMFERB
 40
0.0
  9
$CHAMFERC
 40
0.0
  9
$CHAMFERD
 40
0.0
  9
$SKPOLY
 70
     0
  9
$TDCREATE
 40
2458340.594030417
  9
$TDUCREATE
 40
2458340.219030417
  9
$TDUPDATE
 40
2458341.618755752
  9
$TDUUPDATE
 40
2458341.243755752
  9
$TDINDWG
 40
0.0015546412
  9
$TDUSRTIMER
 40
2458341.241459676
  9
$USRTIMER
 70
     1
  9
$ANGBASE
 50
0.0
  9
$ANGDIR
 70
     0
  9
$PDMODE
 70
     0
  9
$PDSIZE
 40
-1.0
  9
$PLINEWID
 40
0.0
  9
$SPLFRAME
 70
     0
  9
$SPLINETYPE
 70
     6
  9
$SPLINESEGS
 70
     8
  9
$HANDSEED
  5
188
  9
$SURFTAB1
 70
     6
  9
$SURFTAB2
 70
     6
  9
$SURFTYPE
 70
     6
  9
$SURFU
 70
     6
  9
$SURFV
 70
     6
  9
$UCSBASE
  2

  9
$UCSNAME
  2

  9
$UCSORG
 10
0.0
 20
0.0
 30
0.0
  9
$UCSXDIR
 10
1.0
 20
0.0
 30
0.0
  9
$UCSYDIR
 10
0.0
 20
1.0
 30
0.0
  9
$UCSORTHOREF
  2

  9
$UCSORTHOVIEW
 70
     0
  9
$UCSORGTOP
 10
0.0
 20
0.0
 30
0.0
  9
$UCSORGBOTTOM
 10
0.0
 20
0.0
 30
0.0
  9
$UCSORGLEFT
 10
0.0
 20
0.0
 30
0.0
  9
$UCSORGRIGHT
 10
0.0
 20
0.0
 30
0.0
  9
$UCSORGFRONT
 10
0.0
 20
0.0
 30
0.0
  9
$UCSORGBACK
 10
0.0
 20
0.0
 30
0.0
  9
$PUCSBASE
  2

  9
$PUCSNAME
  2

  9
$PUCSORG
 10
0.0
 20
0.0
 30
0.0
  9
$PUCSXDIR
 10
1.0
 20
0.0
 30
0.0
  9
$PUCSYDIR
 10
0.0
 20
1.0
 30
0.0
  9
$PUCSORTHOREF
  2

  9
$PUCSORTHOVIEW
 70
     0
  9
$PUCSORGTOP
 10
0.0
 20
0.0
 30
0.0
  9
$PUCSORGBOTTOM
 10
0.0
 20
0.0
 30
0.0
  9
$PUCSORGLEFT
 10
0.0
 20
0.0
 30
0.0
  9
$PUCSORGRIGHT
 10
0.0
 20
0.0
 30
0.0
  9
$PUCSORGFRONT
 10
0.0
 20
0.0
 30
0.0
  9
$PUCSORGBACK
 10
0.0
 20
0.0
 30
0.0
  9
$USERI1
 70
     0
  9
$USERI2
 70
     0
  9
$USERI3
 70
     0
  9
$USERI4
 70
     0
  9
$USERI5
 70
     0
  9
$USERR1
 40
0.0
  9
$USERR2
 40
0.0
  9
$USERR3
 40
0.0
  9
$USERR4
 40
0.0
  9
$USERR5
 40
0.0
  9
$WORLDVIEW
 70
     1
  9
$SHADEDGE
 70
     3
  9
$SHADEDIF
 70
    70
  9
$TILEMODE
 70
     1
  9
$MAXACTVP
 70
    64
  9
$PINSBASE
 10
0.0
 20
0.0
 30
0.0
  9
$PLIMCHECK
 70
     0
  9
$PEXTMIN
 10
1.000000000000000E+20
 20
1.000000000000000E+20
 30
1.000000000000000E+20
  9
$PEXTMAX
 10
-1.000000000000000E+20
 20
-1.000000000000000E+20
 30
-1.000000000000000E+20
  9
$PLIMMIN
 10
0.0
 20
0.0
  9
$PLIMMAX
 10
0.0
 20
0.0
  9
$UNITMODE
 70
     0
  9
$VISRETAIN
 70
     1
  9
$PLINEGEN
 70
     0
  9
$PSLTSCALE
 70
     1
  9
$TREEDEPTH
 70
  3020
  9
$CMLSTYLE
  2
Standard
  9
$CMLJUST
 70
     0
  9
$CMLSCALE
 40
20.0
  9
$PROXYGRAPHICS
 70
     1
  9
$MEASUREMENT
 70
     1
  9
$CELWEIGHT
370
    -1
  9
$ENDCAPS
280
     0
  9
$JOINSTYLE
280
     0
  9
$LWDISPLAY
290
     1
  9
$INSUNITS
 70
     4
  9
$HYPERLINKBASE
  1

  9
$STYLESHEET
  1

  9
$XEDIT
290
     1
  9
$CEPSNTYPE
380
     0
  9
$PSTYLEMODE
290
     1
  9
$FINGERPRINTGUID
  2
{C6FEE272-837B-4E70-B485-E7415C4E9356}
  9
$VERSIONGUID
  2
{FAEB1C32-E019-11D5-929B-00C0DF256EC4}
  9
$EXTNAMES
290
     1
  9
$PSVPSCALE
 40
0.0
  9
$OLESTARTUP
290
     0
  0
ENDSEC
  0
SECTION
  2
CLASSES
  0
CLASS
  1
ACDBDICTIONARYWDFLT
  2
AcDbDictionaryWithDefault
  3
ObjectDBX Classes
 90
        0
280
     0
281
     0
  0
CLASS
  1
VISUALSTYLE
  2
AcDbVisualStyle
  3
ObjectDBX Classes
 90
     4095
280
     0
281
     0
  0
CLASS
  1
MATERIAL
  2
AcDbMaterial
  3
ObjectDBX Classes
 90
     1153
280
     0
281
     0
  0
CLASS
  1
SCALE
  2
AcDbScale
  3
ObjectDBX Classes
 90
     1153
280
     0
281
     0
  0
CLASS
  1
SUN
  2
AcDbSun
  3
SCENEOE
 90
     1153
280
     0
281
     0
  0
CLASS
  1
ACDBPLACEHOLDER
  2
AcDbPlaceHolder
  3
ObjectDBX Classes
 90
        0
280
     0
281
     0
  0
CLASS
  1
LAYOUT
  2
AcDbLayout
  3
ObjectDBX Classes
 90
        0
280
     0
281
     0
  0
CLASS
  1
TABLESTYLE
  2
AcDbTableStyle
  3
ObjectDBX Classes
 90
     4095
280
     0
281
     0
  0
CLASS
  1
MLEADERSTYLE
  2
AcDbMLeaderStyle
  3
ACDB_MLEADERSTYLE_CLASS
 90
     4095
280
     0
281
     0
  0
CLASS
  1
RASTERVARIABLES
  2
AcDbRasterVariables
  3
ISM
 90
        0
280
     0
281
     0
  0
CLASS
  1
DIMASSOC
  2
AcDbDimAssoc
  3
"AcDbDimAssoc|Product Desc:     AcDim ARX App For Dimension|Company:          Autodesk, Inc.|WEB Address:      www.autodesk.com"
 90
        0
280
     0
281
     0
  0
CLASS
  1
DICTIONARYVAR
  2
AcDbDictionaryVar
  3
ObjectDBX Classes
 90
        0
280
     0
281
     0
  0
ENDSEC
  0
SECTION
  2
TABLES
  0
TABLE
  2
VPORT
  5
8
330
0
100
AcDbSymbolTable
 70
     1
  0
VPORT
  5
29
330
8
100
AcDbSymbolTableRecord
100
AcDbViewportTableRecord
  2
*Active
 70
     0
 10
0.0
 20
0.0
 11
1.0
 21
1.0
 12
3.777000907931686
 22
1.034051710157044
 13
0.0
 23
0.0
 14
10.0
 24
10.0
 15
10.0
 25
10.0
 16
0.0
 26
0.0
 36
1.0
 17
0.0
 27
0.0
 37
0.0
 40
148.626668639779
 41
1.444267515923567
 42
50.0
 43
0.0
 44
0.0
 50
0.0
 51
0.0
 71
    16
 72
  2000
 73
     1
 74
     3
 75
     0
 76
     0
 77
     0
 78
     0
281
     0
 65
     1
110
0.0
120
0.0
130
0.0
111
1.0
121
0.0
131
0.0
112
0.0
122
1.0
132
0.0
 79
     0
146
0.0
  0
ENDTAB
  0
TABLE
  2
LTYPE
  5
5
330
0
100
AcDbSymbolTable
 70
     6
  0
LTYPE
  5
14
330
5
100
AcDbSymbolTableRecord
100
AcDbLinetypeTableRecord
  2
ByBlock
 70
     0
  3

 72
    65
 73
     0
 40
0.0
  0
LTYPE
  5
15
330
5
100
AcDbSymbolTableRecord
100
AcDbLinetypeTableRecord
  2
ByLayer
 70
     0
  3

 72
    65
 73
     0
 40
0.0
  0
LTYPE
  5
16
330
5
100
AcDbSymbolTableRecord
100
AcDbLinetypeTableRecord
  2
Continuous
 70
     0
  3
Solid line
 72
    65
 73
     0
 40
0.0
  0
LTYPE
  5
6A
330
5
100
AcDbSymbolTableRecord
100
AcDbLinetypeTableRecord
  2
HIDDEN
 70
     0
  3
Hidden __ __ __ __ __ __ __ __ __ __ __ __ __ __
 72
    65
 73
     2
 40
1.905
 49
1.27
 74
     0
 49
-0.635
 74
     0
  0
LTYPE
  5
6B
330
5
100
AcDbSymbolTableRecord
100
AcDbLinetypeTableRecord
  2
PHANTOM
 70
     0
  3
Phantom ______  __  __  ______  __  __  ______
 72
    65
 73
     6
 40
12.7
 49
6.35
 74
     0
 49
-1.27
 74
     0
 49
1.27
 74
     0
 49
-1.27
 74
     0
 49
1.27
 74
     0
 49
-1.27
 74
     0
  0
LTYPE
  5
6C
330
5
100
AcDbSymbolTableRecord
100
AcDbLinetypeTableRecord
  2
CENTER
 70
     0
  3
Center ____ _ ____ _ ____ _ ____ _ ____ _ ____
 72
    65
 73
     4
 40
10.16
 49
6.35
 74
     0
 49
-1.27
 74
     0
 49
1.27
 74
     0
 49
-1.27
 74
     0
  0
LTYPE
  5
6D
330
5
100
AcDbSymbolTableRecord
100
AcDbLinetypeTableRecord
  2
CENTERX2
 70
     0
  3
Center (2x) ________  __  ________  __  _____
 72
    65
 73
     4
 40
20.32
 49
12.7
 74
     0
 49
-2.54
 74
     0
 49
2.54
 74
     0
 49
-2.54
 74
     0
  0
LTYPE
  5
6E
330
5
100
AcDbSymbolTableRecord
100
AcDbLinetypeTableRecord
  2
DOT2
 70
     0
  3
Dot (.5x) ........................................
 72
    65
 73
     2
 40
0.635
 49
0.0
 74
     0
 49
-0.635
 74
     0
  0
ENDTAB
  0
TABLE
  2
LAYER
  5
2
330
0
100
AcDbSymbolTable
 70
    17
  0
LAYER
  5
10
330
2
100
AcDbSymbolTableRecord
100
AcDbLayerTableRecord
  2
0
 70
     0
 62
     7
  6
Continuous
370
    -3
390
F
  0
LAYER
  5
6F
330
2
100
AcDbSymbolTableRecord
100
AcDbLayerTableRecord
  2
FORMAT
 70
     0
 62
     2
  6
Continuous
370
    -3
390
F
  0
LAYER
  5
70
330
2
100
AcDbSymbolTableRecord
100
AcDbLayerTableRecord
  2
외형선
 70
     0
 62
   100
  6
Continuous
370
    30
390
F
  0
LAYER
  5
71
330
2
100
AcDbSymbolTableRecord
100
AcDbLayerTableRecord
  2
숨은선
 70
     0
 62
     2
  6
HIDDEN
370
    15
390
F
  0
LAYER
  5
72
330
2
100
AcDbSymbolTableRecord
100
AcDbLayerTableRecord
  2
중심선
 70
     0
 62
     1
  6
CENTERX2
370
    -3
390
F
  0
LAYER
  5
73
330
2
100
AcDbSymbolTableRecord
100
AcDbLayerTableRecord
  2
파단선
 70
     0
 62
     4
  6
Continuous
370
    -3
390
F
  0
LAYER
  5
74
330
2
100
AcDbSymbolTableRecord
100
AcDbLayerTableRecord
  2
해칭선
 70
     0
 62
     4
  6
Continuous
370
    -3
390
F
  0
LAYER
  5
75
330
2
100
AcDbSymbolTableRecord
100
AcDbLayerTableRecord
  2
가는실선
 70
     0
 62
     4
  6
Continuous
370
    -3
390
F
  0
LAYER
  5
76
330
2
100
AcDbSymbolTableRecord
100
AcDbLayerTableRecord
  2
치수_보조선
 70
     0
 62
     4
  6
Continuous
370
    -3
390
F
  0
LAYER
  5
77
330
2
100
AcDbSymbolTableRecord
100
AcDbLayerTableRecord
  2
치수문자_일반주서
 70
     0
 62
     7
  6
Continuous
370
    15
390
F
  0
LAYER
  5
78
330
2
100
AcDbSymbolTableRecord
100
AcDbLayerTableRecord
  2
개별주서
 70
     0
 62
   100
  6
Continuous
370
    30
390
F
  0
LAYER
  5
79
330
2
100
AcDbSymbolTableRecord
100
AcDbLayerTableRecord
  2
중간선
 70
     0
 62
     2
  6
Continuous
370
    15
390
F
  0
LAYER
  5
7A
330
2
100
AcDbSymbolTableRecord
100
AcDbLayerTableRecord
  2
윤곽선
 70
     0
 62
     3
  6
Continuous
370
    40
390
F
  0
LAYER
  5
7B
330
2
100
AcDbSymbolTableRecord
100
AcDbLayerTableRecord
  2
중심마크
 70
     0
 62
   100
  6
Continuous
370
    30
390
F
  0
LAYER
  5
7C
330
2
100
AcDbSymbolTableRecord
100
AcDbLayerTableRecord
  2
가상선
 70
     0
 62
     4
  6
PHANTOM
370
    -3
390
F
  0
LAYER
  5
7D
330
2
100
AcDbSymbolTableRecord
100
AcDbLayerTableRecord
  2
특수지정선
 70
     0
 62
     5
  6
CENTERX2
370
    60
390
F
  0
LAYER
  5
146
330
2
100
AcDbSymbolTableRecord
100
AcDbLayerTableRecord
  2
Defpoints
 70
     0
 62
     7
  6
Continuous
290
     0
370
    -3
390
F
  0
ENDTAB
  0
TABLE
  2
STYLE
  5
3
330
0
100
AcDbSymbolTable
 70
     2
  0
STYLE
  5
11
330
3
100
AcDbSymbolTableRecord
100
AcDbTextStyleTableRecord
  2
Standard
 70
     0
 40
0.0
 41
1.0
 50
0.0
 71
     0
 42
3.5
  3
txt
  4

  0
STYLE
  5
93
330
3
100
AcDbSymbolTableRecord
100
AcDbTextStyleTableRecord
  2
SLDTEXTSTYLE0
 70
     0
 40
0.0
 41
0.75
 50
0.0
 71
     0
 42
3.5
  3
TXT
  4

  0
ENDTAB
  0
TABLE
  2
VIEW
  5
6
330
0
100
AcDbSymbolTable
 70
     0
  0
ENDTAB
  0
TABLE
  2
UCS
  5
7
330
0
100
AcDbSymbolTable
 70
     0
  0
ENDTAB
  0
TABLE
  2
APPID
  5
9
330
0
100
AcDbSymbolTable
 70
     2
  0
APPID
  5
12
330
9
100
AcDbSymbolTableRecord
100
AcDbRegAppTableRecord
  2
ACAD
 70
     0
  0
APPID
  5
162
330
9
100
AcDbSymbolTableRecord
100
AcDbRegAppTableRecord
  2
PE_DIMMEASUREMENT
 70
     0
  0
ENDTAB
  0
TABLE
  2
DIMSTYLE
  5
A
330
0
100
AcDbSymbolTable
 70
     4
100
AcDbDimStyleTable
  0
DIMSTYLE
105
27
330
A
100
AcDbSymbolTableRecord
100
AcDbDimStyleTableRecord
  2
ISO-25
 70
     0
 41
2.5
 42
0.625
 43
3.75
 44
1.25
 73
     0
 74
     0
 77
     1
 78
     8
140
2.5
141
2.5
143
0.03937007874016
147
0.625
171
     3
172
     1
178
     0
271
     2
272
     2
274
     3
278
    44
283
     0
284
     8
340
11
  0
DIMSTYLE
105
E3
102
{ACAD_REACTORS
330
E2
330
149
330
163
330
174
102
}
330
A
100
AcDbSymbolTableRecord
100
AcDbDimStyleTableRecord
  2
SLDDIMSTYLE0
 70
     0
 41
3.302
 44
0.0
 45
0.000000001
 73
     0
 74
     0
 77
     1
 78
    12
 79
     3
140
3.5
143
0.0393700787401575
147
0.875
148
0.000000001
170
     1
173
     1
178
     0
271
     2
272
     2
276
     2
284
    12
340
93
  0
DIMSTYLE
105
F7
102
{ACAD_REACTORS
330
F6
102
}
330
A
100
AcDbSymbolTableRecord
100
AcDbDimStyleTableRecord
  2
SLDDIMSTYLE1
 70
     0
 41
3.302
 44
0.0
 45
0.000000001
 73
     0
 74
     0
 77
     1
 78
     4
 79
     1
140
3.5
143
0.0393700787401575
147
0.875
148
0.000000001
170
     1
173
     1
178
     0
271
     2
272
     2
276
     2
284
    12
340
93
  0
DIMSTYLE
105
10B
330
A
100
AcDbSymbolTableRecord
100
AcDbDimStyleTableRecord
  2
SLDDIMSTYLE2
 70
     0
 41
3.302
 44
0.0
 45
0.000000001
 73
     0
 74
     0
 77
     1
 78
     8
 79
     2
140
3.5
143
0.0393700787401575
147
0.875
148
0.000000001
170
     1
172
     1
173
     1
178
     0
271
     2
272
     2
276
     2
284
    12
289
     0
340
93
341
10C
343
10C
344
10C
  0
ENDTAB
  0
TABLE
  2
BLOCK_RECORD
  5
1
330
0
100
AcDbSymbolTable
 70
    10
  0
BLOCK_RECORD
  5
1F
330
1
100
AcDbSymbolTableRecord
100
AcDbBlockTableRecord
  2
*Model_Space
340
22
  0
BLOCK_RECORD
  5
1B
330
1
100
AcDbSymbolTableRecord
100
AcDbBlockTableRecord
  2
*Paper_Space
340
1E
  0
BLOCK_RECORD
  5
23
330
1
100
AcDbSymbolTableRecord
100
AcDbBlockTableRecord
  2
*Paper_Space0
340
26
  0
BLOCK_RECORD
  5
7E
330
1
100
AcDbSymbolTableRecord
100
AcDbBlockTableRecord
  2
블럭10
340
0
102
{BLKREFS
331
DB
102
}
  0
BLOCK_RECORD
  5
E4
330
1
100
AcDbSymbolTableRecord
100
AcDbBlockTableRecord
  2
_D
340
0
  0
BLOCK_RECORD
  5
F8
330
1
100
AcDbSymbolTableRecord
100
AcDbBlockTableRecord
  2
_D_1
340
0
  0
BLOCK_RECORD
  5
10C
330
1
100
AcDbSymbolTableRecord
100
AcDbBlockTableRecord
  2
_NONE
340
0
  0
BLOCK_RECORD
  5
10F
330
1
100
AcDbSymbolTableRecord
100
AcDbBlockTableRecord
  2
_D_2
340
0
  0
BLOCK_RECORD
  5
11B
330
1
100
AcDbSymbolTableRecord
100
AcDbBlockTableRecord
  2
SW_DOWELSYMBOL_0
340
0
102
{BLKREFS
331
121
102
}
  0
BLOCK_RECORD
  5
14C
330
1
100
AcDbSymbolTableRecord
100
AcDbBlockTableRecord
  2
*D7
340
0
  0
BLOCK_RECORD
  5
166
330
1
100
AcDbSymbolTableRecord
100
AcDbBlockTableRecord
  2
*D8
340
0
  0
BLOCK_RECORD
  5
177
330
1
100
AcDbSymbolTableRecord
100
AcDbBlockTableRecord
  2
*D9
340
0
  0
ENDTAB
  0
ENDSEC
  0
SECTION
  2
BLOCKS
  0
BLOCK
  5
20
330
1F
100
AcDbEntity
  8
0
100
AcDbBlockBegin
  2
*Model_Space
 70
     0
 10
0.0
 20
0.0
 30
0.0
  3
*Model_Space
  1
*Model_Space
  0
ENDBLK
  5
21
330
1F
100
AcDbEntity
  8
0
100
AcDbBlockEnd
  0
BLOCK
  5
1C
330
1B
100
AcDbEntity
 67
     1
  8
0
100
AcDbBlockBegin
  2
*Paper_Space
 70
     0
 10
0.0
 20
0.0
 30
0.0
  3
*Paper_Space
  1
*Paper_Space
  0
ENDBLK
  5
1D
330
1B
100
AcDbEntity
 67
     1
  8
0
100
AcDbBlockEnd
  0
BLOCK
  5
24
330
23
100
AcDbEntity
  8
0
100
AcDbBlockBegin
  2
*Paper_Space0
 70
     0
 10
0.0
 20
0.0
 30
0.0
  3
*Paper_Space0
  1
*Paper_Space0
  0
ENDBLK
  5
25
330
23
100
AcDbEntity
  8
0
100
AcDbBlockEnd
  0
BLOCK
  5
7F
330
7E
100
AcDbEntity
  8
0
100
AcDbBlockBegin
  2
블럭10
 70
     2
 10
0.0
 20
0.0
 30
0.0
  3
블럭10
  1
블럭10
  0
ELLIPSE
  5
81
330
7E
100
AcDbEntity
  8
중심선
100
AcDbEllipse
 10
20.54032771741204
 20
12.0471743016438
 30
0.0
 11
6.600054785286829
 21
-1.261213355974178E-13
 31
0.0
210
0.0
220
0.0
230
1.0
 40
0.636358354079598
 41
0.9219305317359503
 42
6.513795318482858
  0
ELLIPSE
  5
82
330
7E
100
AcDbEntity
  8
중심선
100
AcDbEllipse
 10
20.54032771746488
 20
12.04717430159265
 30
0.0
 11
3.960054785062283
 21
1.540847449632565E-10
 31
0.0
210
0.0
220
0.0
230
1.0
 40
0.3939339440162632
 41
1.131841032648279
 42
5.62031148352944
  0
LINE
  5
83
330
7E
100
AcDbEntity
  8
중심선
100
AcDbLine
 10
2.268634060543552
 20
16.24717430164393
 30
0.0
 11
5.714909304380834
 21
16.24717430164393
 31
0.0
  0
LINE
  5
84
330
7E
100
AcDbEntity
  8
중심선
100
AcDbLine
 10
5.245725140726316
 20
7.84717430164391
 30
0.0
 11
8.692000384563599
 21
7.84717430164391
 31
0.0
  0
LINE
  5
85
330
7E
100
AcDbEntity
  8
중심선
100
AcDbLine
 10
15.74043728645272
 20
16.24717430164393
 30
0.0
 11
8.692000384563599
 21
7.84717430164391
 31
0.0
  0
LINE
  5
86
330
7E
100
AcDbEntity
  8
중심선
100
AcDbLine
 10
0.1404042013395286
 20
13.71084872107135
 30
0.0
 11
3.58671253028996
 21
13.71088815037384
 31
0.0
  0
LINE
  5
87
330
7E
100
AcDbEntity
  8
중심선
100
AcDbLine
 10
2.750260043222114
 20
10.84717430164391
 30
0.0
 11
6.196535287059397
 21
10.84717430164391
 31
0.0
  0
LINE
  5
88
330
7E
100
AcDbEntity
  8
중심선
100
AcDbLine
 10
12.29416204261559
 20
16.24717430164393
 30
0.0
 11
5.245725140726316
 21
7.84717430164391
 31
0.0
  0
LINE
  5
89
330
7E
100
AcDbEntity
  8
중심선
100
AcDbLine
 10
10.72767329541681
 20
16.24717430164393
 30
0.0
 11
6.196535287059397
 21
10.84717430164391
 31
0.0
  0
LINE
  5
8A
330
7E
100
AcDbEntity
  8
중심선
100
AcDbLine
 10
7.28139805157953
 20
16.24717430164393
 30
0.0
 11
2.750260043222114
 21
10.84717430164391
 31
0.0
  0
LINE
  5
8B
330
7E
100
AcDbEntity
  8
중심선
100
AcDbLine
 10
5.714909304380834
 20
16.24717430164393
 30
0.0
 11
3.58671253028996
 21
13.71088815037384
 31
0.0
  0
LINE
  5
8C
330
7E
100
AcDbEntity
  8
중심선
100
AcDbLine
 10
2.268634060543552
 20
16.24717430164393
 30
0.0
 11
0.1404042013395286
 21
13.71084872107135
 31
0.0
  0
LINE
  5
8D
330
7E
100
AcDbEntity
  8
중심선
100
AcDbLine
 10
7.28139805157953
 20
16.24717430164393
 30
0.0
 11
10.72767329541681
 21
16.24717430164393
 31
0.0
  0
LINE
  5
8E
330
7E
100
AcDbEntity
  8
중심선
100
AcDbLine
 10
12.29416204261559
 20
16.24717430164393
 30
0.0
 11
15.74043728645272
 21
16.24717430164393
 31
0.0
  0
LINE
  5
8F
330
7E
100
AcDbEntity
  8
중심선
100
AcDbLine
 10
19.22036997980202
 20
11.08717430171403
 30
0.0
 11
23.66174974927406
 21
11.08717430171406
 31
0.0
  0
LINE
  5
90
330
7E
100
AcDbEntity
  8
중심선
100
AcDbLine
 10
19.22039502424796
 20
13.00717430171391
 30
0.0
 11
19.22036997980202
 21
11.08717430171403
 31
0.0
  0
LINE
  5
91
330
7E
100
AcDbEntity
  8
중심선
100
AcDbLine
 10
19.22039502424796
 20
13.00717430171391
 30
0.0
 11
26.96566020931264
 21
13.00717430171391
 31
0.0
  0
LINE
  5
92
330
7E
100
AcDbEntity
  8
중심선
100
AcDbLine
 10
22.22332737316547
 20
13.45928029700563
 30
0.0
 11
24.52862924686651
 21
15.39360700705356
 31
0.0
  0
ATTDEF
  5
94
330
7E
100
AcDbEntity
  8
FORMAT
 62
     2
100
AcDbText
 10
-9.18129528874128
 20
2.075366912832191
 30
0.0
 40
4.233333333333333
  1
E5078516 [ 3 FLUTE ]
 41
0.75
  7
SLDTEXTSTYLE0
 11
-9.18129528874128
 21
-0.0412997538344756
 31
0.0
100
AcDbAttributeDefinition
  3

  2
AUTOATTR0
 70
     0
 74
     1
  0
ENDBLK
  5
80
330
7E
100
AcDbEntity
  8
0
100
AcDbBlockEnd
  0
BLOCK
  5
E5
330
E4
100
AcDbEntity
  8
0
100
AcDbBlockBegin
  2
_D
 70
     0
 10
0.0
 20
0.0
 30
0.0
  3
_D
  1
_D
  0
LINE
  5
E7
330
E4
100
AcDbEntity
  8
치수문자_일반주서
 62
     0
370
    -2
100
AcDbLine
 10
44.32049999999999
 20
3.237499999999991
 30
0.0
 11
44.32049999999999
 21
52.18725738524795
 31
0.0
  0
LINE
  5
E8
330
E4
100
AcDbEntity
  8
치수문자_일반주서
 62
     0
370
    -2
100
AcDbLine
 10
12.508
 20
5.749616544453415
 30
0.0
 11
12.508
 21
52.18725738524795
 31
0.0
  0
LINE
  5
E9
330
E4
100
AcDbEntity
  8
치수문자_일반주서
 62
     0
370
    -2
100
AcDbLine
 10
41.01849999999999
 20
52.18725738524795
 30
0.0
 11
15.81
 21
52.18725738524795
 31
0.0
  0
SOLID
  5
EA
330
E4
100
AcDbEntity
  8
치수문자_일반주서
 62
     0
100
AcDbTrace
 10
41.01849999999999
 20
51.63692405191461
 30
0.0
 11
41.01849999999999
 21
52.73759071858128
 31
0.0
 12
44.32049999999999
 22
52.18725738524795
 32
0.0
 13
44.32049999999999
 23
52.18725738524795
 33
0.0
  0
SOLID
  5
EB
330
E4
100
AcDbEntity
  8
치수문자_일반주서
 62
     0
100
AcDbTrace
 10
15.81
 20
52.73759071858128
 30
0.0
 11
15.81
 21
51.63692405191461
 31
0.0
 12
12.508
 22
52.18725738524795
 32
0.0
 13
12.508
 23
52.18725738524795
 33
0.0
  0
MTEXT
  5
EC
330
E4
100
AcDbEntity
  8
치수문자_일반주서
 62
     0
100
AcDbMText
 10
28.10376209249801
 20
56.56225738524795
 30
0.0
 40
3.5
 41
0.0
 71
     2
 72
     1
  1
\A1;31.81 [1 1/4]
  7
SLDTEXTSTYLE0
 73
     1
 44
1.0
  0
POINT
  5
ED
330
E4
100
AcDbEntity
  8
Defpoints
 62
     0
100
AcDbPoint
 10
44.32049999999999
 20
3.174999999999991
 30
0.0
  0
POINT
  5
EE
330
E4
100
AcDbEntity
  8
Defpoints
 62
     0
100
AcDbPoint
 10
12.508
 20
5.687116544453415
 30
0.0
  0
POINT
  5
EF
330
E4
100
AcDbEntity
  8
Defpoints
 62
     0
100
AcDbPoint
 10
12.508
 20
52.18725738524795
 30
0.0
  0
ENDBLK
  5
E6
330
E4
100
AcDbEntity
  8
0
100
AcDbBlockEnd
  0
BLOCK
  5
F9
330
F8
100
AcDbEntity
  8
0
100
AcDbBlockBegin
  2
_D_1
 70
     0
 10
0.0
 20
0.0
 30
0.0
  3
_D_1
  1
_D_1
  0
LINE
  5
FB
330
F8
100
AcDbEntity
  8
치수문자_일반주서
 62
     0
370
    -2
100
AcDbLine
 10
44.32049999999999
 20
3.237499999999991
 30
0.0
 11
44.3205
 21
70.21460137457225
 31
0.0
  0
LINE
  5
FC
330
F8
100
AcDbEntity
  8
치수문자_일반주서
 62
     0
370
    -2
100
AcDbLine
 10
-57.342
 20
5.602500000000016
 30
0.0
 11
-57.34199999999999
 21
70.21460137457225
 31
0.0
  0
LINE
  5
FD
330
F8
100
AcDbEntity
  8
치수문자_일반주서
 62
     0
370
    -2
100
AcDbLine
 10
41.0185
 20
70.21460137457225
 30
0.0
 11
-54.03999999999999
 21
70.21460137457225
 31
0.0
  0
SOLID
  5
FE
330
F8
100
AcDbEntity
  8
치수문자_일반주서
 62
     0
100
AcDbTrace
 10
41.0185
 20
69.66426804123893
 30
0.0
 11
41.0185
 21
70.76493470790558
 31
0.0
 12
44.3205
 22
70.21460137457225
 32
0.0
 13
44.3205
 23
70.21460137457225
 33
0.0
  0
SOLID
  5
FF
330
F8
100
AcDbEntity
  8
치수문자_일반주서
 62
     0
100
AcDbTrace
 10
-54.03999999999999
 20
70.76493470790558
 30
0.0
 11
-54.03999999999999
 21
69.66426804123893
 31
0.0
 12
-57.34199999999999
 22
70.21460137457225
 32
0.0
 13
-57.34199999999999
 23
70.21460137457225
 33
0.0
  0
MTEXT
  5
100
330
F8
100
AcDbEntity
  8
치수문자_일반주서
 62
     0
100
AcDbMText
 10
-2.301833180867412
 20
74.58960137457225
 30
0.0
 40
3.5
 41
0.0
 71
     2
 72
     1
  1
\A1;101.66 [4]
  7
SLDTEXTSTYLE0
 73
     1
 44
1.0
  0
POINT
  5
101
330
F8
100
AcDbEntity
  8
Defpoints
 62
     0
100
AcDbPoint
 10
44.32049999999999
 20
3.174999999999991
 30
0.0
  0
POINT
  5
102
330
F8
100
AcDbEntity
  8
Defpoints
 62
     0
100
AcDbPoint
 10
-57.342
 20
5.540000000000016
 30
0.0
  0
POINT
  5
103
330
F8
100
AcDbEntity
  8
Defpoints
 62
     0
100
AcDbPoint
 10
-57.342
 20
70.21460137457225
 30
0.0
  0
ENDBLK
  5
FA
330
F8
100
AcDbEntity
  8
0
100
AcDbBlockEnd
  0
BLOCK
  5
10D
330
10C
100
AcDbEntity
  8
0
100
AcDbBlockBegin
  2
_NONE
 70
     0
 10
0.0
 20
0.0
 30
0.0
  3
_NONE
  1
_NONE
  0
ENDBLK
  5
10E
330
10C
100
AcDbEntity
  8
0
100
AcDbBlockEnd
  0
BLOCK
  5
110
330
10F
100
AcDbEntity
  8
0
100
AcDbBlockBegin
  2
_D_2
 70
     0
 10
0.0
 20
0.0
 30
0.0
  3
_D_2
  1
_D_2
  0
LINE
  5
112
330
10F
100
AcDbEntity
  8
치수문자_일반주서
100
AcDbLine
 10
-81.13488171604274
 20
-11.7643664310687
 30
0.0
 11
-81.13488171604274
 21
-12.4753039166332
 31
0.0
  0
LINE
  5
113
330
10F
100
AcDbEntity
  8
치수문자_일반주서
100
AcDbLine
 10
-81.13488171604274
 20
-12.4753039166332
 30
0.0
 11
-75.57863172498344
 21
-12.47530391663316
 31
0.0
  0
LINE
  5
114
330
10F
100
AcDbEntity
  8
치수문자_일반주서
100
AcDbLine
 10
-75.57863172498344
 20
-12.47530391663316
 30
0.0
 11
-75.57863172498344
 21
-11.76436643106866
 31
0.0
  0
LINE
  5
115
330
10F
100
AcDbEntity
  8
치수문자_일반주서
100
AcDbLine
 10
-81.13488171604283
 20
-0.9356335689314436
 30
0.0
 11
-81.13488171604283
 21
-0.2246960833669435
 31
0.0
  0
LINE
  5
116
330
10F
100
AcDbEntity
  8
치수문자_일반주서
100
AcDbLine
 10
-81.13488171604283
 20
-0.2246960833669435
 30
0.0
 11
-75.57863172498352
 21
-0.2246960833669043
 31
0.0
  0
LINE
  5
117
330
10F
100
AcDbEntity
  8
치수문자_일반주서
100
AcDbLine
 10
-75.57863172498352
 20
-0.2246960833669043
 30
0.0
 11
-75.57863172498352
 21
-0.9356335689314045
 31
0.0
  0
MTEXT
  5
118
330
10F
100
AcDbEntity
  8
치수문자_일반주서
100
AcDbMText
 10
-80.09036863956236
 20
-10.87569453045732
 30
0.0
 40
3.5
 41
0.0
 71
     1
 72
     1
  1
0.00
  7
SLDTEXTSTYLE0
 11
-7.044195017643634E-15
 21
1.0
 31
0.0
 73
     1
 44
1.0
  0
MTEXT
  5
119
330
10F
100
AcDbEntity
  8
치수문자_일반주서
100
AcDbMText
 10
-74.85373708920189
 20
-10.2822744123638
 30
0.0
 40
3.5
 41
0.0
 71
     1
 72
     1
  1
%%c
  7
SLDTEXTSTYLE0
 11
-7.044195017643634E-15
 21
1.0
 31
0.0
 73
     1
 44
1.0
  0
MTEXT
  5
11A
330
10F
100
AcDbEntity
  8
치수문자_일반주서
100
AcDbMText
 10
-74.85373708920193
 20
-5.003837013989717
 30
0.0
 40
3.5
 41
0.0
 71
     1
 72
     1
  1
0
  7
SLDTEXTSTYLE0
 11
-7.044195017643634E-15
 21
1.0
 31
0.0
 73
     1
 44
1.0
  0
ENDBLK
  5
111
330
10F
100
AcDbEntity
  8
0
100
AcDbBlockEnd
  0
BLOCK
  5
11C
330
11B
100
AcDbEntity
  8
0
100
AcDbBlockBegin
  2
SW_DOWELSYMBOL_0
 70
     0
 10
0.0
 20
0.0
 30
0.0
  3
SW_DOWELSYMBOL_0
  1
SW_DOWELSYMBOL_0
  0
CIRCLE
  5
11E
330
11B
100
AcDbEntity
  8
외형선
 62
     0
100
AcDbCircle
 10
0.0
 20
0.0
 30
0.0
 40
3.000000000000001
  0
HATCH
  5
11F
330
11B
100
AcDbEntity
  8
0
  6
Continuous
 62
     0
370
    30
100
AcDbHatch
 10
0.0
 20
0.0
 30
0.0
210
0.0
220
0.0
230
1.0
  2
SOLID
 70
     1
 71
     0
 91
        1
 92
        0
 93
        3
 72
     2
 10
0.0
 20
0.0
 40
3.000000000000001
 50
0.0
 51
90.0
 73
     1
 72
     1
 10
0.0
 20
3.000000000000001
 11
0.0
 21
0.0
 72
     1
 10
0.0
 20
0.0
 11
3.000000000000003
 21
0.0
 97
        0
 75
     0
 76
     1
 98
        1
 10
0.0
 20
0.0
  0
HATCH
  5
120
330
11B
100
AcDbEntity
  8
0
  6
Continuous
 62
     0
370
    30
100
AcDbHatch
 10
0.0
 20
0.0
 30
0.0
210
0.0
220
0.0
230
1.0
  2
SOLID
 70
     1
 71
     0
 91
        1
 92
        0
 93
        3
 72
     2
 10
0.0
 20
0.0
 40
3.000000000000001
 50
180.0
 51
270.0000000000008
 73
     1
 72
     1
 10
0.0
 20
-3.000000000000001
 11
0.0
 21
0.0
 72
     1
 10
0.0
 20
0.0
 11
-3.000000000000003
 21
0.0
 97
        0
 75
     0
 76
     1
 98
        1
 10
0.0
 20
0.0
  0
ENDBLK
  5
11D
330
11B
100
AcDbEntity
  8
0
100
AcDbBlockEnd
  0
BLOCK
  5
14D
330
14C
100
AcDbEntity
  8
0
100
AcDbBlockBegin
  2
*D7
 70
     1
 10
0.0
 20
0.0
 30
0.0
  3
*D7
  1
*D7
  0
LINE
  5
14F
330
14C
100
AcDbEntity
  8
치수문자_일반주서
 62
     0
370
    -2
100
AcDbLine
 10
44.35736581183185
 20
-3.175000000000009
 30
0.0
 11
61.22789421796176
 21
-3.17500000000001
 31
0.0
  0
LINE
  5
150
330
14C
100
AcDbEntity
  8
치수문자_일반주서
 62
     0
370
    -2
100
AcDbLine
 10
44.32049999999999
 20
3.174999999999991
 30
0.0
 11
61.22789421796176
 21
3.17499999999999
 31
0.0
  0
LINE
  5
151
330
14C
100
AcDbEntity
  8
치수문자_일반주서
 62
     0
370
    -2
100
AcDbLine
 10
61.22789421796176
 20
6.47699999999999
 30
0.0
 11
61.22789421796176
 21
35.15399999999999
 31
0.0
  0
LINE
  5
152
330
14C
100
AcDbEntity
  8
치수문자_일반주서
 62
     0
370
    -2
100
AcDbLine
 10
61.22789421796176
 20
-6.477000000000009
 30
0.0
 11
61.22789421796176
 21
-9.779000000000009
 31
0.0
  0
SOLID
  5
153
330
14C
100
AcDbEntity
  8
치수문자_일반주서
 62
     0
100
AcDbTrace
 10
61.7782275512951
 20
-6.477000000000009
 30
0.0
 11
60.67756088462843
 21
-6.477000000000009
 31
0.0
 12
61.22789421796176
 22
-3.17500000000001
 32
0.0
 13
61.22789421796176
 23
-3.17500000000001
 33
0.0
  0
SOLID
  5
154
330
14C
100
AcDbEntity
  8
치수문자_일반주서
 62
     0
100
AcDbTrace
 10
60.67756088462843
 20
6.47699999999999
 30
0.0
 11
61.7782275512951
 21
6.47699999999999
 31
0.0
 12
61.22789421796176
 22
3.17499999999999
 32
0.0
 13
61.22789421796176
 23
3.17499999999999
 33
0.0
  0
MTEXT
  5
155
330
14C
100
AcDbEntity
  8
치수문자_일반주서
 62
     0
100
AcDbMText
 10
58.60289421796176
 20
22.46649999999999
 30
0.0
 40
3.5
 41
0.0
 71
     5
 72
     1
  1
\A1;{%%c6.35 [1/4]}
  7
SLDTEXTSTYLE0
 11
0.0
 21
1.0
 31
0.0
 73
     1
 44
1.0
  0
POINT
  5
156
330
14C
100
AcDbEntity
  8
Defpoints
 62
     0
100
AcDbPoint
 10
44.29486581183185
 20
-3.175000000000009
 30
0.0
  0
POINT
  5
157
330
14C
100
AcDbEntity
  8
Defpoints
 62
     0
100
AcDbPoint
 10
44.25799999999999
 20
3.174999999999991
 30
0.0
  0
POINT
  5
158
330
14C
100
AcDbEntity
  8
Defpoints
 62
     0
100
AcDbPoint
 10
61.22789421796176
 20
3.17499999999999
 30
0.0
  0
ENDBLK
  5
14E
330
14C
100
AcDbEntity
  8
0
100
AcDbBlockEnd
  0
BLOCK
  5
167
330
166
100
AcDbEntity
  8
0
100
AcDbBlockBegin
  2
*D8
 70
     1
 10
0.0
 20
0.0
 30
0.0
  3
*D8
  1
*D8
  0
LINE
  5
169
330
166
100
AcDbEntity
  8
치수문자_일반주서
 62
     0
370
    -2
100
AcDbLine
 10
-56.5945
 20
-6.35
 30
0.0
 11
-74.90277425592504
 21
-6.349999999999998
 31
0.0
  0
LINE
  5
16A
330
166
100
AcDbEntity
  8
치수문자_일반주서
 62
     0
370
    -2
100
AcDbLine
 10
-56.5945
 20
6.349999999999999
 30
0.0
 11
-74.90277425592504
 21
6.35
 31
0.0
  0
LINE
  5
16B
330
166
100
AcDbEntity
  8
치수문자_일반주서
 62
     0
370
    -2
100
AcDbLine
 10
-74.90277425592504
 20
6.35
 30
0.0
 11
-74.90277425592504
 21
34.152
 31
0.0
  0
LINE
  5
16C
330
166
100
AcDbEntity
  8
치수문자_일반주서
 62
     0
370
    -2
100
AcDbLine
 10
-74.90277425592504
 20
-3.047999999999998
 30
0.0
 11
-74.90277425592504
 21
3.048
 31
0.0
  0
SOLID
  5
16D
330
166
100
AcDbEntity
  8
치수문자_일반주서
 62
     0
100
AcDbTrace
 10
-75.45310758925837
 20
-3.047999999999998
 30
0.0
 11
-74.35244092259171
 21
-3.047999999999998
 31
0.0
 12
-74.90277425592504
 22
-6.349999999999998
 32
0.0
 13
-74.90277425592504
 23
-6.349999999999998
 33
0.0
  0
SOLID
  5
16E
330
166
100
AcDbEntity
  8
치수문자_일반주서
 62
     0
100
AcDbTrace
 10
-74.35244092259171
 20
3.048
 30
0.0
 11
-75.45310758925837
 21
3.048
 31
0.0
 12
-74.90277425592504
 22
6.35
 32
0.0
 13
-74.90277425592504
 23
6.35
 33
0.0
  0
MTEXT
  5
16F
330
166
100
AcDbEntity
  8
치수문자_일반주서
 62
     0
100
AcDbMText
 10
-77.52777425592504
 20
21.902
 30
0.0
 40
3.5
 41
0.0
 71
     5
 72
     1
  1
\A1;{%%c12.7 [1/2]}
  7
SLDTEXTSTYLE0
 11
0.0
 21
1.0
 31
0.0
 73
     1
 44
1.0
  0
POINT
  5
170
330
166
100
AcDbEntity
  8
Defpoints
 62
     0
100
AcDbPoint
 10
-56.532
 20
-6.35
 30
0.0
  0
POINT
  5
171
330
166
100
AcDbEntity
  8
Defpoints
 62
     0
100
AcDbPoint
 10
-56.532
 20
6.349999999999999
 30
0.0
  0
POINT
  5
172
330
166
100
AcDbEntity
  8
Defpoints
 62
     0
100
AcDbPoint
 10
-74.90277425592504
 20
6.35
 30
0.0
  0
ENDBLK
  5
168
330
166
100
AcDbEntity
  8
0
100
AcDbBlockEnd
  0
BLOCK
  5
178
330
177
100
AcDbEntity
  8
0
100
AcDbBlockBegin
  2
*D9
 70
     1
 10
0.0
 20
0.0
 30
0.0
  3
*D9
  1
*D9
  0
LINE
  5
17A
330
177
100
AcDbEntity
  8
치수문자_일반주서
 62
     0
370
    -2
100
AcDbLine
 10
25.45497320122346
 20
11.1676980970168
 30
0.0
 11
26.55618996682632
 21
16.30090583050618
 31
0.0
  0
LINE
  5
17B
330
177
100
AcDbEntity
  8
치수문자_일반주서
 62
     0
370
    -2
100
AcDbLine
 10
23.59644865109598
 20
4.717002991393193
 30
0.0
 11
24.47315529205981
 21
4.640301099070964
 31
0.0
  0
ARC
  5
17C
330
177
100
AcDbEntity
  8
치수문자_일반주서
 62
     0
370
    -2
100
AcDbCircle
 10
77.51203955500186
 20
-0.0000000000000089
 30
0.0
 40
53.24148418430688
100
AcDbArc
 50
167.8919713305043
 51
171.4459856652522
  0
ARC
  5
17D
330
177
100
AcDbEntity
  8
치수문자_일반주서
 62
     0
370
    -2
100
AcDbCircle
 10
77.51203955500186
 20
-0.0000000000000089
 30
0.0
 40
53.24148418430688
100
AcDbArc
 50
183.5540143347478
 51
187.1080286694958
  0
SOLID
  5
17E
330
177
100
AcDbEntity
  8
치수문자_일반주서
 62
     0
100
AcDbTrace
 10
24.31632126726678
 20
7.984172189057088
 30
0.0
 11
25.40929751400785
 21
7.854287489531255
 31
0.0
 12
24.47315529205981
 22
4.640301099070964
 32
0.0
 13
24.47315529205981
 23
4.640301099070964
 33
0.0
  0
SOLID
  5
17F
330
177
100
AcDbEntity
  8
치수문자_일반주서
 62
     0
100
AcDbTrace
 10
24.923017917818
 20
-3.283346372586902
 30
0.0
 11
23.82288057821561
 21
-3.317477665027511
 31
0.0
 12
24.27055537069498
 22
-0.0000000000000089
 32
0.0
 13
24.27055537069498
 23
-0.0000000000000089
 33
0.0
  0
MTEXT
  5
180
330
177
100
AcDbEntity
  8
치수문자_일반주서
 62
     0
100
AcDbMText
 10
23.4389777172802
 20
14.28491034656292
 30
0.0
 40
3.5
 41
0.0
 71
     5
 72
     1
  1
\A1;5%%d
  7
SLDTEXTSTYLE0
 11
0.2097555744005448
 21
0.9777538539979772
 31
0.0
 73
     1
 44
1.0
  0
POINT
  5
181
330
177
100
AcDbEntity
  8
Defpoints
 62
     0
100
AcDbPoint
 10
24.29307917620266
 20
1.548513592966375
 30
0.0
  0
POINT
  5
182
330
177
100
AcDbEntity
  8
Defpoints
 62
     0
100
AcDbPoint
 10
23.53418648246524
 20
4.722450225314922
 30
0.0
  0
POINT
  5
183
330
177
100
AcDbEntity
  8
Defpoints
 62
     0
100
AcDbPoint
 10
-60.34200000000001
 20
-0.0000000000000087
 30
0.0
  0
POINT
  5
184
330
177
100
AcDbEntity
  8
Defpoints
 62
     0
100
AcDbPoint
 10
47.35971948322381
 20
-0.0000000000000087
 30
0.0
  0
POINT
  5
185
330
177
100
AcDbEntity
  8
Defpoints
 62
     0
100
AcDbPoint
 10
18.74597774462542
 20
5.14136420847168
 30
0.0
  0
ENDBLK
  5
179
330
177
100
AcDbEntity
  8
0
100
AcDbBlockEnd
  0
ENDSEC
  0
SECTION
  2
ENTITIES
  0
LINE
  5
95
330
1F
100
AcDbEntity
  8
0
  6
Continuous
 62
     4
370
    15
100
AcDbLine
 10
11.21599495831686
 20
6.350000000000009
 30
0.0
 11
-56.532
 21
6.35
 31
0.0
  0
LINE
  5
96
102
{ACAD_REACTORS
102
}
330
1F
100
AcDbEntity
  8
0
  6
Continuous
 62
     4
370
    15
100
AcDbLine
 10
-56.532
 20
-6.35
 30
0.0
 11
11.21599495831686
 21
-6.349999999999991
 31
0.0
  0
LINE
  5
97
102
{ACAD_REACTORS
102
}
330
1F
100
AcDbEntity
  8
0
  6
Continuous
 62
     4
370
    15
100
AcDbLine
 10
-56.532
 20
6.349999999999999
 30
0.0
 11
-57.34200000000001
 21
5.540000000000015
 31
0.0
  0
LINE
  5
98
330
1F
100
AcDbEntity
  8
0
  6
Continuous
 62
     4
370
    15
100
AcDbLine
 10
-57.34200000000001
 20
-5.540000000000017
 30
0.0
 11
-56.532
 21
-6.350000000000001
 31
0.0
  0
LINE
  5
99
330
1F
100
AcDbEntity
  8
0
  6
Continuous
 62
     1
370
    15
100
AcDbLine
 10
39.75574630806714
 20
-3.303247635867175
 30
0.0
 11
41.35971948322381
 21
-3.162918166441286
 31
0.0
  0
LINE
  5
9A
330
1F
100
AcDbEntity
  8
0
  6
Continuous
 62
     1
370
    15
100
AcDbLine
 10
14.4649071638251
 20
-5.515909352046032
 30
0.0
 11
19.54487488053122
 21
-5.071469765756575
 31
0.0
  0
LINE
  5
9B
330
1F
100
AcDbEntity
  8
0
  6
Continuous
 62
     1
370
    15
100
AcDbLine
 10
31.46361226640594
 20
4.028715360949947
 30
0.0
 11
27.2552345752853
 21
4.396900700758406
 31
0.0
  0
LINE
  5
9C
330
1F
100
AcDbEntity
  8
0
  6
Continuous
 62
     1
370
    15
100
AcDbLine
 10
23.01157096382923
 20
-4.768173158578278
 30
0.0
 11
27.50597469766258
 21
-4.374963782559275
 31
0.0
  0
LINE
  5
9D
330
1F
100
AcDbEntity
  8
0
  6
Continuous
 62
     1
370
    15
100
AcDbLine
 10
15.52945785468099
 20
5.42277323484747
 30
0.0
 11
12.508
 21
5.687116544453415
 31
0.0
  0
LINE
  5
9E
330
1F
100
AcDbEntity
  8
0
  6
Continuous
 62
     1
370
    15
100
AcDbLine
 10
39.37796771210892
 20
3.336298980336275
 30
0.0
 11
35.63512740676138
 21
3.663755076442093
 31
0.0
  0
LINE
  5
9F
330
1F
100
AcDbEntity
  8
0
  6
Continuous
 62
     1
370
    15
100
AcDbLine
 10
31.45904959201001
 20
-4.029114543234935
 30
0.0
 11
35.40893785228279
 21
-3.683544098266934
 31
0.0
  0
LINE
  5
A0
102
{ACAD_REACTORS
102
}
330
1F
100
AcDbEntity
  8
0
  6
Continuous
 62
     1
370
    15
100
AcDbLine
 10
23.53418648246524
 20
4.722450225314922
 30
0.0
 11
18.74597774462542
 21
5.14136420847168
 31
0.0
  0
LINE
  5
A1
330
1F
100
AcDbEntity
  8
0
  6
Continuous
 62
     4
370
    15
100
AcDbLine
 10
12.508
 20
5.687116544453415
 30
0.0
 11
11.492
 21
6.021070000000009
 31
0.0
  0
LINE
  5
A2
330
1F
100
AcDbEntity
  8
0
  6
Continuous
 62
     4
370
    15
100
AcDbLine
 10
11.492
 20
6.021070000000009
 30
0.0
 11
11.21599495831686
 21
6.350000000000004
 31
0.0
  0
ARC
  5
A3
330
1F
100
AcDbEntity
  8
0
  6
Continuous
 62
     1
370
    15
100
AcDbCircle
 10
41.08299999999999
 20
0.0000000000000067
 30
0.0
 40
3.175000000000001
100
AcDbArc
 50
275.0000000000009
 51
293.3409628545135
  0
LINE
  5
A4
330
1F
100
AcDbEntity
  8
0
  6
Continuous
 62
     4
370
    15
100
AcDbLine
 10
11.21599495831686
 20
-6.349999999999986
 30
0.0
 11
11.492
 21
-6.021069999999991
 31
0.0
  0
ARC
  5
A5
330
1F
100
AcDbEntity
  8
0
  6
Continuous
 62
     1
370
    15
100
AcDbCircle
 10
41.08299999999999
 20
0.0000000000000067
 30
0.0
 40
3.175000000000005
100
AcDbArc
 50
27.85617637447598
 51
44.05866325393067
  0
LINE
  5
A6
330
1F
100
AcDbEntity
  8
0
  6
Continuous
 62
     4
370
    15
100
AcDbLine
 10
11.492
 20
-6.021069999999991
 30
0.0
 11
11.59199121296603
 21
-5.988203453647335
 31
0.0
  0
LINE
  5
A7
330
1F
100
AcDbEntity
  8
0
  6
Continuous
 62
     4
370
    15
100
AcDbLine
 10
11.21599495831686
 20
6.350000000000009
 30
0.0
 11
11.21599495831686
 21
5.99909726751968
 31
0.0
  0
SPLINE
  5
A8
330
1F
100
AcDbEntity
  8
0
  6
Continuous
 62
     4
370
    15
100
AcDbSpline
210
0.0
220
0.0
230
1.0
 70
     8
 71
     3
 72
    10
 73
     6
 74
     0
 42
0.000000001
 43
0.00000001
 40
0.0
 40
0.0
 40
0.0
 40
0.0
 40
0.4999999999999999
 40
0.4999999999999999
 40
1.0
 40
1.0
 40
1.0
 40
1.0
 10
9.987999999999996
 20
6.348977861814367
 30
0.0
 10
10.19342344439771
 20
6.342966781996374
 30
0.0
 10
10.39737104984187
 20
6.31058347184002
 30
0.0
 10
10.80618002817621
 20
6.193764759331339
 30
0.0
 10
11.01120875308717
 20
6.109056637824264
 30
0.0
 10
11.21599495831824
 20
5.999097267518944
 30
0.0
  0
LINE
  5
A9
330
1F
100
AcDbEntity
  8
0
  6
Continuous
 62
     4
370
    15
100
AcDbLine
 10
9.987999999999996
 20
5.239706724637538
 30
0.0
 11
9.987999999999996
 21
6.348977861814367
 31
0.0
  0
SPLINE
  5
AA
330
1F
100
AcDbEntity
  8
0
  6
Continuous
 62
     4
370
    15
100
AcDbSpline
210
0.0
220
0.0
230
1.0
 70
     8
 71
     3
 72
    10
 73
     6
 74
     0
 42
0.000000001
 43
0.00000001
 40
0.0
 40
0.0
 40
0.0
 40
0.0
 40
0.5
 40
0.5
 40
1.0
 40
1.0
 40
1.0
 40
1.0
 10
11.21599495831686
 20
3.949137921037206
 30
0.0
 10
11.01077843112206
 20
4.197631257318836
 30
0.0
 10
10.80684971792988
 20
4.430029193546293
 30
0.0
 10
10.39811581390208
 20
4.861310509604972
 30
0.0
 10
10.19299365951628
 20
5.060363934722071
 30
0.0
 10
9.987999999999996
 20
5.239706724637537
 30
0.0
  0
LINE
  5
AB
330
1F
100
AcDbEntity
  8
0
  6
Continuous
 62
     4
370
    15
100
AcDbLine
 10
11.21599495831557
 20
3.949137921043247
 30
0.0
 11
11.21599495831686
 21
-4.802323988907705
 31
0.0
  0
SPLINE
  5
AC
330
1F
100
AcDbEntity
  8
0
  6
Continuous
 62
     4
370
    15
100
AcDbSpline
210
0.0
220
0.0
230
1.0
 70
     8
 71
     3
 72
    10
 73
     6
 74
     0
 42
0.000000001
 43
0.00000001
 40
0.0
 40
0.0
 40
0.0
 40
0.0
 40
0.4999999999999999
 40
0.4999999999999999
 40
1.0
 40
1.0
 40
1.0
 40
1.0
 10
9.987999999999996
 20
-3.273155453311703
 30
0.0
 10
10.19342344439772
 20
-3.56024992726739
 30
0.0
 10
10.39737104984188
 20
-3.832024566378614
 30
0.0
 10
10.80618002817621
 20
-4.343286695955002
 30
0.0
 10
11.01120875308717
 20
-4.58286974803812
 30
0.0
 10
11.21599495831824
 20
-4.802323988909195
 30
0.0
  0
LINE
  5
AD
330
1F
100
AcDbEntity
  8
0
  6
Continuous
 62
     4
370
    15
100
AcDbLine
 10
9.987999999999996
 20
-5.726456021147411
 30
0.0
 11
9.987999999999996
 21
-3.273155453311703
 31
0.0
  0
SPLINE
  5
AE
330
1F
100
AcDbEntity
  8
0
  6
Continuous
 62
     4
370
    15
100
AcDbSpline
210
0.0
220
0.0
230
1.0
 70
     8
 71
     3
 72
    10
 73
     6
 74
     0
 42
0.000000001
 43
0.00000001
 40
0.0
 40
0.0
 40
0.0
 40
0.0
 40
0.5
 40
0.5
 40
1.0
 40
1.0
 40
1.0
 40
1.0
 10
11.21599495831686
 20
-6.280972014166673
 30
0.0
 10
11.01077843112206
 20
-6.234310192343307
 30
0.0
 10
10.80684971792988
 20
-6.164450798769286
 30
0.0
 10
10.39811581390208
 20
-5.979269125357465
 30
0.0
 10
10.19299365951628
 20
-5.863649080434761
 30
0.0
 10
9.987999999999998
 20
-5.726456021147409
 30
0.0
  0
LINE
  5
AF
330
1F
100
AcDbEntity
  8
0
  6
Continuous
 62
     4
370
    15
100
AcDbLine
 10
11.21599495831557
 20
-6.28097201416658
 30
0.0
 11
11.21599495831686
 21
-6.349999999999991
 31
0.0
  0
LINE
  5
B0
330
1F
100
AcDbEntity
  8
0
  6
Continuous
 62
     4
370
    15
100
AcDbLine
 10
-56.532
 20
6.35
 30
0.0
 11
-56.532
 21
-6.35
 31
0.0
  0
LINE
  5
B1
330
1F
100
AcDbEntity
  8
0
  6
Continuous
 62
     4
370
    15
100
AcDbLine
 10
-57.34200000000001
 20
-5.540000000000017
 30
0.0
 11
-57.34200000000001
 21
5.540000000000015
 31
0.0
  0
SPLINE
  5
B2
330
1F
100
AcDbEntity
  8
0
  6
Continuous
 62
     4
370
    15
100
AcDbSpline
210
0.0
220
0.0
230
1.0
 70
     8
 71
     3
 72
     8
 73
     4
 74
     0
 42
0.000000001
 43
0.00000001
 40
0.0
 40
0.0
 40
0.0
 40
0.0
 40
1.0
 40
1.0
 40
1.0
 40
1.0
 10
11.492
 20
3.159085398038366
 30
0.0
 10
11.39427438245172
 20
3.425075046123001
 30
0.0
 10
11.30268750994598
 20
3.688574592345976
 30
0.0
 10
11.21599495831487
 20
3.949137921043179
 30
0.0
  0
LINE
  5
B3
330
1F
100
AcDbEntity
  8
0
  6
Continuous
 62
     4
370
    15
100
AcDbLine
 10
11.492
 20
3.159085398038346
 30
0.0
 11
11.492
 21
-4.629802649729675
 31
0.0
  0
SPLINE
  5
B4
330
1F
100
AcDbEntity
  8
0
  6
Continuous
 62
     4
370
    15
100
AcDbSpline
210
0.0
220
0.0
230
1.0
 70
     8
 71
     3
 72
     8
 73
     4
 74
     0
 42
0.000000001
 43
0.00000001
 40
0.0
 40
0.0
 40
0.0
 40
0.0
 40
1.0
 40
1.0
 40
1.0
 40
1.0
 10
11.21599495831686
 20
-4.802323988907705
 30
0.0
 10
11.31024876536677
 20
-4.735414036847851
 30
0.0
 10
11.40184648127261
 20
-4.680275352829769
 30
0.0
 10
11.492
 20
-4.629802649729673
 30
0.0
  0
SPLINE
  5
B5
330
1F
100
AcDbEntity
  8
0
  6
Continuous
 62
     1
370
    15
100
AcDbSpline
210
0.0
220
0.0
230
1.0
 70
     8
 71
     3
 72
    19
 73
    15
 74
     0
 42
0.000000001
 43
0.00000001
 40
0.0
 40
0.0
 40
0.0
 40
0.0
 40
0.0592968716464098
 40
0.1192759208244168
 40
0.2112345111509707
 40
0.3058479252742716
 40
0.3978964739764002
 40
0.4926498978206931
 40
0.5840506992277967
 40
0.6781173610183354
 40
0.7692249550975004
 40
0.8629743169639915
 40
0.9540652966868438
 40
1.0
 40
1.0
 40
1.0
 40
1.0
 10
41.35971948322381
 20
-2.735618533739753
 30
0.0
 10
41.15225778111721
 20
-2.657215728262904
 30
0.0
 10
40.73494764539672
 20
-2.499508136634249
 30
0.0
 10
40.0033794594866
 20
-2.105243254953664
 30
0.0
 10
39.15647319427145
 20
-1.533078679579741
 30
0.0
 10
38.21108371783546
 20
-0.7565831591191602
 30
0.0
 10
37.26727861398993
 20
0.1055543200306504
 30
0.0
 10
36.3446581684163
 20
0.9835859970568012
 30
0.0
 10
35.42580681851224
 20
1.83799859675769
 30
0.0
 10
34.52852523255311
 20
2.600752712372042
 30
0.0
 10
33.63323285902597
 20
3.245662229069727
 30
0.0
 10
32.7568988893641
 20
3.709658260169376
 30
0.0
 10
32.03015285794999
 20
3.973184352426906
 30
0.0
 10
31.60408830473427
 20
3.99463706806895
 30
0.0
 10
31.46125997933871
 20
4.001828596740403
 30
0.0
  0
SPLINE
  5
B6
330
1F
100
AcDbEntity
  8
0
  6
Continuous
 62
     1
370
    15
100
AcDbSpline
210
0.0
220
0.0
230
1.0
 70
     8
 71
     3
 72
    19
 73
    15
 74
     0
 42
0.000000001
 43
0.00000001
 40
0.0
 40
0.0
 40
0.0
 40
0.0
 40
0.0136056176426514
 40
0.1010194788244432
 40
0.1909222221928743
 40
0.279144508580987
 40
0.3698768646489057
 40
0.4589539255390212
 40
0.5480278789969044
 40
0.6396083515522544
 40
0.7300239095122303
 40
0.8230089887846772
 40
0.9103734596600672
 40
1.0
 40
1.0
 40
1.0
 40
1.0
 10
21.22185459379348
 20
-4.444652267949225
 30
0.0
 10
21.18045197052446
 20
-4.474474222459712
 30
0.0
 10
20.87304428537168
 20
-4.695897342034354
 30
0.0
 10
20.29844547749995
 20
-4.932209285358666
 30
0.0
 10
19.50317457161716
 20
-5.114704118231408
 30
0.0
 10
18.70511853284144
 20
-5.058019281087464
 30
0.0
 10
17.91545552348844
 20
-4.784988118192286
 30
0.0
 10
17.12951877247946
 20
-4.298934508031156
 30
0.0
 10
16.3470292174348
 20
-3.622740702276984
 30
0.0
 10
15.56654310970729
 20
-2.778892150217555
 30
0.0
 10
14.78080303695501
 20
-1.791503598278098
 30
0.0
 10
14.0127836371367
 20
-0.729945456794317
 30
0.0
 10
13.25237607082231
 20
0.3755029177863274
 30
0.0
 10
12.75823053265047
 20
1.095068563496676
 30
0.0
 10
12.508
 20
1.459449663585589
 30
0.0
  0
SPLINE
  5
B7
330
1F
100
AcDbEntity
  8
0
  6
Continuous
 62
     4
370
    15
100
AcDbSpline
210
0.0
220
0.0
230
1.0
 70
     8
 71
     3
 72
    10
 73
     6
 74
     0
 42
0.000000001
 43
0.00000001
 40
0.0
 40
0.0
 40
0.0
 40
0.0
 40
0.5
 40
0.5
 40
1.0
 40
1.0
 40
1.0
 40
1.0
 10
12.508
 20
1.459449663585589
 30
0.0
 10
12.33325217930985
 20
1.748104694726262
 30
0.0
 10
12.16224748628546
 20
2.034765147442298
 30
0.0
 10
11.82442513473641
 20
2.602308304036564
 30
0.0
 10
11.65712110230044
 20
2.883982515572454
 30
0.0
 10
11.492
 20
3.159085398038351
 30
0.0
  0
SPLINE
  5
B8
330
1F
100
AcDbEntity
  8
0
  6
Continuous
 62
     4
370
    15
100
AcDbSpline
210
0.0
220
0.0
230
1.0
 70
     8
 71
     3
 72
     8
 73
     4
 74
     0
 42
0.000000001
 43
0.00000001
 40
0.0
 40
0.0
 40
0.0
 40
0.0
 40
1.0
 40
1.0
 40
1.0
 40
1.0
 10
11.21599495831686
 20
5.99909726751968
 30
0.0
 10
11.31024876536676
 20
5.883938104020037
 30
0.0
 10
11.40184648127261
 20
5.766819149184338
 30
0.0
 10
11.492
 20
5.648616748696355
 30
0.0
  0
SPLINE
  5
B9
330
1F
100
AcDbEntity
  8
0
  6
Continuous
 62
     4
370
    15
100
AcDbSpline
210
0.0
220
0.0
230
1.0
 70
     8
 71
     3
 72
     8
 73
     4
 74
     0
 42
0.000000001
 43
0.00000001
 40
0.0
 40
0.0
 40
0.0
 40
0.0
 40
1.0
 40
1.0
 40
1.0
 40
1.0
 10
11.492
 20
5.648616748696356
 30
0.0
 10
11.82920581254399
 20
5.396834005125352
 30
0.0
 10
12.16577713030337
 20
5.108607652340464
 30
0.0
 10
12.508
 20
4.785684664617771
 30
0.0
  0
SPLINE
  5
BA
330
1F
100
AcDbEntity
  8
0
  6
Continuous
 62
     1
370
    15
100
AcDbSpline
210
0.0
220
0.0
230
1.0
 70
     8
 71
     3
 72
    20
 73
    16
 74
     0
 42
0.000000001
 43
0.00000001
 40
0.0
 40
0.0
 40
0.0
 40
0.0
 40
0.0475057736470914
 40
0.0954401682505725
 40
0.1786810486491648
 40
0.264334936085478
 40
0.3475171448033498
 40
0.4331527712700868
 40
0.5155957861500206
 40
0.6004697967367117
 40
0.6821913479987228
 40
0.7663210858497631
 40
0.8473522719002988
 40
0.9307693814704724
 40
1.0
 40
1.0
 40
1.0
 40
1.0
 10
12.508
 20
4.785684664617771
 30
0.0
 10
12.66621204957331
 20
4.649907258036965
 30
0.0
 10
12.98406361731575
 20
4.377127392899624
 30
0.0
 10
13.58244899230826
 20
3.777384941030228
 30
0.0
 10
14.31392701722238
 20
2.953342396967724
 30
0.0
 10
15.1712290591926
 20
1.881343854697495
 30
0.0
 10
16.04385863218657
 20
0.7363468968991371
 30
0.0
 10
16.91298616259784
 20
-0.4068827836847107
 30
0.0
 10
17.79525199252213
 20
-1.516061044640061
 30
0.0
 10
18.6715487736842
 20
-2.518082155657618
 30
0.0
 10
19.5612225891005
 20
-3.387697273800225
 30
0.0
 10
20.44504722199122
 20
-4.070350180320413
 30
0.0
 10
21.34275440678006
 20
-4.54216668525685
 30
0.0
 10
22.19354239296991
 20
-4.791503646510565
 30
0.0
 10
22.75551222039479
 20
-4.766114806634041
 30
0.0
 10
23.01038348007149
 20
-4.754600157118581
 30
0.0
  0
SPLINE
  5
BB
330
1F
100
AcDbEntity
  8
0
  6
Continuous
 62
     1
370
    15
100
AcDbSpline
210
0.0
220
0.0
230
1.0
 70
     8
 71
     3
 72
    15
 73
    11
 74
     0
 42
0.000000001
 43
0.00000001
 40
0.0
 40
0.0
 40
0.0
 40
0.0
 40
0.1129758130514294
 40
0.2416319014355882
 40
0.3661169573571421
 40
0.4942330411879471
 40
0.6182929761577467
 40
0.745965987859123
 40
0.8711190764795126
 40
1.0
 40
1.0
 40
1.0
 40
1.0
 10
33.48567446630162
 20
3.295393856344164
 30
0.0
 10
33.77186839181601
 20
3.403512496605053
 30
0.0
 10
34.38397801540309
 20
3.634755909874193
 30
0.0
 10
35.3226659080382
 20
3.714960610874459
 30
0.0
 10
36.30836324966437
 20
3.588490212146783
 30
0.0
 10
37.29180386279747
 20
3.242713892265984
 30
0.0
 10
38.29260095488908
 20
2.702646789373142
 30
0.0
 10
39.29534526820006
 20
2.011908886402626
 30
0.0
 10
40.31964448804975
 20
1.203635163977709
 30
0.0
 10
41.00965263175176
 20
0.6331718630272766
 30
0.0
 10
41.35971948322381
 20
0.3437545663376301
 30
0.0
  0
SPLINE
  5
BC
330
1F
100
AcDbEntity
  8
0
  6
Continuous
 62
     1
370
    15
100
AcDbSpline
210
0.0
220
0.0
230
1.0
 70
     8
 71
     3
 72
    14
 73
    10
 74
     0
 42
0.000000001
 43
0.00000001
 40
0.0
 40
0.0
 40
0.0
 40
0.0
 40
0.25
 40
0.25
 40
0.5
 40
0.5
 40
0.75
 40
0.75
 40
1.0
 40
1.0
 40
1.0
 40
1.0
 10
41.35971948322381
 20
0.3437545663376267
 30
0.0
 10
41.56357084304413
 20
0.17633175555434
 30
0.0
 10
41.76259607664698
 20
0.011637354481036
 30
0.0
 10
42.15879471675565
 20
-0.3027188037310603
 30
0.0
 10
42.35598793970084
 20
-0.4519573115864169
 30
0.0
 10
42.72795795669569
 20
-0.7134887683235563
 30
0.0
 10
42.90826609164179
 20
-0.8293825938801423
 30
0.0
 10
43.23228247877861
 20
-1.02574672699611
 30
0.0
 10
43.37725148446552
 20
-1.106519532438804
 30
0.0
 10
43.49522366762391
 20
-1.183922619887162
 30
0.0
  0
SPLINE
  5
BD
330
1F
100
AcDbEntity
  8
0
  6
Continuous
 62
     1
370
    15
100
AcDbSpline
210
0.0
220
0.0
230
1.0
 70
     8
 71
     3
 72
    16
 73
    12
 74
     0
 42
0.000000001
 43
0.00000001
 40
0.0
 40
0.0
 40
0.0
 40
0.0
 40
0.2499999999999982
 40
0.2499999999999982
 40
0.4999999999999964
 40
0.4999999999999964
 40
0.6249999999999973
 40
0.6249999999999973
 40
0.7499999999999982
 40
0.7499999999999982
 40
1.0
 40
1.0
 40
1.0
 40
1.0
 10
41.8658601955999
 20
-2.171827910117992
 30
0.0
 10
41.99101589840043
 20
-2.052167284865703
 30
0.0
 10
42.13075463568346
 20
-1.929783144321272
 30
0.0
 10
42.42494572108228
 20
-1.696436822461846
 30
0.0
 10
42.5820723435904
 20
-1.583446860699837
 30
0.0
 10
42.81343629998837
 20
-1.437885396976931
 30
0.0
 10
42.89098496888246
 20
-1.39265778104981
 30
0.0
 10
43.03944076191901
 20
-1.314158255647559
 30
0.0
 10
43.1096921251789
 20
-1.281118307212101
 30
0.0
 10
43.30780232363976
 20
-1.201743353141189
 30
0.0
 10
43.41775625191462
 20
-1.17858393617338
 30
0.0
 10
43.49522366762082
 20
-1.183922619883951
 30
0.0
  0
SPLINE
  5
BE
330
1F
100
AcDbEntity
  8
0
  6
Continuous
 62
     1
370
    15
100
AcDbSpline
210
0.0
220
0.0
230
1.0
 70
     8
 71
     3
 72
     8
 73
     4
 74
     0
 42
0.000000001
 43
0.00000001
 40
0.0
 40
0.0
 40
0.0
 40
0.0
 40
1.0
 40
1.0
 40
1.0
 40
1.0
 10
41.86586019559993
 20
-2.171827910117954
 30
0.0
 10
42.07480405511062
 20
-2.371015536179329
 30
0.0
 10
42.27827979789357
 20
-2.569743517888719
 30
0.0
 10
42.47858474234945
 20
-2.768204965503297
 30
0.0
  0
SPLINE
  5
BF
330
1F
100
AcDbEntity
  8
0
  6
Continuous
 62
     1
370
    15
100
AcDbSpline
210
0.0
220
0.0
230
1.0
 70
     8
 71
     3
 72
    10
 73
     6
 74
     0
 42
0.000000001
 43
0.00000001
 40
0.0
 40
0.0
 40
0.0
 40
0.0
 40
0.5
 40
0.5
 40
1.0
 40
1.0
 40
1.0
 40
1.0
 10
42.47858474235574
 20
-2.768204965493441
 30
0.0
 10
42.29130654082822
 20
-2.827401597125708
 30
0.0
 10
42.10640757081222
 20
-2.850742322897788
 30
0.0
 10
41.73176425664681
 20
-2.836561099660358
 30
0.0
 10
41.54716290329785
 20
-2.799258416739828
 30
0.0
 10
41.35971948322381
 20
-2.735618533739752
 30
0.0
  0
SPLINE
  5
C0
330
1F
100
AcDbEntity
  8
0
  6
Continuous
 62
     1
370
    15
100
AcDbSpline
210
0.0
220
0.0
230
1.0
 70
     8
 71
     3
 72
    10
 73
     6
 74
     0
 42
0.000000001
 43
0.00000001
 40
0.0
 40
0.0
 40
0.0
 40
0.0
 40
0.3105353527195234
 40
0.6246432419744532
 40
1.0
 40
1.0
 40
1.0
 40
1.0
 10
41.35971948322381
 20
2.742702689684147
 30
0.0
 10
41.15229126767314
 20
2.83712318985832
 30
0.0
 10
40.73504849030866
 20
3.027050445551217
 30
0.0
 10
40.07318709824356
 20
3.244045478689662
 30
0.0
 10
39.62205332411838
 20
3.292532616429413
 30
0.0
 10
39.37644811207542
 20
3.318929872473969
 30
0.0
  0
SPLINE
  5
C1
330
1F
100
AcDbEntity
  8
0
  6
Continuous
 62
     1
370
    15
100
AcDbSpline
210
0.0
220
0.0
230
1.0
 70
     8
 71
     3
 72
    26
 73
    22
 74
     0
 42
0.000000001
 43
0.00000001
 40
0.0
 40
0.0
 40
0.0
 40
0.0
 40
0.0077881271091347
 40
0.063692495936334
 40
0.1212005282850779
 40
0.1774049260650458
 40
0.2352179051813644
 40
0.2917902023858192
 40
0.3499788649778428
 40
0.4069735163024143
 40
0.4655942491820953
 40
0.523055077023969
 40
0.5821534550080972
 40
0.6401210481788076
 40
0.6997391176938234
 40
0.7582428096346305
 40
0.8184110281855428
 40
0.8774815549499685
 40
0.9365500210530183
 40
0.9972806592344116
 40
1.0
 40
1.0
 40
1.0
 40
1.0
 10
29.42700362857074
 20
-3.663360560860652
 30
0.0
 10
29.38798821368018
 20
-3.690651748081003
 30
0.0
 10
29.06891417706664
 20
-3.913843255714607
 30
0.0
 10
28.46951755423341
 20
-4.173829422883415
 30
0.0
 10
27.63528198284418
 20
-4.399076940954653
 30
0.0
 10
26.80023965209281
 20
-4.395644344739767
 30
0.0
 10
25.97678036793447
 20
-4.182220095784335
 30
0.0
 10
25.15126200820696
 20
-3.757555529221539
 30
0.0
 10
24.33660417655792
 20
-3.147345682630392
 30
0.0
 10
23.51938021137327
 20
-2.368280877212819
 30
0.0
 10
22.71226593160798
 20
-1.46631828661251
 30
0.0
 10
21.90226403467631
 20
-0.4677758387125555
 30
0.0
 10
21.1017691703624
 20
0.5683241674551166
 30
0.0
 10
20.29804444272985
 20
1.611181743458343
 30
0.0
 10
19.50328288608572
 20
2.598905799176348
 30
0.0
 10
18.70508168079697
 20
3.502223644931714
 30
0.0
 10
17.91549270738687
 20
4.265057057734738
 30
0.0
 10
17.12940916531216
 20
4.866332307691566
 30
0.0
 10
16.34743615101789
 20
5.250231020842667
 30
0.0
 10
15.81413672749525
 20
5.431702695604295
 30
0.0
 10
15.54075760162658
 20
5.418572578461199
 30
0.0
 10
15.52904111229477
 20
5.418009847576228
 30
0.0
  0
SPLINE
  5
C2
330
1F
100
AcDbEntity
  8
0
  6
Continuous
 62
     1
370
    15
100
AcDbSpline
210
0.0
220
0.0
230
1.0
 70
     8
 71
     3
 72
    23
 73
    19
 74
     0
 42
0.000000001
 43
0.00000001
 40
0.0
 40
0.0
 40
0.0
 40
0.0
 40
0.0511064850939335
 40
0.1172663489835166
 40
0.180968849560154
 40
0.2465485478307565
 40
0.3097129040672174
 40
0.3747371037848458
 40
0.4373929602592918
 40
0.5018924205245987
 40
0.5640653923742305
 40
0.6280660309007625
 40
0.6897883582798111
 40
0.7533231530975344
 40
0.8146308719513129
 40
0.8777369654625766
 40
0.9386653403511641
 40
1.0
 40
1.0
 40
1.0
 40
1.0
 10
17.1019345949479
 20
4.844760263954801
 30
0.0
 10
17.33026246260665
 20
4.935563415117325
 30
0.0
 10
17.85417200876936
 20
5.143915720963762
 30
0.0
 10
18.67168694416492
 20
5.183167277817807
 30
0.0
 10
19.56117595686418
 20
5.008247038368245
 30
0.0
 10
20.44509364205397
 20
4.598787854888308
 30
0.0
 10
21.34261848086543
 20
3.977901733936806
 30
0.0
 10
22.23463855588402
 20
3.188722456976366
 30
0.0
 10
23.1406602263663
 20
2.256714060593835
 30
0.0
 10
24.0414290679514
 20
1.248354670047432
 30
0.0
 10
24.95653054046629
 20
0.1948749151546308
 30
0.0
 10
25.86666659585007
 20
-0.8288941886025051
 30
0.0
 10
26.79150936343342
 20
-1.791402341766259
 30
0.0
 10
27.71175223917025
 20
-2.624197883814012
 30
0.0
 10
28.64706818665294
 20
-3.303265966570783
 30
0.0
 10
29.57831688237796
 20
-3.775373802361798
 30
0.0
 10
30.51745520346394
 20
-4.047170957359124
 30
0.0
 10
31.14434345197926
 20
-4.033468849522627
 30
0.0
 10
31.45882916310215
 20
-4.026595029289041
 30
0.0
  0
SPLINE
  5
C3
330
1F
100
AcDbEntity
  8
0
  6
Continuous
 62
     1
370
    15
100
AcDbSpline
210
0.0
220
0.0
230
1.0
 70
     8
 71
     3
 72
    14
 73
    10
 74
     0
 42
0.000000001
 43
0.00000001
 40
0.0
 40
0.0
 40
0.0
 40
0.0
 40
0.0886019816389415
 40
0.2712424986530264
 40
0.4531958439728131
 40
0.6351582535791004
 40
0.8110244825005757
 40
0.98692295592534
 40
1.0
 40
1.0
 40
1.0
 40
1.0
 10
41.56744705398356
 20
2.616854139660528
 30
0.0
 10
41.63276816559963
 20
2.639348553098894
 30
0.0
 10
41.83273955677843
 20
2.708212034410409
 30
0.0
 10
42.16152127745215
 20
2.736715914684782
 30
0.0
 10
42.54697215380637
 20
2.695089979718735
 30
0.0
 10
42.9046852403535
 20
2.564664852395681
 30
0.0
 10
43.22387902553275
 20
2.35479421009908
 30
0.0
 10
43.40817287953426
 20
2.168936829682336
 30
0.0
 10
43.48958965345665
 20
2.063848333783728
 30
0.0
 10
43.49522366761408
 20
2.056576244198843
 30
0.0
  0
SPLINE
  5
C4
330
1F
100
AcDbEntity
  8
0
  6
Continuous
 62
     1
370
    15
100
AcDbSpline
210
0.0
220
0.0
230
1.0
 70
     8
 71
     3
 72
    12
 73
     8
 74
     0
 42
0.000000001
 43
0.00000001
 40
0.0
 40
0.0
 40
0.0
 40
0.0
 40
0.1347297939204804
 40
0.41119228058911
 40
0.6891815212806881
 40
0.9317814448945264
 40
0.9999999999999999
 40
0.9999999999999999
 40
0.9999999999999999
 40
0.9999999999999999
 10
42.39316508692906
 20
1.678554246310086
 30
0.0
 10
42.44813463759547
 20
1.651240370759484
 30
0.0
 10
42.61590046164793
 20
1.567879041000398
 30
0.0
 10
42.91774079579255
 20
1.571937771171843
 30
0.0
 10
43.23274156947804
 20
1.700844677873097
 30
0.0
 10
43.41141566663677
 20
1.901307164683745
 30
0.0
 10
43.48014002084388
 20
2.02863113247585
 30
0.0
 10
43.49522366762024
 20
2.05657624419785
 30
0.0
  0
SPLINE
  5
C5
330
1F
100
AcDbEntity
  8
0
  6
Continuous
 62
     1
370
    15
100
AcDbSpline
210
0.0
220
0.0
230
1.0
 70
     8
 71
     3
 72
    10
 73
     6
 74
     0
 42
0.000000001
 43
0.00000001
 40
0.0
 40
0.0
 40
0.0
 40
0.0
 40
0.5000000000000001
 40
0.5000000000000001
 40
1.0
 40
1.0
 40
1.0
 40
1.0
 10
42.47858474235574
 20
1.977825584824671
 30
0.0
 10
42.29130654082824
 20
2.130580036886975
 30
0.0
 10
42.10640757081224
 20
2.27645772309966
 30
0.0
 10
41.73176425664681
 20
2.538409569846722
 30
0.0
 10
41.54716290329784
 20
2.651260155340365
 30
0.0
 10
41.35971948322381
 20
2.742702689684148
 30
0.0
  0
LINE
  5
C6
330
1F
100
AcDbEntity
  8
0
  6
Continuous
 62
     4
370
    15
100
AcDbLine
 10
12.508
 20
1.459449663585586
 30
0.0
 11
12.508
 21
-5.053742116362868
 31
0.0
  0
SPLINE
  5
C7
330
1F
100
AcDbEntity
  8
0
  6
Continuous
 62
     4
370
    15
100
AcDbSpline
210
0.0
220
0.0
230
1.0
 70
     8
 71
     3
 72
     8
 73
     4
 74
     0
 42
0.000000001
 43
0.00000001
 40
0.0
 40
0.0
 40
0.0
 40
0.0
 40
1.0
 40
1.0
 40
1.0
 40
1.0
 10
11.492
 20
-4.629802649729675
 30
0.0
 10
11.82920581254399
 20
-4.817480401099556
 30
0.0
 10
12.16577713030337
 20
-4.95992835635716
 30
0.0
 10
12.508
 20
-5.053742116362868
 30
0.0
  0
SPLINE
  5
C8
330
1F
100
AcDbEntity
  8
0
  6
Continuous
 62
     1
370
    15
100
AcDbSpline
210
0.0
220
0.0
230
1.0
 70
     8
 71
     3
 72
    24
 73
    20
 74
     0
 42
0.000000001
 43
0.00000001
 40
0.0
 40
0.0
 40
0.0
 40
0.0
 40
0.0173490667164343
 40
0.079889478285134
 40
0.1402170475252984
 40
0.2023041732944036
 40
0.2624382159450241
 40
0.3243159132097482
 40
0.3844389898325503
 40
0.4462975608330273
 40
0.5065475536619579
 40
0.5685305014964694
 40
0.6290206694116024
 40
0.691246048326031
 40
0.7520608563741826
 40
0.8146161966415919
 40
0.8758290826652215
 40
0.9387909234799953
 40
1.0
 40
1.0
 40
1.0
 40
1.0
 10
37.54253622247103
 20
-2.938902244483407
 30
0.0
 10
37.45427847375963
 20
-2.993397940491775
 30
0.0
 10
37.04786666991919
 20
-3.244341279061663
 30
0.0
 10
36.34514493233906
 20
-3.517344762854815
 30
0.0
 10
35.42567911470997
 20
-3.719586545567942
 30
0.0
 10
34.52853928568813
 20
-3.694476118098392
 30
0.0
 10
33.63329899099507
 20
-3.456724086962736
 30
0.0
 10
32.75661316503159
 20
-3.01885071910169
 30
0.0
 10
31.88072125286047
 20
-2.396738317686958
 30
0.0
 10
31.02099871181409
 20
-1.633044189115901
 30
0.0
 10
30.16108939070712
 20
-0.7540131542541048
 30
0.0
 10
29.31553967697529
 20
0.1810810895439008
 30
0.0
 10
28.46901292926194
 20
1.140288065715159
 30
0.0
 10
27.63541381173587
 20
2.060139937771079
 30
0.0
 10
26.80020876599828
 20
2.90879431762466
 30
0.0
 10
25.97676843073687
 20
3.631986557596531
 30
0.0
 10
25.15133892767071
 20
4.199289275484847
 30
0.0
 10
24.33832184285063
 20
4.591748784783187
 30
0.0
 10
23.79965241462734
 20
4.678782635949196
 30
0.0
 10
23.53411955911808
 20
4.721685287956573
 30
0.0
  0
LINE
  5
C9
330
1F
100
AcDbEntity
  8
0
  6
Continuous
 62
     1
370
    15
100
AcDbLine
 10
12.91226827339345
 20
-5.248250997070655
 30
0.0
 11
12.508
 21
-5.489974400065607
 31
0.0
  0
SPLINE
  5
CA
330
1F
100
AcDbEntity
  8
0
  6
Continuous
 62
     4
370
    15
100
AcDbSpline
210
0.0
220
0.0
230
1.0
 70
     8
 71
     3
 72
    10
 73
     6
 74
     0
 42
0.000000001
 43
0.00000001
 40
0.0
 40
0.0
 40
0.0
 40
0.0
 40
0.5
 40
0.5
 40
1.0
 40
1.0
 40
1.0
 40
1.0
 10
12.508
 20
-5.489974400065608
 30
0.0
 10
12.33325217930985
 20
-5.619394500014705
 30
0.0
 10
12.16224748628546
 20
-5.728263114561455
 30
0.0
 10
11.82442513473641
 20
-5.904850079734971
 30
0.0
 10
11.65712110230044
 20
-5.972655407727443
 30
0.0
 10
11.492
 20
-6.018585112040323
 30
0.0
  0
SPLINE
  5
CB
330
1F
100
AcDbEntity
  8
0
  6
Continuous
 62
     4
370
    15
100
AcDbSpline
210
0.0
220
0.0
230
1.0
 70
     8
 71
     3
 72
     8
 73
     4
 74
     0
 42
0.000000001
 43
0.00000001
 40
0.0
 40
0.0
 40
0.0
 40
0.0
 40
1.0
 40
1.0
 40
1.0
 40
1.0
 10
11.492
 20
-6.018585112040323
 30
0.0
 10
11.39427438245172
 20
-6.12808822024027
 30
0.0
 10
11.30268750994598
 20
-6.215641813218935
 30
0.0
 10
11.21599495831487
 20
-6.280972014168167
 30
0.0
  0
SPLINE
  5
CC
330
1F
100
AcDbEntity
  8
0
  6
Continuous
 62
     1
370
    15
100
AcDbSpline
210
0.0
220
0.0
230
1.0
 70
     8
 71
     3
 72
    11
 73
     7
 74
     0
 42
0.000000001
 43
0.00000001
 40
0.0
 40
0.0
 40
0.0
 40
0.0
 40
0.2448617592196044
 40
0.4919327842476067
 40
0.9209860729026786
 40
1.0
 40
1.0
 40
1.0
 40
1.0
 10
12.508
 20
-5.053742116362867
 30
0.0
 10
12.66619827222719
 20
-5.135531290073878
 30
0.0
 10
12.98402216097123
 20
-5.29984758051139
 30
0.0
 10
13.5826680387568
 20
-5.480595533380848
 30
0.0
 10
14.07571733248066
 20
-5.57487675531616
 30
0.0
 10
14.41115643221012
 20
-5.508180185165265
 30
0.0
 10
14.46332346788938
 20
-5.497807624669031
 30
0.0
  0
SPLINE
  5
CD
330
1F
100
AcDbEntity
  8
0
  6
Continuous
 62
     1
370
    15
100
AcDbSpline
210
0.0
220
0.0
230
1.0
 70
     8
 71
     3
 72
    23
 73
    19
 74
     0
 42
0.000000001
 43
0.00000001
 40
0.0
 40
0.0
 40
0.0
 40
0.0
 40
0.0396817950988826
 40
0.1063699739809331
 40
0.1750164418307002
 40
0.2412566549818174
 40
0.3094399304889409
 40
0.3752702796689035
 40
0.4430292145646991
 40
0.508493345796588
 40
0.5758726467048064
 40
0.6410176734195316
 40
0.7080657508721229
 40
0.7729401285711897
 40
0.8397067870285925
 40
0.9043596163900887
 40
0.9708953713992038
 40
1.0
 40
1.0
 40
1.0
 40
1.0
 10
25.34542927999433
 20
4.039115235355455
 30
0.0
 10
25.5230631732627
 20
4.119929907674204
 30
0.0
 10
25.99922390535666
 20
4.33655958812092
 30
0.0
 10
26.79175216705826
 20
4.441853602526116
 30
0.0
 10
27.71168141985172
 20
4.36758001600936
 30
0.0
 10
28.6471148317275
 20
4.054027598836505
 30
0.0
 10
29.57820009207279
 20
3.540153621394751
 30
0.0
 10
30.52484909204465
 20
2.843488384987677
 30
0.0
 10
31.46763774999805
 20
2.019483522503438
 30
0.0
 10
32.42642042502548
 20
1.100278729511424
 30
0.0
 10
33.38179088028473
 20
0.1573024216208625
 30
0.0
 10
34.35363795732215
 20
-0.7719342692399447
 30
0.0
 10
35.32252856419538
 20
-1.615427572529175
 30
0.0
 10
36.30842507744164
 20
-2.337922388839497
 30
0.0
 10
37.29169449959835
 20
-2.887574028326308
 30
0.0
 10
38.29296794248154
 20
-3.226315410596083
 30
0.0
 10
39.10988064251125
 20
-3.359450335676433
 30
0.0
 10
39.60325105319759
 20
-3.295712958782757
 30
0.0
 10
39.75339016832511
 20
-3.276316835383194
 30
0.0
  0
LINE
  5
CE
330
1F
100
AcDbEntity
  8
0
  6
Continuous
 62
     1
370
    15
100
AcDbLine
 10
41.35971948322381
 20
2.742702689684149
 30
0.0
 11
41.35971948322381
 21
0.3437545663376276
 31
0.0
  0
LINE
  5
CF
330
1F
100
AcDbEntity
  8
0
  6
Continuous
 62
     4
370
    15
100
AcDbLine
 10
12.508
 20
5.687116544453415
 30
0.0
 11
12.508
 21
4.78568466461777
 31
0.0
  0
ARC
  5
D0
330
1F
100
AcDbEntity
  8
0
  6
Continuous
 62
     1
370
    15
100
AcDbCircle
 10
40.15809615274178
 20
2.310325700365185
 30
0.0
 40
2.344189331367994
100
AcDbArc
 50
336.2941516265799
 51
351.8456594417414
  0
LINE
  5
D1
330
1F
100
AcDbEntity
  8
0
  6
Continuous
 62
     1
370
    15
100
AcDbLine
 10
42.30448644621261
 20
1.367864916356786
 30
0.0
 11
44.258
 21
0.000000000000015
 31
0.0
  0
ARC
  5
D2
330
1F
100
AcDbEntity
  8
0
  6
Continuous
 62
     1
370
    15
100
AcDbCircle
 10
42.07427050077732
 20
0.5692491345761262
 30
0.0
 40
2.256705364683433
100
AcDbArc
 50
309.02491386717
 51
345.3894301413875
  0
LINE
  5
D3
330
1F
100
AcDbEntity
  8
0
  6
Continuous
 62
     4
370
    15
100
AcDbLine
 10
11.492
 20
6.021070000000009
 30
0.0
 11
11.492
 21
5.648616748696356
 31
0.0
  0
ARC
  5
D4
330
1F
100
AcDbEntity
  8
0
  6
Continuous
 62
     1
370
    15
100
AcDbCircle
 10
42.25321494551374
 20
-2.695066905985556
 30
0.0
 40
0.2369403323037387
100
AcDbArc
 50
291.7308668941231
 51
342.020474289753
  0
ARC
  5
D5
330
1F
100
AcDbEntity
  8
0
  6
Continuous
 62
     1
370
    15
100
AcDbCircle
 10
40.87860919123221
 20
0.1365497635725545
 30
0.0
 40
3.382148440904974
100
AcDbArc
 50
296.4495608558354
 51
357.6861298867327
  0
ARC
  5
D6
330
1F
100
AcDbEntity
  8
0
  6
Continuous
 62
     1
370
    15
100
AcDbCircle
 10
41.12558521747088
 20
0.0079427793845608
 30
0.0
 40
3.132424852658287
100
AcDbArc
 50
359.8547169539845
 51
40.84453569446104
  0
LINE
  5
D7
330
1F
100
AcDbEntity
  8
0
  6
Continuous
 62
     4
370
    15
100
AcDbLine
 10
11.492
 20
-6.01858511204032
 30
0.0
 11
11.492
 21
-6.021069999999991
 31
0.0
  0
LINE
  5
D8
330
1F
100
AcDbEntity
  8
0
  6
Continuous
 62
     8
370
    15
100
AcDbLine
 10
41.35971948322381
 20
-2.73561853373975
 30
0.0
 11
41.35971948322381
 21
-3.162918166441286
 31
0.0
  0
LINE
  5
D9
102
{ACAD_REACTORS
102
}
330
1F
100
AcDbEntity
  8
중심선
100
AcDbLine
 10
-60.34200000000001
 20
-0.0000000000000087
 30
0.0
 11
47.35971948322381
 21
-0.0000000000000087
 31
0.0
  0
CIRCLE
  5
DA
330
1F
100
AcDbEntity
  8
외형선
100
AcDbCircle
 10
0.0
 20
0.0
 30
0.0
 40
3.0
  0
INSERT
  5
DB
330
1F
100
AcDbEntity
  8
0
  6
Continuous
 62
     7
100
AcDbBlockReference
 66
     1
  2
블럭10
 10
-25.09944078053798
 20
-52.05975325537357
 30
0.0
  0
ATTRIB
  5
DC
330
DB
100
AcDbEntity
  8
FORMAT
 62
     2
100
AcDbText
 10
-34.28073606927926
 20
-49.98438634254138
 30
0.0
 40
4.233333333333333
  1
E5078516 [ 3 FLUTE ]
 41
0.75
  7
SLDTEXTSTYLE0
 11
-34.28073606927926
 21
-52.10105300920804
 31
0.0
100
AcDbAttribute
  2
AUTOATTR0
 70
     0
 74
     1
  0
SEQEND
  5
DD
330
DB
100
AcDbEntity
  8
0
  6
Continuous
 62
     7
  0
HATCH
  5
DE
330
1F
100
AcDbEntity
  8
중심선
100
AcDbHatch
 10
0.0
 20
0.0
 30
0.0
210
0.0
220
0.0
230
1.0
  2
SOLID
 70
     1
 71
     0
 91
        1
 92
        0
 93
        4
 72
     1
 10
-19.38453147615714
 20
-35.81257895372963
 11
-22.83080671999442
 21
-35.81257895372963
 72
     1
 10
-22.83080671999442
 20
-35.81257895372963
 11
-24.95903657919844
 21
-38.34890453430223
 72
     1
 10
-24.95903657919844
 20
-38.34890453430223
 11
-21.51272825024801
 21
-38.34886510499974
 72
     1
 10
-21.51272825024801
 20
-38.34886510499974
 11
-19.38453147615713
 21
-35.81257895372963
 97
        0
 75
     0
 76
     1
 98
        1
 10
-23.66666698085655
 20
0.0
  0
HATCH
  5
DF
330
1F
100
AcDbEntity
  8
중심선
100
AcDbHatch
 10
0.0
 20
0.0
 30
0.0
210
0.0
220
0.0
230
1.0
  2
SOLID
 70
     1
 71
     0
 91
        1
 92
        0
 93
        4
 72
     1
 10
-14.37176748512118
 20
-35.81257895372963
 11
-17.81804272895847
 21
-35.81257895372963
 72
     1
 10
-17.81804272895847
 20
-35.81257895372963
 11
-22.34918073731586
 21
-41.21257895372965
 72
     1
 10
-22.34918073731585
 20
-41.21257895372965
 11
-18.90290549347857
 21
-41.21257895372965
 72
     1
 10
-18.90290549347857
 20
-41.21257895372965
 11
-14.37176748512118
 21
-35.81257895372963
 97
        0
 75
     0
 76
     1
 98
        1
 10
-23.66666698085655
 20
0.0
  0
HATCH
  5
E0
330
1F
100
AcDbEntity
  8
중심선
100
AcDbHatch
 10
0.0
 20
0.0
 30
0.0
210
0.0
220
0.0
230
1.0
  2
SOLID
 70
     1
 71
     0
 91
        1
 92
        0
 93
        4
 72
     1
 10
-9.359003494085286
 20
-35.81257895372966
 11
-12.8052787379224
 21
-35.81257895372963
 72
     1
 10
-12.8052787379224
 20
-35.81257895372963
 11
-19.85371563981165
 21
-44.21257895372965
 72
     1
 10
-19.85371563981165
 20
-44.21257895372965
 11
-16.40744039597437
 21
-44.21257895372965
 72
     1
 10
-16.40744039597437
 20
-44.21257895372965
 11
-9.359003494085286
 21
-35.81257895372966
 97
        0
 75
     0
 76
     1
 98
        1
 10
-23.66666698085655
 20
0.0
  0
HATCH
  5
E1
330
1F
100
AcDbEntity
  8
중심선
100
AcDbHatch
 10
0.0
 20
0.0
 30
0.0
210
0.0
220
0.0
230
1.0
  2
SOLID
 70
     1
 71
     0
 91
        1
 92
        0
 93
        6
 72
     3
 10
-4.559113063073088
 20
-40.01257895378091
 11
3.960054785062283
 21
1.540882976769353E-10
 40
0.3939339440162628
 50
17.09539180608437
 51
320.0019657685079
 73
     0
 72
     1
 10
-2.876113407372493
 20
-38.60047295836794
 11
-0.5708115336714528
 21
-36.66614624832001
 72
     3
 10
-4.559113063125935
 20
-40.01257895372979
 11
6.600054785286829
 21
-1.278976924368180E-13
 40
0.636358354079598
 50
39.99873849337413
 51
368.4976242363725
 73
     1
 72
     1
 10
1.866219428774674
 20
-39.05257895365965
 11
-5.879045756290012
 21
-39.05257895365963
 72
     1
 10
-5.879045756290012
 20
-39.05257895365963
 11
-5.879070800735946
 21
-40.97257895365955
 72
     1
 10
-5.879070800735946
 20
-40.97257895365955
 11
-1.43769103126391
 21
-40.97257895365952
 97
        0
 75
     0
 76
     1
 98
        1
 10
-23.66666698085655
 20
0.0
  0
DIMENSION
  5
E2
102
{ACAD_REACTORS
102
}
330
1F
100
AcDbEntity
  8
치수문자_일반주서
100
AcDbDimension
  2
_D
 10
12.508
 20
52.18725738524795
 30
0.0
 11
28.10376209249801
 21
52.18725738524795
 31
0.0
 70
   160
  1
<>
 71
     2
 42
31.81249999999999
  3
SLDDIMSTYLE0
100
AcDbAlignedDimension
 13
44.32049999999999
 23
3.174999999999991
 33
0.0
 14
12.508
 24
5.687116544453415
 34
0.0
100
AcDbRotatedDimension
1001
ACAD
1000
DSTYLE
1002
{
1070
   171
1070
     6
1070
   273
1070
     7
1002
}
  0
DIMENSION
  5
F6
330
1F
100
AcDbEntity
  8
치수문자_일반주서
100
AcDbDimension
  2
_D_1
 10
-57.34199999999999
 20
70.21460137457225
 30
0.0
 11
-2.301833180867412
 21
70.21460137457225
 31
0.0
 70
   160
  1
<>
 71
     2
 42
101.6625
  3
SLDDIMSTYLE1
100
AcDbAlignedDimension
 13
44.32049999999999
 23
3.174999999999991
 33
0.0
 14
-57.342
 24
5.540000000000016
 34
0.0
100
AcDbRotatedDimension
1001
ACAD
1000
DSTYLE
1002
{
1070
   171
1070
     6
1070
   273
1070
     7
1002
}
  0
INSERT
  5
121
330
1F
100
AcDbEntity
  8
외형선
100
AcDbBlockReference
  2
SW_DOWELSYMBOL_0
 10
0.0
 20
0.0
 30
0.0
  0
DIMENSION
  5
149
102
{ACAD_XDICTIONARY
360
14A
102
}
330
1F
100
AcDbEntity
  8
치수문자_일반주서
100
AcDbDimension
  2
*D7
 10
61.22789421796176
 20
3.17499999999999
 30
0.0
 11
58.60289421796176
 21
22.46649999999999
 31
0.0
 70
    32
  1
{%%c<>[]}
 71
     5
 42
6.35
  3
SLDDIMSTYLE0
100
AcDbAlignedDimension
 13
44.29486581183185
 23
-3.175000000000009
 33
0.0
 14
44.25799999999999
 24
3.174999999999991
 34
0.0
 50
90.0
100
AcDbRotatedDimension
1001
ACAD
1000
DSTYLE
1002
{
1070
   283
1070
     1
1070
   170
1070
     1
1070
   171
1070
     6
1070
   273
1070
     7
1002
}
  0
DIMENSION
  5
163
102
{ACAD_REACTORS
102
}
102
{ACAD_XDICTIONARY
360
164
102
}
330
1F
100
AcDbEntity
  8
치수문자_일반주서
100
AcDbDimension
  2
*D8
 10
-74.90277425592504
 20
6.35
 30
0.0
 11
-77.52777425592504
 21
21.902
 31
0.0
 70
    32
  1
{%%c<>[]}
 71
     5
 42
12.7
  3
SLDDIMSTYLE0
100
AcDbAlignedDimension
 13
-56.532
 23
-6.35
 33
0.0
 14
-56.532
 24
6.349999999999999
 34
0.0
 50
90.0
100
AcDbRotatedDimension
1001
ACAD
1000
DSTYLE
1002
{
1070
   283
1070
     1
1070
   170
1070
     1
1070
   171
1070
     6
1070
   273
1070
     7
1002
}
  0
DIMENSION
  5
174
102
{ACAD_REACTORS
102
}
102
{ACAD_XDICTIONARY
360
175
102
}
330
1F
100
AcDbEntity
  8
치수문자_일반주서
100
AcDbDimension
  2
*D9
 10
18.74597774462542
 20
5.14136420847168
 30
0.0
 11
23.4389777172802
 21
14.28491034656292
 31
0.0
 70
    34
  1
<>
 71
     5
 42
0.0872664625997167
  3
SLDDIMSTYLE0
100
AcDb2LineAngularDimension
 13
-60.34200000000001
 23
-0.0000000000000087
 33
0.0
 14
47.35971948322381
 24
-0.0000000000000087
 34
0.0
 15
23.53418648246524
 25
4.722450225314922
 35
0.0
 16
24.29307917620266
 26
1.548513592966375
 36
0.0
1001
ACAD
1000
DSTYLE
1002
{
1070
   171
1070
     6
1070
   273
1070
     7
1002
}
  0
ENDSEC
  0
SECTION
  2
OBJECTS
  0
DICTIONARY
  5
C
330
0
100
AcDbDictionary
281
     1
  3
ACAD_DETAILVIEWSTYLE
350
160
  3
ACAD_GROUP
350
D
  3
ACAD_IMAGE_VARS
350
145
  3
ACAD_LAYOUT
350
1A
  3
ACAD_MLINESTYLE
350
17
  3
ACAD_PLOTSETTINGS
350
19
  3
ACAD_PLOTSTYLENAME
350
E
  3
ACAD_SCALELIST
350
47
  3
ACAD_SECTIONVIEWSTYLE
350
161
  3
AcDbVariableDictionary
350
15B
  3
APPDATA
350
143
  3
DWGPROPS
350
187
  0
DICTIONARY
  5
14A
330
149
100
AcDbDictionary
280
     1
281
     1
  0
DICTIONARY
  5
164
330
163
100
AcDbDictionary
280
     1
281
     1
  0
DICTIONARY
  5
175
330
174
100
AcDbDictionary
280
     1
281
     1
  0
DICTIONARY
  5
160
102
{ACAD_REACTORS
330
C
102
}
330
C
100
AcDbDictionary
281
     1
  0
DICTIONARY
  5
D
102
{ACAD_REACTORS
330
C
102
}
330
C
100
AcDbDictionary
281
     1
  0
RASTERVARIABLES
  5
145
102
{ACAD_REACTORS
330
C
102
}
330
C
100
AcDbRasterVariables
 90
        0
 70
     1
 71
     1
 72
     1
  0
DICTIONARY
  5
1A
102
{ACAD_REACTORS
330
C
102
}
330
C
100
AcDbDictionary
281
     1
  3
Layout1
350
1E
  3
Layout2
350
26
  3
Model
350
22
  0
DICTIONARY
  5
17
102
{ACAD_REACTORS
330
C
102
}
330
C
100
AcDbDictionary
281
     1
  3
Standard
350
18
  0
DICTIONARY
  5
19
102
{ACAD_REACTORS
330
C
102
}
330
C
100
AcDbDictionary
281
     1
  0
ACDBDICTIONARYWDFLT
  5
E
102
{ACAD_REACTORS
330
C
102
}
330
C
100
AcDbDictionary
281
     1
  3
Normal
350
F
100
AcDbDictionaryWithDefault
340
F
  0
DICTIONARY
  5
47
102
{ACAD_REACTORS
330
C
102
}
330
C
100
AcDbDictionary
281
     1
  3
A0
350
48
  3
A1
350
49
  3
A2
350
4A
  3
A3
350
4B
  3
A4
350
4C
  3
A5
350
4D
  3
A6
350
4E
  3
A7
350
4F
  3
A8
350
50
  3
A9
350
51
  3
B0
350
52
  3
B1
350
53
  3
B2
350
54
  3
B3
350
55
  3
B4
350
56
  3
B5
350
57
  3
B6
350
58
  3
B7
350
59
  3
B8
350
5A
  3
B9
350
5B
  3
C0
350
5C
  3
C1
350
5D
  3
C2
350
5E
  3
C3
350
5F
  3
C4
350
60
  3
C5
350
61
  3
C6
350
62
  3
C7
350
63
  3
C8
350
64
  3
C9
350
65
  3
D0
350
66
  3
D1
350
67
  3
D2
350
68
  0
DICTIONARY
  5
161
102
{ACAD_REACTORS
330
C
102
}
330
C
100
AcDbDictionary
281
     1
  0
DICTIONARY
  5
15B
102
{ACAD_REACTORS
330
C
102
}
330
C
100
AcDbDictionary
281
     1
  0
DICTIONARY
  5
143
102
{ACAD_REACTORS
330
C
102
}
330
C
100
AcDbDictionary
281
     1
  0
XRECORD
  5
187
102
{ACAD_REACTORS
330
C
102
}
330
C
100
AcDbXrecord
280
     1
  1
DWGPROPS COOKIE
  2

  3

  4

  6

  7

  8
12015048
  9

300
=
301
=
302
=
303
=
304
=
305
=
306
=
307
=
308
=
309
=
 40
0.0
 41
2458340.219030417
 42
2458341.243755752
  1

 90
        0
  0
LAYOUT
  5
1E
102
{ACAD_REACTORS
330
1A
102
}
330
1A
100
AcDbPlotSettings
  1

  2
none_device
  4

  6

 40
0.0
 41
0.0
 42
0.0
 43
0.0
 44
0.0
 45
0.0
 46
0.0
 47
0.0
 48
0.0
 49
0.0
140
0.0
141
0.0
142
1.0
143
1.0
 70
   688
 72
     1
 73
     0
 74
     5
  7

 75
    16
147
1.0
148
0.0
149
0.0
100
AcDbLayout
  1
Layout1
 70
     1
 71
     1
 10
0.0
 20
0.0
 11
420.0
 21
297.0
 12
0.0
 22
0.0
 32
0.0
 14
1.000000000000000E+20
 24
1.000000000000000E+20
 34
1.000000000000000E+20
 15
-1.000000000000000E+20
 25
-1.000000000000000E+20
 35
-1.000000000000000E+20
146
0.0
 13
0.0
 23
0.0
 33
0.0
 16
1.0
 26
0.0
 36
0.0
 17
0.0
 27
1.0
 37
0.0
 76
     0
330
1B
  0
LAYOUT
  5
26
102
{ACAD_REACTORS
330
1A
102
}
330
1A
100
AcDbPlotSettings
  1

  2
none_device
  4

  6

 40
0.0
 41
0.0
 42
0.0
 43
0.0
 44
0.0
 45
0.0
 46
0.0
 47
0.0
 48
0.0
 49
0.0
140
0.0
141
0.0
142
1.0
143
1.0
 70
   688
 72
     1
 73
     0
 74
     5
  7

 75
    16
147
1.0
148
0.0
149
0.0
100
AcDbLayout
  1
Layout2
 70
     1
 71
     2
 10
0.0
 20
0.0
 11
0.0
 21
0.0
 12
0.0
 22
0.0
 32
0.0
 14
0.0
 24
0.0
 34
0.0
 15
0.0
 25
0.0
 35
0.0
146
0.0
 13
0.0
 23
0.0
 33
0.0
 16
1.0
 26
0.0
 36
0.0
 17
0.0
 27
1.0
 37
0.0
 76
     0
330
23
  0
LAYOUT
  5
22
102
{ACAD_REACTORS
330
1A
102
}
330
1A
100
AcDbPlotSettings
  1

  2
none_device
  4
ANSI_A_(11.00_x_8.50_Inches)
  6

 40
6.35
 41
19.05
 42
6.35000508
 43
19.05000254
 44
279.4
 45
215.9
 46
169.7033245156758
 47
99.20422701709255
 48
0.0
 49
0.0
140
0.0
141
0.0
142
0.0847506424266964
143
1.0
 70
  1696
 72
     0
 73
     0
 74
     0
  7

 75
     0
147
0.0235690232323232
148
0.0
149
0.0
100
AcDbLayout
  1
Model
 70
     1
 71
     0
 10
0.0
 20
0.0
 11
420.0
 21
297.0
 12
0.0
 22
0.0
 32
0.0
 14
-79.27777425592504
 24
-49.98438634254138
 34
0.0
 15
61.77822755129509
 25
74.58960137457225
 35
0.0
146
0.0
 13
0.0
 23
0.0
 33
0.0
 16
1.0
 26
0.0
 36
0.0
 17
0.0
 27
1.0
 37
0.0
 76
     0
330
1F
331
29
  0
MLINESTYLE
  5
18
102
{ACAD_REACTORS
330
17
102
}
330
17
100
AcDbMlineStyle
  2
Standard
 70
     0
  3

 62
   256
 51
90.0
 52
90.0
 71
     2
 49
0.5
 62
   256
  6
BYLAYER
 49
-0.5
 62
   256
  6
BYLAYER
  0
ACDBPLACEHOLDER
  5
F
102
{ACAD_REACTORS
330
E
102
}
330
E
  0
SCALE
  5
48
102
{ACAD_REACTORS
330
47
102
}
330
47
100
AcDbScale
 70
     0
300
1:1
140
1.0
141
1.0
290
     1
  0
SCALE
  5
49
102
{ACAD_REACTORS
330
47
102
}
330
47
100
AcDbScale
 70
     0
300
1:2
140
1.0
141
2.0
290
     0
  0
SCALE
  5
4A
102
{ACAD_REACTORS
330
47
102
}
330
47
100
AcDbScale
 70
     0
300
1:4
140
1.0
141
4.0
290
     0
  0
SCALE
  5
4B
102
{ACAD_REACTORS
330
47
102
}
330
47
100
AcDbScale
 70
     0
300
1:5
140
1.0
141
5.0
290
     0
  0
SCALE
  5
4C
102
{ACAD_REACTORS
330
47
102
}
330
47
100
AcDbScale
 70
     0
300
1:8
140
1.0
141
8.0
290
     0
  0
SCALE
  5
4D
102
{ACAD_REACTORS
330
47
102
}
330
47
100
AcDbScale
 70
     0
300
1:10
140
1.0
141
10.0
290
     0
  0
SCALE
  5
4E
102
{ACAD_REACTORS
330
47
102
}
330
47
100
AcDbScale
 70
     0
300
1:16
140
1.0
141
16.0
290
     0
  0
SCALE
  5
4F
102
{ACAD_REACTORS
330
47
102
}
330
47
100
AcDbScale
 70
     0
300
1:20
140
1.0
141
20.0
290
     0
  0
SCALE
  5
50
102
{ACAD_REACTORS
330
47
102
}
330
47
100
AcDbScale
 70
     0
300
1:30
140
1.0
141
30.0
290
     0
  0
SCALE
  5
51
102
{ACAD_REACTORS
330
47
102
}
330
47
100
AcDbScale
 70
     0
300
1:40
140
1.0
141
40.0
290
     0
  0
SCALE
  5
52
102
{ACAD_REACTORS
330
47
102
}
330
47
100
AcDbScale
 70
     0
300
1:50
140
1.0
141
50.0
290
     0
  0
SCALE
  5
53
102
{ACAD_REACTORS
330
47
102
}
330
47
100
AcDbScale
 70
     0
300
1:100
140
1.0
141
100.0
290
     0
  0
SCALE
  5
54
102
{ACAD_REACTORS
330
47
102
}
330
47
100
AcDbScale
 70
     0
300
2:1
140
2.0
141
1.0
290
     0
  0
SCALE
  5
55
102
{ACAD_REACTORS
330
47
102
}
330
47
100
AcDbScale
 70
     0
300
4:1
140
4.0
141
1.0
290
     0
  0
SCALE
  5
56
102
{ACAD_REACTORS
330
47
102
}
330
47
100
AcDbScale
 70
     0
300
8:1
140
8.0
141
1.0
290
     0
  0
SCALE
  5
57
102
{ACAD_REACTORS
330
47
102
}
330
47
100
AcDbScale
 70
     0
300
10:1
140
10.0
141
1.0
290
     0
  0
SCALE
  5
58
102
{ACAD_REACTORS
330
47
102
}
330
47
100
AcDbScale
 70
     0
300
100:1
140
100.0
141
1.0
290
     0
  0
SCALE
  5
59
102
{ACAD_REACTORS
330
47
102
}
330
47
100
AcDbScale
 70
     0
300
1/128" = 1'-0"
140
0.0078125
141
12.0
290
     0
  0
SCALE
  5
5A
102
{ACAD_REACTORS
330
47
102
}
330
47
100
AcDbScale
 70
     0
300
1/64" = 1'-0"
140
0.015625
141
12.0
290
     0
  0
SCALE
  5
5B
102
{ACAD_REACTORS
330
47
102
}
330
47
100
AcDbScale
 70
     0
300
1/32" = 1'-0"
140
0.03125
141
12.0
290
     0
  0
SCALE
  5
5C
102
{ACAD_REACTORS
330
47
102
}
330
47
100
AcDbScale
 70
     0
300
1/16" = 1'-0"
140
0.0625
141
12.0
290
     0
  0
SCALE
  5
5D
102
{ACAD_REACTORS
330
47
102
}
330
47
100
AcDbScale
 70
     0
300
3/32" = 1'-0"
140
0.09375
141
12.0
290
     0
  0
SCALE
  5
5E
102
{ACAD_REACTORS
330
47
102
}
330
47
100
AcDbScale
 70
     0
300
1/8" = 1'-0"
140
0.125
141
12.0
290
     0
  0
SCALE
  5
5F
102
{ACAD_REACTORS
330
47
102
}
330
47
100
AcDbScale
 70
     0
300
3/16" = 1'-0"
140
0.1875
141
12.0
290
     0
  0
SCALE
  5
60
102
{ACAD_REACTORS
330
47
102
}
330
47
100
AcDbScale
 70
     0
300
1/4" = 1'-0"
140
0.25
141
12.0
290
     0
  0
SCALE
  5
61
102
{ACAD_REACTORS
330
47
102
}
330
47
100
AcDbScale
 70
     0
300
3/8" = 1'-0"
140
0.375
141
12.0
290
     0
  0
SCALE
  5
62
102
{ACAD_REACTORS
330
47
102
}
330
47
100
AcDbScale
 70
     0
300
1/2" = 1'-0"
140
0.5
141
12.0
290
     0
  0
SCALE
  5
63
102
{ACAD_REACTORS
330
47
102
}
330
47
100
AcDbScale
 70
     0
300
3/4" = 1'-0"
140
0.75
141
12.0
290
     0
  0
SCALE
  5
64
102
{ACAD_REACTORS
330
47
102
}
330
47
100
AcDbScale
 70
     0
300
1" = 1'-0"
140
1.0
141
12.0
290
     0
  0
SCALE
  5
65
102
{ACAD_REACTORS
330
47
102
}
330
47
100
AcDbScale
 70
     0
300
1-1/2" = 1'-0"
140
1.5
141
12.0
290
     0
  0
SCALE
  5
66
102
{ACAD_REACTORS
330
47
102
}
330
47
100
AcDbScale
 70
     0
300
3" = 1'-0"
140
3.0
141
12.0
290
     0
  0
SCALE
  5
67
102
{ACAD_REACTORS
330
47
102
}
330
47
100
AcDbScale
 70
     0
300
6" = 1'-0"
140
6.0
141
12.0
290
     0
  0
SCALE
  5
68
102
{ACAD_REACTORS
330
47
102
}
330
47
100
AcDbScale
 70
     0
300
1'-0" = 1'-0"
140
12.0
141
12.0
290
     0
  0
ENDSEC
  0
EOF
