  0
SECTION
  2
HEADER
  9
$ACADVER
  1
AC1015
  9
$ACADMAINTVER
 70
     6
  9
$DWGCODEPAGE
  3
ANSI_949
  9
$INSBASE
 10
0.0
 20
0.0
 30
0.0
  9
$EXTMIN
 10
-85.54508243836135
 20
-49.98438634254138
 30
0.0
  9
$EXTMAX
 10
59.20048940848308
 20
51.8841599926899
 30
0.0
  9
$LIMMIN
 10
0.0
 20
0.0
  9
$LIMMAX
 10
420.0
 20
297.0
  9
$ORTHOMODE
 70
     1
  9
$REGENMODE
 70
     1
  9
$FILLMODE
 70
     1
  9
$QTEXTMODE
 70
     0
  9
$MIRRTEXT
 70
     1
  9
$LTSCALE
 40
1.0
  9
$ATTMODE
 70
     1
  9
$TEXTSIZE
 40
3.5
  9
$TRACEWID
 40
1.0
  9
$TEXTSTYLE
  7
Standard
  9
$CLAYER
  8
0
  9
$CELTYPE
  6
ByLayer
  9
$CECOLOR
 62
   256
  9
$CELTSCALE
 40
1.0
  9
$DISPSILH
 70
     0
  9
$DIMSCALE
 40
1.0
  9
$DIMASZ
 40
3.302
  9
$DIMEXO
 40
1.0
  9
$DIMDLI
 40
3.75
  9
$DIMRND
 40
0.0
  9
$DIMDLE
 40
0.0
  9
$DIMEXE
 40
1.0
  9
$DIMTP
 40
0.0
  9
$DIMTM
 40
0.0
  9
$DIMTXT
 40
3.5
  9
$DIMCEN
 40
2.5
  9
$DIMTSZ
 40
0.0
  9
$DIMTOL
 70
     0
  9
$DIMLIM
 70
     0
  9
$DIMTIH
 70
     1
  9
$DIMTOH
 70
     1
  9
$DIMSE1
 70
     0
  9
$DIMSE2
 70
     0
  9
$DIMTAD
 70
     1
  9
$DIMZIN
 70
     0
  9
$DIMBLK
  1

  9
$DIMASO
 70
     1
  9
$DIMSHO
 70
     1
  9
$DIMPOST
  1

  9
$DIMAPOST
  1

  9
$DIMALT
 70
     0
  9
$DIMALTD
 70
     3
  9
$DIMALTF
 40
0.0393700787401575
  9
$DIMLFAC
 40
1.0
  9
$DIMTOFL
 70
     1
  9
$DIMTVP
 40
0.0
  9
$DIMTIX
 70
     0
  9
$DIMSOXD
 70
     0
  9
$DIMSAH
 70
     0
  9
$DIMBLK1
  1

  9
$DIMBLK2
  1

  9
$DIMSTYLE
  2
ISO-25
  9
$DIMCLRD
 70
     0
  9
$DIMCLRE
 70
     0
  9
$DIMCLRT
 70
     0
  9
$DIMTFAC
 40
1.0
  9
$DIMGAP
 40
1.524
  9
$DIMJUST
 70
     0
  9
$DIMSD1
 70
     0
  9
$DIMSD2
 70
     0
  9
$DIMTOLJ
 70
     0
  9
$DIMTZIN
 70
     0
  9
$DIMALTZ
 70
     0
  9
$DIMALTTZ
 70
     0
  9
$DIMUPT
 70
     0
  9
$DIMDEC
 70
     2
  9
$DIMTDEC
 70
     2
  9
$DIMALTU
 70
     2
  9
$DIMALTTD
 70
     3
  9
$DIMTXSTY
  7
Standard
  9
$DIMAUNIT
 70
     0
  9
$DIMADEC
 70
     2
  9
$DIMALTRND
 40
0.0
  9
$DIMAZIN
 70
     0
  9
$DIMDSEP
 70
    44
  9
$DIMATFIT
 70
     3
  9
$DIMFRAC
 70
     0
  9
$DIMLDRBLK
  1

  9
$DIMLUNIT
 70
     2
  9
$DIMLWD
 70
    -2
  9
$DIMLWE
 70
    -2
  9
$DIMTMOVE
 70
     0
  9
$LUNITS
 70
     2
  9
$LUPREC
 70
     2
  9
$SKETCHINC
 40
1.0
  9
$FILLETRAD
 40
10.0
  9
$AUNITS
 70
     0
  9
$AUPREC
 70
     2
  9
$MENU
  1
.
  9
$ELEVATION
 40
0.0
  9
$PELEVATION
 40
0.0
  9
$THICKNESS
 40
0.0
  9
$LIMCHECK
 70
     0
  9
$CHAMFERA
 40
0.0
  9
$CHAMFERB
 40
0.0
  9
$CHAMFERC
 40
0.0
  9
$CHAMFERD
 40
0.0
  9
$SKPOLY
 70
     0
  9
$TDCREATE
 40
2458340.594593704
  9
$TDUCREATE
 40
2458340.219593704
  9
$TDUPDATE
 40
2458347.755054769
  9
$TDUUPDATE
 40
2458347.380054769
  9
$TDINDWG
 40
0.0048991667
  9
$TDUSRTIMER
 40
2458347.379934305
  9
$USRTIMER
 70
     1
  9
$ANGBASE
 50
0.0
  9
$ANGDIR
 70
     0
  9
$PDMODE
 70
     0
  9
$PDSIZE
 40
-1.0
  9
$PLINEWID
 40
0.0
  9
$SPLFRAME
 70
     0
  9
$SPLINETYPE
 70
     6
  9
$SPLINESEGS
 70
     8
  9
$HANDSEED
  5
1C3
  9
$SURFTAB1
 70
     6
  9
$SURFTAB2
 70
     6
  9
$SURFTYPE
 70
     6
  9
$SURFU
 70
     6
  9
$SURFV
 70
     6
  9
$UCSBASE
  2

  9
$UCSNAME
  2

  9
$UCSORG
 10
0.0
 20
0.0
 30
0.0
  9
$UCSXDIR
 10
1.0
 20
0.0
 30
0.0
  9
$UCSYDIR
 10
0.0
 20
1.0
 30
0.0
  9
$UCSORTHOREF
  2

  9
$UCSORTHOVIEW
 70
     0
  9
$UCSORGTOP
 10
0.0
 20
0.0
 30
0.0
  9
$UCSORGBOTTOM
 10
0.0
 20
0.0
 30
0.0
  9
$UCSORGLEFT
 10
0.0
 20
0.0
 30
0.0
  9
$UCSORGRIGHT
 10
0.0
 20
0.0
 30
0.0
  9
$UCSORGFRONT
 10
0.0
 20
0.0
 30
0.0
  9
$UCSORGBACK
 10
0.0
 20
0.0
 30
0.0
  9
$PUCSBASE
  2

  9
$PUCSNAME
  2

  9
$PUCSORG
 10
0.0
 20
0.0
 30
0.0
  9
$PUCSXDIR
 10
1.0
 20
0.0
 30
0.0
  9
$PUCSYDIR
 10
0.0
 20
1.0
 30
0.0
  9
$PUCSORTHOREF
  2

  9
$PUCSORTHOVIEW
 70
     0
  9
$PUCSORGTOP
 10
0.0
 20
0.0
 30
0.0
  9
$PUCSORGBOTTOM
 10
0.0
 20
0.0
 30
0.0
  9
$PUCSORGLEFT
 10
0.0
 20
0.0
 30
0.0
  9
$PUCSORGRIGHT
 10
0.0
 20
0.0
 30
0.0
  9
$PUCSORGFRONT
 10
0.0
 20
0.0
 30
0.0
  9
$PUCSORGBACK
 10
0.0
 20
0.0
 30
0.0
  9
$USERI1
 70
     0
  9
$USERI2
 70
     0
  9
$USERI3
 70
     0
  9
$USERI4
 70
     0
  9
$USERI5
 70
     0
  9
$USERR1
 40
0.0
  9
$USERR2
 40
0.0
  9
$USERR3
 40
0.0
  9
$USERR4
 40
0.0
  9
$USERR5
 40
0.0
  9
$WORLDVIEW
 70
     1
  9
$SHADEDGE
 70
     3
  9
$SHADEDIF
 70
    70
  9
$TILEMODE
 70
     1
  9
$MAXACTVP
 70
    64
  9
$PINSBASE
 10
0.0
 20
0.0
 30
0.0
  9
$PLIMCHECK
 70
     0
  9
$PEXTMIN
 10
1.000000000000000E+20
 20
1.000000000000000E+20
 30
1.000000000000000E+20
  9
$PEXTMAX
 10
-1.000000000000000E+20
 20
-1.000000000000000E+20
 30
-1.000000000000000E+20
  9
$PLIMMIN
 10
0.0
 20
0.0
  9
$PLIMMAX
 10
0.0
 20
0.0
  9
$UNITMODE
 70
     0
  9
$VISRETAIN
 70
     1
  9
$PLINEGEN
 70
     0
  9
$PSLTSCALE
 70
     1
  9
$TREEDEPTH
 70
  3020
  9
$CMLSTYLE
  2
Standard
  9
$CMLJUST
 70
     0
  9
$CMLSCALE
 40
20.0
  9
$PROXYGRAPHICS
 70
     1
  9
$MEASUREMENT
 70
     1
  9
$CELWEIGHT
370
    -1
  9
$ENDCAPS
280
     0
  9
$JOINSTYLE
280
     0
  9
$LWDISPLAY
290
     1
  9
$INSUNITS
 70
     4
  9
$HYPERLINKBASE
  1

  9
$STYLESHEET
  1

  9
$XEDIT
290
     1
  9
$CEPSNTYPE
380
     0
  9
$PSTYLEMODE
290
     1
  9
$FINGERPRINTGUID
  2
{53C97E5A-768D-4B6B-9BC2-9722A21A5E1B}
  9
$VERSIONGUID
  2
{FAEB1C32-E019-11D5-929B-00C0DF256EC4}
  9
$EXTNAMES
290
     1
  9
$PSVPSCALE
 40
0.0
  9
$OLESTARTUP
290
     0
  0
ENDSEC
  0
SECTION
  2
CLASSES
  0
CLASS
  1
ACDBDICTIONARYWDFLT
  2
AcDbDictionaryWithDefault
  3
ObjectDBX Classes
 90
        0
280
     0
281
     0
  0
CLASS
  1
VISUALSTYLE
  2
AcDbVisualStyle
  3
ObjectDBX Classes
 90
     4095
280
     0
281
     0
  0
CLASS
  1
MATERIAL
  2
AcDbMaterial
  3
ObjectDBX Classes
 90
     1153
280
     0
281
     0
  0
CLASS
  1
SCALE
  2
AcDbScale
  3
ObjectDBX Classes
 90
     1153
280
     0
281
     0
  0
CLASS
  1
SUN
  2
AcDbSun
  3
SCENEOE
 90
     1153
280
     0
281
     0
  0
CLASS
  1
ACDBPLACEHOLDER
  2
AcDbPlaceHolder
  3
ObjectDBX Classes
 90
        0
280
     0
281
     0
  0
CLASS
  1
LAYOUT
  2
AcDbLayout
  3
ObjectDBX Classes
 90
        0
280
     0
281
     0
  0
CLASS
  1
TABLESTYLE
  2
AcDbTableStyle
  3
ObjectDBX Classes
 90
     4095
280
     0
281
     0
  0
CLASS
  1
MLEADERSTYLE
  2
AcDbMLeaderStyle
  3
ACDB_MLEADERSTYLE_CLASS
 90
     4095
280
     0
281
     0
  0
CLASS
  1
RASTERVARIABLES
  2
AcDbRasterVariables
  3
ISM
 90
        0
280
     0
281
     0
  0
CLASS
  1
DIMASSOC
  2
AcDbDimAssoc
  3
"AcDbDimAssoc|Product Desc:     AcDim ARX App For Dimension|Company:          Autodesk, Inc.|WEB Address:      www.autodesk.com"
 90
        0
280
     0
281
     0
  0
ENDSEC
  0
SECTION
  2
TABLES
  0
TABLE
  2
VPORT
  5
8
330
0
100
AcDbSymbolTable
 70
     1
  0
VPORT
  5
29
330
8
100
AcDbSymbolTableRecord
100
AcDbViewportTableRecord
  2
*Active
 70
     0
 10
0.0
 20
0.0
 11
1.0
 21
1.0
 12
-8.242303325819204
 22
3.197359491679794
 13
0.0
 23
0.0
 14
10.0
 24
10.0
 15
10.0
 25
10.0
 16
0.0
 26
0.0
 36
1.0
 17
0.0
 27
0.0
 37
0.0
 40
148.6266686397784
 41
1.453525641025641
 42
50.0
 43
0.0
 44
0.0
 50
0.0
 51
0.0
 71
    16
 72
  2000
 73
     1
 74
     3
 75
     0
 76
     0
 77
     0
 78
     0
281
     0
 65
     1
110
0.0
120
0.0
130
0.0
111
1.0
121
0.0
131
0.0
112
0.0
122
1.0
132
0.0
 79
     0
146
0.0
  0
ENDTAB
  0
TABLE
  2
LTYPE
  5
5
330
0
100
AcDbSymbolTable
 70
     6
  0
LTYPE
  5
14
330
5
100
AcDbSymbolTableRecord
100
AcDbLinetypeTableRecord
  2
ByBlock
 70
     0
  3

 72
    65
 73
     0
 40
0.0
  0
LTYPE
  5
15
330
5
100
AcDbSymbolTableRecord
100
AcDbLinetypeTableRecord
  2
ByLayer
 70
     0
  3

 72
    65
 73
     0
 40
0.0
  0
LTYPE
  5
16
330
5
100
AcDbSymbolTableRecord
100
AcDbLinetypeTableRecord
  2
Continuous
 70
     0
  3
Solid line
 72
    65
 73
     0
 40
0.0
  0
LTYPE
  5
6A
330
5
100
AcDbSymbolTableRecord
100
AcDbLinetypeTableRecord
  2
HIDDEN
 70
     0
  3
Hidden __ __ __ __ __ __ __ __ __ __ __ __ __ __
 72
    65
 73
     2
 40
1.905
 49
1.27
 74
     0
 49
-0.635
 74
     0
  0
LTYPE
  5
6B
330
5
100
AcDbSymbolTableRecord
100
AcDbLinetypeTableRecord
  2
PHANTOM
 70
     0
  3
Phantom ______  __  __  ______  __  __  ______
 72
    65
 73
     6
 40
12.7
 49
6.35
 74
     0
 49
-1.27
 74
     0
 49
1.27
 74
     0
 49
-1.27
 74
     0
 49
1.27
 74
     0
 49
-1.27
 74
     0
  0
LTYPE
  5
6C
330
5
100
AcDbSymbolTableRecord
100
AcDbLinetypeTableRecord
  2
CENTER
 70
     0
  3
Center ____ _ ____ _ ____ _ ____ _ ____ _ ____
 72
    65
 73
     4
 40
10.16
 49
6.35
 74
     0
 49
-1.27
 74
     0
 49
1.27
 74
     0
 49
-1.27
 74
     0
  0
LTYPE
  5
6D
330
5
100
AcDbSymbolTableRecord
100
AcDbLinetypeTableRecord
  2
CENTERX2
 70
     0
  3
Center (2x) ________  __  ________  __  _____
 72
    65
 73
     4
 40
20.32
 49
12.7
 74
     0
 49
-2.54
 74
     0
 49
2.54
 74
     0
 49
-2.54
 74
     0
  0
LTYPE
  5
6E
330
5
100
AcDbSymbolTableRecord
100
AcDbLinetypeTableRecord
  2
DOT2
 70
     0
  3
Dot (.5x) ........................................
 72
    65
 73
     2
 40
0.635
 49
0.0
 74
     0
 49
-0.635
 74
     0
  0
ENDTAB
  0
TABLE
  2
LAYER
  5
2
330
0
100
AcDbSymbolTable
 70
    17
  0
LAYER
  5
10
330
2
100
AcDbSymbolTableRecord
100
AcDbLayerTableRecord
  2
0
 70
     0
 62
     7
  6
Continuous
370
    -3
390
F
  0
LAYER
  5
6F
330
2
100
AcDbSymbolTableRecord
100
AcDbLayerTableRecord
  2
FORMAT
 70
     0
 62
     2
  6
Continuous
370
    -3
390
F
  0
LAYER
  5
70
330
2
100
AcDbSymbolTableRecord
100
AcDbLayerTableRecord
  2
외형선
 70
     0
 62
   100
  6
Continuous
370
    30
390
F
  0
LAYER
  5
71
330
2
100
AcDbSymbolTableRecord
100
AcDbLayerTableRecord
  2
숨은선
 70
     0
 62
     2
  6
HIDDEN
370
    15
390
F
  0
LAYER
  5
72
330
2
100
AcDbSymbolTableRecord
100
AcDbLayerTableRecord
  2
중심선
 70
     0
 62
     1
  6
CENTERX2
370
    -3
390
F
  0
LAYER
  5
73
330
2
100
AcDbSymbolTableRecord
100
AcDbLayerTableRecord
  2
파단선
 70
     0
 62
     4
  6
Continuous
370
    -3
390
F
  0
LAYER
  5
74
330
2
100
AcDbSymbolTableRecord
100
AcDbLayerTableRecord
  2
해칭선
 70
     0
 62
     4
  6
Continuous
370
    -3
390
F
  0
LAYER
  5
75
330
2
100
AcDbSymbolTableRecord
100
AcDbLayerTableRecord
  2
가는실선
 70
     0
 62
     4
  6
Continuous
370
    -3
390
F
  0
LAYER
  5
76
330
2
100
AcDbSymbolTableRecord
100
AcDbLayerTableRecord
  2
치수_보조선
 70
     0
 62
     4
  6
Continuous
370
    -3
390
F
  0
LAYER
  5
77
330
2
100
AcDbSymbolTableRecord
100
AcDbLayerTableRecord
  2
치수문자_일반주서
 70
     0
 62
     7
  6
Continuous
370
    15
390
F
  0
LAYER
  5
78
330
2
100
AcDbSymbolTableRecord
100
AcDbLayerTableRecord
  2
개별주서
 70
     0
 62
   100
  6
Continuous
370
    30
390
F
  0
LAYER
  5
79
330
2
100
AcDbSymbolTableRecord
100
AcDbLayerTableRecord
  2
중간선
 70
     0
 62
     2
  6
Continuous
370
    15
390
F
  0
LAYER
  5
7A
330
2
100
AcDbSymbolTableRecord
100
AcDbLayerTableRecord
  2
윤곽선
 70
     0
 62
     3
  6
Continuous
370
    40
390
F
  0
LAYER
  5
7B
330
2
100
AcDbSymbolTableRecord
100
AcDbLayerTableRecord
  2
중심마크
 70
     0
 62
   100
  6
Continuous
370
    30
390
F
  0
LAYER
  5
7C
330
2
100
AcDbSymbolTableRecord
100
AcDbLayerTableRecord
  2
가상선
 70
     0
 62
     4
  6
PHANTOM
370
    -3
390
F
  0
LAYER
  5
7D
330
2
100
AcDbSymbolTableRecord
100
AcDbLayerTableRecord
  2
특수지정선
 70
     0
 62
     5
  6
CENTERX2
370
    60
390
F
  0
LAYER
  5
14C
330
2
100
AcDbSymbolTableRecord
100
AcDbLayerTableRecord
  2
Defpoints
 70
     0
 62
     7
  6
Continuous
290
     0
370
    -3
390
F
  0
ENDTAB
  0
TABLE
  2
STYLE
  5
3
330
0
100
AcDbSymbolTable
 70
     2
  0
STYLE
  5
11
330
3
100
AcDbSymbolTableRecord
100
AcDbTextStyleTableRecord
  2
Standard
 70
     0
 40
0.0
 41
1.0
 50
0.0
 71
     0
 42
3.5
  3
txt
  4

  0
STYLE
  5
93
330
3
100
AcDbSymbolTableRecord
100
AcDbTextStyleTableRecord
  2
SLDTEXTSTYLE0
 70
     0
 40
0.0
 41
0.75
 50
0.0
 71
     0
 42
3.5
  3
TXT
  4

  0
ENDTAB
  0
TABLE
  2
VIEW
  5
6
330
0
100
AcDbSymbolTable
 70
     0
  0
ENDTAB
  0
TABLE
  2
UCS
  5
7
330
0
100
AcDbSymbolTable
 70
     0
  0
ENDTAB
  0
TABLE
  2
APPID
  5
9
330
0
100
AcDbSymbolTable
 70
     2
  0
APPID
  5
12
330
9
100
AcDbSymbolTableRecord
100
AcDbRegAppTableRecord
  2
ACAD
 70
     0
  0
APPID
  5
18C
330
9
100
AcDbSymbolTableRecord
100
AcDbRegAppTableRecord
  2
PE_DIMMEASUREMENT
 70
     0
  0
ENDTAB
  0
TABLE
  2
DIMSTYLE
  5
A
330
0
100
AcDbSymbolTable
 70
     4
100
AcDbDimStyleTable
  0
DIMSTYLE
105
27
330
A
100
AcDbSymbolTableRecord
100
AcDbDimStyleTableRecord
  2
ISO-25
 70
     0
 41
2.5
 42
0.625
 43
3.75
 44
1.25
 73
     0
 74
     0
 77
     1
 78
     8
140
2.5
141
2.5
143
0.03937007874016
147
0.625
171
     3
172
     1
178
     0
271
     2
272
     2
274
     3
278
    44
283
     0
284
     8
340
11
  0
DIMSTYLE
105
E4
330
A
100
AcDbSymbolTableRecord
100
AcDbDimStyleTableRecord
  2
SLDDIMSTYLE0
 70
     0
 41
3.302
 44
0.0
 45
0.000000001
 73
     0
 74
     0
 77
     1
 78
     4
 79
     1
140
3.5
143
0.0393700787401575
147
0.875
148
0.000000001
170
     1
172
     1
173
     1
178
     0
271
     2
272
     2
276
     2
284
    12
289
     0
340
93
  0
DIMSTYLE
105
FA
102
{ACAD_REACTORS
330
F9
330
17B
330
14F
330
E3
330
1B0
102
}
330
A
100
AcDbSymbolTableRecord
100
AcDbDimStyleTableRecord
  2
SLDDIMSTYLE1
 70
     0
 41
3.302
 44
0.0
 45
0.000000001
 73
     0
 74
     0
 77
     1
 78
     4
 79
     1
140
3.5
143
0.0393700787401575
147
0.875
148
0.000000001
170
     1
173
     1
178
     0
271
     2
272
     2
276
     2
284
    12
340
93
  0
DIMSTYLE
105
10E
330
A
100
AcDbSymbolTableRecord
100
AcDbDimStyleTableRecord
  2
SLDDIMSTYLE2
 70
     0
 41
3.302
 44
0.0
 45
0.000000001
 73
     0
 74
     0
 77
     1
 78
     8
 79
     2
140
3.5
143
0.0393700787401575
147
0.875
148
0.000000001
170
     1
172
     1
173
     1
178
     0
271
     2
272
     2
276
     2
284
    12
289
     0
340
93
341
10F
343
10F
344
10F
  0
ENDTAB
  0
TABLE
  2
BLOCK_RECORD
  5
1
330
0
100
AcDbSymbolTable
 70
    11
  0
BLOCK_RECORD
  5
1F
330
1
100
AcDbSymbolTableRecord
100
AcDbBlockTableRecord
  2
*Model_Space
340
22
  0
BLOCK_RECORD
  5
1B
330
1
100
AcDbSymbolTableRecord
100
AcDbBlockTableRecord
  2
*Paper_Space
340
1E
  0
BLOCK_RECORD
  5
23
330
1
100
AcDbSymbolTableRecord
100
AcDbBlockTableRecord
  2
*Paper_Space0
340
26
  0
BLOCK_RECORD
  5
7E
330
1
100
AcDbSymbolTableRecord
100
AcDbBlockTableRecord
  2
블럭10
340
0
102
{BLKREFS
331
DC
102
}
  0
BLOCK_RECORD
  5
E5
330
1
100
AcDbSymbolTableRecord
100
AcDbBlockTableRecord
  2
_D
340
0
  0
BLOCK_RECORD
  5
FB
330
1
100
AcDbSymbolTableRecord
100
AcDbBlockTableRecord
  2
_D_1
340
0
  0
BLOCK_RECORD
  5
10F
330
1
100
AcDbSymbolTableRecord
100
AcDbBlockTableRecord
  2
_NONE
340
0
  0
BLOCK_RECORD
  5
112
330
1
100
AcDbSymbolTableRecord
100
AcDbBlockTableRecord
  2
_D_2
340
0
  0
BLOCK_RECORD
  5
11E
330
1
100
AcDbSymbolTableRecord
100
AcDbBlockTableRecord
  2
SW_DOWELSYMBOL_0
340
0
102
{BLKREFS
331
124
102
}
  0
BLOCK_RECORD
  5
152
330
1
100
AcDbSymbolTableRecord
100
AcDbBlockTableRecord
  2
*D7
340
0
  0
BLOCK_RECORD
  5
164
330
1
100
AcDbSymbolTableRecord
100
AcDbBlockTableRecord
  2
*D8
340
0
  0
BLOCK_RECORD
  5
17E
330
1
100
AcDbSymbolTableRecord
100
AcDbBlockTableRecord
  2
*D9
340
0
  0
BLOCK_RECORD
  5
1B3
330
1
100
AcDbSymbolTableRecord
100
AcDbBlockTableRecord
  2
*D10
340
0
  0
ENDTAB
  0
ENDSEC
  0
SECTION
  2
BLOCKS
  0
BLOCK
  5
20
330
1F
100
AcDbEntity
  8
0
100
AcDbBlockBegin
  2
*Model_Space
 70
     0
 10
0.0
 20
0.0
 30
0.0
  3
*Model_Space
  1
*Model_Space
  0
ENDBLK
  5
21
330
1F
100
AcDbEntity
  8
0
100
AcDbBlockEnd
  0
BLOCK
  5
1C
330
1B
100
AcDbEntity
 67
     1
  8
0
100
AcDbBlockBegin
  2
*Paper_Space
 70
     0
 10
0.0
 20
0.0
 30
0.0
  3
*Paper_Space
  1
*Paper_Space
  0
ENDBLK
  5
1D
330
1B
100
AcDbEntity
 67
     1
  8
0
100
AcDbBlockEnd
  0
BLOCK
  5
24
330
23
100
AcDbEntity
  8
0
100
AcDbBlockBegin
  2
*Paper_Space0
 70
     0
 10
0.0
 20
0.0
 30
0.0
  3
*Paper_Space0
  1
*Paper_Space0
  0
ENDBLK
  5
25
330
23
100
AcDbEntity
  8
0
100
AcDbBlockEnd
  0
BLOCK
  5
7F
330
7E
100
AcDbEntity
  8
0
100
AcDbBlockBegin
  2
블럭10
 70
     2
 10
0.0
 20
0.0
 30
0.0
  3
블럭10
  1
블럭10
  0
ELLIPSE
  5
81
330
7E
100
AcDbEntity
  8
중심선
100
AcDbEllipse
 10
20.54032771741204
 20
12.0471743016438
 30
0.0
 11
6.600054785286829
 21
-1.261213355974178E-13
 31
0.0
210
0.0
220
0.0
230
1.0
 40
0.636358354079598
 41
0.9219305317359503
 42
6.513795318482858
  0
ELLIPSE
  5
82
330
7E
100
AcDbEntity
  8
중심선
100
AcDbEllipse
 10
20.54032771746488
 20
12.04717430159265
 30
0.0
 11
3.960054785062283
 21
1.540847449632565E-10
 31
0.0
210
0.0
220
0.0
230
1.0
 40
0.3939339440162632
 41
1.131841032648279
 42
5.62031148352944
  0
LINE
  5
83
330
7E
100
AcDbEntity
  8
중심선
100
AcDbLine
 10
2.268634060543552
 20
16.24717430164393
 30
0.0
 11
5.714909304380834
 21
16.24717430164393
 31
0.0
  0
LINE
  5
84
330
7E
100
AcDbEntity
  8
중심선
100
AcDbLine
 10
5.245725140726316
 20
7.84717430164391
 30
0.0
 11
8.692000384563599
 21
7.84717430164391
 31
0.0
  0
LINE
  5
85
330
7E
100
AcDbEntity
  8
중심선
100
AcDbLine
 10
15.74043728645272
 20
16.24717430164393
 30
0.0
 11
8.692000384563599
 21
7.84717430164391
 31
0.0
  0
LINE
  5
86
330
7E
100
AcDbEntity
  8
중심선
100
AcDbLine
 10
0.1404042013395286
 20
13.71084872107135
 30
0.0
 11
3.58671253028996
 21
13.71088815037384
 31
0.0
  0
LINE
  5
87
330
7E
100
AcDbEntity
  8
중심선
100
AcDbLine
 10
2.750260043222114
 20
10.84717430164391
 30
0.0
 11
6.196535287059397
 21
10.84717430164391
 31
0.0
  0
LINE
  5
88
330
7E
100
AcDbEntity
  8
중심선
100
AcDbLine
 10
12.29416204261559
 20
16.24717430164393
 30
0.0
 11
5.245725140726316
 21
7.84717430164391
 31
0.0
  0
LINE
  5
89
330
7E
100
AcDbEntity
  8
중심선
100
AcDbLine
 10
10.72767329541681
 20
16.24717430164393
 30
0.0
 11
6.196535287059397
 21
10.84717430164391
 31
0.0
  0
LINE
  5
8A
330
7E
100
AcDbEntity
  8
중심선
100
AcDbLine
 10
7.28139805157953
 20
16.24717430164393
 30
0.0
 11
2.750260043222114
 21
10.84717430164391
 31
0.0
  0
LINE
  5
8B
330
7E
100
AcDbEntity
  8
중심선
100
AcDbLine
 10
5.714909304380834
 20
16.24717430164393
 30
0.0
 11
3.58671253028996
 21
13.71088815037384
 31
0.0
  0
LINE
  5
8C
330
7E
100
AcDbEntity
  8
중심선
100
AcDbLine
 10
2.268634060543552
 20
16.24717430164393
 30
0.0
 11
0.1404042013395286
 21
13.71084872107135
 31
0.0
  0
LINE
  5
8D
330
7E
100
AcDbEntity
  8
중심선
100
AcDbLine
 10
7.28139805157953
 20
16.24717430164393
 30
0.0
 11
10.72767329541681
 21
16.24717430164393
 31
0.0
  0
LINE
  5
8E
330
7E
100
AcDbEntity
  8
중심선
100
AcDbLine
 10
12.29416204261559
 20
16.24717430164393
 30
0.0
 11
15.74043728645272
 21
16.24717430164393
 31
0.0
  0
LINE
  5
8F
330
7E
100
AcDbEntity
  8
중심선
100
AcDbLine
 10
19.22036997980202
 20
11.08717430171403
 30
0.0
 11
23.66174974927406
 21
11.08717430171406
 31
0.0
  0
LINE
  5
90
330
7E
100
AcDbEntity
  8
중심선
100
AcDbLine
 10
19.22039502424796
 20
13.00717430171391
 30
0.0
 11
19.22036997980202
 21
11.08717430171403
 31
0.0
  0
LINE
  5
91
330
7E
100
AcDbEntity
  8
중심선
100
AcDbLine
 10
19.22039502424796
 20
13.00717430171391
 30
0.0
 11
26.96566020931264
 21
13.00717430171391
 31
0.0
  0
LINE
  5
92
330
7E
100
AcDbEntity
  8
중심선
100
AcDbLine
 10
22.22332737316547
 20
13.45928029700563
 30
0.0
 11
24.52862924686651
 21
15.39360700705356
 31
0.0
  0
ATTDEF
  5
94
330
7E
100
AcDbEntity
  8
FORMAT
 62
     2
100
AcDbText
 10
-9.18129528874128
 20
2.075366912832191
 30
0.0
 40
4.233333333333333
  1
E5078712 [ 3 FLUTE ]
 41
0.75
  7
SLDTEXTSTYLE0
 11
-9.18129528874128
 21
-0.0412997538344756
 31
0.0
100
AcDbAttributeDefinition
  3

  2
AUTOATTR0
 70
     0
 74
     1
  0
ENDBLK
  5
80
330
7E
100
AcDbEntity
  8
0
100
AcDbBlockEnd
  0
BLOCK
  5
E6
330
E5
100
AcDbEntity
  8
0
100
AcDbBlockBegin
  2
_D
 70
     0
 10
0.0
 20
0.0
 30
0.0
  3
_D
  1
_D
  0
LINE
  5
E8
330
E5
100
AcDbEntity
  8
치수문자_일반주서
 62
     0
370
    -2
100
AcDbLine
 10
44.25799999999997
 20
2.506249999999994
 30
0.0
 11
44.25799999999997
 21
35.92390171923022
 31
0.0
  0
LINE
  5
E9
330
E5
100
AcDbEntity
  8
치수문자_일반주서
 62
     0
370
    -2
100
AcDbLine
 10
12.508
 20
6.066899122403107
 30
0.0
 11
12.508
 21
35.92390171923022
 31
0.0
  0
LINE
  5
EA
330
E5
100
AcDbEntity
  8
치수문자_일반주서
 62
     0
370
    -2
100
AcDbLine
 10
40.95599999999997
 20
35.92390171923022
 30
0.0
 11
15.81
 21
35.92390171923022
 31
0.0
  0
SOLID
  5
EB
330
E5
100
AcDbEntity
  8
치수문자_일반주서
 62
     0
100
AcDbTrace
 10
40.95599999999997
 20
35.37356838589688
 30
0.0
 11
40.95599999999997
 21
36.47423505256355
 31
0.0
 12
44.25799999999997
 22
35.92390171923022
 32
0.0
 13
44.25799999999997
 23
35.92390171923022
 33
0.0
  0
SOLID
  5
EC
330
E5
100
AcDbEntity
  8
치수문자_일반주서
 62
     0
100
AcDbTrace
 10
15.81
 20
36.47423505256355
 30
0.0
 11
15.81
 21
35.37356838589688
 31
0.0
 12
12.508
 22
35.92390171923022
 32
0.0
 13
12.508
 23
35.92390171923022
 33
0.0
  0
MTEXT
  5
ED
330
E5
100
AcDbEntity
  8
치수문자_일반주서
 62
     0
100
AcDbMText
 10
29.18982476444198
 20
40.29890171923022
 30
0.0
 40
3.5
 41
0.0
 71
     2
 72
     1
  1
\A1;31.75 [1 1/4]
  7
SLDTEXTSTYLE0
 73
     1
 44
1.0
  0
POINT
  5
EE
330
E5
100
AcDbEntity
  8
Defpoints
 62
     0
100
AcDbPoint
 10
44.25799999999997
 20
2.443749999999994
 30
0.0
  0
POINT
  5
EF
330
E5
100
AcDbEntity
  8
Defpoints
 62
     0
100
AcDbPoint
 10
12.508
 20
6.004399122403107
 30
0.0
  0
POINT
  5
F0
330
E5
100
AcDbEntity
  8
Defpoints
 62
     0
100
AcDbPoint
 10
12.508
 20
35.92390171923022
 30
0.0
  0
ENDBLK
  5
E7
330
E5
100
AcDbEntity
  8
0
100
AcDbBlockEnd
  0
BLOCK
  5
FC
330
FB
100
AcDbEntity
  8
0
100
AcDbBlockBegin
  2
_D_1
 70
     0
 10
0.0
 20
0.0
 30
0.0
  3
_D_1
  1
_D_1
  0
LINE
  5
FE
330
FB
100
AcDbEntity
  8
치수문자_일반주서
 62
     0
370
    -2
100
AcDbLine
 10
44.25799999999997
 20
2.443749999999994
 30
0.0
 11
44.25799999999997
 21
47.5091599926899
 31
0.0
  0
LINE
  5
FF
330
FB
100
AcDbEntity
  8
치수문자_일반주서
 62
     0
370
    -2
100
AcDbLine
 10
-57.34200000000003
 20
5.602499999999999
 30
0.0
 11
-57.34200000000003
 21
47.5091599926899
 31
0.0
  0
LINE
  5
100
330
FB
100
AcDbEntity
  8
치수문자_일반주서
 62
     0
370
    -2
100
AcDbLine
 10
40.95599999999997
 20
47.5091599926899
 30
0.0
 11
-54.04000000000003
 21
47.5091599926899
 31
0.0
  0
SOLID
  5
101
330
FB
100
AcDbEntity
  8
치수문자_일반주서
 62
     0
100
AcDbTrace
 10
40.95599999999997
 20
46.95882665935657
 30
0.0
 11
40.95599999999997
 21
48.05949332602324
 31
0.0
 12
44.25799999999997
 22
47.5091599926899
 32
0.0
 13
44.25799999999997
 23
47.5091599926899
 33
0.0
  0
SOLID
  5
102
330
FB
100
AcDbEntity
  8
치수문자_일반주서
 62
     0
100
AcDbTrace
 10
-54.04000000000003
 20
48.05949332602324
 30
0.0
 11
-54.04000000000003
 21
46.95882665935657
 31
0.0
 12
-57.34200000000003
 22
47.5091599926899
 32
0.0
 13
-57.34200000000003
 23
47.5091599926899
 33
0.0
  0
MTEXT
  5
103
330
FB
100
AcDbEntity
  8
치수문자_일반주서
 62
     0
100
AcDbMText
 10
-6.542000000000023
 20
51.8841599926899
 30
0.0
 40
3.5
 41
0.0
 71
     2
 72
     1
  1
\A1;101.60 [4]
  7
SLDTEXTSTYLE0
 73
     1
 44
1.0
  0
POINT
  5
104
330
FB
100
AcDbEntity
  8
Defpoints
 62
     0
100
AcDbPoint
 10
44.25799999999997
 20
2.381249999999994
 30
0.0
  0
POINT
  5
105
330
FB
100
AcDbEntity
  8
Defpoints
 62
     0
100
AcDbPoint
 10
-57.34200000000003
 20
5.539999999999999
 30
0.0
  0
POINT
  5
106
330
FB
100
AcDbEntity
  8
Defpoints
 62
     0
100
AcDbPoint
 10
-57.34200000000003
 20
47.5091599926899
 30
0.0
  0
ENDBLK
  5
FD
330
FB
100
AcDbEntity
  8
0
100
AcDbBlockEnd
  0
BLOCK
  5
110
330
10F
100
AcDbEntity
  8
0
100
AcDbBlockBegin
  2
_NONE
 70
     0
 10
0.0
 20
0.0
 30
0.0
  3
_NONE
  1
_NONE
  0
ENDBLK
  5
111
330
10F
100
AcDbEntity
  8
0
100
AcDbBlockEnd
  0
BLOCK
  5
113
330
112
100
AcDbEntity
  8
0
100
AcDbBlockBegin
  2
_D_2
 70
     0
 10
0.0
 20
0.0
 30
0.0
  3
_D_2
  1
_D_2
  0
LINE
  5
115
330
112
100
AcDbEntity
  8
치수문자_일반주서
100
AcDbLine
 10
-55.73488171604274
 20
-10.17686643106871
 30
0.0
 11
-55.73488171604273
 21
-10.88780391663321
 31
0.0
  0
LINE
  5
116
330
112
100
AcDbEntity
  8
치수문자_일반주서
100
AcDbLine
 10
-55.73488171604273
 20
-10.88780391663321
 30
0.0
 11
-50.17863172498343
 21
-10.88780391663317
 31
0.0
  0
LINE
  5
117
330
112
100
AcDbEntity
  8
치수문자_일반주서
100
AcDbLine
 10
-50.17863172498343
 20
-10.88780391663317
 30
0.0
 11
-50.17863172498343
 21
-10.17686643106867
 31
0.0
  0
LINE
  5
118
330
112
100
AcDbEntity
  8
치수문자_일반주서
100
AcDbLine
 10
-55.73488171604281
 20
0.6518664310685481
 30
0.0
 11
-55.73488171604281
 21
1.362803916633048
 31
0.0
  0
LINE
  5
119
330
112
100
AcDbEntity
  8
치수문자_일반주서
100
AcDbLine
 10
-55.73488171604281
 20
1.362803916633048
 30
0.0
 11
-50.17863172498351
 21
1.362803916633087
 31
0.0
  0
LINE
  5
11A
330
112
100
AcDbEntity
  8
치수문자_일반주서
100
AcDbLine
 10
-50.17863172498351
 20
1.362803916633087
 30
0.0
 11
-50.1786317249835
 21
0.6518664310685871
 31
0.0
  0
MTEXT
  5
11B
330
112
100
AcDbEntity
  8
치수문자_일반주서
100
AcDbMText
 10
-54.69036863956233
 20
-9.28819453045733
 30
0.0
 40
3.5
 41
0.0
 71
     1
 72
     1
  1
0.00
  7
SLDTEXTSTYLE0
 11
-7.044195017643634E-15
 21
1.0
 31
0.0
 73
     1
 44
1.0
  0
MTEXT
  5
11C
330
112
100
AcDbEntity
  8
치수문자_일반주서
100
AcDbMText
 10
-49.45373708920187
 20
-8.694774412363806
 30
0.0
 40
3.5
 41
0.0
 71
     1
 72
     1
  1
%%c
  7
SLDTEXTSTYLE0
 11
-7.044195017643634E-15
 21
1.0
 31
0.0
 73
     1
 44
1.0
  0
MTEXT
  5
11D
330
112
100
AcDbEntity
  8
치수문자_일반주서
100
AcDbMText
 10
-49.4537370892019
 20
-3.416337013989724
 30
0.0
 40
3.5
 41
0.0
 71
     1
 72
     1
  1
0
  7
SLDTEXTSTYLE0
 11
-7.044195017643634E-15
 21
1.0
 31
0.0
 73
     1
 44
1.0
  0
ENDBLK
  5
114
330
112
100
AcDbEntity
  8
0
100
AcDbBlockEnd
  0
BLOCK
  5
11F
330
11E
100
AcDbEntity
  8
0
100
AcDbBlockBegin
  2
SW_DOWELSYMBOL_0
 70
     0
 10
0.0
 20
0.0
 30
0.0
  3
SW_DOWELSYMBOL_0
  1
SW_DOWELSYMBOL_0
  0
CIRCLE
  5
121
330
11E
100
AcDbEntity
  8
외형선
 62
     0
100
AcDbCircle
 10
0.0
 20
0.0
 30
0.0
 40
2.999999999999999
  0
HATCH
  5
122
330
11E
100
AcDbEntity
  8
0
  6
Continuous
 62
     0
370
    30
100
AcDbHatch
 10
0.0
 20
0.0
 30
0.0
210
0.0
220
0.0
230
1.0
  2
SOLID
 70
     1
 71
     0
 91
        1
 92
        0
 93
        3
 72
     2
 10
0.0
 20
0.0
 40
2.999999999999999
 50
0.0
 51
90.0
 73
     1
 72
     1
 10
0.0
 20
2.999999999999999
 11
0.0
 21
0.0
 72
     1
 10
0.0
 20
0.0
 11
2.999999999999999
 21
0.0
 97
        0
 75
     0
 76
     1
 98
        1
 10
0.0
 20
0.0
  0
HATCH
  5
123
330
11E
100
AcDbEntity
  8
0
  6
Continuous
 62
     0
370
    30
100
AcDbHatch
 10
0.0
 20
0.0
 30
0.0
210
0.0
220
0.0
230
1.0
  2
SOLID
 70
     1
 71
     0
 91
        1
 92
        0
 93
        3
 72
     2
 10
0.0
 20
0.0
 40
2.999999999999999
 50
180.0
 51
270.0000000000007
 73
     1
 72
     1
 10
0.0
 20
-2.999999999999999
 11
0.0
 21
0.0
 72
     1
 10
0.0
 20
0.0
 11
-2.999999999999999
 21
0.0
 97
        0
 75
     0
 76
     1
 98
        1
 10
0.0
 20
0.0
  0
ENDBLK
  5
120
330
11E
100
AcDbEntity
  8
0
100
AcDbBlockEnd
  0
BLOCK
  5
153
330
152
100
AcDbEntity
  8
0
100
AcDbBlockBegin
  2
*D7
 70
     1
 10
0.0
 20
0.0
 30
0.0
  3
*D7
  1
*D7
  0
LINE
  5
155
330
152
100
AcDbEntity
  8
치수문자_일반주서
 62
     0
370
    -2
100
AcDbLine
 10
44.43270532204689
 20
-2.381250000000005
 30
0.0
 11
58.65015607514975
 21
-2.381250000000006
 31
0.0
  0
LINE
  5
156
330
152
100
AcDbEntity
  8
치수문자_일반주서
 62
     0
370
    -2
100
AcDbLine
 10
44.32049999999997
 20
2.381249999999994
 30
0.0
 11
58.65015607514975
 21
2.381249999999993
 31
0.0
  0
LINE
  5
157
330
152
100
AcDbEntity
  8
치수문자_일반주서
 62
     0
370
    -2
100
AcDbLine
 10
58.65015607514975
 20
5.683249999999992
 30
0.0
 11
58.65015607514975
 21
36.98524999999999
 31
0.0
  0
LINE
  5
158
330
152
100
AcDbEntity
  8
치수문자_일반주서
 62
     0
370
    -2
100
AcDbLine
 10
58.65015607514975
 20
-5.683250000000006
 30
0.0
 11
58.65015607514975
 21
-8.985250000000006
 31
0.0
  0
SOLID
  5
159
330
152
100
AcDbEntity
  8
치수문자_일반주서
 62
     0
100
AcDbTrace
 10
59.20048940848309
 20
-5.683250000000006
 30
0.0
 11
58.09982274181642
 21
-5.683250000000006
 31
0.0
 12
58.65015607514975
 22
-2.381250000000006
 32
0.0
 13
58.65015607514975
 23
-2.381250000000006
 33
0.0
  0
SOLID
  5
15A
330
152
100
AcDbEntity
  8
치수문자_일반주서
 62
     0
100
AcDbTrace
 10
58.09982274181642
 20
5.683249999999992
 30
0.0
 11
59.20048940848309
 21
5.683249999999992
 31
0.0
 12
58.65015607514975
 22
2.381249999999993
 32
0.0
 13
58.65015607514975
 23
2.381249999999993
 33
0.0
  0
MTEXT
  5
15B
330
152
100
AcDbEntity
  8
치수문자_일반주서
 62
     0
100
AcDbMText
 10
56.02515607514975
 20
22.98524999999999
 30
0.0
 40
3.5
 41
0.0
 71
     5
 72
     1
  1
\A1;{%%c4.76 [3/16]}
  7
SLDTEXTSTYLE0
 11
0.0
 21
1.0
 31
0.0
 73
     1
 44
1.0
  0
POINT
  5
15C
330
152
100
AcDbEntity
  8
Defpoints
 62
     0
100
AcDbPoint
 10
44.37020532204689
 20
-2.381250000000005
 30
0.0
  0
POINT
  5
15D
330
152
100
AcDbEntity
  8
Defpoints
 62
     0
100
AcDbPoint
 10
44.25799999999997
 20
2.381249999999994
 30
0.0
  0
POINT
  5
15E
330
152
100
AcDbEntity
  8
Defpoints
 62
     0
100
AcDbPoint
 10
58.65015607514975
 20
2.381249999999993
 30
0.0
  0
ENDBLK
  5
154
330
152
100
AcDbEntity
  8
0
100
AcDbBlockEnd
  0
BLOCK
  5
165
330
164
100
AcDbEntity
  8
0
100
AcDbBlockBegin
  2
*D8
 70
     1
 10
0.0
 20
0.0
 30
0.0
  3
*D8
  1
*D8
  0
LINE
  5
167
330
164
100
AcDbEntity
  8
0
 62
     0
370
    -2
100
AcDbLine
 10
-32.13200000000001
 20
-4.762499999999996
 30
0.0
 11
-48.12461825982532
 21
-4.762499999999995
 31
0.0
  0
LINE
  5
168
330
164
100
AcDbEntity
  8
0
 62
     0
370
    -2
100
AcDbLine
 10
-32.13200000000001
 20
4.762500000000001
 30
0.0
 11
-48.12461825982532
 21
4.762500000000002
 31
0.0
  0
LINE
  5
169
330
164
100
AcDbEntity
  8
0
 62
     0
370
    -2
100
AcDbLine
 10
-47.12461825982532
 20
-4.762499999999995
 30
0.0
 11
-47.12461825982532
 21
-3.565666666666663
 31
0.0
  0
LINE
  5
16A
330
164
100
AcDbEntity
  8
0
 62
     0
370
    -2
100
AcDbLine
 10
-47.12461825982532
 20
4.762500000000002
 30
0.0
 11
-47.12461825982532
 21
3.56566666666667
 31
0.0
  0
LINE
  5
16B
330
164
100
AcDbEntity
  8
0
 62
     0
370
    -2
100
AcDbLine
 10
-47.12461825982532
 20
-8.064499999999995
 30
0.0
 11
-47.12461825982532
 21
-11.36649999999999
 31
0.0
  0
LINE
  5
16C
330
164
100
AcDbEntity
  8
0
 62
     0
370
    -2
100
AcDbLine
 10
-47.12461825982532
 20
8.064500000000002
 30
0.0
 11
-47.12461825982532
 21
11.3665
 31
0.0
  0
SOLID
  5
16D
330
164
100
AcDbEntity
  8
0
 62
     0
100
AcDbTrace
 10
-46.57428492649198
 20
-8.064499999999995
 30
0.0
 11
-47.67495159315865
 21
-8.064499999999995
 31
0.0
 12
-47.12461825982532
 22
-4.762499999999995
 32
0.0
 13
-47.12461825982532
 23
-4.762499999999995
 33
0.0
  0
SOLID
  5
16E
330
164
100
AcDbEntity
  8
0
 62
     0
100
AcDbTrace
 10
-47.67495159315865
 20
8.064500000000002
 30
0.0
 11
-46.57428492649198
 21
8.064500000000002
 31
0.0
 12
-47.12461825982532
 22
4.762500000000002
 32
0.0
 13
-47.12461825982532
 23
4.762500000000002
 33
0.0
  0
MTEXT
  5
16F
330
164
100
AcDbEntity
  8
0
 62
     0
100
AcDbMText
 10
-47.12461825982532
 20
0.0000000000000036
 30
0.0
 40
3.5
 41
0.0
 71
     5
 72
     1
  1
9,53
 73
     1
 44
1.0
  0
POINT
  5
170
330
164
100
AcDbEntity
  8
Defpoints
 62
     0
100
AcDbPoint
 10
-31.13200000000001
 20
-4.762499999999996
 30
0.0
  0
POINT
  5
171
330
164
100
AcDbEntity
  8
Defpoints
 62
     0
100
AcDbPoint
 10
-31.13200000000001
 20
4.762500000000001
 30
0.0
  0
POINT
  5
172
330
164
100
AcDbEntity
  8
Defpoints
 62
     0
100
AcDbPoint
 10
-47.12461825982532
 20
4.762500000000002
 30
0.0
  0
ENDBLK
  5
166
330
164
100
AcDbEntity
  8
0
100
AcDbBlockEnd
  0
BLOCK
  5
17F
330
17E
100
AcDbEntity
  8
0
100
AcDbBlockBegin
  2
*D9
 70
     1
 10
0.0
 20
0.0
 30
0.0
  3
*D9
  1
*D9
  0
LINE
  5
181
330
17E
100
AcDbEntity
  8
치수문자_일반주서
 62
     0
370
    -2
100
AcDbLine
 10
-56.59450000000003
 20
-6.350000000000005
 30
0.0
 11
-81.17008243836135
 21
-6.350000000000003
 31
0.0
  0
LINE
  5
182
330
17E
100
AcDbEntity
  8
치수문자_일반주서
 62
     0
370
    -2
100
AcDbLine
 10
-56.59450000000003
 20
6.349999999999994
 30
0.0
 11
-81.17008243836135
 21
6.349999999999996
 31
0.0
  0
LINE
  5
183
330
17E
100
AcDbEntity
  8
치수문자_일반주서
 62
     0
370
    -2
100
AcDbLine
 10
-81.17008243836135
 20
6.349999999999996
 30
0.0
 11
-81.17008243836135
 21
36.33949999999999
 31
0.0
  0
LINE
  5
184
330
17E
100
AcDbEntity
  8
치수문자_일반주서
 62
     0
370
    -2
100
AcDbLine
 10
-81.17008243836135
 20
-3.048000000000004
 30
0.0
 11
-81.17008243836135
 21
3.047999999999996
 31
0.0
  0
SOLID
  5
185
330
17E
100
AcDbEntity
  8
치수문자_일반주서
 62
     0
100
AcDbTrace
 10
-81.72041577169468
 20
-3.048000000000004
 30
0.0
 11
-80.61974910502802
 21
-3.048000000000004
 31
0.0
 12
-81.17008243836135
 22
-6.350000000000003
 32
0.0
 13
-81.17008243836135
 23
-6.350000000000003
 33
0.0
  0
SOLID
  5
186
330
17E
100
AcDbEntity
  8
치수문자_일반주서
 62
     0
100
AcDbTrace
 10
-80.61974910502802
 20
3.047999999999996
 30
0.0
 11
-81.72041577169468
 21
3.047999999999996
 31
0.0
 12
-81.17008243836135
 22
6.349999999999996
 32
0.0
 13
-81.17008243836135
 23
6.349999999999996
 33
0.0
  0
MTEXT
  5
187
330
17E
100
AcDbEntity
  8
치수문자_일반주서
 62
     0
100
AcDbMText
 10
-83.79508243836135
 20
22.99574999999999
 30
0.0
 40
3.5
 41
0.0
 71
     5
 72
     1
  1
\A1;{%%c12.70 [1/2]}
  7
SLDTEXTSTYLE0
 11
0.0
 21
1.0
 31
0.0
 73
     1
 44
1.0
  0
POINT
  5
188
330
17E
100
AcDbEntity
  8
Defpoints
 62
     0
100
AcDbPoint
 10
-56.53200000000003
 20
-6.350000000000005
 30
0.0
  0
POINT
  5
189
330
17E
100
AcDbEntity
  8
Defpoints
 62
     0
100
AcDbPoint
 10
-56.53200000000003
 20
6.349999999999994
 30
0.0
  0
POINT
  5
18A
330
17E
100
AcDbEntity
  8
Defpoints
 62
     0
100
AcDbPoint
 10
-81.17008243836135
 20
6.349999999999996
 30
0.0
  0
ENDBLK
  5
180
330
17E
100
AcDbEntity
  8
0
100
AcDbBlockEnd
  0
BLOCK
  5
1B4
330
1B3
100
AcDbEntity
  8
0
100
AcDbBlockBegin
  2
*D10
 70
     1
 10
0.0
 20
0.0
 30
0.0
  3
*D10
  1
*D10
  0
LINE
  5
1B6
330
1B3
100
AcDbEntity
  8
치수문자_일반주서
 62
     0
370
    -2
100
AcDbLine
 10
20.53807249059705
 20
11.64770483940068
 30
0.0
 11
21.97673392226304
 21
16.69673972589501
 31
0.0
  0
ARC
  5
1B7
330
1B3
100
AcDbEntity
  8
치수문자_일반주서
 62
     0
370
    -2
100
AcDbCircle
 10
61.41611842084782
 20
-0.0000000000000053
 30
0.0
 40
42.50510165970068
100
AcDbArc
 50
164.0957385403575
 51
168.5478692701788
  0
ARC
  5
1B8
330
1B3
100
AcDbEntity
  8
치수문자_일반주서
 62
     0
370
    -2
100
AcDbCircle
 10
61.41611842084782
 20
-0.0000000000000053
 30
0.0
 40
42.50510165970068
100
AcDbArc
 50
184.4521307298212
 51
188.9042614596424
  0
SOLID
  5
1B9
330
1B3
100
AcDbEntity
  8
치수문자_일반주서
 62
     0
100
AcDbTrace
 10
19.21403990713239
 20
8.527587350813375
 30
0.0
 11
20.30046772104136
 21
8.351117193913995
 31
0.0
 12
19.22784334338873
 22
5.180068830636781
 32
0.0
 13
19.22784334338873
 23
5.180068830636781
 33
0.0
  0
SOLID
  5
1BA
330
1B3
100
AcDbEntity
  8
치수문자_일반주서
 62
     0
100
AcDbTrace
 10
19.58919237740435
 20
-3.278131878264198
 30
0.0
 11
18.48935632952098
 21
-3.320884409036041
 31
0.0
 12
18.91101676114714
 22
-0.0000000000000051
 32
0.0
 13
18.91101676114714
 23
-0.0000000000000051
 33
0.0
  0
MTEXT
  5
1BB
330
1B3
100
AcDbEntity
  8
치수문자_일반주서
 62
     0
100
AcDbMText
 10
18.73288576318288
 20
14.89155299848084
 30
0.0
 40
3.5
 41
0.0
 71
     5
 72
     1
  1
\A1;7%%d
  7
SLDTEXTSTYLE0
 11
0.2740307488887608
 21
0.9617209307608238
 31
0.0
 73
     1
 44
1.0
  0
POINT
  5
1BC
330
1B3
100
AcDbEntity
  8
Defpoints
 62
     0
100
AcDbPoint
 10
18.9462586637308
 20
1.730514175700936
 30
0.0
  0
POINT
  5
1BD
330
1B3
100
AcDbEntity
  8
Defpoints
 62
     0
100
AcDbPoint
 10
23.34413598541712
 20
4.674651646037467
 30
0.0
  0
POINT
  5
1BE
330
1B3
100
AcDbEntity
  8
Defpoints
 62
     0
100
AcDbPoint
 10
-57.34200000000003
 20
-0.0000000000000051
 30
0.0
  0
POINT
  5
1BF
330
1B3
100
AcDbEntity
  8
Defpoints
 62
     0
100
AcDbPoint
 10
48.16695137398348
 20
-0.0000000000000057
 30
0.0
  0
POINT
  5
1C0
330
1B3
100
AcDbEntity
  8
Defpoints
 62
     0
100
AcDbPoint
 10
18.93445503644676
 20
5.216092385078698
 30
0.0
  0
ENDBLK
  5
1B5
330
1B3
100
AcDbEntity
  8
0
100
AcDbBlockEnd
  0
ENDSEC
  0
SECTION
  2
ENTITIES
  0
LINE
  5
95
330
1F
100
AcDbEntity
  8
0
  6
Continuous
 62
     1
370
    15
100
AcDbLine
 10
34.85479651799658
 20
-3.261320246842287
 30
0.0
 11
37.88060719032794
 21
-2.889797412064759
 31
0.0
  0
LINE
  5
96
330
1F
100
AcDbEntity
  8
0
  6
Continuous
 62
     1
370
    15
100
AcDbLine
 10
15.70550822541669
 20
-5.612557201449841
 30
0.0
 11
20.34046656031802
 21
-5.043455877495724
 31
0.0
  0
LINE
  5
97
330
1F
100
AcDbEntity
  8
0
  6
Continuous
 62
     1
370
    15
100
AcDbLine
 10
29.25556481454733
 20
3.948819452943942
 30
0.0
 11
25.36851816916723
 21
4.426088768506046
 31
0.0
  0
LINE
  5
98
330
1F
100
AcDbEntity
  8
0
  6
Continuous
 62
     1
370
    15
100
AcDbLine
 10
40.98107370426717
 20
-2.509107992556571
 30
0.0
 11
42.16695137398351
 21
-2.363500523595891
 31
0.0
  0
LINE
  5
99
330
1F
100
AcDbEntity
  8
0
  6
Continuous
 62
     1
370
    15
100
AcDbLine
 10
22.16015580214545
 20
-4.820026132958203
 30
0.0
 11
26.31948643917651
 21
-4.309324547040346
 31
0.0
  0
LINE
  5
9A
330
1F
100
AcDbEntity
  8
0
  6
Continuous
 62
     1
370
    15
100
AcDbLine
 10
17.2961416422966
 20
5.417251975800771
 30
0.0
 11
12.508
 21
6.005161844891073
 31
0.0
  0
LINE
  5
9B
330
1F
100
AcDbEntity
  8
0
  6
Continuous
 62
     1
370
    15
100
AcDbLine
 10
35.02708683053145
 20
3.240165656469885
 30
0.0
 11
31.72298878494196
 21
3.645857884177735
 31
0.0
  0
LINE
  5
9C
330
1F
100
AcDbEntity
  8
0
  6
Continuous
 62
     1
370
    15
100
AcDbLine
 10
28.5585853490791
 20
-4.034397770569784
 30
0.0
 11
32.15590878884132
 21
-3.592701991592854
 31
0.0
  0
LINE
  5
9D
330
1F
100
AcDbEntity
  8
0
  6
Continuous
 62
     1
370
    15
100
AcDbLine
 10
12.508
 20
-6.005161844891055
 30
0.0
 11
14.22956667775717
 21
-5.793780036297568
 31
0.0
  0
LINE
  5
9E
102
{ACAD_REACTORS
102
}
330
1F
100
AcDbEntity
  8
0
  6
Continuous
 62
     1
370
    15
100
AcDbLine
 10
23.34413598541712
 20
4.674651646037467
 30
0.0
 11
18.93445503644676
 21
5.216092385078698
 31
0.0
  0
LINE
  5
9F
330
1F
100
AcDbEntity
  8
0
  6
Continuous
 62
     1
370
    15
100
AcDbLine
 10
40.73477956896597
 20
2.539349109812505
 30
0.0
 11
37.95171426320883
 21
2.881066561344003
 31
0.0
  0
LINE
  5
A2
330
1F
100
AcDbEntity
  8
0
  6
Continuous
 62
     4
370
    15
100
AcDbLine
 10
-56.53200000000003
 20
6.349999999999994
 30
0.0
 11
-57.34200000000003
 21
5.539999999999999
 31
0.0
  0
LINE
  5
A3
330
1F
100
AcDbEntity
  8
0
  6
Continuous
 62
     4
370
    15
100
AcDbLine
 10
-57.34200000000003
 20
-5.54000000000001
 30
0.0
 11
-56.53200000000003
 21
-6.350000000000005
 31
0.0
  0
ARC
  5
A7
330
1F
100
AcDbEntity
  8
0
  6
Continuous
 62
     1
370
    15
100
AcDbCircle
 10
41.87674999999999
 20
0.0000000000000068
 30
0.0
 40
2.381250000000001
100
AcDbArc
 50
277.000000000001
 51
293.3409628545135
  0
ARC
  5
A8
330
1F
100
AcDbEntity
  8
0
  6
Continuous
 62
     1
370
    15
100
AcDbCircle
 10
41.87674999999999
 20
0.0000000000000068
 30
0.0
 40
2.381250000000006
100
AcDbArc
 50
27.85617637447586
 51
43.76921769331613
  0
SPLINE
  5
A9
330
1F
100
AcDbEntity
  8
0
  6
Continuous
 62
     1
370
    15
100
AcDbSpline
210
0.0
220
0.0
230
1.0
 70
     8
 71
     3
 72
    10
 73
     6
 74
     0
 42
0.000000001
 43
0.00000001
 40
0.0
 40
0.0
 40
0.0
 40
0.0
 40
0.4640757207503473
 40
0.9278724431707598
 40
0.9999999999999999
 40
0.9999999999999999
 40
0.9999999999999999
 40
0.9999999999999999
 10
42.16695137398351
 20
2.048740973106623
 30
0.0
 10
41.94237335674958
 20
2.155944510427561
 30
0.0
 10
41.4933523366532
 20
2.370287135225288
 30
0.0
 10
41.01727426601418
 20
2.521167996359102
 30
0.0
 10
40.76723282643645
 20
2.528588181668229
 30
0.0
 10
40.73358091171436
 20
2.529586829906962
 30
0.0
  0
SPLINE
  5
AA
330
1F
100
AcDbEntity
  8
0
  6
Continuous
 62
     1
370
    15
100
AcDbSpline
210
0.0
220
0.0
230
1.0
 70
     8
 71
     3
 72
    26
 73
    22
 74
     0
 42
0.000000001
 43
0.00000001
 40
0.0
 40
0.0
 40
0.0
 40
0.0
 40
0.0506362480180851
 40
0.1026468826020824
 40
0.156126509916655
 40
0.2088397514836808
 40
0.263039381641421
 40
0.3165061799834825
 40
0.3714787404307674
 40
0.4257419333348197
 40
0.4815320035255415
 40
0.5366270949600049
 40
0.5932716382840079
 40
0.6492274927736483
 40
0.7067565136001472
 40
0.7635974177416527
 40
0.8220361484957615
 40
0.8797826470262641
 40
0.9391524124606622
 40
0.9978220660059411
 40
1.0
 40
1.0
 40
1.0
 40
1.0
 10
33.45319932665159
 20
-3.052724655674209
 30
0.0
 10
33.26630533136174
 20
-3.169747309642422
 30
0.0
 10
32.88744459928896
 20
-3.406968886947459
 30
0.0
 10
32.31951678136323
 20
-3.589774624058965
 30
0.0
 10
31.74963337767075
 20
-3.630880740592841
 30
0.0
 10
31.17844261571793
 20
-3.510286157143614
 30
0.0
 10
30.61301807349084
 20
-3.2354296637515
 30
0.0
 10
30.04589943727897
 20
-2.810392283761971
 30
0.0
 10
29.48402993431448
 20
-2.25630611462842
 30
0.0
 10
28.92020843512856
 20
-1.586464447266912
 30
0.0
 10
28.36124671780794
 20
-0.8353328810108387
 30
0.0
 10
27.80008175395453
 20
-0.0224223513656707
 30
0.0
 10
27.24352237097757
 20
0.8097557126792003
 30
0.0
 10
26.68450790761845
 20
1.638629997886587
 30
0.0
 10
26.1299546415692
 20
2.420209019057252
 30
0.0
 10
25.57268583576255
 20
3.132814564680208
 30
0.0
 10
25.01984583162661
 20
3.736219758488138
 30
0.0
 10
24.46390690916418
 20
4.219014881463419
 30
0.0
 10
23.91291462095219
 20
4.528272434499067
 30
0.0
 10
23.53793646961939
 20
4.677767495048712
 30
0.0
 10
23.35046750046848
 20
4.671782327765834
 30
0.0
 10
23.34375737345677
 20
4.671568099070619
 30
0.0
  0
SPLINE
  5
AB
330
1F
100
AcDbEntity
  8
0
  6
Continuous
 62
     1
370
    15
100
AcDbSpline
210
0.0
220
0.0
230
1.0
 70
     8
 71
     3
 72
    12
 73
     8
 74
     0
 42
0.000000001
 43
0.00000001
 40
0.0
 40
0.0
 40
0.0
 40
0.0
 40
0.1431440178447626
 40
0.3696310009866961
 40
0.5932705243614481
 40
0.8232091176664454
 40
1.0
 40
1.0
 40
1.0
 40
1.0
 10
14.92691002038079
 20
-5.525725020955131
 30
0.0
 10
14.80943668581767
 20
-5.594320871045695
 30
0.0
 10
14.50609333345417
 20
-5.771451240265919
 30
0.0
 10
14.02417270758319
 20
-5.834810067312871
 30
0.0
 10
13.4756236779966
 20
-5.730175267970308
 30
0.0
 10
12.97086866322196
 20
-5.450638523481138
 30
0.0
 10
12.64823668284676
 20
-5.148627695981891
 30
0.0
 10
12.508
 20
-5.01735429716059
 30
0.0
  0
SPLINE
  5
B3
330
1F
100
AcDbEntity
  8
0
  6
Continuous
 62
     1
370
    15
100
AcDbSpline
210
0.0
220
0.0
230
1.0
 70
     8
 71
     3
 72
    15
 73
    11
 74
     0
 42
0.000000001
 43
0.00000001
 40
0.0
 40
0.0
 40
0.0
 40
0.0
 40
0.1313149667632668
 40
0.3147661099236747
 40
0.4092410045768624
 40
0.5037150126030527
 40
0.6868936812522235
 40
0.7813046721634814
 40
0.8757146601965433
 40
1.0
 40
1.0
 40
1.0
 40
1.0
 10
12.508
 20
-3.085084853414716
 30
0.0
 10
12.64457938082884
 20
-3.297068133344866
 30
0.0
 10
12.97196445702339
 20
-3.805198729857643
 30
0.0
 10
13.40216665878177
 20
-4.359322104163584
 30
0.0
 10
13.79562182020323
 20
-4.781467916084481
 30
0.0
 10
14.19053172943203
 20
-5.140223890358045
 30
0.0
 10
14.58899986510557
 20
-5.403695665022299
 30
0.0
 10
14.98952665855493
 20
-5.557717275190869
 30
0.0
 10
15.32791071677451
 20
-5.638109864977843
 30
0.0
 10
15.56697859598302
 20
-5.607969318574084
 30
0.0
 10
15.70284172985725
 20
-5.590840337865115
 30
0.0
  0
SPLINE
  5
B4
330
1F
100
AcDbEntity
  8
0
  6
Continuous
 62
     1
370
    15
100
AcDbSpline
210
0.0
220
0.0
230
1.0
 70
     8
 71
     3
 72
    24
 73
    20
 74
     0
 42
0.000000001
 43
0.00000001
 40
0.0
 40
0.0
 40
0.0
 40
0.0
 40
0.0171252545835049
 40
0.0832124271731815
 40
0.1464670798261969
 40
0.2116069712071438
 40
0.2739671878872744
 40
0.3381856613646416
 40
0.3996708696109085
 40
0.4629870990198635
 40
0.5236270959990198
 40
0.5860714785627624
 40
0.6458999594437318
 40
0.7075070868154179
 40
0.7665613289510812
 40
0.8273697146244535
 40
0.8856854915123962
 40
0.9457317160801348
 40
1.0
 40
1.0
 40
1.0
 40
1.0
 10
24.32000574517477
 20
4.274300378758654
 30
0.0
 10
24.37466519371177
 20
4.300478475511243
 30
0.0
 10
24.64025805591029
 20
4.427679093693907
 30
0.0
 10
25.11455432566778
 20
4.465841532663311
 30
0.0
 10
25.74915941853403
 20
4.377361669744069
 30
0.0
 10
26.37930108449237
 20
4.093138688824086
 30
0.0
 10
27.01934152141854
 20
3.640281048711791
 30
0.0
 10
27.65461340372218
 20
3.047514033328034
 30
0.0
 10
28.30018895874737
 20
2.331890818857886
 30
0.0
 10
28.94101936316408
 20
1.543521988363391
 30
0.0
 10
29.59253124542147
 20
0.702342796418713
 30
0.0
 10
30.23944572382402
 20
-0.1334883782280667
 30
0.0
 10
30.89734041418448
 20
-0.9433762167947839
 30
0.0
 10
31.55093165423457
 20
-1.672051332237734
 30
0.0
 10
32.21575879227544
 20
-2.301769490697477
 30
0.0
 10
32.87654848218481
 20
-2.791565674409572
 30
0.0
 10
33.54905368853089
 20
-3.125912975944775
 30
0.0
 10
34.20440733636006
 20
-3.298617752344923
 30
0.0
 10
34.64505925212813
 20
-3.270302916988211
 30
0.0
 10
34.85424900057836
 20
-3.256861075312891
 30
0.0
  0
SPLINE
  5
B5
330
1F
100
AcDbEntity
  8
0
  6
Continuous
 62
     1
370
    15
100
AcDbSpline
210
0.0
220
0.0
230
1.0
 70
     8
 71
     3
 72
    13
 73
     9
 74
     0
 42
0.000000001
 43
0.00000001
 40
0.0
 40
0.0
 40
0.0
 40
0.0
 40
0.0901028517148966
 40
0.2816949051447155
 40
0.4678842408101193
 40
0.6599566895354239
 40
0.8280817986499026
 40
1.0
 40
1.0
 40
1.0
 40
1.0
 10
42.31831359927502
 20
1.959738037532736
 30
0.0
 10
42.3657516662489
 20
1.975144726560081
 30
0.0
 10
42.51406064340247
 20
2.023311745933507
 30
0.0
 10
42.7557994469155
 20
2.036531615628019
 30
0.0
 10
43.04064998754227
 20
1.997022468576196
 30
0.0
 10
43.29493368902678
 20
1.890680138998777
 30
0.0
 10
43.51975787842671
 20
1.735531323084494
 30
0.0
 10
43.63275785752333
 20
1.604291566981449
 30
0.0
 10
43.68988808935277
 20
1.537939716730269
 30
0.0
  0
SPLINE
  5
B6
330
1F
100
AcDbEntity
  8
0
  6
Continuous
 62
     1
370
    15
100
AcDbSpline
210
0.0
220
0.0
230
1.0
 70
     8
 71
     3
 72
    12
 73
     8
 74
     0
 42
0.000000001
 43
0.00000001
 40
0.0
 40
0.0
 40
0.0
 40
0.0
 40
0.0589260954669675
 40
0.3441239326712564
 40
0.6311712174254843
 40
0.8749675023168703
 40
1.0
 40
1.0
 40
1.0
 40
1.0
 10
42.86144560847816
 20
1.27375574021325
 30
0.0
 10
42.87877268219867
 20
1.262992948429256
 30
0.0
 10
42.97996147984654
 20
1.200139059912138
 30
0.0
 10
43.18943061138714
 20
1.181431630073738
 30
0.0
 10
43.44031849394737
 20
1.242972838789079
 30
0.0
 10
43.60433877900697
 20
1.390065227568194
 30
0.0
 10
43.66822928682
 20
1.500501842042273
 30
0.0
 10
43.68988808935256
 20
1.537939716730302
 30
0.0
  0
SPLINE
  5
B7
330
1F
100
AcDbEntity
  8
0
  6
Continuous
 62
     1
370
    15
100
AcDbSpline
210
0.0
220
0.0
230
1.0
 70
     8
 71
     3
 72
     8
 73
     4
 74
     0
 42
0.000000001
 43
0.00000001
 40
0.0
 40
0.0
 40
0.0
 40
0.0
 40
1.0
 40
1.0
 40
1.0
 40
1.0
 10
42.92647711765365
 20
1.508785433116079
 30
0.0
 10
42.67117028177181
 20
1.721527432711278
 30
0.0
 10
42.42069062129829
 20
1.913668981460122
 30
0.0
 10
42.16695137398351
 20
2.048740973106625
 30
0.0
  0
LINE
  5
B8
330
1F
100
AcDbEntity
  8
0
  6
Continuous
 62
     4
370
    15
100
AcDbLine
 10
12.508
 20
5.366314893304876
 30
0.0
 11
12.508
 21
-3.085084853424621
 31
0.0
  0
SPLINE
  5
B9
330
1F
100
AcDbEntity
  8
0
  6
Continuous
 62
     1
370
    15
100
AcDbSpline
210
0.0
220
0.0
230
1.0
 70
     8
 71
     3
 72
    25
 73
    21
 74
     0
 42
0.000000001
 43
0.00000001
 40
0.0
 40
0.0
 40
0.0
 40
0.0
 40
0.0457848323042053
 40
0.1015292600813543
 40
0.1588841055643344
 40
0.2147275465492946
 40
0.2721714343687872
 40
0.3283448796849119
 40
0.3861193312302031
 40
0.4427889198710689
 40
0.5010672681422232
 40
0.5583555244133425
 40
0.617265370539581
 40
0.6752651627265023
 40
0.7349031059142517
 40
0.7936864120753955
 40
0.8541272682752958
 40
0.913750905201536
 40
0.9750536965907899
 40
1.0
 40
1.0
 40
1.0
 40
1.0
 10
39.39260735223503
 20
-2.285196591199626
 30
0.0
 10
39.22012141958791
 20
-2.390718594045126
 30
0.0
 10
38.83762861062123
 20
-2.624716849188285
 30
0.0
 10
38.25046021003531
 20
-2.839044665972846
 30
0.0
 10
37.63369422866721
 20
-2.934685973538457
 30
0.0
 10
37.01964216879626
 20
-2.874216647976379
 30
0.0
 10
36.41775508420679
 20
-2.664390552115368
 30
0.0
 10
35.81689858758386
 20
-2.309210247083335
 30
0.0
 10
35.2262324022559
 20
-1.829766285378589
 30
0.0
 10
34.63557000360461
 20
-1.240148930841188
 30
0.0
 10
34.053584302293
 20
-0.5750004493999078
 30
0.0
 10
33.47091735983911
 20
0.1452452335425897
 30
0.0
 10
32.89573991089998
 20
0.8785011097127378
 30
0.0
 10
32.31942785094321
 20
1.601743834805719
 30
0.0
 10
31.74965339910234
 20
2.272881000626656
 30
0.0
 10
31.17845071998456
 20
2.869511534139209
 30
0.0
 10
30.61296357042972
 20
3.359442544046177
 30
0.0
 10
30.04610803785235
 20
3.713931725742186
 30
0.0
 10
29.59356458401397
 20
3.908661735979341
 30
0.0
 10
29.32960063638672
 20
3.92520528816148
 30
0.0
 10
29.25325288175823
 20
3.929990271391345
 30
0.0
  0
SPLINE
  5
BA
330
1F
100
AcDbEntity
  8
0
  6
Continuous
 62
     1
370
    15
100
AcDbSpline
210
0.0
220
0.0
230
1.0
 70
     8
 71
     3
 72
    24
 73
    20
 74
     0
 42
0.000000001
 43
0.00000001
 40
0.0
 40
0.0
 40
0.0
 40
0.0
 40
0.0074300164396449
 40
0.0673645859603935
 40
0.1265869791894731
 40
0.187475168347739
 40
0.2476347430277378
 40
0.3094868493475993
 40
0.3705925690707694
 40
0.4334178316991976
 40
0.4954778137193346
 40
0.5592845948578116
 40
0.6223062493247031
 40
0.6871021794300887
 40
0.7510923208693508
 40
0.8168844148748844
 40
0.8818493516721735
 40
0.9486441022417553
 40
1.0
 40
1.0
 40
1.0
 40
1.0
 10
21.22759298065917
 20
-4.691768504635917
 30
0.0
 10
21.20441328808213
 20
-4.70938171950489
 30
0.0
 10
20.99425353866217
 20
-4.869072742629539
 30
0.0
 10
20.60411315572588
 20
-5.00949776782274
 30
0.0
 10
20.05176590682809
 20
-5.08809059106762
 30
0.0
 10
19.50429204765456
 20
-4.964757025660858
 30
0.0
 10
18.95299235835304
 20
-4.659970377168131
 30
0.0
 10
18.40606490302046
 20
-4.179334407728321
 30
0.0
 10
17.85542530307886
 20
-3.532962436066808
 30
0.0
 10
17.30904658776
 20
-2.748525823152803
 30
0.0
 10
16.75899683031028
 20
-1.842384641936206
 30
0.0
 10
16.21310250444076
 20
-0.8558392954268033
 30
0.0
 10
15.66360443249382
 20
0.1894925232019961
 30
0.0
 10
15.11813709363707
 20
1.244632733704174
 30
0.0
 10
14.56916483052467
 20
2.285406197984122
 30
0.0
 10
14.02406320593599
 20
3.262786958353159
 30
0.0
 10
13.4756538954597
 20
4.150114345111471
 30
0.0
 10
12.97086304211435
 20
4.8608766563813
 30
0.0
 10
12.64823497980322
 20
5.213180781272565
 30
0.0
 10
12.508
 20
5.366314893304877
 30
0.0
  0
SPLINE
  5
BE
330
1F
100
AcDbEntity
  8
0
  6
Continuous
 62
     1
370
    15
100
AcDbSpline
210
0.0
220
0.0
230
1.0
 70
    24
 71
     3
 72
    10
 73
     6
 74
     0
 42
0.000000001
 43
0.00000001
 40
0.0
 40
0.0
 40
0.0
 40
0.0
 40
0.1700354709357296
 40
0.8180226324568002
 40
1.0
 40
1.0
 40
1.0
 40
1.0
 10
12.50799999999979
 20
5.419658713099626
 30
0.0
 10
12.50799999999976
 20
5.457678993037675
 30
0.0
 10
12.50799999999958
 20
5.64059053090982
 30
0.0
 10
12.50800000000003
 20
5.835350531337834
 30
0.0
 10
12.508
 20
5.973999138287304
 30
0.0
 10
12.508
 20
6.004399122410291
 30
0.0
  0
SPLINE
  5
BF
330
1F
100
AcDbEntity
  8
0
  6
Continuous
 62
     1
370
    15
100
AcDbSpline
210
0.0
220
0.0
230
1.0
 70
     8
 71
     3
 72
    30
 73
    26
 74
     0
 42
0.000000001
 43
0.00000001
 40
0.0
 40
0.0
 40
0.0
 40
0.0
 40
0.0457673336377091
 40
0.1097057397630207
 40
0.1426331670819103
 40
0.1755602853838263
 40
0.2394037257015765
 40
0.2723088805868685
 40
0.3052136859380433
 40
0.3681338894921994
 40
0.4005634306633464
 40
0.4329926354695662
 40
0.4949935966416634
 40
0.5269493587779869
 40
0.5589048096931281
 40
0.6199991237209124
 40
0.6514876467641513
 40
0.6829758867738971
 40
0.743176445467192
 40
0.774204442736653
 40
0.805232175689901
 40
0.8645505999448093
 40
0.9256392253324367
 40
0.9840850863750357
 40
1.0
 40
1.0
 40
1.0
 40
1.0
 10
12.508
 20
6.004399122403107
 30
0.0
 10
12.64457940788121
 20
5.97317042262815
 30
0.0
 10
12.97196454892115
 20
5.898314245998578
 30
0.0
 10
13.40216622871894
 20
5.641773145863667
 30
0.0
 10
13.79562258677697
 20
5.319111750574928
 30
0.0
 10
14.19052765285143
 20
4.932207949205278
 30
0.0
 10
14.58902476755696
 20
4.456595166621881
 30
0.0
 10
14.98948262077125
 20
3.906314098164419
 30
0.0
 10
15.38892791561546
 20
3.314686499630473
 30
0.0
 10
15.79074097830799
 20
2.666091255471401
 30
0.0
 10
16.19300264524473
 20
1.981399065234595
 30
0.0
 10
16.59438452523418
 20
1.281802759216793
 30
0.0
 10
16.99808780442041
 20
0.5645447497610337
 30
0.0
 10
17.40230049137779
 20
-0.147403306066179
 30
0.0
 10
17.80574633484678
 20
-0.8461676843171064
 30
0.0
 10
18.21140247552601
 20
-1.521614380114722
 30
0.0
 10
18.61777110516174
 20
-2.152026877835861
 30
0.0
 10
19.02338831438612
 20
-2.743880445600989
 30
0.0
 10
19.43115827610503
 20
-3.27586819069648
 30
0.0
 10
19.8398433860144
 20
-3.731062150179902
 30
0.0
 10
20.24774842465053
 20
-4.128397485776672
 30
0.0
 10
20.76102819357747
 20
-4.521258973115459
 30
0.0
 10
21.37409703207818
 20
-4.781335149232347
 30
0.0
 10
21.84167302221063
 20
-4.872858653228584
 30
0.0
 10
22.10205000796976
 20
-4.813379503685206
 30
0.0
 10
22.15777666300814
 20
-4.800649599623543
 30
0.0
  0
SPLINE
  5
C0
330
1F
100
AcDbEntity
  8
0
  6
Continuous
 62
     1
370
    15
100
AcDbSpline
210
0.0
220
0.0
230
1.0
 70
     8
 71
     3
 72
    23
 73
    19
 74
     0
 42
0.000000001
 43
0.00000001
 40
0.0
 40
0.0
 40
0.0
 40
0.0
 40
0.0472142893838034
 40
0.1159166090495252
 40
0.181772031853834
 40
0.2495836200436852
 40
0.3146155297631387
 40
0.381577179996946
 40
0.4458284690294268
 40
0.5119838875632294
 40
0.5755033614408723
 40
0.6409025573377949
 40
0.7037422598507198
 40
0.7684389685836012
 40
0.8306496100165737
 40
0.8946965280102709
 40
0.9563197040960458
 40
1.0
 40
1.0
 40
1.0
 40
1.0
 10
30.43776239931133
 20
3.447924632631768
 30
0.0
 10
30.58894442992553
 20
3.508321001912911
 30
0.0
 10
30.9601140179196
 20
3.656601160681427
 30
0.0
 10
31.55109943396426
 20
3.687228394262806
 30
0.0
 10
32.21570528085866
 20
3.565403298613648
 30
0.0
 10
32.87659229854484
 20
3.271565251405381
 30
0.0
 10
33.54893459988936
 20
2.825028611281042
 30
0.0
 10
34.21755603868296
 20
2.259170337115387
 30
0.0
 10
34.89806299178073
 20
1.594009714930412
 30
0.0
 10
35.5750906699221
 20
0.8804168646993533
 30
0.0
 10
36.26438812154137
 20
0.1424594978263569
 30
0.0
 10
36.95051203372157
 20
-0.5637642755292729
 30
0.0
 10
37.64924585207148
 20
-1.214546656446964
 30
0.0
 10
38.3451792433816
 20
-1.760145272175485
 30
0.0
 10
39.05392960544581
 20
-2.184530516573655
 30
0.0
 10
39.76043819861231
 20
-2.448673963414784
 30
0.0
 10
40.40385613827934
 20
-2.561210709146759
 30
0.0
 10
40.8103098140099
 20
-2.511919301872727
 30
0.0
 10
40.97890840332224
 20
-2.491473031540233
 30
0.0
  0
SPLINE
  5
C1
330
1F
100
AcDbEntity
  8
0
  6
Continuous
 62
     1
370
    15
100
AcDbSpline
210
0.0
220
0.0
230
1.0
 70
     8
 71
     3
 72
    19
 73
    15
 74
     0
 42
0.000000001
 43
0.00000001
 40
0.0
 40
0.0
 40
0.0
 40
0.0
 40
0.0870389462841403
 40
0.1740255655027465
 40
0.2635234031612255
 40
0.3506163963947962
 40
0.4402540475322682
 40
0.5270035817991817
 40
0.6162592497107832
 40
0.703162868430735
 40
0.7925571041154831
 40
0.8799742759056909
 40
0.9698829351911831
 40
1.0
 40
1.0
 40
1.0
 40
1.0
 10
42.16695137398351
 20
-2.044956770320715
 30
0.0
 10
41.94218838317127
 20
-1.958562106190193
 30
0.0
 10
41.49279752712279
 20
-1.785824717657797
 30
0.0
 10
40.82667914218929
 20
-1.357494786269428
 30
0.0
 10
40.17027387638133
 20
-0.8325115098594171
 30
0.0
 10
39.51796939388672
 20
-0.2230502075251664
 30
0.0
 10
38.88196765269795
 20
0.4206838375931536
 30
0.0
 10
38.25027761187846
 20
1.073420109533825
 30
0.0
 10
37.63373687059829
 20
1.687676783973031
 30
0.0
 10
37.01965009079725
 20
2.24050983311082
 30
0.0
 10
36.41767775330857
 20
2.696901199462962
 30
0.0
 10
35.81719515610849
 20
3.026903501425352
 30
0.0
 10
35.35459671113515
 20
3.205634836218981
 30
0.0
 10
35.09117569747615
 20
3.220157919307254
 30
0.0
 10
35.02507763557952
 20
3.223802076740121
 30
0.0
  0
SPLINE
  5
C2
330
1F
100
AcDbEntity
  8
0
  6
Continuous
 62
     1
370
    15
100
AcDbSpline
210
0.0
220
0.0
230
1.0
 70
     8
 71
     3
 72
    27
 73
    23
 74
     0
 42
0.000000001
 43
0.00000001
 40
0.0
 40
0.0
 40
0.0
 40
0.0
 40
0.0142516883570823
 40
0.0648448336012311
 40
0.1168603757277039
 40
0.1682537490443837
 40
0.2210918161223099
 40
0.2733039932777069
 40
0.3269838663335212
 40
0.3800307249743755
 40
0.4345688659955416
 40
0.488464118150456
 40
0.5438747252703223
 40
0.5986303342043021
 40
0.6549257763773396
 40
0.7105522844182856
 40
0.767743444030994
 40
0.8242502294243551
 40
0.8823467787522832
 40
0.9397422608359025
 40
0.9987528780403887
 40
1.0
 40
1.0
 40
1.0
 40
1.0
 10
27.3991015699053
 20
-3.856526944323795
 30
0.0
 10
27.34674406575149
 20
-3.895934260277584
 30
0.0
 10
27.10851870188136
 20
-4.075236584442197
 30
0.0
 10
26.68477485719177
 20
-4.247967526132624
 30
0.0
 10
26.12988164824304
 20
-4.35344597325014
 30
0.0
 10
25.57271204521961
 20
-4.277689030275012
 30
0.0
 10
25.01981522336148
 20
-4.035668835918417
 30
0.0
 10
24.46400282096207
 20
-3.626673537308644
 30
0.0
 10
23.91255230496962
 20
-3.069377273788393
 30
0.0
 10
23.35793243227795
 20
-2.375369841190838
 30
0.0
 10
22.80769301042842
 20
-1.577038002522763
 30
0.0
 10
22.25408532868905
 20
-0.6931617451262204
 30
0.0
 10
21.70487693215753
 20
0.2338677694712907
 30
0.0
 10
21.15214210227671
 20
1.181112873134639
 30
0.0
 10
20.60381280685443
 20
2.10224111778642
 30
0.0
 10
20.05184995759518
 20
2.973462108384848
 30
0.0
 10
19.50426404511619
 20
3.7516716003684
 30
0.0
 10
18.95302059761113
 20
4.414001822233512
 30
0.0
 10
18.40597833284746
 20
4.933469008225711
 30
0.0
 10
17.85574196441003
 20
5.26678575920031
 30
0.0
 10
17.48674497788078
 20
5.424245484215336
 30
0.0
 10
17.29977241046519
 20
5.41548753121681
 30
0.0
 10
17.29590273998131
 20
5.415306272582528
 30
0.0
  0
LINE
  5
C3
330
1F
100
AcDbEntity
  8
0
  6
Continuous
 62
     1
370
    15
100
AcDbLine
 10
12.508
 20
6.005161844891073
 30
0.0
 11
12.508
 21
6.004399122410291
 31
0.0
  0
SPLINE
  5
C4
330
1F
100
AcDbEntity
  8
0
  6
Continuous
 62
     1
370
    15
100
AcDbSpline
210
0.0
220
0.0
230
1.0
 70
     8
 71
     3
 72
    27
 73
    23
 74
     0
 42
0.000000001
 43
0.00000001
 40
0.0
 40
0.0
 40
0.0
 40
0.0
 40
0.0224288549663314
 40
0.0545435481205313
 40
0.0866579526129298
 40
0.1480556392396348
 40
0.1797006487603988
 40
0.2113453887088469
 40
0.2718433990703097
 40
0.3341468121850367
 40
0.3937549078374963
 40
0.4551413457453937
 40
0.5138782858256054
 40
0.5743669462580921
 40
0.6322529649141707
 40
0.6918647242606657
 40
0.7489215022062046
 40
0.8076787977099374
 40
0.8639287791187641
 40
0.9218549399230784
 40
0.9773156487674771
 40
1.0
 40
1.0
 40
1.0
 40
1.0
 10
18.09383479154707
 20
5.10011593950435
 30
0.0
 10
18.16532258767321
 20
5.131636934643211
 30
0.0
 10
18.33916998442576
 20
5.208291178372742
 30
0.0
 10
18.61786296055626
 20
5.232929143610917
 30
0.0
 10
19.02333738579718
 20
5.224360842368446
 30
0.0
 10
19.43116534618758
 20
5.106619392780009
 30
0.0
 10
19.83984404718262
 20
4.893935714470405
 30
0.0
 10
20.24773755061204
 20
4.618862480792512
 30
0.0
 10
20.76111925206755
 20
4.163718085125529
 30
0.0
 10
21.37375847094459
 20
3.471338880420459
 30
0.0
 10
21.99572580811617
 20
2.649388488833986
 30
0.0
 10
22.61216333559567
 20
1.752222095464956
 30
0.0
 10
23.23821136270539
 20
0.7977625430480381
 30
0.0
 10
23.85875954153942
 20
-0.1522325281490175
 30
0.0
 10
24.48913609713392
 20
-1.079523396963878
 30
0.0
 10
25.11423748871256
 20
-1.924882929407503
 30
0.0
 10
25.74924019942167
 20
-2.673214872927601
 30
0.0
 10
26.37930098039277
 20
-3.276524729869306
 30
0.0
 10
27.01926751330055
 20
-3.729092609083893
 30
0.0
 10
27.65491554882931
 20
-3.989095547432712
 30
0.0
 10
28.16902084968955
 20
-4.085231954880536
 30
0.0
 10
28.46883515497381
 20
-4.028674687574234
 30
0.0
 10
28.5558667984188
 20
-4.012256952210476
 30
0.0
  0
SPLINE
  5
C5
330
1F
100
AcDbEntity
  8
0
  6
Continuous
 62
     1
370
    15
100
AcDbSpline
210
0.0
220
0.0
230
1.0
 70
     8
 71
     3
 72
    16
 73
    12
 74
     0
 42
0.000000001
 43
0.00000001
 40
0.0
 40
0.0
 40
0.0
 40
0.0
 40
0.0950598506884745
 40
0.2184615481309051
 40
0.3455099483828616
 40
0.4676763248107604
 40
0.5934486961034584
 40
0.7144614352903487
 40
0.839042976697274
 40
0.9190106897375303
 40
1.0
 40
1.0
 40
1.0
 40
1.0
 10
36.4415287053199
 20
2.657871315294564
 30
0.0
 10
36.61433156254009
 20
2.724930454243601
 30
0.0
 10
37.01145799853131
 20
2.879042239661209
 30
0.0
 10
37.64943099604024
 20
2.928121980331586
 30
0.0
 10
38.3451181817186
 20
2.833385149156073
 30
0.0
 10
39.05399297311128
 20
2.571928262476127
 30
0.0
 10
39.76024292795042
 20
2.175176733718915
 30
0.0
 10
40.47962677138035
 20
1.660839667235552
 30
0.0
 10
41.1184455532992
 20
1.138926877741294
 30
0.0
 10
41.68339235561828
 20
0.6553758451718971
 30
0.0
 10
42.00508443931453
 20
0.3806317337908401
 30
0.0
 10
42.16695137398351
 20
0.2423877751064346
 30
0.0
  0
SPLINE
  5
C6
330
1F
100
AcDbEntity
  8
0
  6
Continuous
 62
     1
370
    15
100
AcDbSpline
210
0.0
220
0.0
230
1.0
 70
     8
 71
     3
 72
    14
 73
    10
 74
     0
 42
0.000000001
 43
0.00000001
 40
0.0
 40
0.0
 40
0.0
 40
0.0
 40
0.25
 40
0.25
 40
0.5
 40
0.5
 40
0.75
 40
0.75
 40
1.0
 40
1.0
 40
1.0
 40
1.0
 10
42.16695137398351
 20
0.2423877751064344
 30
0.0
 10
42.31297913293336
 20
0.1186261651872117
 30
0.0
 10
42.45541557539094
 20
-0.002341006101216
 30
0.0
 10
42.73814388273108
 20
-0.2327085569159935
 30
0.0
 10
42.87892214799591
 20
-0.3421914532985661
 30
0.0
 10
43.14377609687953
 20
-0.5343205506461984
 30
0.0
 10
43.27158568572624
 20
-0.6195123430863485
 30
0.0
 10
43.50275340889249
 20
-0.7656595475802329
 30
0.0
 10
43.605598101241
 20
-0.8260042207145711
 30
0.0
 10
43.68988808934469
 20
-0.8839370030416379
 30
0.0
  0
SPLINE
  5
C7
330
1F
100
AcDbEntity
  8
0
  6
Continuous
 62
     1
370
    15
100
AcDbSpline
210
0.0
220
0.0
230
1.0
 70
     8
 71
     3
 72
    14
 73
    10
 74
     0
 42
0.000000001
 43
0.00000001
 40
0.0
 40
0.0
 40
0.0
 40
0.0
 40
0.25
 40
0.25
 40
0.5
 40
0.5
 40
0.75
 40
0.75
 40
1.0
 40
1.0
 40
1.0
 40
1.0
 10
42.48031176913786
 20
-1.628870932580353
 30
0.0
 10
42.57169006716474
 20
-1.539759586910266
 30
0.0
 10
42.67409256441481
 20
-1.448472238675023
 30
0.0
 10
42.89017482697927
 20
-1.274230604376343
 30
0.0
 10
43.00632387985842
 20
-1.18932014104462
 30
0.0
 10
43.23659294260147
 20
-1.04213496898523
 30
0.0
 10
43.34989101922615
 20
-0.980434058731969
 30
0.0
 10
43.55016190502145
 20
-0.8984271101750635
 30
0.0
 10
43.63156691661221
 20
-0.8807620724327886
 30
0.0
 10
43.68988808935258
 20
-0.8839370030470994
 30
0.0
  0
SPLINE
  5
C8
330
1F
100
AcDbEntity
  8
0
  6
Continuous
 62
     1
370
    15
100
AcDbSpline
210
0.0
220
0.0
230
1.0
 70
     8
 71
     3
 72
     8
 73
     4
 74
     0
 42
0.000000001
 43
0.00000001
 40
0.0
 40
0.0
 40
0.0
 40
0.0
 40
1.0
 40
1.0
 40
1.0
 40
1.0
 10
42.48031176913153
 20
-1.628870932590022
 30
0.0
 10
42.63258230428573
 20
-1.774701045020746
 30
0.0
 10
42.78091917290179
 20
-1.920346661131286
 30
0.0
 10
42.92647711764819
 20
-2.065496561933346
 30
0.0
  0
SPLINE
  5
C9
330
1F
100
AcDbEntity
  8
0
  6
Continuous
 62
     1
370
    15
100
AcDbSpline
210
0.0
220
0.0
230
1.0
 70
     8
 71
     3
 72
     8
 73
     4
 74
     0
 42
0.000000001
 43
0.00000001
 40
0.0
 40
0.0
 40
0.0
 40
0.0
 40
1.0
 40
1.0
 40
1.0
 40
1.0
 10
42.92647711765353
 20
-2.06549656192455
 30
0.0
 10
42.67117028177171
 20
-2.141561311816203
 30
0.0
 10
42.42069062129825
 20
-2.126667375665245
 30
0.0
 10
42.16695137398351
 20
-2.044956770320716
 30
0.0
  0
LINE
  5
CA
330
1F
100
AcDbEntity
  8
0
  6
Continuous
 62
     1
370
    15
100
AcDbLine
 10
42.16695137398351
 20
2.048740973106624
 30
0.0
 11
42.16695137398351
 21
0.24238777510643
 31
0.0
  0
LINE
  5
CB
330
1F
100
AcDbEntity
  8
0
  6
Continuous
 62
     4
370
    15
100
AcDbLine
 10
12.508
 20
-3.085084853414716
 30
0.0
 11
12.508
 21
-6.005161844891055
 31
0.0
  0
LINE
  5
CF
330
1F
100
AcDbEntity
  8
0
  6
Continuous
 62
     4
370
    15
100
AcDbLine
 10
-56.53200000000003
 20
6.349999999999994
 30
0.0
 11
-56.53200000000003
 21
-6.350000000000005
 31
0.0
  0
LINE
  5
D0
330
1F
100
AcDbEntity
  8
0
  6
Continuous
 62
     4
370
    15
100
AcDbLine
 10
-57.34200000000003
 20
-3.952500000000007
 30
0.0
 11
-57.34200000000003
 21
3.952499999999997
 31
0.0
  0
ARC
  5
D3
330
1F
100
AcDbEntity
  8
0
  6
Continuous
 62
     1
370
    15
100
AcDbCircle
 10
41.2108200692857
 20
1.723570639371518
 30
0.0
 40
1.729049389809034
100
AcDbArc
 50
336.2028175238235
 51
352.8641961226225
  0
LINE
  5
D4
330
1F
100
AcDbEntity
  8
0
  6
Continuous
 62
     1
370
    15
100
AcDbLine
 10
42.79286483465945
 20
1.025898687267591
 30
0.0
 11
44.258
 21
0.000000000000015
 31
0.0
  0
ARC
  5
D5
330
1F
100
AcDbEntity
  8
0
  6
Continuous
 62
     1
370
    15
100
AcDbCircle
 10
42.62754613197944
 20
0.4233699649475599
 30
0.0
 40
1.684524248256133
100
AcDbArc
 50
309.0979517859807
 51
345.4438245247171
  0
ARC
  5
D6
330
1F
100
AcDbEntity
  8
0
  6
Continuous
 62
     1
370
    15
100
AcDbCircle
 10
42.75467267837519
 20
-2.021609294993878
 30
0.0
 40
0.1773213398068414
100
AcDbArc
 50
291.6893661176434
 51
345.6702972829032
  0
ARC
  5
D7
330
1F
100
AcDbEntity
  8
0
  6
Continuous
 62
     1
370
    15
100
AcDbCircle
 10
41.7151006700071
 20
0.1078248606636859
 30
0.0
 40
2.54518431612633
100
AcDbArc
 50
296.5637109237447
 51
357.5719798189149
  0
ARC
  5
D8
330
1F
100
AcDbEntity
  8
0
  6
Continuous
 62
     1
370
    15
100
AcDbCircle
 10
41.90784088669753
 20
0.0057554099021638
 30
0.0
 40
2.350166160632431
100
AcDbArc
 50
359.8596860801181
 51
40.68857568762957
  0
LINE
  5
D9
330
1F
100
AcDbEntity
  8
0
  6
Continuous
 62
     8
370
    15
100
AcDbLine
 10
42.16695137398351
 20
-2.044956770320713
 30
0.0
 11
42.16695137398351
 21
-2.363500523595891
 31
0.0
  0
LINE
  5
DA
102
{ACAD_REACTORS
102
}
330
1F
100
AcDbEntity
  8
중심선
100
AcDbLine
 10
-57.34200000000003
 20
-0.0000000000000051
 30
0.0
 11
48.16695137398349
 21
-0.0000000000000057
 31
0.0
  0
CIRCLE
  5
DB
330
1F
100
AcDbEntity
  8
외형선
100
AcDbCircle
 10
0.0
 20
0.0
 30
0.0
 40
3.0
  0
INSERT
  5
DC
330
1F
100
AcDbEntity
  8
0
  6
Continuous
 62
     7
100
AcDbBlockReference
 66
     1
  2
블럭10
 10
-17.80790756408008
 20
-52.05975325537357
 30
0.0
  0
ATTRIB
  5
DD
330
DC
100
AcDbEntity
  8
FORMAT
 62
     2
100
AcDbText
 10
-26.98920285282136
 20
-49.98438634254137
 30
0.0
 40
4.233333333333333
  1
E5078712 [ 3 FLUTE ]
 41
0.75
  7
SLDTEXTSTYLE0
 11
-26.98920285282136
 21
-52.10105300920804
 31
0.0
100
AcDbAttribute
  2
AUTOATTR0
 70
     0
 74
     1
  0
SEQEND
  5
DE
330
DC
100
AcDbEntity
  8
0
  6
Continuous
 62
     7
  0
HATCH
  5
DF
330
1F
100
AcDbEntity
  8
중심선
100
AcDbHatch
 10
0.0
 20
0.0
 30
0.0
210
0.0
220
0.0
230
1.0
  2
SOLID
 70
     1
 71
     0
 91
        1
 92
        0
 93
        4
 72
     1
 10
-12.09299825969923
 20
-35.81257895372963
 11
-15.53927350353651
 21
-35.81257895372963
 72
     1
 10
-15.53927350353651
 20
-35.81257895372963
 11
-17.66750336274053
 21
-38.34890453430223
 72
     1
 10
-17.66750336274053
 20
-38.34890453430223
 11
-14.2211950337901
 21
-38.34886510499974
 72
     1
 10
-14.2211950337901
 20
-38.34886510499974
 11
-12.09299825969923
 21
-35.81257895372963
 97
        0
 75
     0
 76
     1
 98
        1
 10
-16.37513376439864
 20
0.0
  0
HATCH
  5
E0
330
1F
100
AcDbEntity
  8
중심선
100
AcDbHatch
 10
0.0
 20
0.0
 30
0.0
210
0.0
220
0.0
230
1.0
  2
SOLID
 70
     1
 71
     0
 91
        1
 92
        0
 93
        4
 72
     1
 10
-7.080234268663276
 20
-35.81257895372963
 11
-10.52650951250056
 21
-35.81257895372963
 72
     1
 10
-10.52650951250056
 20
-35.81257895372963
 11
-15.05764752085795
 21
-41.21257895372965
 72
     1
 10
-15.05764752085795
 20
-41.21257895372965
 11
-11.61137227702066
 21
-41.21257895372965
 72
     1
 10
-11.61137227702066
 20
-41.21257895372965
 11
-7.080234268663276
 21
-35.81257895372963
 97
        0
 75
     0
 76
     1
 98
        1
 10
-16.37513376439864
 20
0.0
  0
HATCH
  5
E1
330
1F
100
AcDbEntity
  8
중심선
100
AcDbHatch
 10
0.0
 20
0.0
 30
0.0
210
0.0
220
0.0
230
1.0
  2
SOLID
 70
     1
 71
     0
 91
        1
 92
        0
 93
        4
 72
     1
 10
-2.067470277627379
 20
-35.81257895372966
 11
-5.513745521464497
 21
-35.81257895372963
 72
     1
 10
-5.513745521464497
 20
-35.81257895372963
 11
-12.56218242335374
 21
-44.21257895372965
 72
     1
 10
-12.56218242335374
 20
-44.21257895372965
 11
-9.115907179516462
 21
-44.21257895372965
 72
     1
 10
-9.115907179516462
 20
-44.21257895372965
 11
-2.067470277627379
 21
-35.81257895372966
 97
        0
 75
     0
 76
     1
 98
        1
 10
-16.37513376439864
 20
0.0
  0
HATCH
  5
E2
330
1F
100
AcDbEntity
  8
중심선
100
AcDbHatch
 10
0.0
 20
0.0
 30
0.0
210
0.0
220
0.0
230
1.0
  2
SOLID
 70
     1
 71
     0
 91
        1
 92
        0
 93
        6
 72
     3
 10
2.732420153384819
 20
-40.01257895378091
 11
3.960054785062283
 21
1.540882976769353E-10
 40
0.3939339440162628
 50
17.09539180608436
 51
320.0019657685078
 73
     0
 72
     1
 10
4.415419809085414
 20
-38.60047295836794
 11
6.720721682786454
 21
-36.66614624832001
 72
     3
 10
2.732420153331972
 20
-40.01257895372979
 11
6.600054785286829
 21
-1.278976924368180E-13
 40
0.636358354079598
 50
39.99873849337413
 51
368.4976242363724
 73
     1
 72
     1
 10
9.15775264523258
 20
-39.05257895365965
 11
1.412487460167895
 21
-39.05257895365963
 72
     1
 10
1.412487460167895
 20
-39.05257895365963
 11
1.412462415721961
 21
-40.97257895365955
 72
     1
 10
1.412462415721961
 20
-40.97257895365955
 11
5.853842185193997
 21
-40.97257895365952
 97
        0
 75
     0
 76
     1
 98
        1
 10
-16.37513376439864
 20
0.0
  0
DIMENSION
  5
E3
330
1F
100
AcDbEntity
  8
치수문자_일반주서
100
AcDbDimension
  2
_D
 10
12.508
 20
35.92390171923022
 30
0.0
 11
29.18982476444198
 21
35.92390171923022
 31
0.0
 70
   160
  1
<>
 71
     2
 42
31.74999999999997
  3
SLDDIMSTYLE1
100
AcDbAlignedDimension
 13
44.25799999999997
 23
2.443749999999994
 33
0.0
 14
12.508
 24
6.004399122403107
 34
0.0
100
AcDbRotatedDimension
1001
ACAD
1000
DSTYLE
1002
{
1070
   171
1070
     6
1070
   273
1070
     7
1002
}
  0
DIMENSION
  5
F9
330
1F
100
AcDbEntity
  8
치수문자_일반주서
100
AcDbDimension
  2
_D_1
 10
-57.34200000000003
 20
47.5091599926899
 30
0.0
 11
-6.542000000000023
 21
47.5091599926899
 31
0.0
 70
   160
  1
<>
 71
     2
 42
101.6
  3
SLDDIMSTYLE1
100
AcDbAlignedDimension
 13
44.25799999999997
 23
2.381249999999994
 33
0.0
 14
-57.34200000000003
 24
5.539999999999999
 34
0.0
100
AcDbRotatedDimension
1001
ACAD
1000
DSTYLE
1002
{
1070
   171
1070
     6
1070
   273
1070
     7
1002
}
  0
INSERT
  5
124
330
1F
100
AcDbEntity
  8
외형선
100
AcDbBlockReference
  2
SW_DOWELSYMBOL_0
 10
0.0
 20
0.0
 30
0.0
  0
SPLINE
  5
149
330
1F
100
AcDbEntity
  8
0
  6
Continuous
 62
     4
370
    15
100
AcDbSpline
210
0.0
220
0.0
230
1.0
 70
  1064
 71
     3
 72
     9
 73
     5
 74
     3
 42
0.000000001
 43
0.0000000001
 44
0.0
 40
0.0
 40
0.0
 40
0.0
 40
0.0
 40
1.881513685990647
 40
5.056433383931406
 40
5.056433383931406
 40
5.056433383931406
 40
5.056433383931406
 10
12.508
 20
-3.085084853414716
 30
0.0
 10
12.17494325809692
 20
-2.552559412961594
 30
0.0
 10
11.27987709884362
 20
-1.121435400976423
 30
0.0
 10
10.64484794733271
 20
0.4448727007834129
 30
0.0
 10
10.24611500479941
 20
1.428352965968879
 30
0.0
 11
12.508
 21
-3.085084853414716
 31
0.0
 11
11.54483465226296
 21
-1.468790862988253
 31
0.0
 11
10.24611500479941
 21
1.428352965968879
 31
0.0
  0
SPLINE
  5
14A
330
1F
100
AcDbEntity
  8
0
  6
Continuous
 62
     4
370
    15
100
AcDbSpline
210
0.0
220
0.0
230
1.0
 70
  1080
 71
     3
 72
     8
 73
     4
 74
     2
 42
0.000000001
 43
0.0000000001
 44
0.0
 40
0.0
 40
0.0
 40
0.0
 40
0.0
 40
4.397045854121724
 40
4.397045854121724
 40
4.397045854121724
 40
4.397045854121724
 10
12.50799999999962
 20
-4.76249999999999
 30
0.0
 10
11.68743732737065
 20
-3.548045191095504
 30
0.0
 10
10.86687465474169
 20
-2.333590382191017
 30
0.0
 10
10.04631198211272
 20
-1.11913557328653
 30
0.0
 11
12.50799999999962
 21
-4.76249999999999
 31
0.0
 11
10.04631198211272
 21
-1.11913557328653
 31
0.0
  0
LINE
  5
14B
330
1F
100
AcDbEntity
  8
0
  6
Continuous
 62
     4
370
    15
100
AcDbLine
 10
10.24611500479941
 20
1.428352965968879
 30
0.0
 11
10.04631198211272
 21
-1.11913557328653
 31
0.0
  0
DIMENSION
  5
14F
330
1F
100
AcDbEntity
  8
치수문자_일반주서
100
AcDbDimension
  2
*D7
 10
58.65015607514975
 20
2.381249999999993
 30
0.0
 11
56.02515607514975
 21
22.98524999999999
 31
0.0
 70
    32
  1
{%%c<>[]}
 71
     5
 42
4.762499999999999
  3
SLDDIMSTYLE1
100
AcDbAlignedDimension
 13
44.37020532204689
 23
-2.381250000000005
 33
0.0
 14
44.25799999999997
 24
2.381249999999994
 34
0.0
 50
90.0
100
AcDbRotatedDimension
1001
ACAD
1000
DSTYLE
1002
{
1070
   171
1070
     6
1070
   273
1070
     7
1070
   283
1070
     1
1070
   170
1070
     1
1002
}
  0
LINE
  5
173
330
1F
100
AcDbEntity
  8
0
  6
Continuous
 62
     4
370
    15
100
AcDbLine
 10
-56.53200000000003
 20
6.349999999999994
 30
0.0
 11
10.218413762158
 21
6.349999999999994
 31
0.0
  0
LINE
  5
174
330
1F
100
AcDbEntity
  8
0
  6
Continuous
 62
     4
370
    15
100
AcDbLine
 10
-56.53200000000003
 20
-6.350000000000005
 30
0.0
 11
10.218413762158
 21
-6.350000000000005
 31
0.0
  0
LINE
  5
176
330
1F
100
AcDbEntity
  8
0
  6
Continuous
 62
     4
370
    15
100
AcDbLine
 10
-57.34200000000003
 20
5.539999999999999
 30
0.0
 11
-57.34200000000003
 21
-5.540000000000012
 31
0.0
  0
LINE
  5
177
330
1F
100
AcDbEntity
  8
0
  6
Continuous
 62
     4
370
    15
100
AcDbLine
 10
12.50823890231529
 20
6.068844825621349
 30
0.0
 11
10.218413762158
 21
6.349999999999994
 31
0.0
  0
LINE
  5
178
330
1F
100
AcDbEntity
  8
0
  6
Continuous
 62
     4
370
    15
100
AcDbLine
 10
12.50823890231529
 20
-6.06884482562136
 30
0.0
 11
10.218413762158
 21
-6.350000000000005
 31
0.0
  0
LINE
  5
179
330
1F
100
AcDbEntity
  8
0
  6
Continuous
 62
     4
370
    15
100
AcDbLine
 10
10.218413762158
 20
6.349999999999994
 30
0.0
 11
10.218413762158
 21
1.075162122290907
 31
0.0
  0
LINE
  5
17A
330
1F
100
AcDbEntity
  8
0
  6
Continuous
 62
     4
370
    15
100
AcDbLine
 10
10.218413762158
 20
-1.373850833154965
 30
0.0
 11
10.218413762158
 21
-6.350000000000005
 31
0.0
  0
DIMENSION
  5
17B
330
1F
100
AcDbEntity
  8
치수문자_일반주서
100
AcDbDimension
  2
*D9
 10
-81.17008243836135
 20
6.349999999999996
 30
0.0
 11
-83.79508243836135
 21
22.99574999999999
 31
0.0
 70
    32
  1
{%%c<>[]}
 71
     5
 42
12.7
  3
SLDDIMSTYLE1
100
AcDbAlignedDimension
 13
-56.53200000000003
 23
-6.350000000000005
 33
0.0
 14
-56.53200000000003
 24
6.349999999999994
 34
0.0
 50
90.0
100
AcDbRotatedDimension
1001
ACAD
1000
DSTYLE
1002
{
1070
   171
1070
     6
1070
   273
1070
     7
1002
}
  0
DIMENSION
  5
1B0
102
{ACAD_REACTORS
102
}
102
{ACAD_XDICTIONARY
360
1B1
102
}
330
1F
100
AcDbEntity
  8
치수문자_일반주서
100
AcDbDimension
  2
*D10
 10
18.93445503644676
 20
5.216092385078698
 30
0.0
 11
18.73288576318288
 21
14.89155299848084
 31
0.0
 70
    34
  1
<>
 71
     5
 42
0.1221730476396035
  3
SLDDIMSTYLE1
100
AcDb2LineAngularDimension
 13
-57.34200000000003
 23
-0.0000000000000051
 33
0.0
 14
48.16695137398348
 24
-0.0000000000000057
 34
0.0
 15
23.34413598541712
 25
4.674651646037467
 35
0.0
 16
18.9462586637308
 26
1.730514175700936
 36
0.0
1001
ACAD
1000
DSTYLE
1002
{
1070
   171
1070
     6
1070
   273
1070
     7
1002
}
  0
ENDSEC
  0
SECTION
  2
OBJECTS
  0
DICTIONARY
  5
C
330
0
100
AcDbDictionary
281
     1
  3
ACAD_GROUP
350
D
  3
ACAD_IMAGE_VARS
350
148
  3
ACAD_LAYOUT
350
1A
  3
ACAD_MLINESTYLE
350
17
  3
ACAD_PLOTSETTINGS
350
19
  3
ACAD_PLOTSTYLENAME
350
E
  3
ACAD_SCALELIST
350
47
  3
APPDATA
350
146
  3
DWGPROPS
350
1C2
  0
DICTIONARY
  5
1B1
330
1B0
100
AcDbDictionary
280
     1
281
     1
  0
DICTIONARY
  5
D
102
{ACAD_REACTORS
330
C
102
}
330
C
100
AcDbDictionary
281
     1
  0
RASTERVARIABLES
  5
148
102
{ACAD_REACTORS
330
C
102
}
330
C
100
AcDbRasterVariables
 90
        0
 70
     1
 71
     1
 72
     1
  0
DICTIONARY
  5
1A
102
{ACAD_REACTORS
330
C
102
}
330
C
100
AcDbDictionary
281
     1
  3
Layout1
350
1E
  3
Layout2
350
26
  3
Model
350
22
  0
DICTIONARY
  5
17
102
{ACAD_REACTORS
330
C
102
}
330
C
100
AcDbDictionary
281
     1
  3
Standard
350
18
  0
DICTIONARY
  5
19
102
{ACAD_REACTORS
330
C
102
}
330
C
100
AcDbDictionary
281
     1
  0
ACDBDICTIONARYWDFLT
  5
E
102
{ACAD_REACTORS
330
C
102
}
330
C
100
AcDbDictionary
281
     1
  3
Normal
350
F
100
AcDbDictionaryWithDefault
340
F
  0
DICTIONARY
  5
47
102
{ACAD_REACTORS
330
C
102
}
330
C
100
AcDbDictionary
281
     1
  3
A0
350
48
  3
A1
350
49
  3
A2
350
4A
  3
A3
350
4B
  3
A4
350
4C
  3
A5
350
4D
  3
A6
350
4E
  3
A7
350
4F
  3
A8
350
50
  3
A9
350
51
  3
B0
350
52
  3
B1
350
53
  3
B2
350
54
  3
B3
350
55
  3
B4
350
56
  3
B5
350
57
  3
B6
350
58
  3
B7
350
59
  3
B8
350
5A
  3
B9
350
5B
  3
C0
350
5C
  3
C1
350
5D
  3
C2
350
5E
  3
C3
350
5F
  3
C4
350
60
  3
C5
350
61
  3
C6
350
62
  3
C7
350
63
  3
C8
350
64
  3
C9
350
65
  3
D0
350
66
  3
D1
350
67
  3
D2
350
68
  0
DICTIONARY
  5
146
102
{ACAD_REACTORS
330
C
102
}
330
C
100
AcDbDictionary
281
     1
  0
XRECORD
  5
1C2
102
{ACAD_REACTORS
330
C
102
}
330
C
100
AcDbXrecord
280
     1
  1
DWGPROPS COOKIE
  2

  3

  4

  6

  7

  8
12015048
  9

300
=
301
=
302
=
303
=
304
=
305
=
306
=
307
=
308
=
309
=
 40
0.0
 41
2458340.219593704
 42
2458347.380054769
  1

 90
        0
  0
LAYOUT
  5
1E
102
{ACAD_REACTORS
330
1A
102
}
330
1A
100
AcDbPlotSettings
  1

  2
none_device
  4

  6

 40
0.0
 41
0.0
 42
0.0
 43
0.0
 44
0.0
 45
0.0
 46
0.0
 47
0.0
 48
0.0
 49
0.0
140
0.0
141
0.0
142
1.0
143
1.0
 70
   688
 72
     1
 73
     0
 74
     5
  7

 75
    16
147
1.0
148
0.0
149
0.0
100
AcDbLayout
  1
Layout1
 70
     1
 71
     1
 10
0.0
 20
0.0
 11
420.0
 21
297.0
 12
0.0
 22
0.0
 32
0.0
 14
1.000000000000000E+20
 24
1.000000000000000E+20
 34
1.000000000000000E+20
 15
-1.000000000000000E+20
 25
-1.000000000000000E+20
 35
-1.000000000000000E+20
146
0.0
 13
0.0
 23
0.0
 33
0.0
 16
1.0
 26
0.0
 36
0.0
 17
0.0
 27
1.0
 37
0.0
 76
     0
330
1B
  0
LAYOUT
  5
26
102
{ACAD_REACTORS
330
1A
102
}
330
1A
100
AcDbPlotSettings
  1

  2
none_device
  4

  6

 40
0.0
 41
0.0
 42
0.0
 43
0.0
 44
0.0
 45
0.0
 46
0.0
 47
0.0
 48
0.0
 49
0.0
140
0.0
141
0.0
142
1.0
143
1.0
 70
   688
 72
     1
 73
     0
 74
     5
  7

 75
    16
147
1.0
148
0.0
149
0.0
100
AcDbLayout
  1
Layout2
 70
     1
 71
     2
 10
0.0
 20
0.0
 11
0.0
 21
0.0
 12
0.0
 22
0.0
 32
0.0
 14
0.0
 24
0.0
 34
0.0
 15
0.0
 25
0.0
 35
0.0
146
0.0
 13
0.0
 23
0.0
 33
0.0
 16
1.0
 26
0.0
 36
0.0
 17
0.0
 27
1.0
 37
0.0
 76
     0
330
23
  0
LAYOUT
  5
22
102
{ACAD_REACTORS
330
1A
102
}
330
1A
100
AcDbPlotSettings
  1

  2
none_device
  4
ANSI_A_(11.00_x_8.50_Inches)
  6

 40
6.35
 41
19.05
 42
6.35000508
 43
19.05000254
 44
279.4
 45
215.9
 46
142.152347366377
 47
100.0349995745547
 48
0.0
 49
0.0
140
0.0
141
0.0
142
0.0915836148719576
143
1.0
 70
  1696
 72
     0
 73
     0
 74
     0
  7

 75
     0
147
0.0235690232323232
148
0.0
149
0.0
100
AcDbLayout
  1
Model
 70
     1
 71
     0
 10
0.0
 20
0.0
 11
420.0
 21
297.0
 12
0.0
 22
0.0
 32
0.0
 14
-85.54508243836135
 24
-49.98438634254138
 34
0.0
 15
59.20048940848308
 25
51.8841599926899
 35
0.0
146
0.0
 13
0.0
 23
0.0
 33
0.0
 16
1.0
 26
0.0
 36
0.0
 17
0.0
 27
1.0
 37
0.0
 76
     0
330
1F
331
29
  0
MLINESTYLE
  5
18
102
{ACAD_REACTORS
330
17
102
}
330
17
100
AcDbMlineStyle
  2
Standard
 70
     0
  3

 62
   256
 51
90.0
 52
90.0
 71
     2
 49
0.5
 62
   256
  6
BYLAYER
 49
-0.5
 62
   256
  6
BYLAYER
  0
ACDBPLACEHOLDER
  5
F
102
{ACAD_REACTORS
330
E
102
}
330
E
  0
SCALE
  5
48
102
{ACAD_REACTORS
330
47
102
}
330
47
100
AcDbScale
 70
     0
300
1:1
140
1.0
141
1.0
290
     1
  0
SCALE
  5
49
102
{ACAD_REACTORS
330
47
102
}
330
47
100
AcDbScale
 70
     0
300
1:2
140
1.0
141
2.0
290
     0
  0
SCALE
  5
4A
102
{ACAD_REACTORS
330
47
102
}
330
47
100
AcDbScale
 70
     0
300
1:4
140
1.0
141
4.0
290
     0
  0
SCALE
  5
4B
102
{ACAD_REACTORS
330
47
102
}
330
47
100
AcDbScale
 70
     0
300
1:5
140
1.0
141
5.0
290
     0
  0
SCALE
  5
4C
102
{ACAD_REACTORS
330
47
102
}
330
47
100
AcDbScale
 70
     0
300
1:8
140
1.0
141
8.0
290
     0
  0
SCALE
  5
4D
102
{ACAD_REACTORS
330
47
102
}
330
47
100
AcDbScale
 70
     0
300
1:10
140
1.0
141
10.0
290
     0
  0
SCALE
  5
4E
102
{ACAD_REACTORS
330
47
102
}
330
47
100
AcDbScale
 70
     0
300
1:16
140
1.0
141
16.0
290
     0
  0
SCALE
  5
4F
102
{ACAD_REACTORS
330
47
102
}
330
47
100
AcDbScale
 70
     0
300
1:20
140
1.0
141
20.0
290
     0
  0
SCALE
  5
50
102
{ACAD_REACTORS
330
47
102
}
330
47
100
AcDbScale
 70
     0
300
1:30
140
1.0
141
30.0
290
     0
  0
SCALE
  5
51
102
{ACAD_REACTORS
330
47
102
}
330
47
100
AcDbScale
 70
     0
300
1:40
140
1.0
141
40.0
290
     0
  0
SCALE
  5
52
102
{ACAD_REACTORS
330
47
102
}
330
47
100
AcDbScale
 70
     0
300
1:50
140
1.0
141
50.0
290
     0
  0
SCALE
  5
53
102
{ACAD_REACTORS
330
47
102
}
330
47
100
AcDbScale
 70
     0
300
1:100
140
1.0
141
100.0
290
     0
  0
SCALE
  5
54
102
{ACAD_REACTORS
330
47
102
}
330
47
100
AcDbScale
 70
     0
300
2:1
140
2.0
141
1.0
290
     0
  0
SCALE
  5
55
102
{ACAD_REACTORS
330
47
102
}
330
47
100
AcDbScale
 70
     0
300
4:1
140
4.0
141
1.0
290
     0
  0
SCALE
  5
56
102
{ACAD_REACTORS
330
47
102
}
330
47
100
AcDbScale
 70
     0
300
8:1
140
8.0
141
1.0
290
     0
  0
SCALE
  5
57
102
{ACAD_REACTORS
330
47
102
}
330
47
100
AcDbScale
 70
     0
300
10:1
140
10.0
141
1.0
290
     0
  0
SCALE
  5
58
102
{ACAD_REACTORS
330
47
102
}
330
47
100
AcDbScale
 70
     0
300
100:1
140
100.0
141
1.0
290
     0
  0
SCALE
  5
59
102
{ACAD_REACTORS
330
47
102
}
330
47
100
AcDbScale
 70
     0
300
1/128" = 1'-0"
140
0.0078125
141
12.0
290
     0
  0
SCALE
  5
5A
102
{ACAD_REACTORS
330
47
102
}
330
47
100
AcDbScale
 70
     0
300
1/64" = 1'-0"
140
0.015625
141
12.0
290
     0
  0
SCALE
  5
5B
102
{ACAD_REACTORS
330
47
102
}
330
47
100
AcDbScale
 70
     0
300
1/32" = 1'-0"
140
0.03125
141
12.0
290
     0
  0
SCALE
  5
5C
102
{ACAD_REACTORS
330
47
102
}
330
47
100
AcDbScale
 70
     0
300
1/16" = 1'-0"
140
0.0625
141
12.0
290
     0
  0
SCALE
  5
5D
102
{ACAD_REACTORS
330
47
102
}
330
47
100
AcDbScale
 70
     0
300
3/32" = 1'-0"
140
0.09375
141
12.0
290
     0
  0
SCALE
  5
5E
102
{ACAD_REACTORS
330
47
102
}
330
47
100
AcDbScale
 70
     0
300
1/8" = 1'-0"
140
0.125
141
12.0
290
     0
  0
SCALE
  5
5F
102
{ACAD_REACTORS
330
47
102
}
330
47
100
AcDbScale
 70
     0
300
3/16" = 1'-0"
140
0.1875
141
12.0
290
     0
  0
SCALE
  5
60
102
{ACAD_REACTORS
330
47
102
}
330
47
100
AcDbScale
 70
     0
300
1/4" = 1'-0"
140
0.25
141
12.0
290
     0
  0
SCALE
  5
61
102
{ACAD_REACTORS
330
47
102
}
330
47
100
AcDbScale
 70
     0
300
3/8" = 1'-0"
140
0.375
141
12.0
290
     0
  0
SCALE
  5
62
102
{ACAD_REACTORS
330
47
102
}
330
47
100
AcDbScale
 70
     0
300
1/2" = 1'-0"
140
0.5
141
12.0
290
     0
  0
SCALE
  5
63
102
{ACAD_REACTORS
330
47
102
}
330
47
100
AcDbScale
 70
     0
300
3/4" = 1'-0"
140
0.75
141
12.0
290
     0
  0
SCALE
  5
64
102
{ACAD_REACTORS
330
47
102
}
330
47
100
AcDbScale
 70
     0
300
1" = 1'-0"
140
1.0
141
12.0
290
     0
  0
SCALE
  5
65
102
{ACAD_REACTORS
330
47
102
}
330
47
100
AcDbScale
 70
     0
300
1-1/2" = 1'-0"
140
1.5
141
12.0
290
     0
  0
SCALE
  5
66
102
{ACAD_REACTORS
330
47
102
}
330
47
100
AcDbScale
 70
     0
300
3" = 1'-0"
140
3.0
141
12.0
290
     0
  0
SCALE
  5
67
102
{ACAD_REACTORS
330
47
102
}
330
47
100
AcDbScale
 70
     0
300
6" = 1'-0"
140
6.0
141
12.0
290
     0
  0
SCALE
  5
68
102
{ACAD_REACTORS
330
47
102
}
330
47
100
AcDbScale
 70
     0
300
1'-0" = 1'-0"
140
12.0
141
12.0
290
     0
  0
ENDSEC
  0
EOF
