  0
SECTION
  2
HEADER
  9
$ACADVER
  1
AC1015
  9
$ACADMAINTVER
 70
     6
  9
$DWGCODEPAGE
  3
ANSI_949
  9
$INSBASE
 10
0.0
 20
0.0
 30
0.0
  9
$EXTMIN
 10
1.000000000000000E+20
 20
1.000000000000000E+20
 30
1.000000000000000E+20
  9
$EXTMAX
 10
-1.000000000000000E+20
 20
-1.000000000000000E+20
 30
-1.000000000000000E+20
  9
$LIMMIN
 10
0.0
 20
0.0
  9
$LIMMAX
 10
420.0
 20
297.0
  9
$ORTHOMODE
 70
     1
  9
$REGENMODE
 70
     1
  9
$FILLMODE
 70
     1
  9
$QTEXTMODE
 70
     0
  9
$MIRRTEXT
 70
     1
  9
$LTSCALE
 40
1.0
  9
$ATTMODE
 70
     1
  9
$TEXTSIZE
 40
3.5
  9
$TRACEWID
 40
1.0
  9
$TEXTSTYLE
  7
Standard
  9
$CLAYER
  8
0
  9
$CELTYPE
  6
ByLayer
  9
$CECOLOR
 62
   256
  9
$CELTSCALE
 40
1.0
  9
$DISPSILH
 70
     0
  9
$DIMSCALE
 40
1.0
  9
$DIMASZ
 40
3.302
  9
$DIMEXO
 40
1.0
  9
$DIMDLI
 40
3.75
  9
$DIMRND
 40
0.0
  9
$DIMDLE
 40
0.0
  9
$DIMEXE
 40
1.0
  9
$DIMTP
 40
0.0
  9
$DIMTM
 40
0.0
  9
$DIMTXT
 40
3.5
  9
$DIMCEN
 40
2.5
  9
$DIMTSZ
 40
0.0
  9
$DIMTOL
 70
     0
  9
$DIMLIM
 70
     0
  9
$DIMTIH
 70
     1
  9
$DIMTOH
 70
     1
  9
$DIMSE1
 70
     0
  9
$DIMSE2
 70
     0
  9
$DIMTAD
 70
     1
  9
$DIMZIN
 70
     0
  9
$DIMBLK
  1

  9
$DIMASO
 70
     1
  9
$DIMSHO
 70
     1
  9
$DIMPOST
  1

  9
$DIMAPOST
  1

  9
$DIMALT
 70
     0
  9
$DIMALTD
 70
     3
  9
$DIMALTF
 40
0.0393700787401575
  9
$DIMLFAC
 40
1.0
  9
$DIMTOFL
 70
     1
  9
$DIMTVP
 40
0.0
  9
$DIMTIX
 70
     0
  9
$DIMSOXD
 70
     0
  9
$DIMSAH
 70
     0
  9
$DIMBLK1
  1

  9
$DIMBLK2
  1

  9
$DIMSTYLE
  2
ISO-25
  9
$DIMCLRD
 70
     0
  9
$DIMCLRE
 70
     0
  9
$DIMCLRT
 70
     0
  9
$DIMTFAC
 40
1.0
  9
$DIMGAP
 40
1.524
  9
$DIMJUST
 70
     0
  9
$DIMSD1
 70
     0
  9
$DIMSD2
 70
     0
  9
$DIMTOLJ
 70
     0
  9
$DIMTZIN
 70
     0
  9
$DIMALTZ
 70
     0
  9
$DIMALTTZ
 70
     0
  9
$DIMUPT
 70
     0
  9
$DIMDEC
 70
     2
  9
$DIMTDEC
 70
     2
  9
$DIMALTU
 70
     2
  9
$DIMALTTD
 70
     3
  9
$DIMTXSTY
  7
Standard
  9
$DIMAUNIT
 70
     0
  9
$DIMADEC
 70
     2
  9
$DIMALTRND
 40
0.0
  9
$DIMAZIN
 70
     0
  9
$DIMDSEP
 70
    44
  9
$DIMATFIT
 70
     3
  9
$DIMFRAC
 70
     0
  9
$DIMLDRBLK
  1

  9
$DIMLUNIT
 70
     2
  9
$DIMLWD
 70
    -2
  9
$DIMLWE
 70
    -2
  9
$DIMTMOVE
 70
     0
  9
$LUNITS
 70
     2
  9
$LUPREC
 70
     2
  9
$SKETCHINC
 40
1.0
  9
$FILLETRAD
 40
10.0
  9
$AUNITS
 70
     0
  9
$AUPREC
 70
     2
  9
$MENU
  1
.
  9
$ELEVATION
 40
0.0
  9
$PELEVATION
 40
0.0
  9
$THICKNESS
 40
0.0
  9
$LIMCHECK
 70
     0
  9
$CHAMFERA
 40
0.0
  9
$CHAMFERB
 40
0.0
  9
$CHAMFERC
 40
0.0
  9
$CHAMFERD
 40
0.0
  9
$SKPOLY
 70
     0
  9
$TDCREATE
 40
2458323.74539566
  9
$TDUCREATE
 40
2458323.37039566
  9
$TDUPDATE
 40
2458330.445701389
  9
$TDUUPDATE
 40
2458330.070701389
  9
$TDINDWG
 40
0.0007625347
  9
$TDUSRTIMER
 40
2458330.069939155
  9
$USRTIMER
 70
     1
  9
$ANGBASE
 50
0.0
  9
$ANGDIR
 70
     0
  9
$PDMODE
 70
     0
  9
$PDSIZE
 40
-1.0
  9
$PLINEWID
 40
0.0
  9
$SPLFRAME
 70
     0
  9
$SPLINETYPE
 70
     6
  9
$SPLINESEGS
 70
     8
  9
$HANDSEED
  5
289
  9
$SURFTAB1
 70
     6
  9
$SURFTAB2
 70
     6
  9
$SURFTYPE
 70
     6
  9
$SURFU
 70
     6
  9
$SURFV
 70
     6
  9
$UCSBASE
  2

  9
$UCSNAME
  2

  9
$UCSORG
 10
0.0
 20
0.0
 30
0.0
  9
$UCSXDIR
 10
1.0
 20
0.0
 30
0.0
  9
$UCSYDIR
 10
0.0
 20
1.0
 30
0.0
  9
$UCSORTHOREF
  2

  9
$UCSORTHOVIEW
 70
     0
  9
$UCSORGTOP
 10
0.0
 20
0.0
 30
0.0
  9
$UCSORGBOTTOM
 10
0.0
 20
0.0
 30
0.0
  9
$UCSORGLEFT
 10
0.0
 20
0.0
 30
0.0
  9
$UCSORGRIGHT
 10
0.0
 20
0.0
 30
0.0
  9
$UCSORGFRONT
 10
0.0
 20
0.0
 30
0.0
  9
$UCSORGBACK
 10
0.0
 20
0.0
 30
0.0
  9
$PUCSBASE
  2

  9
$PUCSNAME
  2

  9
$PUCSORG
 10
0.0
 20
0.0
 30
0.0
  9
$PUCSXDIR
 10
1.0
 20
0.0
 30
0.0
  9
$PUCSYDIR
 10
0.0
 20
1.0
 30
0.0
  9
$PUCSORTHOREF
  2

  9
$PUCSORTHOVIEW
 70
     0
  9
$PUCSORGTOP
 10
0.0
 20
0.0
 30
0.0
  9
$PUCSORGBOTTOM
 10
0.0
 20
0.0
 30
0.0
  9
$PUCSORGLEFT
 10
0.0
 20
0.0
 30
0.0
  9
$PUCSORGRIGHT
 10
0.0
 20
0.0
 30
0.0
  9
$PUCSORGFRONT
 10
0.0
 20
0.0
 30
0.0
  9
$PUCSORGBACK
 10
0.0
 20
0.0
 30
0.0
  9
$USERI1
 70
     0
  9
$USERI2
 70
     0
  9
$USERI3
 70
     0
  9
$USERI4
 70
     0
  9
$USERI5
 70
     0
  9
$USERR1
 40
0.0
  9
$USERR2
 40
0.0
  9
$USERR3
 40
0.0
  9
$USERR4
 40
0.0
  9
$USERR5
 40
0.0
  9
$WORLDVIEW
 70
     1
  9
$SHADEDGE
 70
     3
  9
$SHADEDIF
 70
    70
  9
$TILEMODE
 70
     1
  9
$MAXACTVP
 70
    64
  9
$PINSBASE
 10
0.0
 20
0.0
 30
0.0
  9
$PLIMCHECK
 70
     0
  9
$PEXTMIN
 10
1.000000000000000E+20
 20
1.000000000000000E+20
 30
1.000000000000000E+20
  9
$PEXTMAX
 10
-1.000000000000000E+20
 20
-1.000000000000000E+20
 30
-1.000000000000000E+20
  9
$PLIMMIN
 10
0.0
 20
0.0
  9
$PLIMMAX
 10
0.0
 20
0.0
  9
$UNITMODE
 70
     0
  9
$VISRETAIN
 70
     1
  9
$PLINEGEN
 70
     0
  9
$PSLTSCALE
 70
     1
  9
$TREEDEPTH
 70
  3020
  9
$CMLSTYLE
  2
Standard
  9
$CMLJUST
 70
     0
  9
$CMLSCALE
 40
20.0
  9
$PROXYGRAPHICS
 70
     1
  9
$MEASUREMENT
 70
     1
  9
$CELWEIGHT
370
    -1
  9
$ENDCAPS
280
     0
  9
$JOINSTYLE
280
     0
  9
$LWDISPLAY
290
     1
  9
$INSUNITS
 70
     4
  9
$HYPERLINKBASE
  1

  9
$STYLESHEET
  1

  9
$XEDIT
290
     1
  9
$CEPSNTYPE
380
     0
  9
$PSTYLEMODE
290
     1
  9
$FINGERPRINTGUID
  2
{9B11C5E7-6CE1-4AE5-B99A-3C463B6D5ABC}
  9
$VERSIONGUID
  2
{FAEB1C32-E019-11D5-929B-00C0DF256EC4}
  9
$EXTNAMES
290
     1
  9
$PSVPSCALE
 40
0.0
  9
$OLESTARTUP
290
     0
  0
ENDSEC
  0
SECTION
  2
CLASSES
  0
CLASS
  1
ACDBDICTIONARYWDFLT
  2
AcDbDictionaryWithDefault
  3
ObjectDBX Classes
 90
        0
280
     0
281
     0
  0
CLASS
  1
VISUALSTYLE
  2
AcDbVisualStyle
  3
ObjectDBX Classes
 90
     4095
280
     0
281
     0
  0
CLASS
  1
MATERIAL
  2
AcDbMaterial
  3
ObjectDBX Classes
 90
     1153
280
     0
281
     0
  0
CLASS
  1
SCALE
  2
AcDbScale
  3
ObjectDBX Classes
 90
     1153
280
     0
281
     0
  0
CLASS
  1
SUN
  2
AcDbSun
  3
SCENEOE
 90
     1153
280
     0
281
     0
  0
CLASS
  1
ACDBPLACEHOLDER
  2
AcDbPlaceHolder
  3
ObjectDBX Classes
 90
        0
280
     0
281
     0
  0
CLASS
  1
LAYOUT
  2
AcDbLayout
  3
ObjectDBX Classes
 90
        0
280
     0
281
     0
  0
CLASS
  1
TABLESTYLE
  2
AcDbTableStyle
  3
ObjectDBX Classes
 90
     4095
280
     0
281
     0
  0
CLASS
  1
MLEADERSTYLE
  2
AcDbMLeaderStyle
  3
ACDB_MLEADERSTYLE_CLASS
 90
     4095
280
     0
281
     0
  0
CLASS
  1
RASTERVARIABLES
  2
AcDbRasterVariables
  3
ISM
 90
        0
280
     0
281
     0
  0
CLASS
  1
DIMASSOC
  2
AcDbDimAssoc
  3
"AcDbDimAssoc|Product Desc:     AcDim ARX App For Dimension|Company:          Autodesk, Inc.|WEB Address:      www.autodesk.com"
 90
        0
280
     0
281
     0
  0
ENDSEC
  0
SECTION
  2
TABLES
  0
TABLE
  2
VPORT
  5
8
330
0
100
AcDbSymbolTable
 70
     1
  0
VPORT
  5
29
330
8
100
AcDbSymbolTableRecord
100
AcDbViewportTableRecord
  2
*Active
 70
     0
 10
0.0
 20
0.0
 11
1.0
 21
1.0
 12
20.43518247691667
 22
-31.12729899846823
 13
0.0
 23
0.0
 14
10.0
 24
10.0
 15
10.0
 25
10.0
 16
0.0
 26
0.0
 36
1.0
 17
0.0
 27
0.0
 37
0.0
 40
107.4553789013217
 41
1.516441005802708
 42
50.0
 43
0.0
 44
0.0
 50
0.0
 51
0.0
 71
    16
 72
  2000
 73
     1
 74
     3
 75
     0
 76
     0
 77
     0
 78
     0
281
     0
 65
     1
110
0.0
120
0.0
130
0.0
111
1.0
121
0.0
131
0.0
112
0.0
122
1.0
132
0.0
 79
     0
146
0.0
  0
ENDTAB
  0
TABLE
  2
LTYPE
  5
5
330
0
100
AcDbSymbolTable
 70
     6
  0
LTYPE
  5
14
330
5
100
AcDbSymbolTableRecord
100
AcDbLinetypeTableRecord
  2
ByBlock
 70
     0
  3

 72
    65
 73
     0
 40
0.0
  0
LTYPE
  5
15
330
5
100
AcDbSymbolTableRecord
100
AcDbLinetypeTableRecord
  2
ByLayer
 70
     0
  3

 72
    65
 73
     0
 40
0.0
  0
LTYPE
  5
16
330
5
100
AcDbSymbolTableRecord
100
AcDbLinetypeTableRecord
  2
Continuous
 70
     0
  3
Solid line
 72
    65
 73
     0
 40
0.0
  0
LTYPE
  5
6A
330
5
100
AcDbSymbolTableRecord
100
AcDbLinetypeTableRecord
  2
HIDDEN
 70
     0
  3
Hidden __ __ __ __ __ __ __ __ __ __ __ __ __ __
 72
    65
 73
     2
 40
1.905
 49
1.27
 74
     0
 49
-0.635
 74
     0
  0
LTYPE
  5
6B
330
5
100
AcDbSymbolTableRecord
100
AcDbLinetypeTableRecord
  2
PHANTOM
 70
     0
  3
Phantom ______  __  __  ______  __  __  ______
 72
    65
 73
     6
 40
12.7
 49
6.35
 74
     0
 49
-1.27
 74
     0
 49
1.27
 74
     0
 49
-1.27
 74
     0
 49
1.27
 74
     0
 49
-1.27
 74
     0
  0
LTYPE
  5
6C
330
5
100
AcDbSymbolTableRecord
100
AcDbLinetypeTableRecord
  2
CENTER
 70
     0
  3
Center ____ _ ____ _ ____ _ ____ _ ____ _ ____
 72
    65
 73
     4
 40
10.16
 49
6.35
 74
     0
 49
-1.27
 74
     0
 49
1.27
 74
     0
 49
-1.27
 74
     0
  0
LTYPE
  5
6D
330
5
100
AcDbSymbolTableRecord
100
AcDbLinetypeTableRecord
  2
CENTERX2
 70
     0
  3
Center (2x) ________  __  ________  __  _____
 72
    65
 73
     4
 40
20.32
 49
12.7
 74
     0
 49
-2.54
 74
     0
 49
2.54
 74
     0
 49
-2.54
 74
     0
  0
LTYPE
  5
6E
330
5
100
AcDbSymbolTableRecord
100
AcDbLinetypeTableRecord
  2
DOT2
 70
     0
  3
Dot (.5x) ........................................
 72
    65
 73
     2
 40
0.635
 49
0.0
 74
     0
 49
-0.635
 74
     0
  0
ENDTAB
  0
TABLE
  2
LAYER
  5
2
330
0
100
AcDbSymbolTable
 70
    18
  0
LAYER
  5
10
330
2
100
AcDbSymbolTableRecord
100
AcDbLayerTableRecord
  2
0
 70
     0
 62
     7
  6
Continuous
370
    -3
390
F
  0
LAYER
  5
6F
330
2
100
AcDbSymbolTableRecord
100
AcDbLayerTableRecord
  2
FORMAT
 70
     0
 62
     2
  6
Continuous
370
    -3
390
F
  0
LAYER
  5
70
330
2
100
AcDbSymbolTableRecord
100
AcDbLayerTableRecord
  2
외형선
 70
     0
 62
     4
  6
Continuous
370
    30
390
F
  0
LAYER
  5
71
330
2
100
AcDbSymbolTableRecord
100
AcDbLayerTableRecord
  2
숨은선
 70
     0
 62
     2
  6
HIDDEN
370
    15
390
F
  0
LAYER
  5
72
330
2
100
AcDbSymbolTableRecord
100
AcDbLayerTableRecord
  2
중심선
 70
     0
 62
     1
  6
CENTERX2
370
    -3
390
F
  0
LAYER
  5
73
330
2
100
AcDbSymbolTableRecord
100
AcDbLayerTableRecord
  2
파단선
 70
     0
 62
     4
  6
Continuous
370
    -3
390
F
  0
LAYER
  5
74
330
2
100
AcDbSymbolTableRecord
100
AcDbLayerTableRecord
  2
해칭선
 70
     0
 62
   100
  6
Continuous
370
    -3
390
F
  0
LAYER
  5
75
330
2
100
AcDbSymbolTableRecord
100
AcDbLayerTableRecord
  2
가는실선
 70
     0
 62
     4
  6
Continuous
370
    -3
390
F
  0
LAYER
  5
76
330
2
100
AcDbSymbolTableRecord
100
AcDbLayerTableRecord
  2
치수_보조선
 70
     0
 62
     4
  6
Continuous
370
    -3
390
F
  0
LAYER
  5
77
330
2
100
AcDbSymbolTableRecord
100
AcDbLayerTableRecord
  2
치수문자_일반주서
 70
     0
 62
     7
  6
Continuous
370
    15
390
F
  0
LAYER
  5
78
330
2
100
AcDbSymbolTableRecord
100
AcDbLayerTableRecord
  2
개별주서
 70
     0
 62
   100
  6
Continuous
370
    30
390
F
  0
LAYER
  5
79
330
2
100
AcDbSymbolTableRecord
100
AcDbLayerTableRecord
  2
중간선
 70
     0
 62
     2
  6
Continuous
370
    15
390
F
  0
LAYER
  5
7A
330
2
100
AcDbSymbolTableRecord
100
AcDbLayerTableRecord
  2
윤곽선
 70
     0
 62
     3
  6
Continuous
370
    40
390
F
  0
LAYER
  5
7B
330
2
100
AcDbSymbolTableRecord
100
AcDbLayerTableRecord
  2
중심마크
 70
     0
 62
   100
  6
Continuous
370
    30
390
F
  0
LAYER
  5
7C
330
2
100
AcDbSymbolTableRecord
100
AcDbLayerTableRecord
  2
가상선
 70
     0
 62
     4
  6
PHANTOM
370
    -3
390
F
  0
LAYER
  5
7D
330
2
100
AcDbSymbolTableRecord
100
AcDbLayerTableRecord
  2
특수지정선
 70
     0
 62
     5
  6
CENTERX2
370
    60
390
F
  0
LAYER
  5
7E
330
2
100
AcDbSymbolTableRecord
100
AcDbLayerTableRecord
  2
참조1
 70
     0
 62
    -4
  6
Continuous
370
    -3
390
F
  0
LAYER
  5
146
330
2
100
AcDbSymbolTableRecord
100
AcDbLayerTableRecord
  2
Defpoints
 70
     0
 62
     7
  6
Continuous
290
     0
370
    -3
390
F
  0
ENDTAB
  0
TABLE
  2
STYLE
  5
3
330
0
100
AcDbSymbolTable
 70
     2
  0
STYLE
  5
11
330
3
100
AcDbSymbolTableRecord
100
AcDbTextStyleTableRecord
  2
Standard
 70
     0
 40
0.0
 41
1.0
 50
0.0
 71
     0
 42
3.5
  3
txt
  4

  0
STYLE
  5
94
330
3
100
AcDbSymbolTableRecord
100
AcDbTextStyleTableRecord
  2
SLDTEXTSTYLE0
 70
     0
 40
0.0
 41
0.75
 50
0.0
 71
     0
 42
3.5
  3
TXT
  4

  0
ENDTAB
  0
TABLE
  2
VIEW
  5
6
330
0
100
AcDbSymbolTable
 70
     0
  0
ENDTAB
  0
TABLE
  2
UCS
  5
7
330
0
100
AcDbSymbolTable
 70
     0
  0
ENDTAB
  0
TABLE
  2
APPID
  5
9
330
0
100
AcDbSymbolTable
 70
     4
  0
APPID
  5
12
330
9
100
AcDbSymbolTableRecord
100
AcDbRegAppTableRecord
  2
ACAD
 70
     0
  0
APPID
  5
267
330
9
100
AcDbSymbolTableRecord
100
AcDbRegAppTableRecord
  2
ACAD_DSTYLE_DIMRADIAL_EXTENSION
 70
     0
  0
APPID
  5
287
330
9
100
AcDbSymbolTableRecord
100
AcDbRegAppTableRecord
  2
ACAD_DSTYLE_DIMFLIPARROW_SYMBOL
 70
     0
  0
APPID
  5
288
330
9
100
AcDbSymbolTableRecord
100
AcDbRegAppTableRecord
  2
ACAD_DSTYLE_DIMFLIPARROW_WHICH_SYMBOL
 70
     0
  0
ENDTAB
  0
TABLE
  2
DIMSTYLE
  5
A
330
0
100
AcDbSymbolTable
 70
     4
100
AcDbDimStyleTable
  0
DIMSTYLE
105
27
330
A
100
AcDbSymbolTableRecord
100
AcDbDimStyleTableRecord
  2
ISO-25
 70
     0
 41
2.5
 42
0.625
 43
3.75
 44
1.25
 73
     0
 74
     0
 77
     1
 78
     8
140
2.5
141
2.5
143
0.03937007874016
147
0.625
171
     3
172
     1
178
     0
271
     2
272
     2
274
     3
278
    44
283
     0
284
     8
340
11
  0
DIMSTYLE
105
C4
102
{ACAD_REACTORS
330
18D
330
19A
330
225
330
226
102
}
330
A
100
AcDbSymbolTableRecord
100
AcDbDimStyleTableRecord
  2
SLDDIMSTYLE0
 70
     0
 41
3.302
 44
0.0
 45
0.000000001
 73
     0
 74
     0
 77
     1
 78
     4
 79
     1
140
3.5
143
0.0393700787401575
147
0.875
148
0.000000001
170
     1
172
     1
173
     1
178
     0
271
     2
272
     2
276
     2
284
    12
289
     0
340
94
  0
DIMSTYLE
105
D9
102
{ACAD_REACTORS
330
1A7
330
1B5
330
227
330
228
330
278
102
}
330
A
100
AcDbSymbolTableRecord
100
AcDbDimStyleTableRecord
  2
SLDDIMSTYLE1
 70
     0
 41
3.302
 44
0.0
 45
0.000000001
 73
     0
 74
     0
 77
     1
 78
     4
 79
     1
140
3.5
143
0.0393700787401575
147
0.875
148
0.000000001
170
     1
173
     1
178
     0
271
     2
272
     2
276
     2
284
    12
340
94
  0
DIMSTYLE
105
100
330
A
100
AcDbSymbolTableRecord
100
AcDbDimStyleTableRecord
  2
SLDDIMSTYLE2
 70
     0
 41
3.302
 44
0.0
 45
0.000000001
 73
     0
 74
     0
 77
     1
 78
    12
 79
     3
140
3.5
143
0.0393700787401575
147
0.875
148
0.000000001
170
     1
172
     1
173
     1
178
     0
271
     2
272
     2
276
     2
284
    12
289
     0
340
94
  0
ENDTAB
  0
TABLE
  2
BLOCK_RECORD
  5
1
330
0
100
AcDbSymbolTable
 70
    18
  0
BLOCK_RECORD
  5
1F
330
1
100
AcDbSymbolTableRecord
100
AcDbBlockTableRecord
  2
*Model_Space
340
22
  0
BLOCK_RECORD
  5
1B
330
1
100
AcDbSymbolTableRecord
100
AcDbBlockTableRecord
  2
*Paper_Space
340
1E
  0
BLOCK_RECORD
  5
23
330
1
100
AcDbSymbolTableRecord
100
AcDbBlockTableRecord
  2
*Paper_Space0
340
26
  0
BLOCK_RECORD
  5
7F
330
1
100
AcDbSymbolTableRecord
100
AcDbBlockTableRecord
  2
블럭10
340
0
102
{BLKREFS
331
BC
102
}
  0
BLOCK_RECORD
  5
C5
330
1
100
AcDbSymbolTableRecord
100
AcDbBlockTableRecord
  2
_D
340
0
  0
BLOCK_RECORD
  5
DA
330
1
100
AcDbSymbolTableRecord
100
AcDbBlockTableRecord
  2
_D_1
340
0
  0
BLOCK_RECORD
  5
ED
330
1
100
AcDbSymbolTableRecord
100
AcDbBlockTableRecord
  2
_D_2
340
0
  0
BLOCK_RECORD
  5
101
330
1
100
AcDbSymbolTableRecord
100
AcDbBlockTableRecord
  2
_D_3
340
0
  0
BLOCK_RECORD
  5
11B
330
1
100
AcDbSymbolTableRecord
100
AcDbBlockTableRecord
  2
SW_DOWELSYMBOL_0
340
0
102
{BLKREFS
331
0
331
1C5
331
229
102
}
  0
BLOCK_RECORD
  5
1D6
330
1
100
AcDbSymbolTableRecord
100
AcDbBlockTableRecord
  2
*D8
340
0
  0
BLOCK_RECORD
  5
1E2
330
1
100
AcDbSymbolTableRecord
100
AcDbBlockTableRecord
  2
*D9
340
0
  0
BLOCK_RECORD
  5
1EE
330
1
100
AcDbSymbolTableRecord
100
AcDbBlockTableRecord
  2
*D10
340
0
  0
BLOCK_RECORD
  5
1FA
330
1
100
AcDbSymbolTableRecord
100
AcDbBlockTableRecord
  2
*D11
340
0
  0
BLOCK_RECORD
  5
232
330
1
100
AcDbSymbolTableRecord
100
AcDbBlockTableRecord
  2
*D12
340
0
  0
BLOCK_RECORD
  5
23E
330
1
100
AcDbSymbolTableRecord
100
AcDbBlockTableRecord
  2
*D13
340
0
  0
BLOCK_RECORD
  5
24A
330
1
100
AcDbSymbolTableRecord
100
AcDbBlockTableRecord
  2
*D14
340
0
  0
BLOCK_RECORD
  5
256
330
1
100
AcDbSymbolTableRecord
100
AcDbBlockTableRecord
  2
*D15
340
0
  0
BLOCK_RECORD
  5
26B
330
1
100
AcDbSymbolTableRecord
100
AcDbBlockTableRecord
  2
*D16
340
0
  0
BLOCK_RECORD
  5
27B
330
1
100
AcDbSymbolTableRecord
100
AcDbBlockTableRecord
  2
*D17
340
0
  0
ENDTAB
  0
ENDSEC
  0
SECTION
  2
BLOCKS
  0
BLOCK
  5
20
330
1F
100
AcDbEntity
  8
0
100
AcDbBlockBegin
  2
*Model_Space
 70
     0
 10
0.0
 20
0.0
 30
0.0
  3
*Model_Space
  1
*Model_Space
  0
ENDBLK
  5
21
330
1F
100
AcDbEntity
  8
0
100
AcDbBlockEnd
  0
BLOCK
  5
1C
330
1B
100
AcDbEntity
 67
     1
  8
0
100
AcDbBlockBegin
  2
*Paper_Space
 70
     0
 10
0.0
 20
0.0
 30
0.0
  3
*Paper_Space
  1
*Paper_Space
  0
ENDBLK
  5
1D
330
1B
100
AcDbEntity
 67
     1
  8
0
100
AcDbBlockEnd
  0
BLOCK
  5
24
330
23
100
AcDbEntity
  8
0
100
AcDbBlockBegin
  2
*Paper_Space0
 70
     0
 10
0.0
 20
0.0
 30
0.0
  3
*Paper_Space0
  1
*Paper_Space0
  0
ENDBLK
  5
25
330
23
100
AcDbEntity
  8
0
100
AcDbBlockEnd
  0
BLOCK
  5
80
330
7F
100
AcDbEntity
  8
0
100
AcDbBlockBegin
  2
블럭10
 70
     2
 10
0.0
 20
0.0
 30
0.0
  3
블럭10
  1
블럭10
  0
ELLIPSE
  5
82
330
7F
100
AcDbEntity
  8
중심선
100
AcDbEllipse
 10
20.54032771741204
 20
12.0471743016438
 30
0.0
 11
6.600054785286829
 21
-1.261213355974178E-13
 31
0.0
210
0.0
220
0.0
230
1.0
 40
0.636358354079598
 41
0.9219305317359503
 42
6.513795318482858
  0
ELLIPSE
  5
83
330
7F
100
AcDbEntity
  8
중심선
100
AcDbEllipse
 10
20.54032771746488
 20
12.04717430159265
 30
0.0
 11
3.960054785062283
 21
1.540847449632565E-10
 31
0.0
210
0.0
220
0.0
230
1.0
 40
0.3939339440162632
 41
1.131841032648279
 42
5.62031148352944
  0
LINE
  5
84
330
7F
100
AcDbEntity
  8
중심선
100
AcDbLine
 10
2.268634060543552
 20
16.24717430164393
 30
0.0
 11
5.714909304380834
 21
16.24717430164393
 31
0.0
  0
LINE
  5
85
330
7F
100
AcDbEntity
  8
중심선
100
AcDbLine
 10
5.245725140726316
 20
7.84717430164391
 30
0.0
 11
8.692000384563599
 21
7.84717430164391
 31
0.0
  0
LINE
  5
86
330
7F
100
AcDbEntity
  8
중심선
100
AcDbLine
 10
15.74043728645272
 20
16.24717430164393
 30
0.0
 11
8.692000384563599
 21
7.84717430164391
 31
0.0
  0
LINE
  5
87
330
7F
100
AcDbEntity
  8
중심선
100
AcDbLine
 10
0.1404042013395286
 20
13.71084872107135
 30
0.0
 11
3.58671253028996
 21
13.71088815037384
 31
0.0
  0
LINE
  5
88
330
7F
100
AcDbEntity
  8
중심선
100
AcDbLine
 10
2.750260043222114
 20
10.84717430164391
 30
0.0
 11
6.196535287059397
 21
10.84717430164391
 31
0.0
  0
LINE
  5
89
330
7F
100
AcDbEntity
  8
중심선
100
AcDbLine
 10
12.29416204261559
 20
16.24717430164393
 30
0.0
 11
5.245725140726316
 21
7.84717430164391
 31
0.0
  0
LINE
  5
8A
330
7F
100
AcDbEntity
  8
중심선
100
AcDbLine
 10
10.72767329541681
 20
16.24717430164393
 30
0.0
 11
6.196535287059397
 21
10.84717430164391
 31
0.0
  0
LINE
  5
8B
330
7F
100
AcDbEntity
  8
중심선
100
AcDbLine
 10
7.28139805157953
 20
16.24717430164393
 30
0.0
 11
2.750260043222114
 21
10.84717430164391
 31
0.0
  0
LINE
  5
8C
330
7F
100
AcDbEntity
  8
중심선
100
AcDbLine
 10
5.714909304380834
 20
16.24717430164393
 30
0.0
 11
3.58671253028996
 21
13.71088815037384
 31
0.0
  0
LINE
  5
8D
330
7F
100
AcDbEntity
  8
중심선
100
AcDbLine
 10
2.268634060543552
 20
16.24717430164393
 30
0.0
 11
0.1404042013395286
 21
13.71084872107135
 31
0.0
  0
LINE
  5
8E
330
7F
100
AcDbEntity
  8
중심선
100
AcDbLine
 10
7.28139805157953
 20
16.24717430164393
 30
0.0
 11
10.72767329541681
 21
16.24717430164393
 31
0.0
  0
LINE
  5
8F
330
7F
100
AcDbEntity
  8
중심선
100
AcDbLine
 10
12.29416204261559
 20
16.24717430164393
 30
0.0
 11
15.74043728645272
 21
16.24717430164393
 31
0.0
  0
LINE
  5
90
330
7F
100
AcDbEntity
  8
중심선
100
AcDbLine
 10
19.22036997980202
 20
11.08717430171403
 30
0.0
 11
23.66174974927406
 21
11.08717430171406
 31
0.0
  0
LINE
  5
91
330
7F
100
AcDbEntity
  8
중심선
100
AcDbLine
 10
19.22039502424796
 20
13.00717430171391
 30
0.0
 11
19.22036997980202
 21
11.08717430171403
 31
0.0
  0
LINE
  5
92
330
7F
100
AcDbEntity
  8
중심선
100
AcDbLine
 10
19.22039502424796
 20
13.00717430171391
 30
0.0
 11
26.96566020931264
 21
13.00717430171391
 31
0.0
  0
LINE
  5
93
330
7F
100
AcDbEntity
  8
중심선
100
AcDbLine
 10
22.22332737316547
 20
13.45928029700563
 30
0.0
 11
24.52862924686651
 21
15.39360700705356
 31
0.0
  0
ATTDEF
  5
95
330
7F
100
AcDbEntity
  8
FORMAT
 62
     2
100
AcDbText
 10
4.408487351596664
 20
2.075366912832191
 30
0.0
 40
4.233333333333333
  1
E5216901
 41
0.75
  7
SLDTEXTSTYLE0
 11
4.408487351596664
 21
-0.0412997538344756
 31
0.0
100
AcDbAttributeDefinition
  3

  2
AUTOATTR0
 70
     0
 74
     1
  0
ENDBLK
  5
81
330
7F
100
AcDbEntity
  8
0
100
AcDbBlockEnd
  0
BLOCK
  5
C6
330
C5
100
AcDbEntity
  8
0
100
AcDbBlockBegin
  2
_D
 70
     0
 10
0.0
 20
0.0
 30
0.0
  3
_D
  1
_D
  0
SOLID
  5
C8
330
C5
100
AcDbEntity
  8
치수문자_일반주서
100
AcDbTrace
 10
-35.86124999999999
 20
12.70107492872388
 30
0.0
 11
-35.35324999999999
 21
16.00307492872388
 31
0.0
 12
-36.36924999999999
 22
16.00307492872388
 32
0.0
 13
-36.36924999999999
 23
16.00307492872388
 33
0.0
  0
SOLID
  5
C9
330
C5
100
AcDbEntity
  8
치수문자_일반주서
100
AcDbTrace
 10
-35.86124999999999
 20
-12.6989250712761
 30
0.0
 11
-36.36924999999999
 21
-16.00092507127609
 31
0.0
 12
-35.35324999999999
 22
-16.00092507127609
 32
0.0
 13
-35.35324999999999
 23
-16.00092507127609
 33
0.0
  0
LINE
  5
CA
330
C5
100
AcDbEntity
  8
치수문자_일반주서
100
AcDbLine
 10
-46.65413171604272
 20
-5.413291502344814
 30
0.0
 11
-46.65413171604271
 21
-6.124228987909314
 31
0.0
  0
LINE
  5
CB
330
C5
100
AcDbEntity
  8
치수문자_일반주서
100
AcDbLine
 10
-46.65413171604271
 20
-6.124228987909314
 30
0.0
 11
-41.09788172498341
 21
-6.124228987909275
 31
0.0
  0
LINE
  5
CC
330
C5
100
AcDbEntity
  8
치수문자_일반주서
100
AcDbLine
 10
-41.09788172498341
 20
-6.124228987909275
 30
0.0
 11
-41.09788172498342
 21
-5.413291502344775
 31
0.0
  0
LINE
  5
CD
330
C5
100
AcDbEntity
  8
치수문자_일반주서
100
AcDbLine
 10
-46.65413171604279
 20
5.415441359792444
 30
0.0
 11
-46.6541317160428
 21
6.126378845356944
 31
0.0
  0
LINE
  5
CE
330
C5
100
AcDbEntity
  8
치수문자_일반주서
100
AcDbLine
 10
-46.6541317160428
 20
6.126378845356944
 30
0.0
 11
-41.09788172498349
 21
6.126378845356983
 31
0.0
  0
LINE
  5
CF
330
C5
100
AcDbEntity
  8
치수문자_일반주서
100
AcDbLine
 10
-41.09788172498349
 20
6.126378845356983
 30
0.0
 11
-41.09788172498349
 21
5.415441359792483
 31
0.0
  0
LINE
  5
D0
330
C5
100
AcDbEntity
  8
치수문자_일반주서
100
AcDbLine
 10
-23.38499999999999
 20
12.70107492872388
 30
0.0
 11
-36.86124999999999
 21
12.70107492872388
 31
0.0
  0
LINE
  5
D1
330
C5
100
AcDbEntity
  8
치수문자_일반주서
100
AcDbLine
 10
-23.38499999999999
 20
-12.6989250712761
 30
0.0
 11
-36.86124999999999
 21
-12.6989250712761
 31
0.0
  0
LINE
  5
D2
330
C5
100
AcDbEntity
  8
치수문자_일반주서
100
AcDbLine
 10
-35.86124999999999
 20
12.70107492872388
 30
0.0
 11
-35.86124999999999
 21
19.05107492872389
 31
0.0
  0
LINE
  5
D3
330
C5
100
AcDbEntity
  8
치수문자_일반주서
100
AcDbLine
 10
-35.86124999999999
 20
12.70107492872388
 30
0.0
 11
-35.86124999999999
 21
-12.6989250712761
 31
0.0
  0
LINE
  5
D4
330
C5
100
AcDbEntity
  8
치수문자_일반주서
100
AcDbLine
 10
-35.86124999999999
 20
-12.6989250712761
 30
0.0
 11
-35.86124999999999
 21
-19.0489250712761
 31
0.0
  0
MTEXT
  5
D5
330
C5
100
AcDbEntity
  8
치수문자_일반주서
100
AcDbMText
 10
-45.60961863956231
 20
-4.524619601733436
 30
0.0
 40
3.5
 41
0.0
 71
     1
 72
     1
  1
1.00
  7
SLDTEXTSTYLE0
 11
-7.044195017643634E-15
 21
1.0
 31
0.0
 73
     1
 44
1.0
  0
MTEXT
  5
D6
330
C5
100
AcDbEntity
  8
치수문자_일반주서
100
AcDbMText
 10
-40.37298708920181
 20
-8.456894014097168
 30
0.0
 40
3.5
 41
0.0
 71
     1
 72
     1
  1
%%c
  7
SLDTEXTSTYLE0
 11
-7.044195017643634E-15
 21
1.0
 31
0.0
 73
     1
 44
1.0
  0
MTEXT
  5
D7
330
C5
100
AcDbEntity
  8
치수문자_일반주서
100
AcDbMText
 10
-40.37298708920185
 20
-3.178456615723087
 30
0.0
 40
3.5
 41
0.0
 71
     1
 72
     1
  1
25.40
  7
SLDTEXTSTYLE0
 11
-7.044195017643634E-15
 21
1.0
 31
0.0
 73
     1
 44
1.0
  0
ENDBLK
  5
C7
330
C5
100
AcDbEntity
  8
0
100
AcDbBlockEnd
  0
BLOCK
  5
DB
330
DA
100
AcDbEntity
  8
0
100
AcDbBlockBegin
  2
_D_1
 70
     0
 10
0.0
 20
0.0
 30
0.0
  3
_D_1
  1
_D_1
  0
SOLID
  5
DD
330
DA
100
AcDbEntity
  8
치수문자_일반주서
100
AcDbTrace
 10
76.675
 20
23.27759839347924
 30
0.0
 11
73.37299999999999
 21
23.78559839347924
 31
0.0
 12
73.37299999999999
 22
22.76959839347925
 32
0.0
 13
73.37299999999999
 23
22.76959839347925
 33
0.0
  0
SOLID
  5
DE
330
DA
100
AcDbEntity
  8
치수문자_일반주서
100
AcDbTrace
 10
38.575
 20
23.27759839347924
 30
0.0
 11
41.877
 21
22.76959839347925
 31
0.0
 12
41.877
 22
23.78559839347924
 32
0.0
 13
41.877
 23
23.78559839347924
 33
0.0
  0
LINE
  5
DF
330
DA
100
AcDbEntity
  8
치수문자_일반주서
100
AcDbLine
 10
51.63485655662391
 20
34.07048010952199
 30
0.0
 11
50.92391907105941
 21
34.07048010952199
 31
0.0
  0
LINE
  5
E0
330
DA
100
AcDbEntity
  8
치수문자_일반주서
100
AcDbLine
 10
50.92391907105941
 20
34.07048010952199
 30
0.0
 11
50.92391907105937
 21
28.51423011846269
 31
0.0
  0
LINE
  5
E1
330
DA
100
AcDbEntity
  8
치수문자_일반주서
100
AcDbLine
 10
50.92391907105937
 20
28.51423011846269
 30
0.0
 11
51.63485655662387
 21
28.51423011846268
 31
0.0
  0
LINE
  5
E2
330
DA
100
AcDbEntity
  8
치수문자_일반주서
100
AcDbLine
 10
62.46358941876117
 20
34.07048010952191
 30
0.0
 11
63.17452690432567
 21
34.0704801095219
 31
0.0
  0
LINE
  5
E3
330
DA
100
AcDbEntity
  8
치수문자_일반주서
100
AcDbLine
 10
63.17452690432567
 20
34.0704801095219
 30
0.0
 11
63.17452690432562
 21
28.5142301184626
 31
0.0
  0
LINE
  5
E4
330
DA
100
AcDbEntity
  8
치수문자_일반주서
100
AcDbLine
 10
63.17452690432562
 20
28.5142301184626
 30
0.0
 11
62.46358941876112
 21
28.51423011846261
 31
0.0
  0
LINE
  5
E5
330
DA
100
AcDbEntity
  8
치수문자_일반주서
100
AcDbLine
 10
76.675
 20
13.26493984740818
 30
0.0
 11
76.675
 21
24.27759839347924
 31
0.0
  0
LINE
  5
E6
330
DA
100
AcDbEntity
  8
치수문자_일반주서
100
AcDbLine
 10
38.575
 20
13.31549158927376
 30
0.0
 11
38.575
 21
24.27759839347924
 31
0.0
  0
LINE
  5
E7
330
DA
100
AcDbEntity
  8
치수문자_일반주서
100
AcDbLine
 10
76.675
 20
23.27759839347924
 30
0.0
 11
38.575
 21
23.27759839347924
 31
0.0
  0
MTEXT
  5
E8
330
DA
100
AcDbEntity
  8
치수문자_일반주서
100
AcDbMText
 10
50.41016034557266
 20
27.84280765934098
 30
0.0
 40
3.5
 41
0.0
 71
     1
 72
     1
  1

  7
SLDTEXTSTYLE0
 73
     1
 44
1.0
  0
MTEXT
  5
E9
330
DA
100
AcDbEntity
  8
치수문자_일반주서
100
AcDbMText
 10
52.52352845723527
 20
33.02596703304158
 30
0.0
 40
3.5
 41
0.0
 71
     1
 72
     1
  1
1.50
  7
SLDTEXTSTYLE0
 73
     1
 44
1.0
  0
MTEXT
  5
EA
330
DA
100
AcDbEntity
  8
치수문자_일반주서
100
AcDbMText
 10
51.2304727440585
 20
27.78933548268111
 30
0.0
 40
3.5
 41
0.0
 71
     1
 72
     1
  1
38.10
  7
SLDTEXTSTYLE0
 73
     1
 44
1.0
  0
MTEXT
  5
EB
330
DA
100
AcDbEntity
  8
치수문자_일반주서
100
AcDbMText
 10
65.02023014946623
 20
27.84280765934087
 30
0.0
 40
3.5
 41
0.0
 71
     1
 72
     1
  1

  7
SLDTEXTSTYLE0
 73
     1
 44
1.0
  0
ENDBLK
  5
DC
330
DA
100
AcDbEntity
  8
0
100
AcDbBlockEnd
  0
BLOCK
  5
EE
330
ED
100
AcDbEntity
  8
0
100
AcDbBlockBegin
  2
_D_2
 70
     0
 10
0.0
 20
0.0
 30
0.0
  3
_D_2
  1
_D_2
  0
SOLID
  5
F0
330
ED
100
AcDbEntity
  8
치수문자_일반주서
100
AcDbTrace
 10
76.675
 20
46.68430367099489
 30
0.0
 11
73.37299999999999
 21
47.19230367099489
 31
0.0
 12
73.37299999999999
 22
46.17630367099488
 32
0.0
 13
73.37299999999999
 23
46.17630367099488
 33
0.0
  0
SOLID
  5
F1
330
ED
100
AcDbEntity
  8
치수문자_일반주서
100
AcDbTrace
 10
-24.925
 20
46.68430367099489
 30
0.0
 11
-21.623
 21
46.17630367099488
 31
0.0
 12
-21.623
 22
47.19230367099489
 32
0.0
 13
-21.623
 23
47.19230367099489
 33
0.0
  0
LINE
  5
F2
330
ED
100
AcDbEntity
  8
치수문자_일반주서
100
AcDbLine
 10
20.46063391817733
 20
57.47718538703762
 30
0.0
 11
19.74969643261283
 21
57.47718538703763
 31
0.0
  0
LINE
  5
F3
330
ED
100
AcDbEntity
  8
치수문자_일반주서
100
AcDbLine
 10
19.74969643261283
 20
57.47718538703763
 30
0.0
 11
19.74969643261279
 21
51.92093539597833
 31
0.0
  0
LINE
  5
F4
330
ED
100
AcDbEntity
  8
치수문자_일반주서
100
AcDbLine
 10
19.74969643261279
 20
51.92093539597833
 30
0.0
 11
20.46063391817729
 21
51.92093539597832
 31
0.0
  0
LINE
  5
F5
330
ED
100
AcDbEntity
  8
치수문자_일반주서
100
AcDbLine
 10
31.28936678031459
 20
57.47718538703755
 30
0.0
 11
32.00030426587909
 21
57.47718538703754
 31
0.0
  0
LINE
  5
F6
330
ED
100
AcDbEntity
  8
치수문자_일반주서
100
AcDbLine
 10
32.00030426587909
 20
57.47718538703754
 30
0.0
 11
32.00030426587904
 21
51.92093539597824
 31
0.0
  0
LINE
  5
F7
330
ED
100
AcDbEntity
  8
치수문자_일반주서
100
AcDbLine
 10
32.00030426587904
 20
51.92093539597824
 30
0.0
 11
31.28936678031455
 21
51.92093539597825
 31
0.0
  0
LINE
  5
F8
330
ED
100
AcDbEntity
  8
치수문자_일반주서
100
AcDbLine
 10
76.675
 20
13.26493984740818
 30
0.0
 11
76.675
 21
47.68430367099489
 31
0.0
  0
LINE
  5
F9
330
ED
100
AcDbEntity
  8
치수문자_일반주서
100
AcDbLine
 10
-24.925
 20
11.1610749287239
 30
0.0
 11
-24.925
 21
47.68430367099489
 31
0.0
  0
LINE
  5
FA
330
ED
100
AcDbEntity
  8
치수문자_일반주서
100
AcDbLine
 10
76.675
 20
46.68430367099489
 30
0.0
 11
-24.925
 21
46.68430367099489
 31
0.0
  0
MTEXT
  5
FB
330
ED
100
AcDbEntity
  8
치수문자_일반주서
100
AcDbMText
 10
18.7826387956738
 20
51.24951293685661
 30
0.0
 40
3.5
 41
0.0
 71
     1
 72
     1
  1

  7
SLDTEXTSTYLE0
 73
     1
 44
1.0
  0
MTEXT
  5
FC
330
ED
100
AcDbEntity
  8
치수문자_일반주서
100
AcDbMText
 10
21.3493058187887
 20
56.43267231055722
 30
0.0
 40
3.5
 41
0.0
 71
     1
 72
     1
  1
4.00
  7
SLDTEXTSTYLE0
 73
     1
 44
1.0
  0
MTEXT
  5
FD
330
ED
100
AcDbEntity
  8
치수문자_일반주서
100
AcDbMText
 10
18.76319439243521
 20
51.19604076019676
 30
0.0
 40
3.5
 41
0.0
 71
     1
 72
     1
  1
101.60
  7
SLDTEXTSTYLE0
 73
     1
 44
1.0
  0
MTEXT
  5
FE
330
ED
100
AcDbEntity
  8
치수문자_일반주서
100
AcDbMText
 10
34.29930642247196
 20
51.2495129368565
 30
0.0
 40
3.5
 41
0.0
 71
     1
 72
     1
  1

  7
SLDTEXTSTYLE0
 73
     1
 44
1.0
  0
ENDBLK
  5
EF
330
ED
100
AcDbEntity
  8
0
100
AcDbBlockEnd
  0
BLOCK
  5
102
330
101
100
AcDbEntity
  8
0
100
AcDbBlockBegin
  2
_D_3
 70
     0
 10
0.0
 20
0.0
 30
0.0
  3
_D_3
  1
_D_3
  0
SOLID
  5
104
330
101
100
AcDbEntity
  8
치수문자_일반주서
100
AcDbTrace
 10
44.18645838198775
 20
2.3823249287239
 30
0.0
 11
44.69445838198775
 21
5.6843249287239
 31
0.0
 12
43.67845838198775
 22
5.6843249287239
 32
0.0
 13
43.67845838198775
 23
5.6843249287239
 33
0.0
  0
SOLID
  5
105
330
101
100
AcDbEntity
  8
치수문자_일반주서
100
AcDbTrace
 10
44.18645838198775
 20
-2.380175071276116
 30
0.0
 11
43.67845838198775
 21
-5.682175071276116
 31
0.0
 12
44.69445838198775
 22
-5.682175071276116
 32
0.0
 13
44.69445838198775
 23
-5.682175071276116
 33
0.0
  0
LINE
  5
106
330
101
100
AcDbEntity
  8
치수문자_일반주서
100
AcDbLine
 10
33.39357666594501
 20
6.992338846446932
 30
0.0
 11
33.39357666594502
 21
6.281401360882432
 31
0.0
  0
LINE
  5
107
330
101
100
AcDbEntity
  8
치수문자_일반주서
100
AcDbLine
 10
33.39357666594502
 20
6.281401360882432
 30
0.0
 11
38.94982665700432
 21
6.281401360882471
 31
0.0
  0
LINE
  5
108
330
101
100
AcDbEntity
  8
치수문자_일반주서
100
AcDbLine
 10
38.94982665700432
 20
6.281401360882471
 30
0.0
 11
38.94982665700432
 21
6.992338846446971
 31
0.0
  0
LINE
  5
109
330
101
100
AcDbEntity
  8
치수문자_일반주서
100
AcDbLine
 10
33.39357666594495
 20
17.82107170858419
 30
0.0
 11
33.39357666594494
 21
18.53200919414869
 31
0.0
  0
LINE
  5
10A
330
101
100
AcDbEntity
  8
치수문자_일반주서
100
AcDbLine
 10
33.39357666594494
 20
18.53200919414869
 30
0.0
 11
38.94982665700424
 21
18.53200919414873
 31
0.0
  0
LINE
  5
10B
330
101
100
AcDbEntity
  8
치수문자_일반주서
100
AcDbLine
 10
38.94982665700424
 20
18.53200919414873
 30
0.0
 11
38.94982665700425
 21
17.82107170858423
 31
0.0
  0
LINE
  5
10C
330
101
100
AcDbEntity
  8
치수문자_일반주서
100
AcDbLine
 10
21.51328799232288
 20
2.382324928723901
 30
0.0
 11
45.18645838198775
 21
2.3823249287239
 31
0.0
  0
LINE
  5
10D
330
101
100
AcDbEntity
  8
치수문자_일반주서
100
AcDbLine
 10
21.51328799232288
 20
-2.380175071276115
 30
0.0
 11
45.18645838198775
 21
-2.380175071276116
 31
0.0
  0
LINE
  5
10E
330
101
100
AcDbEntity
  8
치수문자_일반주서
100
AcDbLine
 10
44.18645838198775
 20
2.3823249287239
 30
0.0
 11
44.18645838198775
 21
19.57161897282124
 31
0.0
  0
LINE
  5
10F
330
101
100
AcDbEntity
  8
치수문자_일반주서
100
AcDbLine
 10
44.18645838198775
 20
2.3823249287239
 30
0.0
 11
44.18645838198775
 21
-2.380175071276116
 31
0.0
  0
LINE
  5
110
330
101
100
AcDbEntity
  8
치수문자_일반주서
100
AcDbLine
 10
44.18645838198775
 20
-2.380175071276116
 30
0.0
 11
44.18645838198775
 21
-8.730175071276117
 31
0.0
  0
MTEXT
  5
111
330
101
100
AcDbEntity
  8
치수문자_일반주서
100
AcDbMText
 10
34.43808974242543
 20
7.881010747058312
 30
0.0
 40
3.5
 41
0.0
 71
     1
 72
     1
  1
0.19
  7
SLDTEXTSTYLE0
 11
-7.044195017643634E-15
 21
1.0
 31
0.0
 73
     1
 44
1.0
  0
MTEXT
  5
112
330
101
100
AcDbEntity
  8
치수문자_일반주서
100
AcDbMText
 10
39.67472129278591
 20
5.241791582210018
 30
0.0
 40
3.5
 41
0.0
 71
     1
 72
     1
  1
%%c
  7
SLDTEXTSTYLE0
 11
-7.044195017643634E-15
 21
1.0
 31
0.0
 73
     1
 44
1.0
  0
MTEXT
  5
113
330
101
100
AcDbEntity
  8
치수문자_일반주서
100
AcDbMText
 10
39.67472129278588
 20
10.5202289805841
 30
0.0
 40
3.5
 41
0.0
 71
     1
 72
     1
  1
4.76
  7
SLDTEXTSTYLE0
 11
-7.044195017643634E-15
 21
1.0
 31
0.0
 73
     1
 44
1.0
  0
ENDBLK
  5
103
330
101
100
AcDbEntity
  8
0
100
AcDbBlockEnd
  0
BLOCK
  5
11C
330
11B
100
AcDbEntity
  8
0
100
AcDbBlockBegin
  2
SW_DOWELSYMBOL_0
 70
     0
 10
0.0
 20
0.0
 30
0.0
  3
SW_DOWELSYMBOL_0
  1
SW_DOWELSYMBOL_0
  0
CIRCLE
  5
11E
330
11B
100
AcDbEntity
  8
해칭선
 62
     0
100
AcDbCircle
 10
0.0
 20
0.0
 30
0.0
 40
3.000000000000002
  0
HATCH
  5
11F
330
11B
100
AcDbEntity
  8
0
  6
Continuous
 62
     0
370
     0
100
AcDbHatch
 10
0.0
 20
0.0
 30
0.0
210
0.0
220
0.0
230
1.0
  2
SOLID
 70
     1
 71
     0
 91
        1
 92
        0
 93
        3
 72
     2
 10
0.0000000000000104
 20
0.0
 40
3.000000000000002
 50
0.0
 51
90.0
 73
     1
 72
     1
 10
0.0000000000000104
 20
3.000000000000002
 11
0.0000000000000104
 21
0.0
 72
     1
 10
0.0000000000000104
 20
0.0
 11
3.000000000000012
 21
0.0
 97
        0
 75
     0
 76
     1
 98
        1
 10
0.0
 20
0.0
  0
HATCH
  5
120
330
11B
100
AcDbEntity
  8
0
  6
Continuous
 62
     0
370
     0
100
AcDbHatch
 10
0.0
 20
0.0
 30
0.0
210
0.0
220
0.0
230
1.0
  2
SOLID
 70
     1
 71
     0
 91
        1
 92
        0
 93
        3
 72
     2
 10
0.0000000000000104
 20
0.0
 40
3.000000000000002
 50
180.0
 51
270.0000000000008
 73
     1
 72
     1
 10
0.0000000000000104
 20
-3.000000000000002
 11
0.0000000000000104
 21
0.0
 72
     1
 10
0.0000000000000104
 20
0.0
 11
-2.999999999999992
 21
0.0
 97
        0
 75
     0
 76
     1
 98
        1
 10
0.0
 20
0.0
  0
ENDBLK
  5
11D
330
11B
100
AcDbEntity
  8
0
100
AcDbBlockEnd
  0
BLOCK
  5
1D7
330
1D6
100
AcDbEntity
  8
0
100
AcDbBlockBegin
  2
*D8
 70
     1
 10
0.0
 20
0.0
 30
0.0
  3
*D8
  1
*D8
  0
LINE
  5
1D9
330
1D6
100
AcDbEntity
  8
치수문자_일반주서
 62
     0
370
    -2
100
AcDbLine
 10
49.86708238383115
 20
9.835662114051143
 30
0.0
 11
49.86708238383115
 21
22.95399999999995
 31
0.0
  0
LINE
  5
1DA
330
1D6
100
AcDbEntity
  8
치수문자_일반주서
 62
     0
370
    -2
100
AcDbLine
 10
37.16708238383112
 20
9.841448960423941
 30
0.0
 11
37.16708238383112
 21
22.95399999999995
 31
0.0
  0
LINE
  5
1DB
330
1D6
100
AcDbEntity
  8
치수문자_일반주서
 62
     0
370
    -2
100
AcDbLine
 10
46.56508238383115
 20
22.95399999999995
 30
0.0
 11
40.46908238383111
 21
22.95399999999995
 31
0.0
  0
SOLID
  5
1DC
330
1D6
100
AcDbEntity
  8
치수문자_일반주서
 62
     0
100
AcDbTrace
 10
46.56508238383115
 20
22.40366666666662
 30
0.0
 11
46.56508238383115
 21
23.50433333333329
 31
0.0
 12
49.86708238383115
 22
22.95399999999995
 32
0.0
 13
49.86708238383115
 23
22.95399999999995
 33
0.0
  0
SOLID
  5
1DD
330
1D6
100
AcDbEntity
  8
치수문자_일반주서
 62
     0
100
AcDbTrace
 10
40.46908238383111
 20
23.50433333333329
 30
0.0
 11
40.46908238383111
 21
22.40366666666662
 31
0.0
 12
37.16708238383112
 22
22.95399999999995
 32
0.0
 13
37.16708238383112
 23
22.95399999999995
 33
0.0
  0
MTEXT
  5
1DE
330
1D6
100
AcDbEntity
  8
치수문자_일반주서
 62
     0
100
AcDbMText
 10
43.51708238383114
 20
27.32899999999995
 30
0.0
 40
3.5
 41
0.0
 71
     2
 72
     1
  1
\A1;12.70 [1/2]
  7
SLDTEXTSTYLE0
 73
     1
 44
1.0
  0
POINT
  5
1DF
330
1D6
100
AcDbEntity
  8
Defpoints
 62
     0
100
AcDbPoint
 10
49.86708238383115
 20
9.773162114051143
 30
0.0
  0
POINT
  5
1E0
330
1D6
100
AcDbEntity
  8
Defpoints
 62
     0
100
AcDbPoint
 10
37.16708238383112
 20
9.778948960423941
 30
0.0
  0
POINT
  5
1E1
330
1D6
100
AcDbEntity
  8
Defpoints
 62
     0
100
AcDbPoint
 10
37.16708238383112
 20
22.95399999999995
 30
0.0
  0
ENDBLK
  5
1D8
330
1D6
100
AcDbEntity
  8
0
100
AcDbBlockEnd
  0
BLOCK
  5
1E3
330
1E2
100
AcDbEntity
  8
0
100
AcDbBlockBegin
  2
*D9
 70
     1
 10
0.0
 20
0.0
 30
0.0
  3
*D9
  1
*D9
  0
LINE
  5
1E5
330
1E2
100
AcDbEntity
  8
치수문자_일반주서
 62
     0
370
    -2
100
AcDbLine
 10
49.86708238383115
 20
9.835662114051143
 30
0.0
 11
49.86708238383115
 21
38.47749743354631
 31
0.0
  0
LINE
  5
1E6
330
1E2
100
AcDbEntity
  8
치수문자_일반주서
 62
     0
370
    -2
100
AcDbLine
 10
11.76708238383115
 20
9.52399999999993
 30
0.0
 11
11.76708238383115
 21
38.47749743354631
 31
0.0
  0
LINE
  5
1E7
330
1E2
100
AcDbEntity
  8
치수문자_일반주서
 62
     0
370
    -2
100
AcDbLine
 10
46.56508238383115
 20
38.47749743354631
 30
0.0
 11
15.06908238383115
 21
38.47749743354631
 31
0.0
  0
SOLID
  5
1E8
330
1E2
100
AcDbEntity
  8
치수문자_일반주서
 62
     0
100
AcDbTrace
 10
46.56508238383115
 20
37.92716410021298
 30
0.0
 11
46.56508238383115
 21
39.02783076687965
 31
0.0
 12
49.86708238383115
 22
38.47749743354631
 32
0.0
 13
49.86708238383115
 23
38.47749743354631
 33
0.0
  0
SOLID
  5
1E9
330
1E2
100
AcDbEntity
  8
치수문자_일반주서
 62
     0
100
AcDbTrace
 10
15.06908238383115
 20
39.02783076687965
 30
0.0
 11
15.06908238383115
 21
37.92716410021298
 31
0.0
 12
11.76708238383115
 22
38.47749743354631
 32
0.0
 13
11.76708238383115
 23
38.47749743354631
 33
0.0
  0
MTEXT
  5
1EA
330
1E2
100
AcDbEntity
  8
치수문자_일반주서
 62
     0
100
AcDbMText
 10
30.81708238383115
 20
42.85249743354631
 30
0.0
 40
3.5
 41
0.0
 71
     2
 72
     1
  1
\A1;38.10 [1 1/2]
  7
SLDTEXTSTYLE0
 73
     1
 44
1.0
  0
POINT
  5
1EB
330
1E2
100
AcDbEntity
  8
Defpoints
 62
     0
100
AcDbPoint
 10
49.86708238383115
 20
9.773162114051143
 30
0.0
  0
POINT
  5
1EC
330
1E2
100
AcDbEntity
  8
Defpoints
 62
     0
100
AcDbPoint
 10
11.76708238383115
 20
9.46149999999993
 30
0.0
  0
POINT
  5
1ED
330
1E2
100
AcDbEntity
  8
Defpoints
 62
     0
100
AcDbPoint
 10
11.76708238383115
 20
38.47749743354631
 30
0.0
  0
ENDBLK
  5
1E4
330
1E2
100
AcDbEntity
  8
0
100
AcDbBlockEnd
  0
BLOCK
  5
1EF
330
1EE
100
AcDbEntity
  8
0
100
AcDbBlockBegin
  2
*D10
 70
     1
 10
0.0
 20
0.0
 30
0.0
  3
*D10
  1
*D10
  0
LINE
  5
1F1
330
1EE
100
AcDbEntity
  8
치수문자_일반주서
 62
     0
370
    -2
100
AcDbLine
 10
12.08458238383115
 20
9.778999999999932
 30
0.0
 11
4.375000000000102
 21
9.778999999999904
 31
0.0
  0
LINE
  5
1F2
330
1EE
100
AcDbEntity
  8
치수문자_일반주서
 62
     0
370
    -2
100
AcDbLine
 10
12.08458238383115
 20
6.603999999999949
 30
0.0
 11
4.375000000000113
 21
6.603999999999921
 31
0.0
  0
LINE
  5
1F3
330
1EE
100
AcDbEntity
  8
치수문자_일반주서
 62
     0
370
    -2
100
AcDbLine
 10
4.375000000000102
 20
9.778999999999904
 30
0.0
 11
4.374999999999998
 21
40.8829999999999
 31
0.0
  0
SOLID
  5
1F4
330
1EE
100
AcDbEntity
  8
치수문자_일반주서
 62
     0
100
AcDbTrace
 10
4.925333333333446
 20
6.476999999999906
 30
0.0
 11
3.82466666666678
 21
6.476999999999903
 31
0.0
 12
4.375000000000102
 22
9.778999999999904
 32
0.0
 13
4.375000000000102
 23
9.778999999999904
 33
0.0
  0
SOLID
  5
1F5
330
1EE
100
AcDbEntity
  8
치수문자_일반주서
 62
     0
100
AcDbTrace
 10
3.824666666666769
 20
9.905999999999919
 30
0.0
 11
4.925333333333436
 21
9.905999999999922
 31
0.0
 12
4.375000000000113
 22
6.603999999999921
 32
0.0
 13
4.375000000000113
 23
6.603999999999921
 33
0.0
  0
MTEXT
  5
1F6
330
1EE
100
AcDbEntity
  8
치수문자_일반주서
 62
     0
100
AcDbMText
 10
0.0000000000000391
 20
28.63299999999989
 30
0.0
 40
3.5
 41
0.0
 71
     2
 72
     1
  1
\A1;%%c3.18 [1/8]
  7
SLDTEXTSTYLE0
 11
-3.356894814614663E-15
 21
1.0
 31
0.0
 73
     1
 44
1.0
  0
POINT
  5
1F7
330
1EE
100
AcDbEntity
  8
Defpoints
 62
     0
100
AcDbPoint
 10
12.14708238383115
 20
9.778999999999932
 30
0.0
  0
POINT
  5
1F8
330
1EE
100
AcDbEntity
  8
Defpoints
 62
     0
100
AcDbPoint
 10
12.14708238383115
 20
6.603999999999949
 30
0.0
  0
POINT
  5
1F9
330
1EE
100
AcDbEntity
  8
Defpoints
 62
     0
100
AcDbPoint
 10
4.375000000000117
 20
6.60399999999992
 30
0.0
  0
ENDBLK
  5
1F0
330
1EE
100
AcDbEntity
  8
0
100
AcDbBlockEnd
  0
BLOCK
  5
1FB
330
1FA
100
AcDbEntity
  8
0
100
AcDbBlockBegin
  2
*D11
 70
     1
 10
0.0
 20
0.0
 30
0.0
  3
*D11
  1
*D11
  0
LINE
  5
1FD
330
1FA
100
AcDbEntity
  8
치수문자_일반주서
 62
     0
370
    -2
100
AcDbLine
 10
45.84571216356176
 20
9.778999999999929
 30
0.0
 11
65.01981375954573
 21
9.779
 31
0.0
  0
LINE
  5
1FE
330
1FA
100
AcDbEntity
  8
치수문자_일반주서
 62
     0
370
    -2
100
AcDbLine
 10
45.84571216356174
 20
6.603999999999927
 30
0.0
 11
65.01981375954574
 21
6.603999999999999
 31
0.0
  0
LINE
  5
1FF
330
1FA
100
AcDbEntity
  8
치수문자_일반주서
 62
     0
370
    -2
100
AcDbLine
 10
65.01981375954573
 20
9.779
 30
0.0
 11
65.01981375954558
 21
41.10175
 31
0.0
  0
LINE
  5
200
330
1FA
100
AcDbEntity
  8
치수문자_일반주서
 62
     0
370
    -2
100
AcDbLine
 10
65.01981375954571
 20
13.081
 30
0.0
 11
65.0198137595457
 21
16.383
 31
0.0
  0
LINE
  5
201
330
1FA
100
AcDbEntity
  8
치수문자_일반주서
 62
     0
370
    -2
100
AcDbLine
 10
65.01981375954576
 20
3.302
 30
0.0
 11
65.01981375954577
 21
0.0
 31
0.0
  0
SOLID
  5
202
330
1FA
100
AcDbEntity
  8
치수문자_일반주서
 62
     0
100
AcDbTrace
 10
64.46948042621239
 20
13.081
 30
0.0
 11
65.57014709287904
 21
13.081
 31
0.0
 12
65.01981375954573
 22
9.779
 32
0.0
 13
65.01981375954573
 23
9.779
 33
0.0
  0
SOLID
  5
203
330
1FA
100
AcDbEntity
  8
치수문자_일반주서
 62
     0
100
AcDbTrace
 10
65.57014709287908
 20
3.302000000000002
 30
0.0
 11
64.46948042621243
 21
3.301999999999997
 31
0.0
 12
65.01981375954574
 22
6.603999999999999
 32
0.0
 13
65.01981375954574
 23
6.603999999999999
 33
0.0
  0
MTEXT
  5
204
330
1FA
100
AcDbEntity
  8
치수문자_일반주서
 62
     0
100
AcDbMText
 10
60.64481375954564
 20
28.85174999999998
 30
0.0
 40
3.5
 41
0.0
 71
     2
 72
     1
  1
\A1;%%c3.18 [1/8]
  7
SLDTEXTSTYLE0
 11
-4.475859752819528E-15
 21
1.0
 31
0.0
 73
     1
 44
1.0
  0
POINT
  5
205
330
1FA
100
AcDbEntity
  8
Defpoints
 62
     0
100
AcDbPoint
 10
45.78321216356176
 20
9.778999999999929
 30
0.0
  0
POINT
  5
206
330
1FA
100
AcDbEntity
  8
Defpoints
 62
     0
100
AcDbPoint
 10
45.78321216356174
 20
6.603999999999927
 30
0.0
  0
POINT
  5
207
330
1FA
100
AcDbEntity
  8
Defpoints
 62
     0
100
AcDbPoint
 10
65.01981375954574
 20
6.603999999999999
 30
0.0
  0
ENDBLK
  5
1FC
330
1FA
100
AcDbEntity
  8
0
100
AcDbBlockEnd
  0
BLOCK
  5
233
330
232
100
AcDbEntity
  8
0
100
AcDbBlockBegin
  2
*D12
 70
     1
 10
0.0
 20
0.0
 30
0.0
  3
*D12
  1
*D12
  0
LINE
  5
235
330
232
100
AcDbEntity
  8
치수문자_일반주서
 62
     0
370
    -2
100
AcDbLine
 10
22.70000000000003
 20
1.644162114051213
 30
0.0
 11
22.70000000000003
 21
14.76250000000002
 31
0.0
  0
LINE
  5
236
330
232
100
AcDbEntity
  8
치수문자_일반주서
 62
     0
370
    -2
100
AcDbLine
 10
9.999999999999996
 20
1.649948960424011
 30
0.0
 11
9.999999999999996
 21
14.76250000000002
 31
0.0
  0
LINE
  5
237
330
232
100
AcDbEntity
  8
치수문자_일반주서
 62
     0
370
    -2
100
AcDbLine
 10
19.39800000000003
 20
14.76250000000002
 30
0.0
 11
13.302
 21
14.76250000000002
 31
0.0
  0
SOLID
  5
238
330
232
100
AcDbEntity
  8
치수문자_일반주서
 62
     0
100
AcDbTrace
 10
19.39800000000003
 20
14.21216666666669
 30
0.0
 11
19.39800000000003
 21
15.31283333333335
 31
0.0
 12
22.70000000000003
 22
14.76250000000002
 32
0.0
 13
22.70000000000003
 23
14.76250000000002
 33
0.0
  0
SOLID
  5
239
330
232
100
AcDbEntity
  8
치수문자_일반주서
 62
     0
100
AcDbTrace
 10
13.302
 20
15.31283333333335
 30
0.0
 11
13.302
 21
14.21216666666669
 31
0.0
 12
9.999999999999996
 22
14.76250000000002
 32
0.0
 13
9.999999999999996
 23
14.76250000000002
 33
0.0
  0
MTEXT
  5
23A
330
232
100
AcDbEntity
  8
치수문자_일반주서
 62
     0
100
AcDbMText
 10
16.35000000000002
 20
19.13750000000002
 30
0.0
 40
3.5
 41
0.0
 71
     2
 72
     1
  1
\A1;12.70 [1/2]
  7
SLDTEXTSTYLE0
 73
     1
 44
1.0
  0
POINT
  5
23B
330
232
100
AcDbEntity
  8
Defpoints
 62
     0
100
AcDbPoint
 10
22.70000000000003
 20
1.581662114051213
 30
0.0
  0
POINT
  5
23C
330
232
100
AcDbEntity
  8
Defpoints
 62
     0
100
AcDbPoint
 10
9.999999999999996
 20
1.587448960424011
 30
0.0
  0
POINT
  5
23D
330
232
100
AcDbEntity
  8
Defpoints
 62
     0
100
AcDbPoint
 10
9.999999999999996
 20
14.76250000000002
 30
0.0
  0
ENDBLK
  5
234
330
232
100
AcDbEntity
  8
0
100
AcDbBlockEnd
  0
BLOCK
  5
23F
330
23E
100
AcDbEntity
  8
0
100
AcDbBlockBegin
  2
*D13
 70
     1
 10
0.0
 20
0.0
 30
0.0
  3
*D13
  1
*D13
  0
LINE
  5
241
330
23E
100
AcDbEntity
  8
치수문자_일반주서
 62
     0
370
    -2
100
AcDbLine
 10
22.70000000000003
 20
1.644162114051213
 30
0.0
 11
22.70000000000002
 21
30.28599743354638
 31
0.0
  0
LINE
  5
242
330
23E
100
AcDbEntity
  8
치수문자_일반주서
 62
     0
370
    -2
100
AcDbLine
 10
-15.39999999999997
 20
1.3325
 30
0.0
 11
-15.39999999999997
 21
30.28599743354638
 31
0.0
  0
LINE
  5
243
330
23E
100
AcDbEntity
  8
치수문자_일반주서
 62
     0
370
    -2
100
AcDbLine
 10
19.39800000000002
 20
30.28599743354638
 30
0.0
 11
-12.09799999999997
 21
30.28599743354638
 31
0.0
  0
SOLID
  5
244
330
23E
100
AcDbEntity
  8
치수문자_일반주서
 62
     0
100
AcDbTrace
 10
19.39800000000002
 20
29.73566410021305
 30
0.0
 11
19.39800000000002
 21
30.83633076687972
 31
0.0
 12
22.70000000000002
 22
30.28599743354638
 32
0.0
 13
22.70000000000002
 23
30.28599743354638
 33
0.0
  0
SOLID
  5
245
330
23E
100
AcDbEntity
  8
치수문자_일반주서
 62
     0
100
AcDbTrace
 10
-12.09799999999997
 20
30.83633076687972
 30
0.0
 11
-12.09799999999997
 21
29.73566410021305
 31
0.0
 12
-15.39999999999997
 22
30.28599743354638
 32
0.0
 13
-15.39999999999997
 23
30.28599743354638
 33
0.0
  0
MTEXT
  5
246
330
23E
100
AcDbEntity
  8
치수문자_일반주서
 62
     0
100
AcDbMText
 10
3.650000000000034
 20
34.66099743354638
 30
0.0
 40
3.5
 41
0.0
 71
     2
 72
     1
  1
\A1;38.10 [1 1/2]
  7
SLDTEXTSTYLE0
 73
     1
 44
1.0
  0
POINT
  5
247
330
23E
100
AcDbEntity
  8
Defpoints
 62
     0
100
AcDbPoint
 10
22.70000000000003
 20
1.581662114051213
 30
0.0
  0
POINT
  5
248
330
23E
100
AcDbEntity
  8
Defpoints
 62
     0
100
AcDbPoint
 10
-15.39999999999997
 20
1.27
 30
0.0
  0
POINT
  5
249
330
23E
100
AcDbEntity
  8
Defpoints
 62
     0
100
AcDbPoint
 10
-15.39999999999997
 20
30.28599743354638
 30
0.0
  0
ENDBLK
  5
240
330
23E
100
AcDbEntity
  8
0
100
AcDbBlockEnd
  0
BLOCK
  5
24B
330
24A
100
AcDbEntity
  8
0
100
AcDbBlockBegin
  2
*D14
 70
     1
 10
0.0
 20
0.0
 30
0.0
  3
*D14
  1
*D14
  0
LINE
  5
24D
330
24A
100
AcDbEntity
  8
치수문자_일반주서
 62
     0
370
    -2
100
AcDbLine
 10
-15.08249999999997
 20
1.587500000000002
 30
0.0
 11
-22.79208238383102
 21
1.587499999999974
 31
0.0
  0
LINE
  5
24E
330
24A
100
AcDbEntity
  8
치수문자_일반주서
 62
     0
370
    -2
100
AcDbLine
 10
-15.08249999999997
 20
-1.587499999999981
 30
0.0
 11
-22.792082383831
 21
-1.587500000000009
 31
0.0
  0
LINE
  5
24F
330
24A
100
AcDbEntity
  8
치수문자_일반주서
 62
     0
370
    -2
100
AcDbLine
 10
-22.79208238383102
 20
1.587499999999974
 30
0.0
 11
-22.79208238383112
 21
32.69149999999998
 31
0.0
  0
SOLID
  5
250
330
24A
100
AcDbEntity
  8
치수문자_일반주서
 62
     0
100
AcDbTrace
 10
-22.24174905049767
 20
-1.714500000000024
 30
0.0
 11
-23.34241571716434
 21
-1.714500000000028
 31
0.0
 12
-22.79208238383102
 22
1.587499999999974
 32
0.0
 13
-22.79208238383102
 23
1.587499999999974
 33
0.0
  0
SOLID
  5
251
330
24A
100
AcDbEntity
  8
치수문자_일반주서
 62
     0
100
AcDbTrace
 10
-23.34241571716435
 20
1.714499999999989
 30
0.0
 11
-22.24174905049768
 21
1.714499999999992
 31
0.0
 12
-22.792082383831
 22
-1.587500000000009
 32
0.0
 13
-22.792082383831
 23
-1.587500000000009
 33
0.0
  0
MTEXT
  5
252
330
24A
100
AcDbEntity
  8
치수문자_일반주서
 62
     0
100
AcDbMText
 10
-27.16708238383108
 20
20.44149999999996
 30
0.0
 40
3.5
 41
0.0
 71
     2
 72
     1
  1
\A1;%%c3.18 [1/8]
  7
SLDTEXTSTYLE0
 11
-3.356894814614664E-15
 21
1.0
 31
0.0
 73
     1
 44
1.0
  0
POINT
  5
253
330
24A
100
AcDbEntity
  8
Defpoints
 62
     0
100
AcDbPoint
 10
-15.01999999999997
 20
1.587500000000002
 30
0.0
  0
POINT
  5
254
330
24A
100
AcDbEntity
  8
Defpoints
 62
     0
100
AcDbPoint
 10
-15.01999999999997
 20
-1.587499999999981
 30
0.0
  0
POINT
  5
255
330
24A
100
AcDbEntity
  8
Defpoints
 62
     0
100
AcDbPoint
 10
-22.792082383831
 20
-1.58750000000001
 30
0.0
  0
ENDBLK
  5
24C
330
24A
100
AcDbEntity
  8
0
100
AcDbBlockEnd
  0
BLOCK
  5
257
330
256
100
AcDbEntity
  8
0
100
AcDbBlockBegin
  2
*D15
 70
     1
 10
0.0
 20
0.0
 30
0.0
  3
*D15
  1
*D15
  0
LINE
  5
259
330
256
100
AcDbEntity
  8
치수문자_일반주서
 62
     0
370
    -2
100
AcDbLine
 10
18.67862977973064
 20
1.587499999999999
 30
0.0
 11
37.85273137571461
 21
1.58750000000007
 31
0.0
  0
LINE
  5
25A
330
256
100
AcDbEntity
  8
치수문자_일반주서
 62
     0
370
    -2
100
AcDbLine
 10
18.67862977973062
 20
-1.587500000000003
 30
0.0
 11
37.85273137571463
 21
-1.587499999999931
 31
0.0
  0
LINE
  5
25B
330
256
100
AcDbEntity
  8
치수문자_일반주서
 62
     0
370
    -2
100
AcDbLine
 10
37.85273137571461
 20
1.58750000000007
 30
0.0
 11
37.85273137571447
 21
32.91025000000007
 31
0.0
  0
LINE
  5
25C
330
256
100
AcDbEntity
  8
치수문자_일반주서
 62
     0
370
    -2
100
AcDbLine
 10
37.8527313757146
 20
4.889500000000069
 30
0.0
 11
37.85273137571458
 21
8.191500000000069
 31
0.0
  0
LINE
  5
25D
330
256
100
AcDbEntity
  8
치수문자_일반주서
 62
     0
370
    -2
100
AcDbLine
 10
37.85273137571464
 20
-4.889499999999931
 30
0.0
 11
37.85273137571465
 21
-8.19149999999993
 31
0.0
  0
SOLID
  5
25E
330
256
100
AcDbEntity
  8
치수문자_일반주서
 62
     0
100
AcDbTrace
 10
37.30239804238126
 20
4.889500000000067
 30
0.0
 11
38.40306470904793
 21
4.889500000000072
 31
0.0
 12
37.85273137571461
 22
1.58750000000007
 32
0.0
 13
37.85273137571461
 23
1.58750000000007
 33
0.0
  0
SOLID
  5
25F
330
256
100
AcDbEntity
  8
치수문자_일반주서
 62
     0
100
AcDbTrace
 10
38.40306470904797
 20
-4.889499999999928
 30
0.0
 11
37.30239804238131
 21
-4.889499999999933
 31
0.0
 12
37.85273137571463
 22
-1.587499999999931
 32
0.0
 13
37.85273137571463
 23
-1.587499999999931
 33
0.0
  0
MTEXT
  5
260
330
256
100
AcDbEntity
  8
치수문자_일반주서
 62
     0
100
AcDbMText
 10
33.47773137571453
 20
20.66025000000005
 30
0.0
 40
3.5
 41
0.0
 71
     2
 72
     1
  1
\A1;%%c3.18 [1/8]
  7
SLDTEXTSTYLE0
 11
-4.475859752819526E-15
 21
1.0
 31
0.0
 73
     1
 44
1.0
  0
POINT
  5
261
330
256
100
AcDbEntity
  8
Defpoints
 62
     0
100
AcDbPoint
 10
18.61612977973064
 20
1.587499999999999
 30
0.0
  0
POINT
  5
262
330
256
100
AcDbEntity
  8
Defpoints
 62
     0
100
AcDbPoint
 10
18.61612977973062
 20
-1.587500000000003
 30
0.0
  0
POINT
  5
263
330
256
100
AcDbEntity
  8
Defpoints
 62
     0
100
AcDbPoint
 10
37.8527313757146
 20
-1.587499999999931
 30
0.0
  0
ENDBLK
  5
258
330
256
100
AcDbEntity
  8
0
100
AcDbBlockEnd
  0
BLOCK
  5
26C
330
26B
100
AcDbEntity
  8
0
100
AcDbBlockBegin
  2
*D16
 70
     1
 10
0.0
 20
0.0
 30
0.0
  3
*D16
  1
*D16
  0
LINE
  5
26E
330
26B
100
AcDbEntity
  8
치수문자_일반주서
 62
     0
370
    -2
100
AcDbLine
 10
24.10102257727736
 20
-4.423841372807058
 30
0.0
 11
40.83415651581286
 21
-34.68938959446547
 31
0.0
  0
MTEXT
  5
26F
330
26B
100
AcDbEntity
  8
치수문자_일반주서
 62
     0
100
AcDbMText
 10
36.35751504754011
 20
-21.16717431129014
 30
0.0
 40
3.5
 41
0.0
 71
     5
 72
     1
  1
\A1;R.38 [R0.015]
  7
SLDTEXTSTYLE0
 11
0.4838508219596338
 21
-0.8751504911093787
 31
0.0
 73
     1
 44
1.0
  0
SOLID
  5
270
330
26B
100
AcDbEntity
  8
치수문자_일반주서
 62
     0
100
AcDbTrace
 10
24.58264706421789
 20
-4.157562137121939
 30
0.0
 11
23.61939809033683
 21
-4.690120608492176
 31
0.0
 12
22.50334716316665
 22
-1.534094451163889
 32
0.0
 13
22.50334716316665
 23
-1.534094451163889
 33
0.0
  0
LINE
  5
271
330
26B
100
AcDbEntity
  8
치수문자_일반주서
 62
     0
100
AcDbLine
 10
22.22900000000003
 20
-1.200662114051216
 30
0.0
 11
22.40900000000003
 21
-1.200662114051216
 31
0.0
  0
LINE
  5
272
330
26B
100
AcDbEntity
  8
치수문자_일반주서
 62
     0
100
AcDbLine
 10
22.31900000000003
 20
-1.290662114051216
 30
0.0
 11
22.31900000000003
 21
-1.110662114051216
 31
0.0
  0
POINT
  5
273
330
26B
100
AcDbEntity
  8
Defpoints
 62
     0
100
AcDbPoint
 10
22.50334716316665
 20
-1.534094451163889
 30
0.0
  0
POINT
  5
274
330
26B
100
AcDbEntity
  8
Defpoints
 62
     0
100
AcDbPoint
 10
22.31900000000003
 20
-1.200662114051216
 30
0.0
  0
ENDBLK
  5
26D
330
26B
100
AcDbEntity
  8
0
100
AcDbBlockEnd
  0
BLOCK
  5
27C
330
27B
100
AcDbEntity
  8
0
100
AcDbBlockBegin
  2
*D17
 70
     1
 10
0.0
 20
0.0
 30
0.0
  3
*D17
  1
*D17
  0
LINE
  5
27E
330
27B
100
AcDbEntity
  8
치수문자_일반주서
 62
     0
370
    -2
100
AcDbLine
 10
24.34965338369314
 20
-4.070191343133537
 30
0.0
 11
47.34545572505284
 21
-35.26095826378311
 31
0.0
  0
MTEXT
  5
27F
330
27B
100
AcDbEntity
  8
치수문자_일반주서
 62
     0
100
AcDbMText
 10
41.66968265647791
 20
-23.13900091053197
 30
0.0
 40
3.5
 41
0.0
 71
     5
 72
     1
  1
\A1;R.76 [R0.03]
  7
SLDTEXTSTYLE0
 11
0.5934186475622828
 21
-0.8048939735923927
 31
0.0
 73
     1
 44
1.0
  0
SOLID
  5
280
330
27B
100
AcDbEntity
  8
치수문자_일반주서
 62
     0
100
AcDbTrace
 10
24.79261336716016
 20
-3.743613280758427
 30
0.0
 11
23.90669340022613
 21
-4.396769405508647
 31
0.0
 12
22.39018500944249
 22
-1.412431442331457
 32
0.0
 13
22.39018500944249
 23
-1.412431442331457
 33
0.0
  0
LINE
  5
281
330
27B
100
AcDbEntity
  8
치수문자_일반주서
 62
     0
100
AcDbLine
 10
21.84800000000003
 20
-0.7991022344540539
 30
0.0
 11
22.02800000000003
 21
-0.7991022344540539
 31
0.0
  0
LINE
  5
282
330
27B
100
AcDbEntity
  8
치수문자_일반주서
 62
     0
100
AcDbLine
 10
21.93800000000003
 20
-0.8891022344540539
 30
0.0
 11
21.93800000000003
 21
-0.709102234454054
 31
0.0
  0
POINT
  5
283
330
27B
100
AcDbEntity
  8
Defpoints
 62
     0
100
AcDbPoint
 10
22.39018500944249
 20
-1.412431442331457
 30
0.0
  0
POINT
  5
284
330
27B
100
AcDbEntity
  8
Defpoints
 62
     0
100
AcDbPoint
 10
21.93800000000003
 20
-0.7991022344540539
 30
0.0
  0
ENDBLK
  5
27D
330
27B
100
AcDbEntity
  8
0
100
AcDbBlockEnd
  0
ENDSEC
  0
SECTION
  2
ENTITIES
  0
LINE
  5
B9
330
1F
100
AcDbEntity
  8
참조1
100
AcDbLine
 10
-1.112500000000002
 20
0.0010749287238892
 30
0.0
 11
-1.112499999999999
 21
-39.99892507127611
 31
0.0
  0
LINE
  5
BA
330
1F
100
AcDbEntity
  8
참조1
100
AcDbLine
 10
-1.112499999999999
 20
-39.99892507127611
 30
0.0
 11
-14.68385681430867
 21
-39.9989250712761
 31
0.0
  0
INSERT
  5
BC
330
1F
100
AcDbEntity
  8
0
  6
Continuous
 62
     7
100
AcDbBlockReference
 66
     1
  2
블럭10
 10
-15.05277293212521
 20
-52.04609937292004
 30
0.0
  0
ATTRIB
  5
BD
330
BC
100
AcDbEntity
  8
FORMAT
 62
     2
100
AcDbText
 10
-24.23406822086649
 20
-49.97073246008785
 30
0.0
 40
4.233333333333333
  1
E5216901 [ 4 FLUTE ]
 41
0.75
  7
SLDTEXTSTYLE0
 11
-24.23406822086649
 21
-52.08739912675452
 31
0.0
100
AcDbAttribute
  2
AUTOATTR0
 70
     0
 74
     1
  0
SEQEND
  5
BE
330
BC
100
AcDbEntity
  8
0
  6
Continuous
 62
     7
  0
HATCH
  5
BF
330
1F
100
AcDbEntity
  8
중심선
100
AcDbHatch
 10
0.0
 20
0.0
 30
0.0
210
0.0
220
0.0
230
1.0
  2
SOLID
 70
     1
 71
     0
 91
        1
 92
        0
 93
        4
 72
     1
 10
-9.337863627744358
 20
-35.7989250712761
 11
-12.78413887158164
 21
-35.7989250712761
 72
     1
 10
-12.78413887158164
 20
-35.7989250712761
 11
-14.91236873078566
 21
-38.3352506518487
 72
     1
 10
-14.91236873078566
 20
-38.3352506518487
 11
-11.46606040183523
 21
-38.33521122254621
 72
     1
 10
-11.46606040183523
 20
-38.33521122254621
 11
-9.337863627744358
 21
-35.7989250712761
 97
        0
 75
     0
 76
     1
 98
        1
 10
0.0
 20
0.0
  0
HATCH
  5
C0
330
1F
100
AcDbEntity
  8
중심선
100
AcDbHatch
 10
0.0
 20
0.0
 30
0.0
210
0.0
220
0.0
230
1.0
  2
SOLID
 70
     1
 71
     0
 91
        1
 92
        0
 93
        4
 72
     1
 10
-4.325099636708379
 20
-35.79892507127608
 11
-7.771374880545689
 21
-35.79892507127613
 72
     1
 10
-7.771374880545689
 20
-35.79892507127613
 11
-12.30251288890308
 21
-41.19892507127612
 72
     1
 10
-12.30251288890308
 20
-41.19892507127612
 11
-8.856237645065795
 21
-41.19892507127612
 72
     1
 10
-8.856237645065795
 20
-41.19892507127612
 11
-4.325099636708379
 21
-35.79892507127608
 97
        0
 75
     0
 76
     1
 98
        1
 10
0.0
 20
0.0
  0
HATCH
  5
C1
330
1F
100
AcDbEntity
  8
중심선
100
AcDbHatch
 10
0.0
 20
0.0
 30
0.0
210
0.0
220
0.0
230
1.0
  2
SOLID
 70
     1
 71
     0
 91
        1
 92
        0
 93
        4
 72
     1
 10
0.6876643543274885
 20
-35.7989250712761
 11
-2.758610889509599
 21
-35.7989250712761
 72
     1
 10
-2.758610889509599
 20
-35.7989250712761
 11
-9.807047791398876
 21
-44.19892507127612
 72
     1
 10
-9.807047791398876
 20
-44.19892507127612
 11
-6.360772547561594
 21
-44.19892507127612
 72
     1
 10
-6.360772547561594
 20
-44.19892507127612
 11
0.687664354327489
 21
-35.7989250712761
 97
        0
 75
     0
 76
     1
 98
        1
 10
0.0
 20
0.0
  0
HATCH
  5
C2
330
1F
100
AcDbEntity
  8
중심선
100
AcDbHatch
 10
0.0
 20
0.0
 30
0.0
210
0.0
220
0.0
230
1.0
  2
SOLID
 70
     1
 71
     0
 91
        1
 92
        0
 93
        6
 72
     3
 10
5.487554785339688
 20
-39.99892507132738
 11
3.960054785062284
 21
1.540850780301639E-10
 40
0.3939339440162633
 50
17.09539180608434
 51
320.0019657685081
 73
     0
 72
     1
 10
7.170554441040256
 20
-38.58681907591443
 11
9.475856314741321
 21
-36.65249236586649
 72
     3
 10
5.487554785286841
 20
-39.99892507127625
 11
6.600054785286829
 21
-1.249000902703301E-13
 40
0.6363583540795982
 50
39.99873849337408
 51
368.4976242363725
 73
     1
 72
     1
 10
11.91288727718745
 20
-39.03892507120613
 11
4.167622092122763
 21
-39.0389250712061
 72
     1
 10
4.167622092122763
 20
-39.0389250712061
 11
4.16759704767683
 21
-40.95892507120602
 72
     1
 10
4.16759704767683
 20
-40.95892507120602
 11
8.608976817148866
 21
-40.95892507120599
 97
        0
 75
     0
 76
     1
 98
        1
 10
0.0
 20
0.0
  0
LINE
  5
114
330
1F
100
AcDbEntity
  8
참조1
100
AcDbLine
 10
83.28848381534559
 20
7.441074928723896
 30
0.0
 11
83.28848381534559
 21
-7.438925071276109
 31
0.0
  0
LINE
  5
115
330
1F
100
AcDbEntity
  8
참조1
100
AcDbLine
 10
95.9884838153456
 20
5.441074928723896
 30
0.0
 11
83.28848381534559
 21
5.441074928723896
 31
0.0
  0
SOLID
  5
116
330
1F
100
AcDbEntity
  8
참조1
100
AcDbTrace
 10
83.28848381534559
 20
5.441074928723896
 30
0.0
 11
89.63848381534558
 21
4.425074928723896
 31
0.0
 12
89.63848381534558
 22
6.457074928723896
 32
0.0
 13
89.63848381534558
 23
6.457074928723896
 33
0.0
  0
LINE
  5
117
330
1F
100
AcDbEntity
  8
참조1
100
AcDbLine
 10
95.9884838153456
 20
-5.438925071276109
 30
0.0
 11
83.28848381534559
 21
-5.438925071276109
 31
0.0
  0
SOLID
  5
118
330
1F
100
AcDbEntity
  8
참조1
100
AcDbTrace
 10
83.28848381534559
 20
-5.438925071276109
 30
0.0
 11
89.63848381534558
 21
-6.454925071276109
 31
0.0
 12
89.63848381534558
 22
-4.422925071276109
 32
0.0
 13
89.63848381534558
 23
-4.422925071276109
 33
0.0
  0
MTEXT
  5
119
330
1F
100
AcDbEntity
  8
참조1
100
AcDbMText
 10
92.68597390781586
 20
10.98929157337383
 30
0.0
 40
3.5
 41
0.0
 71
     1
 72
     1
  1
A
  7
SLDTEXTSTYLE0
 73
     1
 44
1.0
  0
MTEXT
  5
11A
330
1F
100
AcDbEntity
  8
참조1
100
AcDbMText
 10
92.68597390781586
 20
0.1092915733738259
 30
0.0
 40
3.5
 41
0.0
 71
     1
 72
     1
  1
A
  7
SLDTEXTSTYLE0
 73
     1
 44
1.0
  0
LINE
  5
209
330
1F
100
AcDbEntity
  8
외형선
  6
Continuous
 62
     1
370
    15
100
AcDbLine
 10
22.10612584274479
 20
0.4716051018186569
 30
0.0
 11
22.09749202451452
 21
0.4762525324889104
 31
0.0
  0
LINE
  5
20A
330
1F
100
AcDbEntity
  8
외형선
  6
Continuous
 62
     1
370
    15
100
AcDbLine
 10
15.2655434694199
 20
1.587499999999999
 30
0.0
 11
14.2970774623145
 21
1.587499999999999
 31
0.0
  0
LINE
  5
20B
330
1F
100
AcDbEntity
  8
외형선
  6
Continuous
 62
     1
370
    15
100
AcDbLine
 10
14.29707746231449
 20
-1.587500000000003
 30
0.0
 11
15.26554346941988
 21
-1.587500000000003
 31
0.0
  0
LINE
  5
20C
330
1F
100
AcDbEntity
  8
외형선
  6
Continuous
 62
     1
370
    15
100
AcDbLine
 10
18.61639171878982
 20
-1.587500000000003
 30
0.0
 11
19.58455970060903
 21
-1.587500000000003
 31
0.0
  0
LINE
  5
20D
330
1F
100
AcDbEntity
  8
외형선
  6
Continuous
 62
     1
370
    15
100
AcDbLine
 10
10.94622484095314
 20
1.587499999999999
 30
0.0
 11
10.00000000000004
 21
1.587499999999999
 31
0.0
  0
LINE
  5
20E
330
1F
100
AcDbEntity
  8
외형선
  6
Continuous
 62
     1
370
    15
100
AcDbLine
 10
10.00000000000004
 20
-1.587500000000003
 30
0.0
 11
10.94622484095313
 21
-1.587500000000003
 31
0.0
  0
LINE
  5
20F
330
1F
100
AcDbEntity
  8
외형선
  6
Continuous
 62
     1
370
    15
100
AcDbLine
 10
19.58455970060903
 20
1.587499999999999
 30
0.0
 11
18.61639171878984
 21
1.587499999999999
 31
0.0
  0
SPLINE
  5
210
330
1F
100
AcDbEntity
  8
외형선
  6
Continuous
 62
     1
370
    15
100
AcDbSpline
210
0.0
220
0.0
230
1.0
 70
     8
 71
     3
 72
    26
 73
    22
 74
     0
 42
0.000000001
 43
0.00000001
 40
0.0
 40
0.0
 40
0.0
 40
0.0
 40
0.0578260434289308
 40
0.1151772286181651
 40
0.1729996300563972
 40
0.2303779288225769
 40
0.2881571575542102
 40
0.3456083024721451
 40
0.4033049513186818
 40
0.4565713928529346
 40
0.5097204520547497
 40
0.5631584599779094
 40
0.6161700514922366
 40
0.6696425914952006
 40
0.7217535801526915
 40
0.7741585104808897
 40
0.8265129526980842
 40
0.8786670889645561
 40
0.9321262626519203
 40
0.9851320796305122
 40
1.0
 40
1.0
 40
1.0
 40
1.0
 10
10.00000000000061
 20
0.5354032327057396
 30
0.0
 10
10.13398016192206
 20
0.4619019137813982
 30
0.0
 10
10.40084026205825
 20
0.3155028570330298
 30
0.0
 10
10.80023701462362
 20
0.0834893977478046
 30
0.0
 10
11.2003811135149
 20
-0.1458517625589106
 30
0.0
 10
11.5997432690241
 20
-0.3758988556775762
 30
0.0
 10
11.9998532228439
 20
-0.5948076536180062
 30
0.0
 10
12.39938541555441
 20
-0.8036858630970833
 30
0.0
 10
12.78938622672176
 20
-0.9891919461220695
 30
0.0
 10
13.16913644841871
 20
-1.151266463138592
 30
0.0
 10
13.53857576283898
 20
-1.288752411411279
 30
0.0
 10
13.90854282045454
 20
-1.40180170927916
 30
0.0
 10
14.27765079542779
 20
-1.490980059161547
 30
0.0
 10
14.64544198960254
 20
-1.551660814175798
 30
0.0
 10
15.01027148041758
 20
-1.585345682334591
 30
0.0
 10
15.37356044298766
 20
-1.590882641704874
 30
0.0
 10
15.73676076210167
 20
-1.568837506813172
 30
0.0
 10
16.10168857816667
 20
-1.519196189004606
 30
0.0
 10
16.46950094841274
 20
-1.441446333480454
 30
0.0
 10
16.74945053912799
 20
-1.366210057190737
 30
0.0
 10
16.90665211682015
 20
-1.311346261927734
 30
0.0
 10
16.94108753514843
 20
-1.299328203529756
 30
0.0
  0
SPLINE
  5
211
330
1F
100
AcDbEntity
  8
외형선
  6
Continuous
 62
     1
370
    15
100
AcDbSpline
210
0.0
220
0.0
230
1.0
 70
     8
 71
     3
 72
    30
 73
    26
 74
     0
 42
0.000000001
 43
0.00000001
 40
0.0
 40
0.0
 40
0.0
 40
0.0
 40
0.0377093614874683
 40
0.0807002221325826
 40
0.123618328339094
 40
0.1656559155887884
 40
0.2079459088897439
 40
0.2498800326306038
 40
0.2921788360429038
 40
0.3349529975833684
 40
0.3779064316033451
 40
0.4208673124104976
 40
0.4636348819584836
 40
0.5067020178289983
 40
0.5486360635614852
 40
0.5909265653796111
 40
0.6329628351567251
 40
0.6751126961610178
 40
0.7215909469809162
 40
0.767871429067288
 40
0.8144162031374778
 40
0.8606380031031361
 40
0.9072175554823934
 40
0.9534175137699799
 40
1.0
 40
1.0
 40
1.0
 40
1.0
 10
18.61639171878982
 20
-1.586015798666248
 30
0.0
 10
18.50819808039187
 20
-1.584460877768596
 30
0.0
 10
18.27665741495396
 20
-1.58113325680422
 30
0.0
 10
17.9213033755072
 20
-1.541189730747107
 30
0.0
 10
17.55374161477179
 20
-1.474965745071577
 30
0.0
 10
17.1887375307088
 20
-1.381787786151867
 30
0.0
 10
16.82535998665403
 20
-1.266640036485014
 30
0.0
 10
16.46287472075342
 20
-1.127377607389831
 30
0.0
 10
16.09730290987856
 20
-0.9699000370589816
 30
0.0
 10
15.73017676628847
 20
-0.7920873670229831
 30
0.0
 10
15.36034778547018
 20
-0.6001555645429493
 30
0.0
 10
14.99050318181452
 20
-0.3975499705867778
 30
0.0
 10
14.62119806853447
 20
-0.1861051363186697
 30
0.0
 10
14.25341744604963
 20
0.024569181675874
 30
0.0
 10
13.88873072853593
 20
0.2369258741744957
 30
0.0
 10
13.5253532574965
 20
0.4406592279737556
 30
0.0
 10
13.16255882602485
 20
0.6390865191617809
 30
0.0
 10
12.78719611845285
 20
0.8316225633452756
 30
0.0
 10
12.39938723769889
 20
1.014091726796567
 30
0.0
 10
11.9998527322781
 20
1.182164708077028
 30
0.0
 10
11.59974339973511
 20
1.323561875410624
 30
0.0
 10
11.20038107829616
 20
1.43892686622562
 30
0.0
 10
10.80023702395757
 20
1.521769632839167
 30
0.0
 10
10.40084025971024
 20
1.576014279799304
 30
0.0
 10
10.13398016113722
 20
1.583626938270394
 30
0.0
 10
10.0000000000006
 20
1.587448960423906
 30
0.0
  0
SPLINE
  5
212
330
1F
100
AcDbEntity
  8
외형선
  6
Continuous
370
    15
100
AcDbSpline
210
0.0
220
0.0
230
1.0
 70
    24
 71
     3
 72
    15
 73
    11
 74
     0
 42
0.000000001
 43
0.00000001
 40
0.0
 40
0.0
 40
0.0
 40
0.0
 40
0.1403214473996553
 40
0.2849840874487451
 40
0.4210657922133875
 40
0.5610938756350324
 40
0.6971755803996741
 40
0.8372036638213198
 40
0.9732853685860803
 40
1.0
 40
1.0
 40
1.0
 40
1.0
 10
9.999999999999996
 20
1.587448960424011
 30
0.0
 10
10.00000000000001
 20
1.534819321163084
 30
0.0
 10
10.00000000000004
 20
1.427931813975295
 30
0.0
 10
10.00000000000001
 20
1.263646139822891
 30
0.0
 10
10.00000000000007
 20
1.101116351198401
 30
0.0
 10
9.999999999999996
 20
0.9472656835814668
 30
0.0
 10
10.00000000000005
 20
0.80143261459326
 30
0.0
 10
10.00000000000006
 20
0.6728052309720649
 30
0.0
 10
10.00000000000003
 20
0.5859166939966585
 30
0.0
 10
10.00000000000005
 20
0.5504621489835468
 30
0.0
 10
10.00000000000004
 20
0.5446441120165844
 30
0.0
  0
SPLINE
  5
213
330
1F
100
AcDbEntity
  8
외형선
  6
Continuous
 62
     1
370
    15
100
AcDbSpline
210
0.0
220
0.0
230
1.0
 70
     8
 71
     3
 72
    36
 73
    32
 74
     0
 42
0.000000001
 43
0.00000001
 40
0.0
 40
0.0
 40
0.0
 40
0.0
 40
0.024690908204697
 40
0.0633015669328271
 40
0.1021820170350983
 40
0.1408416949562954
 40
0.1796665759003685
 40
0.2155103084606858
 40
0.2512750528098514
 40
0.287234234789788
 40
0.3229064752118267
 40
0.3588888943106248
 40
0.3939551064902334
 40
0.4292191161259833
 40
0.4644491516065959
 40
0.499544398414995
 40
0.5355178231333186
 40
0.5711861777895992
 40
0.6071601815519941
 40
0.6428893685235022
 40
0.6787715797092737
 40
0.7140206912355588
 40
0.7490992432969608
 40
0.7844380699066293
 40
0.8194695612175534
 40
0.8554296053729024
 40
0.8911924330499733
 40
0.9270381762347362
 40
0.9629537079859303
 40
0.9986547564775483
 40
1.0
 40
1.0
 40
1.0
 40
1.0
 10
10.94622484095314
 20
1.583598808458325
 30
0.0
 10
11.03122392115233
 20
1.583842837977944
 30
0.0
 10
11.2491411771662
 20
1.584468471139822
 30
0.0
 10
11.5997505687238
 20
1.547262560793921
 30
0.0
 10
11.9998512734359
 20
1.478110498800772
 30
0.0
 10
12.39938594052062
 20
1.375492576220104
 30
0.0
 10
12.78938609774548
 20
1.248242172680902
 30
0.0
 10
13.16913648185784
 20
1.100023256725937
 30
0.0
 10
13.53857575330071
 20
0.9351075642634754
 30
0.0
 10
13.90854282497922
 20
0.755232551201404
 30
0.0
 10
14.27765078684627
 20
0.5588940753195981
 30
0.0
 10
14.64544201936659
 20
0.3569568791647004
 30
0.0
 10
15.01027137281912
 20
0.1469463557309219
 30
0.0
 10
15.37356084709286
 20
-0.0623826086084236
 30
0.0
 10
15.73675925824657
 20
-0.2710189358606359
 30
0.0
 10
16.10169422593038
 20
-0.4774533615395873
 30
0.0
 10
16.46947935766795
 20
-0.674144439108499
 30
0.0
 10
16.83857358124822
 20
-0.8629080492283334
 30
0.0
 10
17.20855133353848
 20
-1.033199339795867
 30
0.0
 10
17.57787375791586
 20
-1.187067633114656
 30
0.0
 10
17.94551196915407
 20
-1.317539590473855
 30
0.0
 10
18.31095880900572
 20
-1.424077200704726
 30
0.0
 10
18.67363106405712
 20
-1.505776713719517
 30
0.0
 10
19.03701453230588
 20
-1.560435685766722
 30
0.0
 10
19.40171164756129
 20
-1.588749732263467
 30
0.0
 10
19.76947633450596
 20
-1.588743958716398
 30
0.0
 10
20.13891859493399
 20
-1.559912376105892
 30
0.0
 10
20.50863360978017
 20
-1.503562812123371
 30
0.0
 10
20.87858628643363
 20
-1.418000693441914
 30
0.0
 10
21.12884221123176
 20
-1.34831261273436
 30
0.0
 10
21.25632734674495
 20
-1.302616817127264
 30
0.0
 10
21.26095665087864
 20
-1.30095748849539
 30
0.0
  0
SPLINE
  5
214
330
1F
100
AcDbEntity
  8
외형선
  6
Continuous
 62
     1
370
    15
100
AcDbSpline
210
0.0
220
0.0
230
1.0
 70
     8
 71
     3
 72
    34
 73
    30
 74
     0
 42
0.000000001
 43
0.00000001
 40
0.0529633292587699
 40
0.0529633292587699
 40
0.0529633292587699
 40
0.0529633292587699
 40
0.0734293672557671
 40
0.1099501831131245
 40
0.1467806142962718
 40
0.1833035088675342
 40
0.2194271455243871
 40
0.2554389448945845
 40
0.2914012447889052
 40
0.3275482245540359
 40
0.3640578846050982
 40
0.4008850924966247
 40
0.4374277194030679
 40
0.4741828948110071
 40
0.5108758685762618
 40
0.546816039810416
 40
0.5829720064147702
 40
0.6188237211872843
 40
0.6549872200248381
 40
0.6915571278321148
 40
0.7282803052257968
 40
0.7650098492742691
 40
0.8015741212362474
 40
0.8383945083949356
 40
0.8742461564739388
 40
0.9104025578366932
 40
0.9463416026934021
 40
0.9823777627373182
 40
1.0
 40
1.0
 40
1.0
 40
1.0
 10
22.16616260444556
 20
-1.526141315888219
 30
0.0
 10
22.09734941091284
 20
-1.515166864837261
 30
0.0
 10
21.90577052234649
 20
-1.48011797061011
 30
0.0
 10
21.59131716782799
 20
-1.405286966644263
 30
0.0
 10
21.22132987925264
 20
-1.293187082640993
 30
0.0
 10
20.85437286053496
 20
-1.156779921731612
 30
0.0
 10
20.48882324020944
 20
-1.002402335088827
 30
0.0
 10
20.12576480700016
 20
-0.830714298469351
 30
0.0
 10
19.7628778273972
 20
-0.6440362112520077
 30
0.0
 10
19.397309084653
 20
-0.446888799353073
 30
0.0
 10
19.0304023772188
 20
-0.2375817641419991
 30
0.0
 10
18.66041763087241
 20
-0.02619554241417
 30
0.0
 10
18.2911876367464
 20
0.1888334280490724
 30
0.0
 10
17.92128656991632
 20
0.398271988730901
 30
0.0
 10
17.5537460111216
 20
0.6000329998087004
 30
0.0
 10
17.1887363549272
 20
0.7907862333653544
 30
0.0
 10
16.82536029946019
 20
0.9646340034148135
 30
0.0
 10
16.46287463640024
 20
1.124220955693042
 30
0.0
 10
16.09730293306943
 20
1.262672702530335
 30
0.0
 10
15.73017675916362
 20
1.381331863475623
 30
0.0
 10
15.36034779057771
 20
1.474817802398675
 30
0.0
 10
14.99050316855258
 20
1.541893547614238
 30
0.0
 10
14.62119811639092
 20
1.581351501733224
 30
0.0
 10
14.25341726844436
 20
1.59203663406487
 30
0.0
 10
13.88873137404415
 20
1.57433866827594
 30
0.0
 10
13.52535082969959
 20
1.53013479925372
 30
0.0
 10
13.16256783436809
 20
1.457377495124263
 30
0.0
 10
12.86147647473546
 20
1.380571722858054
 30
0.0
 10
12.68114912791338
 20
1.31867782543214
 30
0.0
 10
12.62192687286743
 20
1.298350924139889
 30
0.0
  0
LINE
  5
215
330
1F
100
AcDbEntity
  8
외형선
  6
Continuous
 62
     1
370
    15
100
AcDbLine
 10
22.70000000000003
 20
-0.7991022344540539
 30
0.0
 11
22.70000000000003
 21
0.1360191419435139
 31
0.0
  0
SPLINE
  5
216
330
1F
100
AcDbEntity
  8
외형선
  6
Continuous
 62
     1
370
    15
100
AcDbSpline
210
0.0
220
0.0
230
1.0
 70
     8
 71
     3
 72
    28
 73
    24
 74
     0
 42
0.000000001
 43
0.00000001
 40
0.0
 40
0.0
 40
0.0
 40
0.0
 40
0.014535104703884
 40
0.0634142082020701
 40
0.112106302253072
 40
0.1620168040735651
 40
0.2115040434438967
 40
0.2614153486457858
 40
0.3109869884145691
 40
0.3607709381144858
 40
0.4096765082340659
 40
0.4583454395418228
 40
0.5073754827930994
 40
0.5559791207435852
 40
0.6058710580093288
 40
0.6554893718023228
 40
0.7052227248119052
 40
0.7550529043649482
 40
0.8045855040461454
 40
0.8536203032374188
 40
0.9022307206249915
 40
0.9512165717270483
 40
0.9656359186959966
 40
0.9656359186959966
 40
0.9656359186959966
 40
0.9656359186959966
 10
15.26554346941989
 20
1.584607780895567
 30
0.0
 10
15.30157689771649
 20
1.585439733993837
 30
0.0
 10
15.45878466269559
 20
1.589069404922457
 30
0.0
 10
15.73677410476139
 20
1.567639916789766
 30
0.0
 10
16.10169014240434
 20
1.519259138585975
 30
0.0
 10
16.4694804525286
 20
1.442451462911764
 30
0.0
 10
16.83857328609797
 20
1.338230568122137
 30
0.0
 10
17.20855141224196
 20
1.211528471717369
 30
0.0
 10
17.57787373699031
 20
1.061299276915754
 30
0.0
 10
17.94551197385961
 20
0.8939191860082847
 30
0.0
 10
18.31095881068469
 20
0.711996974275225
 30
0.0
 10
18.67363105271238
 20
0.517128333649687
 30
0.0
 10
19.03701457623
 20
0.3160647486810131
 30
0.0
 10
19.40171148307553
 20
0.1048929098187603
 30
0.0
 10
19.7694769653282
 20
-0.1062721741007699
 30
0.0
 10
20.13891625470938
 20
-0.3190653948711439
 30
0.0
 10
20.5086423744485
 20
-0.5252309631309222
 30
0.0
 10
20.87855359033648
 20
-0.7212490931784385
 30
0.0
 10
21.24557118968757
 20
-0.9050547130206388
 30
0.0
 10
21.61115041532999
 20
-1.069312558866481
 30
0.0
 10
21.97366650432863
 20
-1.216014933094839
 30
0.0
 10
22.25172528082069
 20
-1.311976505546899
 30
0.0
 10
22.40888759820675
 20
-1.358102958246256
 30
0.0
 10
22.44462042920228
 20
-1.368294417038213
 30
0.0
  0
SPLINE
  5
217
330
1F
100
AcDbEntity
  8
외형선
  6
Continuous
 62
     1
370
    15
100
AcDbSpline
210
0.0
220
0.0
230
1.0
 70
     8
 71
     3
 72
    23
 73
    19
 74
     0
 42
0.000000001
 43
0.00000001
 40
0.0
 40
0.0
 40
0.0
 40
0.0
 40
0.0641288478394798
 40
0.1285026054939242
 40
0.1924146364404482
 40
0.2568684993208667
 40
0.3207841680510575
 40
0.3840011288366871
 40
0.447022372523509
 40
0.5099569913099883
 40
0.5732148029206505
 40
0.6371073110219032
 40
0.7015555330887479
 40
0.7655057337314141
 40
0.8298278977622563
 40
0.8940412078910468
 40
0.9569371011567468
 40
0.9999999999999999
 40
0.9999999999999999
 40
0.9999999999999999
 40
0.9999999999999999
 10
22.70000000000002
 20
0.1360191419435139
 30
0.0
 10
22.57696142890232
 20
0.2066998940394367
 30
0.0
 10
22.33041439905582
 20
0.3483313299468911
 30
0.0
 10
21.96046667506198
 20
0.5522105218372566
 30
0.0
 10
21.59131716782132
 20
0.7488681479835613
 30
0.0
 10
21.22132987927773
 20
0.928953428865368
 30
0.0
 10
20.85437286044273
 20
1.094101632359727
 30
0.0
 10
20.48882324054915
 20
1.236902367822346
 30
0.0
 10
20.12576480573691
 20
1.358257679203188
 30
0.0
 10
19.76287783211526
 20
1.456012726553706
 30
0.0
 10
19.39730906686806
 20
1.528218007149585
 30
0.0
 10
19.03040244457057
 20
1.574460727763508
 30
0.0
 10
18.66041737799448
 20
1.592069887789059
 30
0.0
 10
18.291188574391
 20
1.581037754206804
 30
0.0
 10
17.92128304959878
 20
1.541794159276064
 30
0.0
 10
17.55375900839466
 20
1.474281090543577
 30
0.0
 10
17.22744393099157
 20
1.39348691460942
 30
0.0
 10
17.02383613656693
 20
1.326537309966046
 30
0.0
 10
16.94108753514844
 20
1.299328203529752
 30
0.0
  0
SPLINE
  5
219
330
1F
100
AcDbEntity
  8
외형선
  6
Continuous
 62
     1
370
    15
100
AcDbSpline
210
0.0
220
0.0
230
1.0
 70
     8
 71
     3
 72
    10
 73
     6
 74
     0
 42
0.000000001
 43
0.00000001
 40
0.3708055924337315
 40
0.3708055924337315
 40
0.3708055924337315
 40
0.3708055924337315
 40
0.5142919062737693
 40
0.7700800290357631
 40
0.9999999999999999
 40
0.9999999999999999
 40
0.9999999999999999
 40
0.9999999999999999
 10
22.16637472987904
 20
1.526074711754736
 30
0.0
 10
22.09749361493845
 20
1.515061939057886
 30
0.0
 10
21.9058445978061
 20
1.480019747215164
 30
0.0
 10
21.60467431655743
 20
1.409842346872672
 30
0.0
 10
21.37138769685355
 20
1.335940470175093
 30
0.0
 10
21.26095665087864
 20
1.300957488495387
 30
0.0
  0
SPLINE
  5
21A
330
1F
100
AcDbEntity
  8
외형선
  6
Continuous
 62
     1
370
    15
100
AcDbSpline
210
0.0
220
0.0
230
1.0
 70
     8
 71
     3
 72
    19
 73
    15
 74
     0
 42
0.000000001
 43
0.00000001
 40
0.0
 40
0.0
 40
0.0
 40
0.0
 40
0.010842516054841
 40
0.0949283559884191
 40
0.1797289590419596
 40
0.2640197778776147
 40
0.3485383690061536
 40
0.4417362155427441
 40
0.5345374976701366
 40
0.6278687361387039
 40
0.7205523493094507
 40
0.8139533249874458
 40
0.9065931413860436
 40
1.0
 40
1.0
 40
1.0
 40
1.0
 10
14.29707746231449
 20
-1.585921880602496
 30
0.0
 10
14.28153295186173
 20
-1.586433613068903
 30
0.0
 10
14.14543771211647
 20
-1.59091393124378
 30
0.0
 10
13.88876720940009
 20
-1.572643769276342
 30
0.0
 10
13.52534351630357
 20
-1.530368229121118
 30
0.0
 10
13.16256142889356
 20
-1.458127372218976
 30
0.0
 10
12.78719533988705
 20
-1.358232695321844
 30
0.0
 10
12.39938745379966
 20
-1.228679861128656
 30
0.0
 10
11.9998526740985
 20
-1.067909627882024
 30
0.0
 10
11.59974341523703
 20
-0.8866338994552372
 30
0.0
 10
11.20038107411932
 20
-0.6839355243943661
 30
0.0
 10
10.80023702506456
 20
-0.4700414492208607
 30
0.0
 10
10.40084025943177
 20
-0.2427960659930477
 30
0.0
 10
10.13398016104415
 20
-0.0896290564231528
 30
0.0
 10
10.0000000000006
 20
-0.0127298094666983
 30
0.0
  0
LINE
  5
21B
330
1F
100
AcDbEntity
  8
외형선
  6
Continuous
370
    15
100
AcDbLine
 10
9.999999999999996
 20
-0.0127298094663999
 30
0.0
 11
10.00000000000003
 21
0.5354032327060523
 31
0.0
  0
LINE
  5
21C
330
1F
100
AcDbEntity
  8
외형선
  6
Continuous
370
    15
100
AcDbLine
 10
9.999999999999996
 20
1.587448960424011
 30
0.0
 11
10.00000000000004
 21
1.587499999999999
 31
0.0
  0
LINE
  5
21D
330
1F
100
AcDbEntity
  8
외형선
  6
Continuous
 62
     1
370
    15
100
AcDbLine
 10
22.70000000000003
 20
0.6730350247015693
 30
0.0
 11
22.70000000000003
 21
0.799102234454057
 31
0.0
  0
SPLINE
  5
21E
330
1F
100
AcDbEntity
  8
외형선
  6
Continuous
 62
     1
370
    15
100
AcDbSpline
210
0.0
220
0.0
230
1.0
 70
     8
 71
     3
 72
    14
 73
    10
 74
     0
 42
0.000000001
 43
0.00000001
 40
0.0
 40
0.0
 40
0.0
 40
0.0
 40
0.1530931860327862
 40
0.3049291952552928
 40
0.4580127391973098
 40
0.6099205310221386
 40
0.762889776167092
 40
0.9149904265864423
 40
1.0
 40
1.0
 40
1.0
 40
1.0
 10
10.00000000000061
 20
-1.494489755203513
 30
0.0
 10
10.13398017452186
 20
-1.517415674434585
 30
0.0
 10
10.40084029975422
 20
-1.563079248906944
 30
0.0
 10
10.80023686477241
 20
-1.590534649568011
 30
0.0
 10
11.20038167893125
 20
-1.586448997649558
 30
0.0
 10
11.59974117053315
 20
-1.548323878090079
 30
0.0
 10
11.99986109859605
 20
-1.477072503521051
 30
0.0
 10
12.34024519682511
 20
-1.393145516727227
 30
0.0
 10
12.54758919066513
 20
-1.323367852458632
 30
0.0
 10
12.62192687286743
 20
-1.298350924139895
 30
0.0
  0
SPLINE
  5
21F
330
1F
100
AcDbEntity
  8
외형선
  6
Continuous
 62
     1
370
    15
100
AcDbSpline
210
0.0
220
0.0
230
1.0
 70
     8
 71
     3
 72
    16
 73
    12
 74
     0
 42
0.000000001
 43
0.00000001
 40
0.0
 40
0.0
 40
0.0
 40
0.0
 40
0.0594712895821957
 40
0.1778778406188236
 40
0.2965589152300939
 40
0.4154710516446293
 40
0.5336730590041914
 40
0.65068714128911
 40
0.7666885010154078
 40
0.883585776138194
 40
0.9999999999999999
 40
0.9999999999999999
 40
0.9999999999999999
 40
0.9999999999999999
 10
19.58455970060905
 20
1.583905446301058
 30
0.0
 10
19.64637520637507
 20
1.584602366693854
 30
0.0
 10
19.83126456659697
 20
1.586686846371773
 30
0.0
 10
20.13892461523703
 20
1.559083854578393
 30
0.0
 10
20.50864012669427
 20
1.503386125154274
 30
0.0
 10
20.8785541893228
 20
1.419538420294684
 30
0.0
 10
21.24557103134727
 20
1.309933253849865
 30
0.0
 10
21.61115045714409
 20
1.179684481302182
 30
0.0
 10
21.97366649312176
 20
1.027222665492811
 30
0.0
 10
22.33702798327759
 20
0.8598299797086497
 30
0.0
 10
22.57917644356733
 20
0.7352140075097662
 30
0.0
 10
22.70000000000003
 20
0.6730350247015693
 30
0.0
  0
SPLINE
  5
220
330
1F
100
AcDbEntity
  8
외형선
  6
Continuous
370
    15
100
AcDbSpline
210
0.0
220
0.0
230
1.0
 70
    24
 71
     3
 72
    19
 73
    15
 74
     0
 42
0.000000001
 43
0.00000001
 40
0.0
 40
0.0
 40
0.0
 40
0.0
 40
0.0196988150882664
 40
0.1092467736034302
 40
0.1987947321185939
 40
0.2883426906337607
 40
0.3778906491489274
 40
0.4674386076640401
 40
0.5569865661791529
 40
0.6465345246943663
 40
0.7360824832095799
 40
0.8256304417247459
 40
0.9151784002399121
 40
1.0
 40
1.0
 40
1.0
 40
1.0
 10
10.00000000000002
 20
-0.021970688776932
 30
0.0
 10
10.00000000000002
 20
-0.0251609405814541
 30
0.0
 10
9.999999999999996
 20
-0.0428536147379983
 30
0.0
 10
10.00000000000004
 20
-0.1004911429193136
 30
0.0
 10
10.00000000000004
 20
-0.1929922899953675
 30
0.0
 10
10.00000000000004
 20
-0.3087102004174156
 30
0.0
 10
10.00000000000006
 20
-0.4408121482611627
 30
0.0
 10
10.00000000000004
 20
-0.5869242004969788
 30
0.0
 10
10.00000000000006
 20
-0.7422334218818101
 30
0.0
 10
10.00000000000003
 20
-0.9026549495487952
 30
0.0
 10
10.00000000000006
 20
-1.063608106059041
 30
0.0
 10
10.00000000000001
 20
-1.220078047067958
 30
0.0
 10
10.00000000000001
 20
-1.366656307869231
 30
0.0
 10
10.00000000000001
 20
-1.452655621709338
 30
0.0
 10
10.00000000000004
 20
-1.494489755203401
 30
0.0
  0
LINE
  5
221
330
1F
100
AcDbEntity
  8
외형선
  6
Continuous
 62
     1
370
    15
100
AcDbLine
 10
22.70000000000003
 20
0.1360191419435139
 30
0.0
 11
22.70000000000003
 21
0.6730350247015693
 31
0.0
  0
LINE
  5
222
330
1F
100
AcDbEntity
  8
외형선
  6
Continuous
370
    15
100
AcDbLine
 10
10.00000000000004
 20
-1.587500000000003
 30
0.0
 11
10.00000000000004
 21
-1.494489755203401
 31
0.0
  0
LINE
  5
223
330
1F
100
AcDbEntity
  8
중심선
 62
     1
100
AcDbLine
 10
-15.39999999999997
 20
-0.0000000000000018
 30
0.0
 11
25.70000000000006
 21
0.0000000000000018
 31
0.0
  0
CIRCLE
  5
224
330
1F
100
AcDbEntity
  8
해칭선
100
AcDbCircle
 10
0.0
 20
0.0
 30
0.0
 40
2.999999999999999
  0
DIMENSION
  5
225
330
1F
100
AcDbEntity
  8
치수문자_일반주서
100
AcDbDimension
  2
*D12
 10
9.999999999999996
 20
14.76250000000002
 30
0.0
 11
16.35000000000002
 21
14.76250000000002
 31
0.0
 70
   160
  1
<>
 71
     2
 42
12.70000000000003
  3
SLDDIMSTYLE0
100
AcDbAlignedDimension
 13
22.70000000000003
 23
1.581662114051213
 33
0.0
 14
9.999999999999996
 24
1.587448960424011
 34
0.0
100
AcDbRotatedDimension
1001
ACAD
1000
DSTYLE
1002
{
1070
   171
1070
     6
1070
   273
1070
     7
1002
}
  0
DIMENSION
  5
226
330
1F
100
AcDbEntity
  8
치수문자_일반주서
100
AcDbDimension
  2
*D13
 10
-15.39999999999997
 20
30.28599743354638
 30
0.0
 11
3.650000000000034
 21
30.28599743354638
 31
0.0
 70
   160
  1
<>
 71
     2
 42
38.09999999999999
  3
SLDDIMSTYLE0
100
AcDbAlignedDimension
 13
22.70000000000003
 23
1.581662114051213
 33
0.0
 14
-15.39999999999997
 24
1.27
 34
0.0
100
AcDbRotatedDimension
1001
ACAD
1000
DSTYLE
1002
{
1070
   171
1070
     6
1070
   273
1070
     7
1002
}
  0
DIMENSION
  5
227
330
1F
100
AcDbEntity
  8
치수문자_일반주서
100
AcDbDimension
  2
*D14
 10
-22.792082383831
 20
-1.587500000000009
 30
0.0
 11
-22.79208238383108
 21
20.44149999999997
 31
0.0
 70
   160
  1
%%c<>
 71
     2
 42
3.174999999999983
 52
-270.0
  3
SLDDIMSTYLE1
100
AcDbAlignedDimension
 13
-15.01999999999997
 23
1.587500000000002
 33
0.0
 14
-15.01999999999997
 24
-1.587499999999981
 34
0.0
 50
90.0000000000002
100
AcDbRotatedDimension
1001
ACAD
1000
DSTYLE
1002
{
1070
   171
1070
     6
1070
   273
1070
     7
1002
}
1001
ACAD_DSTYLE_DIMFLIPARROW_SYMBOL
1070
   385
1070
     0
1001
ACAD_DSTYLE_DIMFLIPARROW_WHICH_SYMBOL
1070
   386
1070
     3
  0
DIMENSION
  5
228
330
1F
100
AcDbEntity
  8
치수문자_일반주서
100
AcDbDimension
  2
*D15
 10
37.85273137571463
 20
-1.587499999999931
 30
0.0
 11
37.85273137571453
 21
20.66025000000007
 31
0.0
 70
   160
  1
%%c<>
 71
     2
 42
3.175000000000002
 52
-270.0
  3
SLDDIMSTYLE1
100
AcDbAlignedDimension
 13
18.61612977973064
 23
1.587499999999999
 33
0.0
 14
18.61612977973062
 24
-1.587500000000003
 34
0.0
 50
90.0000000000002
100
AcDbRotatedDimension
1001
ACAD
1000
DSTYLE
1002
{
1070
   171
1070
     6
1070
   273
1070
     7
1002
}
  0
INSERT
  5
229
330
1F
100
AcDbEntity
  8
해칭선
100
AcDbBlockReference
  2
SW_DOWELSYMBOL_0
 10
0.0
 20
0.0
 30
0.0
  0
LINE
  5
22A
330
1F
100
AcDbEntity
  8
외형선
  6
Continuous
370
    15
100
AcDbLine
 10
-15.08249999999997
 20
-1.587500000000002
 30
0.0
 11
10.00000000000004
 21
-1.587500000000002
 31
0.0
  0
LINE
  5
22B
330
1F
100
AcDbEntity
  8
외형선
  6
Continuous
370
    15
100
AcDbLine
 10
10.00000000000004
 20
1.587500000000002
 30
0.0
 11
-15.08249999999997
 21
1.587500000000002
 31
0.0
  0
LINE
  5
22C
330
1F
100
AcDbEntity
  8
외형선
  6
Continuous
370
    15
100
AcDbLine
 10
-15.08249999999997
 20
1.587500000000002
 30
0.0
 11
-15.39999999999997
 21
1.27
 31
0.0
  0
LINE
  5
22D
330
1F
100
AcDbEntity
  8
외형선
  6
Continuous
370
    15
100
AcDbLine
 10
-15.39999999999997
 20
-1.27
 30
0.0
 11
-15.08249999999997
 21
-1.587499999999995
 31
0.0
  0
LINE
  5
22E
330
1F
100
AcDbEntity
  8
외형선
  6
Continuous
370
    15
100
AcDbLine
 10
-15.08249999999997
 20
-0.0000000000000036
 30
0.0
 11
-15.08249999999997
 21
1.587500000000002
 31
0.0
  0
LINE
  5
22F
330
1F
100
AcDbEntity
  8
외형선
  6
Continuous
370
    15
100
AcDbLine
 10
-15.08249999999997
 20
-1.587500000000002
 30
0.0
 11
-15.08249999999997
 21
-0.0000000000000036
 31
0.0
  0
LINE
  5
230
330
1F
100
AcDbEntity
  8
외형선
  6
Continuous
370
    15
100
AcDbLine
 10
-15.39999999999997
 20
-0.0000000000000036
 30
0.0
 11
-15.39999999999997
 21
1.27
 31
0.0
  0
LINE
  5
231
330
1F
100
AcDbEntity
  8
외형선
  6
Continuous
370
    15
100
AcDbLine
 10
-15.39999999999997
 20
-1.27
 30
0.0
 11
-15.39999999999997
 21
-0.0000000000000036
 31
0.0
  0
ARC
  5
276
102
{ACAD_REACTORS
102
}
330
1F
100
AcDbEntity
  8
외형선
  6
Continuous
 62
     1
370
    15
100
AcDbCircle
 10
21.93800000000003
 20
-0.7991022344540539
 30
0.0
 40
0.7619999999999998
100
AcDbArc
 50
287.4231300292129
 51
0.0
  0
ARC
  5
277
330
1F
100
AcDbEntity
  8
외형선
  6
Continuous
 62
     1
370
    15
100
AcDbCircle
 10
21.93800000000003
 20
0.799102234454057
 30
0.0
 40
0.7619999999999998
100
AcDbArc
 50
0.0
 51
72.57686997078703
  0
DIMENSION
  5
278
102
{ACAD_REACTORS
102
}
102
{ACAD_XDICTIONARY
360
279
102
}
330
1F
100
AcDbEntity
  8
치수문자_일반주서
100
AcDbDimension
  2
*D17
 10
21.93800000000003
 20
-0.7991022344540539
 30
0.0
 11
39.55683597579788
 21
-24.69672486038296
 31
0.0
 70
   164
  1
<>
 71
     5
 42
0.7619999999999998
  3
SLDDIMSTYLE1
100
AcDbRadialDimension
 15
22.39018500944249
 25
-1.412431442331457
 35
0.0
 40
0.0
1001
ACAD
1000
DSTYLE
1002
{
1070
   171
1070
     2
1070
   273
1070
     2
1002
}
1001
ACAD_DSTYLE_DIMRADIAL_EXTENSION
1070
   387
1070
     1
1070
   388
1040
5.016479965397552
1070
   390
1040
0.0
  0
ENDSEC
  0
SECTION
  2
OBJECTS
  0
DICTIONARY
  5
C
330
0
100
AcDbDictionary
281
     1
  3
ACAD_GROUP
350
D
  3
ACAD_IMAGE_VARS
350
145
  3
ACAD_LAYOUT
350
1A
  3
ACAD_MLINESTYLE
350
17
  3
ACAD_PLOTSETTINGS
350
19
  3
ACAD_PLOTSTYLENAME
350
E
  3
ACAD_SCALELIST
350
47
  3
APPDATA
350
143
  3
DWGPROPS
350
286
  0
DICTIONARY
  5
279
330
278
100
AcDbDictionary
280
     1
281
     1
  0
DICTIONARY
  5
D
102
{ACAD_REACTORS
330
C
102
}
330
C
100
AcDbDictionary
281
     1
  0
RASTERVARIABLES
  5
145
102
{ACAD_REACTORS
330
C
102
}
330
C
100
AcDbRasterVariables
 90
        0
 70
     1
 71
     1
 72
     1
  0
DICTIONARY
  5
1A
102
{ACAD_REACTORS
330
C
102
}
330
C
100
AcDbDictionary
281
     1
  3
Layout1
350
1E
  3
Layout2
350
26
  3
Model
350
22
  0
DICTIONARY
  5
17
102
{ACAD_REACTORS
330
C
102
}
330
C
100
AcDbDictionary
281
     1
  3
Standard
350
18
  0
DICTIONARY
  5
19
102
{ACAD_REACTORS
330
C
102
}
330
C
100
AcDbDictionary
281
     1
  0
ACDBDICTIONARYWDFLT
  5
E
102
{ACAD_REACTORS
330
C
102
}
330
C
100
AcDbDictionary
281
     1
  3
Normal
350
F
100
AcDbDictionaryWithDefault
340
F
  0
DICTIONARY
  5
47
102
{ACAD_REACTORS
330
C
102
}
330
C
100
AcDbDictionary
281
     1
  3
A0
350
48
  3
A1
350
49
  3
A2
350
4A
  3
A3
350
4B
  3
A4
350
4C
  3
A5
350
4D
  3
A6
350
4E
  3
A7
350
4F
  3
A8
350
50
  3
A9
350
51
  3
B0
350
52
  3
B1
350
53
  3
B2
350
54
  3
B3
350
55
  3
B4
350
56
  3
B5
350
57
  3
B6
350
58
  3
B7
350
59
  3
B8
350
5A
  3
B9
350
5B
  3
C0
350
5C
  3
C1
350
5D
  3
C2
350
5E
  3
C3
350
5F
  3
C4
350
60
  3
C5
350
61
  3
C6
350
62
  3
C7
350
63
  3
C8
350
64
  3
C9
350
65
  3
D0
350
66
  3
D1
350
67
  3
D2
350
68
  0
DICTIONARY
  5
143
102
{ACAD_REACTORS
330
C
102
}
330
C
100
AcDbDictionary
281
     1
  0
XRECORD
  5
286
102
{ACAD_REACTORS
330
C
102
}
330
C
100
AcDbXrecord
280
     1
  1
DWGPROPS COOKIE
  2

  3

  4

  6

  7

  8
12016016
  9

300
=
301
=
302
=
303
=
304
=
305
=
306
=
307
=
308
=
309
=
 40
0.0
 41
2458323.37039566
 42
2458330.070701389
  1

 90
        0
  0
LAYOUT
  5
1E
102
{ACAD_REACTORS
330
1A
102
}
330
1A
100
AcDbPlotSettings
  1

  2
none_device
  4

  6

 40
0.0
 41
0.0
 42
0.0
 43
0.0
 44
0.0
 45
0.0
 46
0.0
 47
0.0
 48
0.0
 49
0.0
140
0.0
141
0.0
142
1.0
143
1.0
 70
   688
 72
     1
 73
     0
 74
     5
  7

 75
    16
147
1.0
148
0.0
149
0.0
100
AcDbLayout
  1
Layout1
 70
     1
 71
     1
 10
0.0
 20
0.0
 11
420.0
 21
297.0
 12
0.0
 22
0.0
 32
0.0
 14
1.000000000000000E+20
 24
1.000000000000000E+20
 34
1.000000000000000E+20
 15
-1.000000000000000E+20
 25
-1.000000000000000E+20
 35
-1.000000000000000E+20
146
0.0
 13
0.0
 23
0.0
 33
0.0
 16
1.0
 26
0.0
 36
0.0
 17
0.0
 27
1.0
 37
0.0
 76
     0
330
1B
  0
LAYOUT
  5
26
102
{ACAD_REACTORS
330
1A
102
}
330
1A
100
AcDbPlotSettings
  1

  2
none_device
  4

  6

 40
0.0
 41
0.0
 42
0.0
 43
0.0
 44
0.0
 45
0.0
 46
0.0
 47
0.0
 48
0.0
 49
0.0
140
0.0
141
0.0
142
1.0
143
1.0
 70
   688
 72
     1
 73
     0
 74
     5
  7

 75
    16
147
1.0
148
0.0
149
0.0
100
AcDbLayout
  1
Layout2
 70
     1
 71
     2
 10
0.0
 20
0.0
 11
0.0
 21
0.0
 12
0.0
 22
0.0
 32
0.0
 14
0.0
 24
0.0
 34
0.0
 15
0.0
 25
0.0
 35
0.0
146
0.0
 13
0.0
 23
0.0
 33
0.0
 16
1.0
 26
0.0
 36
0.0
 17
0.0
 27
1.0
 37
0.0
 76
     0
330
23
  0
LAYOUT
  5
22
102
{ACAD_REACTORS
330
1A
102
}
330
1A
100
AcDbPlotSettings
  1

  2
none_device
  4
ANSI_A_(11.00_x_8.50_Inches)
  6

 40
6.35
 41
19.05
 42
6.35000508
 43
19.05000254
 44
279.4
 45
215.9
 46
85.51654409144157
 47
82.34324665260326
 48
0.0
 49
0.0
140
0.0
141
0.0
142
0.0763446460893285
143
1.0
 70
  1696
 72
     0
 73
     0
 74
     0
  7

 75
     0
147
0.0235690232323232
148
0.0
149
0.0
100
AcDbLayout
  1
Model
 70
     1
 71
     0
 10
0.0
 20
0.0
 11
420.0
 21
297.0
 12
0.0
 22
0.0
 32
0.0
 14
1.000000000000000E+20
 24
1.000000000000000E+20
 34
1.000000000000000E+20
 15
-1.000000000000000E+20
 25
-1.000000000000000E+20
 35
-1.000000000000000E+20
146
0.0
 13
0.0
 23
0.0
 33
0.0
 16
1.0
 26
0.0
 36
0.0
 17
0.0
 27
1.0
 37
0.0
 76
     0
330
1F
331
29
  0
MLINESTYLE
  5
18
102
{ACAD_REACTORS
330
17
102
}
330
17
100
AcDbMlineStyle
  2
Standard
 70
     0
  3

 62
   256
 51
90.0
 52
90.0
 71
     2
 49
0.5
 62
   256
  6
BYLAYER
 49
-0.5
 62
   256
  6
BYLAYER
  0
ACDBPLACEHOLDER
  5
F
102
{ACAD_REACTORS
330
E
102
}
330
E
  0
SCALE
  5
48
102
{ACAD_REACTORS
330
47
102
}
330
47
100
AcDbScale
 70
     0
300
1:1
140
1.0
141
1.0
290
     1
  0
SCALE
  5
49
102
{ACAD_REACTORS
330
47
102
}
330
47
100
AcDbScale
 70
     0
300
1:2
140
1.0
141
2.0
290
     0
  0
SCALE
  5
4A
102
{ACAD_REACTORS
330
47
102
}
330
47
100
AcDbScale
 70
     0
300
1:4
140
1.0
141
4.0
290
     0
  0
SCALE
  5
4B
102
{ACAD_REACTORS
330
47
102
}
330
47
100
AcDbScale
 70
     0
300
1:5
140
1.0
141
5.0
290
     0
  0
SCALE
  5
4C
102
{ACAD_REACTORS
330
47
102
}
330
47
100
AcDbScale
 70
     0
300
1:8
140
1.0
141
8.0
290
     0
  0
SCALE
  5
4D
102
{ACAD_REACTORS
330
47
102
}
330
47
100
AcDbScale
 70
     0
300
1:10
140
1.0
141
10.0
290
     0
  0
SCALE
  5
4E
102
{ACAD_REACTORS
330
47
102
}
330
47
100
AcDbScale
 70
     0
300
1:16
140
1.0
141
16.0
290
     0
  0
SCALE
  5
4F
102
{ACAD_REACTORS
330
47
102
}
330
47
100
AcDbScale
 70
     0
300
1:20
140
1.0
141
20.0
290
     0
  0
SCALE
  5
50
102
{ACAD_REACTORS
330
47
102
}
330
47
100
AcDbScale
 70
     0
300
1:30
140
1.0
141
30.0
290
     0
  0
SCALE
  5
51
102
{ACAD_REACTORS
330
47
102
}
330
47
100
AcDbScale
 70
     0
300
1:40
140
1.0
141
40.0
290
     0
  0
SCALE
  5
52
102
{ACAD_REACTORS
330
47
102
}
330
47
100
AcDbScale
 70
     0
300
1:50
140
1.0
141
50.0
290
     0
  0
SCALE
  5
53
102
{ACAD_REACTORS
330
47
102
}
330
47
100
AcDbScale
 70
     0
300
1:100
140
1.0
141
100.0
290
     0
  0
SCALE
  5
54
102
{ACAD_REACTORS
330
47
102
}
330
47
100
AcDbScale
 70
     0
300
2:1
140
2.0
141
1.0
290
     0
  0
SCALE
  5
55
102
{ACAD_REACTORS
330
47
102
}
330
47
100
AcDbScale
 70
     0
300
4:1
140
4.0
141
1.0
290
     0
  0
SCALE
  5
56
102
{ACAD_REACTORS
330
47
102
}
330
47
100
AcDbScale
 70
     0
300
8:1
140
8.0
141
1.0
290
     0
  0
SCALE
  5
57
102
{ACAD_REACTORS
330
47
102
}
330
47
100
AcDbScale
 70
     0
300
10:1
140
10.0
141
1.0
290
     0
  0
SCALE
  5
58
102
{ACAD_REACTORS
330
47
102
}
330
47
100
AcDbScale
 70
     0
300
100:1
140
100.0
141
1.0
290
     0
  0
SCALE
  5
59
102
{ACAD_REACTORS
330
47
102
}
330
47
100
AcDbScale
 70
     0
300
1/128" = 1'-0"
140
0.0078125
141
12.0
290
     0
  0
SCALE
  5
5A
102
{ACAD_REACTORS
330
47
102
}
330
47
100
AcDbScale
 70
     0
300
1/64" = 1'-0"
140
0.015625
141
12.0
290
     0
  0
SCALE
  5
5B
102
{ACAD_REACTORS
330
47
102
}
330
47
100
AcDbScale
 70
     0
300
1/32" = 1'-0"
140
0.03125
141
12.0
290
     0
  0
SCALE
  5
5C
102
{ACAD_REACTORS
330
47
102
}
330
47
100
AcDbScale
 70
     0
300
1/16" = 1'-0"
140
0.0625
141
12.0
290
     0
  0
SCALE
  5
5D
102
{ACAD_REACTORS
330
47
102
}
330
47
100
AcDbScale
 70
     0
300
3/32" = 1'-0"
140
0.09375
141
12.0
290
     0
  0
SCALE
  5
5E
102
{ACAD_REACTORS
330
47
102
}
330
47
100
AcDbScale
 70
     0
300
1/8" = 1'-0"
140
0.125
141
12.0
290
     0
  0
SCALE
  5
5F
102
{ACAD_REACTORS
330
47
102
}
330
47
100
AcDbScale
 70
     0
300
3/16" = 1'-0"
140
0.1875
141
12.0
290
     0
  0
SCALE
  5
60
102
{ACAD_REACTORS
330
47
102
}
330
47
100
AcDbScale
 70
     0
300
1/4" = 1'-0"
140
0.25
141
12.0
290
     0
  0
SCALE
  5
61
102
{ACAD_REACTORS
330
47
102
}
330
47
100
AcDbScale
 70
     0
300
3/8" = 1'-0"
140
0.375
141
12.0
290
     0
  0
SCALE
  5
62
102
{ACAD_REACTORS
330
47
102
}
330
47
100
AcDbScale
 70
     0
300
1/2" = 1'-0"
140
0.5
141
12.0
290
     0
  0
SCALE
  5
63
102
{ACAD_REACTORS
330
47
102
}
330
47
100
AcDbScale
 70
     0
300
3/4" = 1'-0"
140
0.75
141
12.0
290
     0
  0
SCALE
  5
64
102
{ACAD_REACTORS
330
47
102
}
330
47
100
AcDbScale
 70
     0
300
1" = 1'-0"
140
1.0
141
12.0
290
     0
  0
SCALE
  5
65
102
{ACAD_REACTORS
330
47
102
}
330
47
100
AcDbScale
 70
     0
300
1-1/2" = 1'-0"
140
1.5
141
12.0
290
     0
  0
SCALE
  5
66
102
{ACAD_REACTORS
330
47
102
}
330
47
100
AcDbScale
 70
     0
300
3" = 1'-0"
140
3.0
141
12.0
290
     0
  0
SCALE
  5
67
102
{ACAD_REACTORS
330
47
102
}
330
47
100
AcDbScale
 70
     0
300
6" = 1'-0"
140
6.0
141
12.0
290
     0
  0
SCALE
  5
68
102
{ACAD_REACTORS
330
47
102
}
330
47
100
AcDbScale
 70
     0
300
1'-0" = 1'-0"
140
12.0
141
12.0
290
     0
  0
ENDSEC
  0
EOF
