  0
SECTION
  2
HEADER
  9
$ACADVER
  1
AC1015
  9
$ACADMAINTVER
 70
     6
  9
$DWGCODEPAGE
  3
ANSI_949
  9
$INSBASE
 10
0.0
 20
0.0
 30
0.0
  9
$EXTMIN
 10
-49.47052766150377
 20
-49.97180738881174
 30
0.0
  9
$EXTMAX
 10
95.9884838153456
 20
41.57028618047637
 30
0.0
  9
$LIMMIN
 10
0.0
 20
0.0
  9
$LIMMAX
 10
420.0
 20
297.0
  9
$ORTHOMODE
 70
     1
  9
$REGENMODE
 70
     1
  9
$FILLMODE
 70
     1
  9
$QTEXTMODE
 70
     0
  9
$MIRRTEXT
 70
     1
  9
$LTSCALE
 40
1.0
  9
$ATTMODE
 70
     1
  9
$TEXTSIZE
 40
3.5
  9
$TRACEWID
 40
1.0
  9
$TEXTSTYLE
  7
Standard
  9
$CLAYER
  8
0
  9
$CELTYPE
  6
ByLayer
  9
$CECOLOR
 62
   256
  9
$CELTSCALE
 40
1.0
  9
$DISPSILH
 70
     0
  9
$DIMSCALE
 40
1.0
  9
$DIMASZ
 40
3.302
  9
$DIMEXO
 40
1.0
  9
$DIMDLI
 40
3.75
  9
$DIMRND
 40
0.0
  9
$DIMDLE
 40
0.0
  9
$DIMEXE
 40
1.0
  9
$DIMTP
 40
0.0
  9
$DIMTM
 40
0.0
  9
$DIMTXT
 40
3.5
  9
$DIMCEN
 40
2.5
  9
$DIMTSZ
 40
0.0
  9
$DIMTOL
 70
     0
  9
$DIMLIM
 70
     0
  9
$DIMTIH
 70
     1
  9
$DIMTOH
 70
     1
  9
$DIMSE1
 70
     0
  9
$DIMSE2
 70
     0
  9
$DIMTAD
 70
     1
  9
$DIMZIN
 70
     0
  9
$DIMBLK
  1

  9
$DIMASO
 70
     1
  9
$DIMSHO
 70
     1
  9
$DIMPOST
  1

  9
$DIMAPOST
  1

  9
$DIMALT
 70
     0
  9
$DIMALTD
 70
     3
  9
$DIMALTF
 40
0.0393700787401575
  9
$DIMLFAC
 40
1.0
  9
$DIMTOFL
 70
     1
  9
$DIMTVP
 40
0.0
  9
$DIMTIX
 70
     0
  9
$DIMSOXD
 70
     0
  9
$DIMSAH
 70
     0
  9
$DIMBLK1
  1

  9
$DIMBLK2
  1

  9
$DIMSTYLE
  2
ISO-25
  9
$DIMCLRD
 70
     0
  9
$DIMCLRE
 70
     0
  9
$DIMCLRT
 70
     0
  9
$DIMTFAC
 40
1.0
  9
$DIMGAP
 40
1.524
  9
$DIMJUST
 70
     0
  9
$DIMSD1
 70
     0
  9
$DIMSD2
 70
     0
  9
$DIMTOLJ
 70
     0
  9
$DIMTZIN
 70
     0
  9
$DIMALTZ
 70
     0
  9
$DIMALTTZ
 70
     0
  9
$DIMUPT
 70
     0
  9
$DIMDEC
 70
     2
  9
$DIMTDEC
 70
     2
  9
$DIMALTU
 70
     2
  9
$DIMALTTD
 70
     3
  9
$DIMTXSTY
  7
Standard
  9
$DIMAUNIT
 70
     0
  9
$DIMADEC
 70
     2
  9
$DIMALTRND
 40
0.0
  9
$DIMAZIN
 70
     0
  9
$DIMDSEP
 70
    44
  9
$DIMATFIT
 70
     3
  9
$DIMFRAC
 70
     0
  9
$DIMLDRBLK
  1

  9
$DIMLUNIT
 70
     2
  9
$DIMLWD
 70
    -2
  9
$DIMLWE
 70
    -2
  9
$DIMTMOVE
 70
     0
  9
$LUNITS
 70
     2
  9
$LUPREC
 70
     2
  9
$SKETCHINC
 40
1.0
  9
$FILLETRAD
 40
10.0
  9
$AUNITS
 70
     0
  9
$AUPREC
 70
     2
  9
$MENU
  1
.
  9
$ELEVATION
 40
0.0
  9
$PELEVATION
 40
0.0
  9
$THICKNESS
 40
0.0
  9
$LIMCHECK
 70
     0
  9
$CHAMFERA
 40
0.0
  9
$CHAMFERB
 40
0.0
  9
$CHAMFERC
 40
0.0
  9
$CHAMFERD
 40
0.0
  9
$SKPOLY
 70
     0
  9
$TDCREATE
 40
2458323.743701505
  9
$TDUCREATE
 40
2458323.368701505
  9
$TDUPDATE
 40
2458324.414253021
  9
$TDUUPDATE
 40
2458324.039253021
  9
$TDINDWG
 40
0.002679537
  9
$TDUSRTIMER
 40
2458324.024099468
  9
$USRTIMER
 70
     1
  9
$ANGBASE
 50
0.0
  9
$ANGDIR
 70
     0
  9
$PDMODE
 70
     0
  9
$PDSIZE
 40
-1.0
  9
$PLINEWID
 40
0.0
  9
$SPLFRAME
 70
     0
  9
$SPLINETYPE
 70
     6
  9
$SPLINESEGS
 70
     8
  9
$HANDSEED
  5
315
  9
$SURFTAB1
 70
     6
  9
$SURFTAB2
 70
     6
  9
$SURFTYPE
 70
     6
  9
$SURFU
 70
     6
  9
$SURFV
 70
     6
  9
$UCSBASE
  2

  9
$UCSNAME
  2

  9
$UCSORG
 10
0.0
 20
0.0
 30
0.0
  9
$UCSXDIR
 10
1.0
 20
0.0
 30
0.0
  9
$UCSYDIR
 10
0.0
 20
1.0
 30
0.0
  9
$UCSORTHOREF
  2

  9
$UCSORTHOVIEW
 70
     0
  9
$UCSORGTOP
 10
0.0
 20
0.0
 30
0.0
  9
$UCSORGBOTTOM
 10
0.0
 20
0.0
 30
0.0
  9
$UCSORGLEFT
 10
0.0
 20
0.0
 30
0.0
  9
$UCSORGRIGHT
 10
0.0
 20
0.0
 30
0.0
  9
$UCSORGFRONT
 10
0.0
 20
0.0
 30
0.0
  9
$UCSORGBACK
 10
0.0
 20
0.0
 30
0.0
  9
$PUCSBASE
  2

  9
$PUCSNAME
  2

  9
$PUCSORG
 10
0.0
 20
0.0
 30
0.0
  9
$PUCSXDIR
 10
1.0
 20
0.0
 30
0.0
  9
$PUCSYDIR
 10
0.0
 20
1.0
 30
0.0
  9
$PUCSORTHOREF
  2

  9
$PUCSORTHOVIEW
 70
     0
  9
$PUCSORGTOP
 10
0.0
 20
0.0
 30
0.0
  9
$PUCSORGBOTTOM
 10
0.0
 20
0.0
 30
0.0
  9
$PUCSORGLEFT
 10
0.0
 20
0.0
 30
0.0
  9
$PUCSORGRIGHT
 10
0.0
 20
0.0
 30
0.0
  9
$PUCSORGFRONT
 10
0.0
 20
0.0
 30
0.0
  9
$PUCSORGBACK
 10
0.0
 20
0.0
 30
0.0
  9
$USERI1
 70
     0
  9
$USERI2
 70
     0
  9
$USERI3
 70
     0
  9
$USERI4
 70
     0
  9
$USERI5
 70
     0
  9
$USERR1
 40
0.0
  9
$USERR2
 40
0.0
  9
$USERR3
 40
0.0
  9
$USERR4
 40
0.0
  9
$USERR5
 40
0.0
  9
$WORLDVIEW
 70
     1
  9
$SHADEDGE
 70
     3
  9
$SHADEDIF
 70
    70
  9
$TILEMODE
 70
     1
  9
$MAXACTVP
 70
    64
  9
$PINSBASE
 10
0.0
 20
0.0
 30
0.0
  9
$PLIMCHECK
 70
     0
  9
$PEXTMIN
 10
1.000000000000000E+20
 20
1.000000000000000E+20
 30
1.000000000000000E+20
  9
$PEXTMAX
 10
-1.000000000000000E+20
 20
-1.000000000000000E+20
 30
-1.000000000000000E+20
  9
$PLIMMIN
 10
0.0
 20
0.0
  9
$PLIMMAX
 10
0.0
 20
0.0
  9
$UNITMODE
 70
     0
  9
$VISRETAIN
 70
     1
  9
$PLINEGEN
 70
     0
  9
$PSLTSCALE
 70
     1
  9
$TREEDEPTH
 70
  3020
  9
$CMLSTYLE
  2
Standard
  9
$CMLJUST
 70
     0
  9
$CMLSCALE
 40
20.0
  9
$PROXYGRAPHICS
 70
     1
  9
$MEASUREMENT
 70
     1
  9
$CELWEIGHT
370
    -1
  9
$ENDCAPS
280
     0
  9
$JOINSTYLE
280
     0
  9
$LWDISPLAY
290
     1
  9
$INSUNITS
 70
     4
  9
$HYPERLINKBASE
  1

  9
$STYLESHEET
  1

  9
$XEDIT
290
     1
  9
$CEPSNTYPE
380
     0
  9
$PSTYLEMODE
290
     1
  9
$FINGERPRINTGUID
  2
{86ADCA4E-F10D-4C4E-B9E8-3AE2A96FC0EE}
  9
$VERSIONGUID
  2
{FAEB1C32-E019-11D5-929B-00C0DF256EC4}
  9
$EXTNAMES
290
     1
  9
$PSVPSCALE
 40
0.0
  9
$OLESTARTUP
290
     0
  0
ENDSEC
  0
SECTION
  2
CLASSES
  0
CLASS
  1
ACDBDICTIONARYWDFLT
  2
AcDbDictionaryWithDefault
  3
ObjectDBX Classes
 90
        0
280
     0
281
     0
  0
CLASS
  1
VISUALSTYLE
  2
AcDbVisualStyle
  3
ObjectDBX Classes
 90
     4095
280
     0
281
     0
  0
CLASS
  1
MATERIAL
  2
AcDbMaterial
  3
ObjectDBX Classes
 90
     1153
280
     0
281
     0
  0
CLASS
  1
SCALE
  2
AcDbScale
  3
ObjectDBX Classes
 90
     1153
280
     0
281
     0
  0
CLASS
  1
SUN
  2
AcDbSun
  3
SCENEOE
 90
     1153
280
     0
281
     0
  0
CLASS
  1
ACDBPLACEHOLDER
  2
AcDbPlaceHolder
  3
ObjectDBX Classes
 90
        0
280
     0
281
     0
  0
CLASS
  1
LAYOUT
  2
AcDbLayout
  3
ObjectDBX Classes
 90
        0
280
     0
281
     0
  0
CLASS
  1
TABLESTYLE
  2
AcDbTableStyle
  3
ObjectDBX Classes
 90
     4095
280
     0
281
     0
  0
CLASS
  1
MLEADERSTYLE
  2
AcDbMLeaderStyle
  3
ACDB_MLEADERSTYLE_CLASS
 90
     4095
280
     0
281
     0
  0
CLASS
  1
RASTERVARIABLES
  2
AcDbRasterVariables
  3
ISM
 90
        0
280
     0
281
     0
  0
CLASS
  1
DIMASSOC
  2
AcDbDimAssoc
  3
"AcDbDimAssoc|Product Desc:     AcDim ARX App For Dimension|Company:          Autodesk, Inc.|WEB Address:      www.autodesk.com"
 90
        0
280
     0
281
     0
  0
ENDSEC
  0
SECTION
  2
TABLES
  0
TABLE
  2
VPORT
  5
8
330
0
100
AcDbSymbolTable
 70
     1
  0
VPORT
  5
29
330
8
100
AcDbSymbolTableRecord
100
AcDbViewportTableRecord
  2
*Active
 70
     0
 10
0.0
 20
0.0
 11
1.0
 21
1.0
 12
14.68964823436409
 22
-4.775240404995337
 13
0.0
 23
0.0
 14
10.0
 24
10.0
 15
10.0
 25
10.0
 16
0.0
 26
0.0
 36
1.0
 17
0.0
 27
0.0
 37
0.0
 40
102.0781747910374
 41
1.970186335403727
 42
50.0
 43
0.0
 44
0.0
 50
0.0
 51
0.0
 71
    16
 72
  2000
 73
     1
 74
     3
 75
     0
 76
     0
 77
     0
 78
     0
281
     0
 65
     1
110
0.0
120
0.0
130
0.0
111
1.0
121
0.0
131
0.0
112
0.0
122
1.0
132
0.0
 79
     0
146
0.0
  0
ENDTAB
  0
TABLE
  2
LTYPE
  5
5
330
0
100
AcDbSymbolTable
 70
     6
  0
LTYPE
  5
14
330
5
100
AcDbSymbolTableRecord
100
AcDbLinetypeTableRecord
  2
ByBlock
 70
     0
  3

 72
    65
 73
     0
 40
0.0
  0
LTYPE
  5
15
330
5
100
AcDbSymbolTableRecord
100
AcDbLinetypeTableRecord
  2
ByLayer
 70
     0
  3

 72
    65
 73
     0
 40
0.0
  0
LTYPE
  5
16
330
5
100
AcDbSymbolTableRecord
100
AcDbLinetypeTableRecord
  2
Continuous
 70
     0
  3
Solid line
 72
    65
 73
     0
 40
0.0
  0
LTYPE
  5
6A
330
5
100
AcDbSymbolTableRecord
100
AcDbLinetypeTableRecord
  2
HIDDEN
 70
     0
  3
Hidden __ __ __ __ __ __ __ __ __ __ __ __ __ __
 72
    65
 73
     2
 40
1.905
 49
1.27
 74
     0
 49
-0.635
 74
     0
  0
LTYPE
  5
6B
330
5
100
AcDbSymbolTableRecord
100
AcDbLinetypeTableRecord
  2
PHANTOM
 70
     0
  3
Phantom ______  __  __  ______  __  __  ______
 72
    65
 73
     6
 40
12.7
 49
6.35
 74
     0
 49
-1.27
 74
     0
 49
1.27
 74
     0
 49
-1.27
 74
     0
 49
1.27
 74
     0
 49
-1.27
 74
     0
  0
LTYPE
  5
6C
330
5
100
AcDbSymbolTableRecord
100
AcDbLinetypeTableRecord
  2
CENTER
 70
     0
  3
Center ____ _ ____ _ ____ _ ____ _ ____ _ ____
 72
    65
 73
     4
 40
10.16
 49
6.35
 74
     0
 49
-1.27
 74
     0
 49
1.27
 74
     0
 49
-1.27
 74
     0
  0
LTYPE
  5
6D
330
5
100
AcDbSymbolTableRecord
100
AcDbLinetypeTableRecord
  2
CENTERX2
 70
     0
  3
Center (2x) ________  __  ________  __  _____
 72
    65
 73
     4
 40
20.32
 49
12.7
 74
     0
 49
-2.54
 74
     0
 49
2.54
 74
     0
 49
-2.54
 74
     0
  0
LTYPE
  5
6E
330
5
100
AcDbSymbolTableRecord
100
AcDbLinetypeTableRecord
  2
DOT2
 70
     0
  3
Dot (.5x) ........................................
 72
    65
 73
     2
 40
0.635
 49
0.0
 74
     0
 49
-0.635
 74
     0
  0
ENDTAB
  0
TABLE
  2
LAYER
  5
2
102
{ACAD_XDICTIONARY
360
20D
102
}
330
0
100
AcDbSymbolTable
 70
    18
  0
LAYER
  5
10
330
2
100
AcDbSymbolTableRecord
100
AcDbLayerTableRecord
  2
0
 70
     0
 62
     7
  6
Continuous
370
    -3
390
F
  0
LAYER
  5
6F
330
2
100
AcDbSymbolTableRecord
100
AcDbLayerTableRecord
  2
FORMAT
 70
     0
 62
     2
  6
Continuous
370
    -3
390
F
  0
LAYER
  5
70
330
2
100
AcDbSymbolTableRecord
100
AcDbLayerTableRecord
  2
외형선
 70
     0
 62
     4
  6
Continuous
370
    30
390
F
  0
LAYER
  5
71
330
2
100
AcDbSymbolTableRecord
100
AcDbLayerTableRecord
  2
숨은선
 70
     0
 62
     2
  6
HIDDEN
370
    15
390
F
  0
LAYER
  5
72
330
2
100
AcDbSymbolTableRecord
100
AcDbLayerTableRecord
  2
중심선
 70
     0
 62
     1
  6
CENTERX2
370
    -3
390
F
  0
LAYER
  5
73
330
2
100
AcDbSymbolTableRecord
100
AcDbLayerTableRecord
  2
파단선
 70
     0
 62
     4
  6
Continuous
370
    -3
390
F
  0
LAYER
  5
74
330
2
100
AcDbSymbolTableRecord
100
AcDbLayerTableRecord
  2
해칭선
 70
     0
 62
   100
  6
Continuous
370
    -3
390
F
  0
LAYER
  5
75
330
2
100
AcDbSymbolTableRecord
100
AcDbLayerTableRecord
  2
가는실선
 70
     0
 62
     4
  6
Continuous
370
    -3
390
F
  0
LAYER
  5
76
330
2
100
AcDbSymbolTableRecord
100
AcDbLayerTableRecord
  2
치수_보조선
 70
     0
 62
     4
  6
Continuous
370
    -3
390
F
  0
LAYER
  5
77
330
2
100
AcDbSymbolTableRecord
100
AcDbLayerTableRecord
  2
치수문자_일반주서
 70
     0
 62
     7
  6
Continuous
370
    15
390
F
  0
LAYER
  5
78
330
2
100
AcDbSymbolTableRecord
100
AcDbLayerTableRecord
  2
개별주서
 70
     0
 62
   100
  6
Continuous
370
    30
390
F
  0
LAYER
  5
79
330
2
100
AcDbSymbolTableRecord
100
AcDbLayerTableRecord
  2
중간선
 70
     0
 62
     2
  6
Continuous
370
    15
390
F
  0
LAYER
  5
7A
330
2
100
AcDbSymbolTableRecord
100
AcDbLayerTableRecord
  2
윤곽선
 70
     0
 62
     3
  6
Continuous
370
    40
390
F
  0
LAYER
  5
7B
330
2
100
AcDbSymbolTableRecord
100
AcDbLayerTableRecord
  2
중심마크
 70
     0
 62
   100
  6
Continuous
370
    30
390
F
  0
LAYER
  5
7C
330
2
100
AcDbSymbolTableRecord
100
AcDbLayerTableRecord
  2
가상선
 70
     0
 62
     4
  6
PHANTOM
370
    -3
390
F
  0
LAYER
  5
7D
330
2
100
AcDbSymbolTableRecord
100
AcDbLayerTableRecord
  2
특수지정선
 70
     0
 62
     5
  6
CENTERX2
370
    60
390
F
  0
LAYER
  5
7E
330
2
100
AcDbSymbolTableRecord
100
AcDbLayerTableRecord
  2
참조1
 70
     0
 62
    -4
  6
Continuous
370
    -3
390
F
  0
LAYER
  5
155
330
2
100
AcDbSymbolTableRecord
100
AcDbLayerTableRecord
  2
Defpoints
 70
     0
 62
     7
  6
Continuous
290
     0
370
    -3
390
F
  0
ENDTAB
  0
TABLE
  2
STYLE
  5
3
330
0
100
AcDbSymbolTable
 70
     2
  0
STYLE
  5
11
330
3
100
AcDbSymbolTableRecord
100
AcDbTextStyleTableRecord
  2
Standard
 70
     0
 40
0.0
 41
1.0
 50
0.0
 71
     0
 42
3.5
  3
txt
  4

  0
STYLE
  5
94
330
3
100
AcDbSymbolTableRecord
100
AcDbTextStyleTableRecord
  2
SLDTEXTSTYLE0
 70
     0
 40
0.0
 41
0.75
 50
0.0
 71
     0
 42
3.5
  3
TXT
  4

  0
ENDTAB
  0
TABLE
  2
VIEW
  5
6
330
0
100
AcDbSymbolTable
 70
     0
  0
ENDTAB
  0
TABLE
  2
UCS
  5
7
330
0
100
AcDbSymbolTable
 70
     0
  0
ENDTAB
  0
TABLE
  2
APPID
  5
9
330
0
100
AcDbSymbolTable
 70
     3
  0
APPID
  5
12
330
9
100
AcDbSymbolTableRecord
100
AcDbRegAppTableRecord
  2
ACAD
 70
     0
  0
APPID
  5
161
330
9
100
AcDbSymbolTableRecord
100
AcDbRegAppTableRecord
  2
PE_URL
 70
     0
  0
APPID
  5
162
330
9
100
AcDbSymbolTableRecord
100
AcDbRegAppTableRecord
  2
ACAD_DSTYLE_DIMRADIAL_EXTENSION
 70
     0
  0
ENDTAB
  0
TABLE
  2
DIMSTYLE
  5
A
330
0
100
AcDbSymbolTable
 70
     4
100
AcDbDimStyleTable
  0
DIMSTYLE
105
27
330
A
100
AcDbSymbolTableRecord
100
AcDbDimStyleTableRecord
  2
ISO-25
 70
     0
 41
2.5
 42
0.625
 43
3.75
 44
1.25
 73
     0
 74
     0
 77
     1
 78
     8
140
2.5
141
2.5
143
0.03937007874016
147
0.625
171
     3
172
     1
178
     0
271
     2
272
     2
274
     3
278
    44
283
     0
284
     8
340
11
  0
DIMSTYLE
105
D1
102
{ACAD_REACTORS
330
D0
330
E5
330
10E
330
FA
330
305
102
}
330
A
100
AcDbSymbolTableRecord
100
AcDbDimStyleTableRecord
  2
SLDDIMSTYLE0
 70
     0
 41
3.302
 44
0.0
 45
0.000000001
 73
     0
 74
     0
 77
     1
 78
    12
 79
     3
140
3.5
143
0.0393700787401575
147
0.875
148
0.000000001
170
     1
172
     1
173
     1
178
     0
271
     2
272
     2
276
     2
284
    12
289
     0
340
94
  0
DIMSTYLE
105
FB
102
{ACAD_REACTORS
102
}
330
A
100
AcDbSymbolTableRecord
100
AcDbDimStyleTableRecord
  2
SLDDIMSTYLE1
 70
     0
 41
3.302
 44
0.0
 45
0.000000001
 73
     0
 74
     0
 77
     1
 78
     4
 79
     1
140
3.5
143
0.0393700787401575
147
0.875
148
0.000000001
170
     1
173
     1
178
     0
271
     2
272
     2
276
     2
284
    12
340
94
  0
DIMSTYLE
105
160
102
{ACAD_REACTORS
102
}
330
A
100
AcDbSymbolTableRecord
100
AcDbDimStyleTableRecord
  2
SLDDIMSTYLE2
 70
     0
 41
3.302
 44
0.0
 45
0.000000001
 73
     0
 74
     0
 77
     1
 78
    12
 79
     3
140
3.5
147
0.875
172
     1
173
     1
178
     0
271
     2
272
     2
276
     2
284
    12
289
     0
340
94
  0
ENDTAB
  0
TABLE
  2
BLOCK_RECORD
  5
1
330
0
100
AcDbSymbolTable
 70
    19
  0
BLOCK_RECORD
  5
1F
330
1
100
AcDbSymbolTableRecord
100
AcDbBlockTableRecord
  2
*Model_Space
340
22
  0
BLOCK_RECORD
  5
1B
330
1
100
AcDbSymbolTableRecord
100
AcDbBlockTableRecord
  2
*Paper_Space
340
1E
  0
BLOCK_RECORD
  5
23
330
1
100
AcDbSymbolTableRecord
100
AcDbBlockTableRecord
  2
*Paper_Space0
340
26
  0
BLOCK_RECORD
  5
7F
330
1
100
AcDbSymbolTableRecord
100
AcDbBlockTableRecord
  2
블럭10
340
0
102
{BLKREFS
331
C9
102
}
  0
BLOCK_RECORD
  5
D2
330
1
100
AcDbSymbolTableRecord
100
AcDbBlockTableRecord
  2
_D
340
0
  0
BLOCK_RECORD
  5
E6
330
1
100
AcDbSymbolTableRecord
100
AcDbBlockTableRecord
  2
_D_1
340
0
  0
BLOCK_RECORD
  5
FC
330
1
100
AcDbSymbolTableRecord
100
AcDbBlockTableRecord
  2
_D_2
340
0
  0
BLOCK_RECORD
  5
10F
330
1
100
AcDbSymbolTableRecord
100
AcDbBlockTableRecord
  2
_D_3
340
0
  0
BLOCK_RECORD
  5
129
330
1
100
AcDbSymbolTableRecord
100
AcDbBlockTableRecord
  2
SW_DOWELSYMBOL_0
340
0
102
{BLKREFS
331
12F
102
}
  0
BLOCK_RECORD
  5
1EB
330
1
100
AcDbSymbolTableRecord
100
AcDbBlockTableRecord
  2
_D_4
340
0
  0
BLOCK_RECORD
  5
205
330
1
100
AcDbSymbolTableRecord
100
AcDbBlockTableRecord
  2
*D8
340
0
  0
BLOCK_RECORD
  5
211
330
1
100
AcDbSymbolTableRecord
100
AcDbBlockTableRecord
  2
*D9
340
0
  0
BLOCK_RECORD
  5
21D
330
1
100
AcDbSymbolTableRecord
100
AcDbBlockTableRecord
  2
*D10
340
0
  0
BLOCK_RECORD
  5
229
330
1
100
AcDbSymbolTableRecord
100
AcDbBlockTableRecord
  2
*D11
340
0
  0
BLOCK_RECORD
  5
284
330
1
100
AcDbSymbolTableRecord
100
AcDbBlockTableRecord
  2
*D12
340
0
  0
BLOCK_RECORD
  5
290
330
1
100
AcDbSymbolTableRecord
100
AcDbBlockTableRecord
  2
*D13
340
0
  0
BLOCK_RECORD
  5
29C
330
1
100
AcDbSymbolTableRecord
100
AcDbBlockTableRecord
  2
*D14
340
0
  0
BLOCK_RECORD
  5
2AA
330
1
100
AcDbSymbolTableRecord
100
AcDbBlockTableRecord
  2
*D15
340
0
  0
BLOCK_RECORD
  5
2B8
330
1
100
AcDbSymbolTableRecord
100
AcDbBlockTableRecord
  2
*D16
340
0
  0
BLOCK_RECORD
  5
2CE
330
1
100
AcDbSymbolTableRecord
100
AcDbBlockTableRecord
  2
*D17
340
0
  0
BLOCK_RECORD
  5
308
330
1
100
AcDbSymbolTableRecord
100
AcDbBlockTableRecord
  2
*D18
340
0
  0
ENDTAB
  0
ENDSEC
  0
SECTION
  2
BLOCKS
  0
BLOCK
  5
20
330
1F
100
AcDbEntity
  8
0
100
AcDbBlockBegin
  2
*Model_Space
 70
     0
 10
0.0
 20
0.0
 30
0.0
  3
*Model_Space
  1
*Model_Space
  0
ENDBLK
  5
21
330
1F
100
AcDbEntity
  8
0
100
AcDbBlockEnd
  0
BLOCK
  5
1C
330
1B
100
AcDbEntity
 67
     1
  8
0
100
AcDbBlockBegin
  2
*Paper_Space
 70
     0
 10
0.0
 20
0.0
 30
0.0
  3
*Paper_Space
  1
*Paper_Space
  0
ENDBLK
  5
1D
330
1B
100
AcDbEntity
 67
     1
  8
0
100
AcDbBlockEnd
  0
BLOCK
  5
24
330
23
100
AcDbEntity
  8
0
100
AcDbBlockBegin
  2
*Paper_Space0
 70
     0
 10
0.0
 20
0.0
 30
0.0
  3
*Paper_Space0
  1
*Paper_Space0
  0
ENDBLK
  5
25
330
23
100
AcDbEntity
  8
0
100
AcDbBlockEnd
  0
BLOCK
  5
80
330
7F
100
AcDbEntity
  8
0
100
AcDbBlockBegin
  2
블럭10
 70
     2
 10
0.0
 20
0.0
 30
0.0
  3
블럭10
  1
블럭10
  0
ELLIPSE
  5
82
330
7F
100
AcDbEntity
  8
중심선
100
AcDbEllipse
 10
20.54032771741204
 20
12.0471743016438
 30
0.0
 11
6.600054785286829
 21
-1.261213355974178E-13
 31
0.0
210
0.0
220
0.0
230
1.0
 40
0.636358354079598
 41
0.9219305317359503
 42
6.513795318482858
  0
ELLIPSE
  5
83
330
7F
100
AcDbEntity
  8
중심선
100
AcDbEllipse
 10
20.54032771746488
 20
12.04717430159265
 30
0.0
 11
3.960054785062283
 21
1.540847449632565E-10
 31
0.0
210
0.0
220
0.0
230
1.0
 40
0.3939339440162632
 41
1.131841032648279
 42
5.62031148352944
  0
LINE
  5
84
330
7F
100
AcDbEntity
  8
중심선
100
AcDbLine
 10
2.268634060543552
 20
16.24717430164393
 30
0.0
 11
5.714909304380834
 21
16.24717430164393
 31
0.0
  0
LINE
  5
85
330
7F
100
AcDbEntity
  8
중심선
100
AcDbLine
 10
5.245725140726316
 20
7.84717430164391
 30
0.0
 11
8.692000384563599
 21
7.84717430164391
 31
0.0
  0
LINE
  5
86
330
7F
100
AcDbEntity
  8
중심선
100
AcDbLine
 10
15.74043728645272
 20
16.24717430164393
 30
0.0
 11
8.692000384563599
 21
7.84717430164391
 31
0.0
  0
LINE
  5
87
330
7F
100
AcDbEntity
  8
중심선
100
AcDbLine
 10
0.1404042013395286
 20
13.71084872107135
 30
0.0
 11
3.58671253028996
 21
13.71088815037384
 31
0.0
  0
LINE
  5
88
330
7F
100
AcDbEntity
  8
중심선
100
AcDbLine
 10
2.750260043222114
 20
10.84717430164391
 30
0.0
 11
6.196535287059397
 21
10.84717430164391
 31
0.0
  0
LINE
  5
89
330
7F
100
AcDbEntity
  8
중심선
100
AcDbLine
 10
12.29416204261559
 20
16.24717430164393
 30
0.0
 11
5.245725140726316
 21
7.84717430164391
 31
0.0
  0
LINE
  5
8A
330
7F
100
AcDbEntity
  8
중심선
100
AcDbLine
 10
10.72767329541681
 20
16.24717430164393
 30
0.0
 11
6.196535287059397
 21
10.84717430164391
 31
0.0
  0
LINE
  5
8B
330
7F
100
AcDbEntity
  8
중심선
100
AcDbLine
 10
7.28139805157953
 20
16.24717430164393
 30
0.0
 11
2.750260043222114
 21
10.84717430164391
 31
0.0
  0
LINE
  5
8C
330
7F
100
AcDbEntity
  8
중심선
100
AcDbLine
 10
5.714909304380834
 20
16.24717430164393
 30
0.0
 11
3.58671253028996
 21
13.71088815037384
 31
0.0
  0
LINE
  5
8D
330
7F
100
AcDbEntity
  8
중심선
100
AcDbLine
 10
2.268634060543552
 20
16.24717430164393
 30
0.0
 11
0.1404042013395286
 21
13.71084872107135
 31
0.0
  0
LINE
  5
8E
330
7F
100
AcDbEntity
  8
중심선
100
AcDbLine
 10
7.28139805157953
 20
16.24717430164393
 30
0.0
 11
10.72767329541681
 21
16.24717430164393
 31
0.0
  0
LINE
  5
8F
330
7F
100
AcDbEntity
  8
중심선
100
AcDbLine
 10
12.29416204261559
 20
16.24717430164393
 30
0.0
 11
15.74043728645272
 21
16.24717430164393
 31
0.0
  0
LINE
  5
90
330
7F
100
AcDbEntity
  8
중심선
100
AcDbLine
 10
19.22036997980202
 20
11.08717430171403
 30
0.0
 11
23.66174974927406
 21
11.08717430171406
 31
0.0
  0
LINE
  5
91
330
7F
100
AcDbEntity
  8
중심선
100
AcDbLine
 10
19.22039502424796
 20
13.00717430171391
 30
0.0
 11
19.22036997980202
 21
11.08717430171403
 31
0.0
  0
LINE
  5
92
330
7F
100
AcDbEntity
  8
중심선
100
AcDbLine
 10
19.22039502424796
 20
13.00717430171391
 30
0.0
 11
26.96566020931264
 21
13.00717430171391
 31
0.0
  0
LINE
  5
93
330
7F
100
AcDbEntity
  8
중심선
100
AcDbLine
 10
22.22332737316547
 20
13.45928029700563
 30
0.0
 11
24.52862924686651
 21
15.39360700705356
 31
0.0
  0
ATTDEF
  5
95
330
7F
100
AcDbEntity
  8
FORMAT
 62
     2
100
AcDbText
 10
4.408487351596664
 20
2.075366912832191
 30
0.0
 40
4.233333333333333
  1
E5216016
 41
0.75
  7
SLDTEXTSTYLE0
 11
4.408487351596664
 21
-0.0412997538344756
 31
0.0
100
AcDbAttributeDefinition
  3

  2
AUTOATTR0
 70
     0
 74
     1
  0
ENDBLK
  5
81
330
7F
100
AcDbEntity
  8
0
100
AcDbBlockEnd
  0
BLOCK
  5
D3
330
D2
100
AcDbEntity
  8
0
100
AcDbBlockBegin
  2
_D
 70
     0
 10
0.0
 20
0.0
 30
0.0
  3
_D
  1
_D
  0
LINE
  5
D5
330
D2
100
AcDbEntity
  8
치수문자_일반주서
 62
     0
370
    -2
100
AcDbLine
 10
-33.87749999999998
 20
3.17500000000001
 30
0.0
 11
-45.09552766150367
 21
3.174999999999969
 31
0.0
  0
LINE
  5
D6
330
D2
100
AcDbEntity
  8
치수문자_일반주서
 62
     0
370
    -2
100
AcDbLine
 10
-33.87749999999998
 20
-3.175000000000012
 30
0.0
 11
-45.09552766150365
 21
-3.175000000000054
 31
0.0
  0
LINE
  5
D7
330
D2
100
AcDbEntity
  8
치수문자_일반주서
 62
     0
370
    -2
100
AcDbLine
 10
-45.09552766150367
 20
3.174999999999969
 30
0.0
 11
-45.09552766150378
 21
35.81024999999997
 31
0.0
  0
LINE
  5
D8
330
D2
100
AcDbEntity
  8
치수문자_일반주서
 62
     0
370
    -2
100
AcDbLine
 10
-45.09552766150367
 20
3.174999999999969
 30
0.0
 11
-45.09552766150365
 21
-3.175000000000054
 31
0.0
  0
LINE
  5
D9
330
D2
100
AcDbEntity
  8
치수문자_일반주서
 62
     0
370
    -2
100
AcDbLine
 10
-45.09552766150369
 20
6.476999999999968
 30
0.0
 11
-45.0955276615037
 21
9.778999999999968
 31
0.0
  0
LINE
  5
DA
330
D2
100
AcDbEntity
  8
치수문자_일반주서
 62
     0
370
    -2
100
AcDbLine
 10
-45.09552766150364
 20
-6.477000000000054
 30
0.0
 11
-45.09552766150362
 21
-9.779000000000053
 31
0.0
  0
SOLID
  5
DB
330
D2
100
AcDbEntity
  8
치수문자_일반주서
 62
     0
100
AcDbTrace
 10
-45.64586099483702
 20
6.476999999999967
 30
0.0
 11
-44.54519432817035
 21
6.47699999999997
 31
0.0
 12
-45.09552766150367
 22
3.174999999999969
 32
0.0
 13
-45.09552766150367
 23
3.174999999999969
 33
0.0
  0
SOLID
  5
DC
330
D2
100
AcDbEntity
  8
치수문자_일반주서
 62
     0
100
AcDbTrace
 10
-44.5451943281703
 20
-6.477000000000052
 30
0.0
 11
-45.64586099483697
 21
-6.477000000000055
 31
0.0
 12
-45.09552766150365
 22
-3.175000000000054
 32
0.0
 13
-45.09552766150365
 23
-3.175000000000054
 33
0.0
  0
MTEXT
  5
DD
330
D2
100
AcDbEntity
  8
치수문자_일반주서
 62
     0
100
AcDbMText
 10
-49.47052766150374
 20
23.12274999999995
 30
0.0
 40
3.5
 41
0.0
 71
     2
 72
     1
  1
\A1;%%c6.35 [1/4]
  7
SLDTEXTSTYLE0
 11
-3.356894814614635E-15
 21
1.0
 31
0.0
 73
     1
 44
1.0
  0
POINT
  5
2C2
330
D2
100
AcDbEntity
  8
Defpoints
 62
     0
100
AcDbPoint
 10
-33.81499999999998
 20
3.175000000000011
 30
0.0
  0
POINT
  5
2C3
330
D2
100
AcDbEntity
  8
Defpoints
 62
     0
100
AcDbPoint
 10
-33.81499999999998
 20
-3.175000000000011
 30
0.0
  0
POINT
  5
2C4
330
D2
100
AcDbEntity
  8
Defpoints
 62
     0
100
AcDbPoint
 10
-45.09552766150365
 20
-3.175000000000054
 30
0.0
  0
ENDBLK
  5
D4
330
D2
100
AcDbEntity
  8
0
100
AcDbBlockEnd
  0
BLOCK
  5
E7
330
E6
100
AcDbEntity
  8
0
100
AcDbBlockBegin
  2
_D_1
 70
     0
 10
0.0
 20
0.0
 30
0.0
  3
_D_1
  1
_D_1
  0
LINE
  5
E9
330
E6
100
AcDbEntity
  8
치수문자_일반주서
 62
     0
370
    -2
100
AcDbLine
 10
29.05
 20
3.2375
 30
0.0
 11
29.05
 21
13.78858090296075
 31
0.0
  0
LINE
  5
EA
330
E6
100
AcDbEntity
  8
치수문자_일반주서
 62
     0
370
    -2
100
AcDbLine
 10
10.00000000000005
 20
2.976331269100521
 30
0.0
 11
10.00000000000005
 21
13.78858090296075
 31
0.0
  0
LINE
  5
EB
330
E6
100
AcDbEntity
  8
치수문자_일반주서
 62
     0
370
    -2
100
AcDbLine
 10
25.748
 20
13.78858090296075
 30
0.0
 11
13.30200000000005
 21
13.78858090296075
 31
0.0
  0
SOLID
  5
EC
330
E6
100
AcDbEntity
  8
치수문자_일반주서
 62
     0
100
AcDbTrace
 10
25.748
 20
13.23824756962741
 30
0.0
 11
25.748
 21
14.33891423629408
 31
0.0
 12
29.05
 22
13.78858090296075
 32
0.0
 13
29.05
 23
13.78858090296075
 33
0.0
  0
SOLID
  5
ED
330
E6
100
AcDbEntity
  8
치수문자_일반주서
 62
     0
100
AcDbTrace
 10
13.30200000000005
 20
14.33891423629408
 30
0.0
 11
13.30200000000005
 21
13.23824756962741
 31
0.0
 12
10.00000000000005
 22
13.78858090296075
 32
0.0
 13
10.00000000000005
 23
13.78858090296075
 33
0.0
  0
MTEXT
  5
EE
330
E6
100
AcDbEntity
  8
치수문자_일반주서
 62
     0
100
AcDbMText
 10
19.23711131922332
 20
18.16358090296075
 30
0.0
 40
3.5
 41
0.0
 71
     2
 72
     1
  1
\A1;19.05 [3/4]
  7
SLDTEXTSTYLE0
 73
     1
 44
1.0
  0
POINT
  5
EF
330
E6
100
AcDbEntity
  8
Defpoints
 62
     0
100
AcDbPoint
 10
29.05
 20
3.175
 30
0.0
  0
POINT
  5
F0
330
E6
100
AcDbEntity
  8
Defpoints
 62
     0
100
AcDbPoint
 10
10.00000000000005
 20
2.913831269100521
 30
0.0
  0
POINT
  5
F1
330
E6
100
AcDbEntity
  8
Defpoints
 62
     0
100
AcDbPoint
 10
10.00000000000005
 20
13.78858090296075
 30
0.0
  0
ENDBLK
  5
E8
330
E6
100
AcDbEntity
  8
0
100
AcDbBlockEnd
  0
BLOCK
  5
FD
330
FC
100
AcDbEntity
  8
0
100
AcDbBlockBegin
  2
_D_2
 70
     0
 10
0.0
 20
0.0
 30
0.0
  3
_D_2
  1
_D_2
  0
LINE
  5
FF
330
FC
100
AcDbEntity
  8
치수문자_일반주서
 62
     0
370
    -2
100
AcDbLine
 10
29.05
 20
3.2375
 30
0.0
 11
29.05
 21
37.19528618047637
 31
0.0
  0
LINE
  5
100
330
FC
100
AcDbEntity
  8
치수문자_일반주서
 62
     0
370
    -2
100
AcDbLine
 10
-34.44999999999999
 20
2.602500000000002
 30
0.0
 11
-34.44999999999999
 21
37.19528618047637
 31
0.0
  0
LINE
  5
101
330
FC
100
AcDbEntity
  8
치수문자_일반주서
 62
     0
370
    -2
100
AcDbLine
 10
25.748
 20
37.19528618047637
 30
0.0
 11
-31.14799999999999
 21
37.19528618047637
 31
0.0
  0
SOLID
  5
102
330
FC
100
AcDbEntity
  8
치수문자_일반주서
 62
     0
100
AcDbTrace
 10
25.748
 20
36.64495284714304
 30
0.0
 11
25.748
 21
37.74561951380971
 31
0.0
 12
29.05
 22
37.19528618047637
 32
0.0
 13
29.05
 23
37.19528618047637
 33
0.0
  0
SOLID
  5
103
330
FC
100
AcDbEntity
  8
치수문자_일반주서
 62
     0
100
AcDbTrace
 10
-31.14799999999999
 20
37.74561951380971
 30
0.0
 11
-31.14799999999999
 21
36.64495284714304
 31
0.0
 12
-34.44999999999999
 22
37.19528618047637
 32
0.0
 13
-34.44999999999999
 23
37.19528618047637
 33
0.0
  0
MTEXT
  5
104
330
FC
100
AcDbEntity
  8
치수문자_일반주서
 62
     0
100
AcDbMText
 10
-2.699999999999983
 20
41.57028618047637
 30
0.0
 40
3.5
 41
0.0
 71
     2
 72
     1
  1
\A1;63.5 [2 1/2]
  7
SLDTEXTSTYLE0
 73
     1
 44
1.0
  0
POINT
  5
105
330
FC
100
AcDbEntity
  8
Defpoints
 62
     0
100
AcDbPoint
 10
29.05
 20
3.175
 30
0.0
  0
POINT
  5
106
330
FC
100
AcDbEntity
  8
Defpoints
 62
     0
100
AcDbPoint
 10
-34.44999999999999
 20
2.540000000000002
 30
0.0
  0
POINT
  5
107
330
FC
100
AcDbEntity
  8
Defpoints
 62
     0
100
AcDbPoint
 10
-34.44999999999999
 20
37.19528618047637
 30
0.0
  0
ENDBLK
  5
FE
330
FC
100
AcDbEntity
  8
0
100
AcDbBlockEnd
  0
BLOCK
  5
110
330
10F
100
AcDbEntity
  8
0
100
AcDbBlockBegin
  2
_D_3
 70
     0
 10
0.0
 20
0.0
 30
0.0
  3
_D_3
  1
_D_3
  0
LINE
  5
112
330
10F
100
AcDbEntity
  8
치수문자_일반주서
 62
     0
370
    -2
100
AcDbLine
 10
29.1125
 20
3.175
 30
0.0
 11
46.49322037395585
 21
3.175000000000065
 31
0.0
  0
LINE
  5
113
330
10F
100
AcDbEntity
  8
치수문자_일반주서
 62
     0
370
    -2
100
AcDbLine
 10
29.1125
 20
-3.175000000000001
 30
0.0
 11
46.49322037395587
 21
-3.174999999999937
 31
0.0
  0
LINE
  5
114
330
10F
100
AcDbEntity
  8
치수문자_일반주서
 62
     0
370
    -2
100
AcDbLine
 10
46.49322037395585
 20
3.175000000000065
 30
0.0
 11
46.49322037395574
 21
35.81025000000008
 31
0.0
  0
LINE
  5
115
330
10F
100
AcDbEntity
  8
치수문자_일반주서
 62
     0
370
    -2
100
AcDbLine
 10
46.49322037395585
 20
3.175000000000065
 30
0.0
 11
46.49322037395587
 21
-3.174999999999937
 31
0.0
  0
LINE
  5
116
330
10F
100
AcDbEntity
  8
치수문자_일반주서
 62
     0
370
    -2
100
AcDbLine
 10
46.49322037395584
 20
6.477000000000064
 30
0.0
 11
46.49322037395582
 21
9.779000000000064
 31
0.0
  0
LINE
  5
117
330
10F
100
AcDbEntity
  8
치수문자_일반주서
 62
     0
370
    -2
100
AcDbLine
 10
46.49322037395589
 20
-6.476999999999936
 30
0.0
 11
46.4932203739559
 21
-9.778999999999936
 31
0.0
  0
SOLID
  5
118
330
10F
100
AcDbEntity
  8
치수문자_일반주서
 62
     0
100
AcDbTrace
 10
45.9428870406225
 20
6.477000000000062
 30
0.0
 11
47.04355370728917
 21
6.477000000000066
 31
0.0
 12
46.49322037395585
 22
3.175000000000065
 32
0.0
 13
46.49322037395585
 23
3.175000000000065
 33
0.0
  0
SOLID
  5
119
330
10F
100
AcDbEntity
  8
치수문자_일반주서
 62
     0
100
AcDbTrace
 10
47.04355370728922
 20
-6.476999999999935
 30
0.0
 11
45.94288704062255
 21
-6.476999999999938
 31
0.0
 12
46.49322037395587
 22
-3.174999999999937
 32
0.0
 13
46.49322037395587
 23
-3.174999999999937
 33
0.0
  0
MTEXT
  5
11A
330
10F
100
AcDbEntity
  8
치수문자_일반주서
 62
     0
100
AcDbMText
 10
42.11822037395579
 20
23.12275000000007
 30
0.0
 40
3.5
 41
0.0
 71
     2
 72
     1
  1
\A1;%%c6.35 [1/4]
  7
SLDTEXTSTYLE0
 11
-3.356894814614646E-15
 21
1.0
 31
0.0
 73
     1
 44
1.0
  0
POINT
  5
11B
330
10F
100
AcDbEntity
  8
Defpoints
 62
     0
100
AcDbPoint
 10
29.05
 20
3.175
 30
0.0
  0
POINT
  5
11C
330
10F
100
AcDbEntity
  8
Defpoints
 62
     0
100
AcDbPoint
 10
29.05
 20
-3.175000000000002
 30
0.0
  0
POINT
  5
11D
330
10F
100
AcDbEntity
  8
Defpoints
 62
     0
100
AcDbPoint
 10
46.49322037395587
 20
-3.174999999999936
 30
0.0
  0
ENDBLK
  5
111
330
10F
100
AcDbEntity
  8
0
100
AcDbBlockEnd
  0
BLOCK
  5
12A
330
129
100
AcDbEntity
  8
0
100
AcDbBlockBegin
  2
SW_DOWELSYMBOL_0
 70
     0
 10
0.0
 20
0.0
 30
0.0
  3
SW_DOWELSYMBOL_0
  1
SW_DOWELSYMBOL_0
  0
CIRCLE
  5
12C
330
129
100
AcDbEntity
  8
해칭선
 62
     0
100
AcDbCircle
 10
0.0
 20
0.0
 30
0.0
 40
3.000000000000001
  0
HATCH
  5
12D
330
129
100
AcDbEntity
  8
0
  6
Continuous
 62
     0
370
     0
100
AcDbHatch
 10
0.0
 20
0.0
 30
0.0
210
0.0
220
0.0
230
1.0
  2
SOLID
 70
     1
 71
     0
 91
        1
 92
        0
 93
        3
 72
     2
 10
0.0
 20
0.0
 40
3.000000000000001
 50
0.0
 51
90.0
 73
     1
 72
     1
 10
0.0
 20
3.000000000000001
 11
0.0
 21
0.0
 72
     1
 10
0.0
 20
0.0
 11
3.000000000000001
 21
0.0
 97
        0
 75
     0
 76
     1
 98
        1
 10
0.0
 20
0.0
  0
HATCH
  5
12E
330
129
100
AcDbEntity
  8
0
  6
Continuous
 62
     0
370
     0
100
AcDbHatch
 10
0.0
 20
0.0
 30
0.0
210
0.0
220
0.0
230
1.0
  2
SOLID
 70
     1
 71
     0
 91
        1
 92
        0
 93
        3
 72
     2
 10
0.0
 20
0.0
 40
3.000000000000001
 50
180.0
 51
270.0000000000007
 73
     1
 72
     1
 10
0.0
 20
-3.000000000000001
 11
0.0
 21
0.0
 72
     1
 10
0.0
 20
0.0
 11
-3.000000000000001
 21
0.0
 97
        0
 75
     0
 76
     1
 98
        1
 10
0.0
 20
0.0
  0
ENDBLK
  5
12B
330
129
100
AcDbEntity
  8
0
100
AcDbBlockEnd
  0
BLOCK
  5
1EC
330
1EB
100
AcDbEntity
  8
0
100
AcDbBlockBegin
  2
_D_4
 70
     0
 10
0.0
 20
0.0
 30
0.0
  3
_D_4
  1
_D_4
  0
LINE
  5
1ED
330
1EB
100
AcDbEntity
  8
치수문자_일반주서
 62
     0
370
    -2
100
AcDbLine
 10
102.4375000000001
 20
36.22143424691529
 30
0.0
 11
117.3750000000001
 21
36.22143424691535
 31
0.0
  0
LINE
  5
1EE
330
1EB
100
AcDbEntity
  8
치수문자_일반주서
 62
     0
370
    -2
100
AcDbLine
 10
102.4375000000001
 20
22.22143424691529
 30
0.0
 11
117.3750000000001
 21
22.22143424691535
 31
0.0
  0
LINE
  5
1EF
330
1EB
100
AcDbEntity
  8
치수문자_일반주서
 62
     0
370
    -2
100
AcDbLine
 10
117.3750000000001
 20
36.22143424691535
 30
0.0
 11
117.3750000000001
 21
22.22143424691535
 31
0.0
  0
LINE
  5
1F0
330
1EB
100
AcDbEntity
  8
치수문자_일반주서
 62
     0
370
    -2
100
AcDbLine
 10
117.3750000000001
 20
39.52343424691535
 30
0.0
 11
117.375
 21
42.82543424691535
 31
0.0
  0
LINE
  5
1F1
330
1EB
100
AcDbEntity
  8
치수문자_일반주서
 62
     0
370
    -2
100
AcDbLine
 10
117.3750000000001
 20
18.91943424691535
 30
0.0
 11
117.3750000000001
 21
15.61743424691535
 31
0.0
  0
SOLID
  5
1F2
330
1EB
100
AcDbEntity
  8
치수문자_일반주서
 62
     0
100
AcDbTrace
 10
116.8246666666667
 20
39.52343424691535
 30
0.0
 11
117.9253333333334
 21
39.52343424691535
 31
0.0
 12
117.3750000000001
 22
36.22143424691535
 32
0.0
 13
117.3750000000001
 23
36.22143424691535
 33
0.0
  0
SOLID
  5
1F3
330
1EB
100
AcDbEntity
  8
치수문자_일반주서
 62
     0
100
AcDbTrace
 10
117.9253333333335
 20
18.91943424691535
 30
0.0
 11
116.8246666666668
 21
18.91943424691535
 31
0.0
 12
117.3750000000001
 22
22.22143424691535
 32
0.0
 13
117.3750000000001
 23
22.22143424691535
 33
0.0
  0
MTEXT
  5
1F4
330
1EB
100
AcDbEntity
  8
치수문자_일반주서
 62
     0
100
AcDbMText
 10
113.0000000000001
 20
29.28713862862833
 30
0.0
 40
3.5
 41
0.0
 71
     2
 72
     1
  1
\A1;%%c14
  7
SLDTEXTSTYLE0
 11
-3.045183153257572E-15
 21
1.0
 31
0.0
 73
     1
 44
1.0
  0
POINT
  5
1F5
330
1EB
100
AcDbEntity
  8
Defpoints
 62
     0
100
AcDbPoint
 10
102.3750000000001
 20
36.22143424691529
 30
0.0
  0
POINT
  5
1F6
330
1EB
100
AcDbEntity
  8
Defpoints
 62
     0
100
AcDbPoint
 10
102.3750000000001
 20
22.22143424691529
 30
0.0
  0
POINT
  5
1F7
330
1EB
100
AcDbEntity
  8
Defpoints
 62
     0
100
AcDbPoint
 10
117.3750000000001
 20
22.22143424691535
 30
0.0
  0
ENDBLK
  5
1F8
330
1EB
100
AcDbEntity
  8
0
100
AcDbBlockEnd
  0
BLOCK
  5
206
330
205
100
AcDbEntity
  8
0
100
AcDbBlockBegin
  2
*D8
 70
     1
 10
0.0
 20
0.0
 30
0.0
  3
*D8
  1
*D8
  0
LINE
  5
207
330
205
100
AcDbEntity
  8
치수문자_일반주서
 62
     0
370
    -2
100
AcDbLine
 10
103.8657751816695
 20
19.48229575403651
 30
0.0
 11
120.1921280501954
 21
-7.081888143622854
 31
0.0
  0
MTEXT
  5
208
330
205
100
AcDbEntity
  8
치수문자_일반주서
 62
     0
100
AcDbMText
 10
115.6706384014277
 20
5.288158154535728
 30
0.0
 40
3.5
 41
0.0
 71
     5
 72
     1
  1
\A1;R.50 [R0.02]
  7
SLDTEXTSTYLE0
 11
0.5236126201129557
 21
-0.8519564684057781
 31
0.0
 73
     1
 44
1.0
  0
SOLID
  5
209
330
205
100
AcDbEntity
  8
치수문자_일반주서
 62
     0
100
AcDbTrace
 10
104.3346352247821
 20
19.77045723263868
 30
0.0
 11
103.3969151385569
 21
19.19413427543435
 31
0.0
 12
102.1368063100565
 22
22.29545601271239
 32
0.0
 13
102.1368063100565
 23
22.29545601271239
 33
0.0
  0
LINE
  5
20A
330
205
100
AcDbEntity
  8
치수문자_일반주서
 62
     0
100
AcDbLine
 10
101.785
 20
22.72143424691529
 30
0.0
 11
101.965
 21
22.72143424691529
 31
0.0
  0
LINE
  5
20B
330
205
100
AcDbEntity
  8
치수문자_일반주서
 62
     0
100
AcDbLine
 10
101.875
 20
22.63143424691529
 30
0.0
 11
101.875
 21
22.81143424691529
 31
0.0
  0
POINT
  5
237
330
205
100
AcDbEntity
  8
Defpoints
 62
     0
100
AcDbPoint
 10
102.1368063100565
 20
22.29545601271239
 30
0.0
  0
POINT
  5
238
330
205
100
AcDbEntity
  8
Defpoints
 62
     0
100
AcDbPoint
 10
101.875
 20
22.72143424691529
 30
0.0
  0
ENDBLK
  5
20C
330
205
100
AcDbEntity
  8
0
100
AcDbBlockEnd
  0
BLOCK
  5
212
330
211
100
AcDbEntity
  8
0
100
AcDbBlockBegin
  2
*D9
 70
     1
 10
0.0
 20
0.0
 30
0.0
  3
*D9
  1
*D10
  0
LINE
  5
214
330
211
100
AcDbEntity
  8
치수문자_일반주서
 62
     0
370
    -2
100
AcDbLine
 10
19.37500000000004
 20
35.78393424691529
 30
0.0
 11
19.37500000000004
 21
70.88391841499404
 31
0.0
  0
LINE
  5
215
330
211
100
AcDbEntity
  8
치수문자_일반주서
 62
     0
370
    -2
100
AcDbLine
 10
102.3750000000001
 20
36.34643424691529
 30
0.0
 11
102.3750000000001
 21
70.88391841499404
 31
0.0
  0
LINE
  5
216
330
211
100
AcDbEntity
  8
치수문자_일반주서
 62
     0
370
    -2
100
AcDbLine
 10
22.67700000000004
 20
70.88391841499404
 30
0.0
 11
99.07300000000006
 21
70.88391841499404
 31
0.0
  0
SOLID
  5
217
330
211
100
AcDbEntity
  8
치수문자_일반주서
 62
     0
100
AcDbTrace
 10
22.67700000000004
 20
71.43425174832737
 30
0.0
 11
22.67700000000004
 21
70.33358508166071
 31
0.0
 12
19.37500000000004
 22
70.88391841499404
 32
0.0
 13
19.37500000000004
 23
70.88391841499404
 33
0.0
  0
SOLID
  5
218
330
211
100
AcDbEntity
  8
치수문자_일반주서
 62
     0
100
AcDbTrace
 10
99.07300000000006
 20
70.33358508166071
 30
0.0
 11
99.07300000000006
 21
71.43425174832737
 31
0.0
 12
102.3750000000001
 22
70.88391841499404
 32
0.0
 13
102.3750000000001
 23
70.88391841499404
 33
0.0
  0
MTEXT
  5
219
330
211
100
AcDbEntity
  8
치수문자_일반주서
 62
     0
100
AcDbMText
 10
60.87500000000005
 20
75.25891841499404
 30
0.0
 40
3.5
 41
0.0
 71
     2
 72
     1
  1
\A1;83 [3.27]
  7
SLDTEXTSTYLE0
 73
     1
 44
1.0
  0
POINT
  5
21A
330
211
100
AcDbEntity
  8
Defpoints
 62
     0
100
AcDbPoint
 10
19.37500000000004
 20
35.72143424691529
 30
0.0
  0
POINT
  5
21B
330
211
100
AcDbEntity
  8
Defpoints
 62
     0
100
AcDbPoint
 10
102.3750000000001
 20
36.28393424691529
 30
0.0
  0
POINT
  5
21C
330
211
100
AcDbEntity
  8
Defpoints
 62
     0
100
AcDbPoint
 10
102.3750000000001
 20
70.88391841499404
 30
0.0
  0
ENDBLK
  5
213
330
211
100
AcDbEntity
  8
0
100
AcDbBlockEnd
  0
BLOCK
  5
21E
330
21D
100
AcDbEntity
  8
0
100
AcDbBlockBegin
  2
*D10
 70
     1
 10
0.0
 20
0.0
 30
0.0
  3
*D10
  1
*D11
  0
LINE
  5
220
330
21D
100
AcDbEntity
  8
치수문자_일반주서
 62
     0
370
    -2
100
AcDbLine
 10
76.37504186422882
 20
28.62038676313042
 30
0.0
 11
76.37504186422882
 21
61.90091383617725
 31
0.0
  0
LINE
  5
221
330
21D
100
AcDbEntity
  8
치수문자_일반주서
 62
     0
370
    -2
100
AcDbLine
 10
102.3750000000001
 20
36.28393424691529
 30
0.0
 11
102.3750000000001
 21
61.90091383617725
 31
0.0
  0
LINE
  5
222
330
21D
100
AcDbEntity
  8
치수문자_일반주서
 62
     0
370
    -2
100
AcDbLine
 10
79.67704186422881
 20
61.90091383617725
 30
0.0
 11
99.07300000000006
 21
61.90091383617725
 31
0.0
  0
SOLID
  5
223
330
21D
100
AcDbEntity
  8
치수문자_일반주서
 62
     0
100
AcDbTrace
 10
79.67704186422881
 20
62.45124716951059
 30
0.0
 11
79.67704186422881
 21
61.35058050284392
 31
0.0
 12
76.37504186422882
 22
61.90091383617725
 32
0.0
 13
76.37504186422882
 23
61.90091383617725
 33
0.0
  0
SOLID
  5
224
330
21D
100
AcDbEntity
  8
치수문자_일반주서
 62
     0
100
AcDbTrace
 10
99.07300000000006
 20
61.35058050284392
 30
0.0
 11
99.07300000000006
 21
62.45124716951059
 31
0.0
 12
102.3750000000001
 22
61.90091383617725
 32
0.0
 13
102.3750000000001
 23
61.90091383617725
 33
0.0
  0
MTEXT
  5
225
330
21D
100
AcDbEntity
  8
치수문자_일반주서
 62
     0
100
AcDbMText
 10
89.42159572693208
 20
66.27591383617725
 30
0.0
 40
3.5
 41
0.0
 71
     2
 72
     1
  1
\A1;26 [1.02]
  7
SLDTEXTSTYLE0
 73
     1
 44
1.0
  0
POINT
  5
226
330
21D
100
AcDbEntity
  8
Defpoints
 62
     0
100
AcDbPoint
 10
76.37504186422882
 20
28.55788676313042
 30
0.0
  0
POINT
  5
227
330
21D
100
AcDbEntity
  8
Defpoints
 62
     0
100
AcDbPoint
 10
102.3750000000001
 20
36.22143424691529
 30
0.0
  0
POINT
  5
228
330
21D
100
AcDbEntity
  8
Defpoints
 62
     0
100
AcDbPoint
 10
102.3750000000001
 20
61.90091383617725
 30
0.0
  0
ENDBLK
  5
21F
330
21D
100
AcDbEntity
  8
0
100
AcDbBlockEnd
  0
BLOCK
  5
22A
330
229
100
AcDbEntity
  8
0
100
AcDbBlockBegin
  2
*D11
 70
     1
 10
0.0
 20
0.0
 30
0.0
  3
*D11
  1
*D12
  0
LINE
  5
22C
330
229
100
AcDbEntity
  8
치수문자_일반주서
 62
     0
370
    -2
100
AcDbLine
 10
19.81250000000005
 20
36.22143424691529
 30
0.0
 11
4.374999999999983
 21
36.22143424691524
 31
0.0
  0
LINE
  5
22D
330
229
100
AcDbEntity
  8
치수문자_일반주서
 62
     0
370
    -2
100
AcDbLine
 10
19.81250000000005
 20
22.22143424691529
 30
0.0
 11
4.375000000000032
 21
22.22143424691524
 31
0.0
  0
LINE
  5
22E
330
229
100
AcDbEntity
  8
치수문자_일반주서
 62
     0
370
    -2
100
AcDbLine
 10
4.374999999999983
 20
36.22143424691524
 30
0.0
 11
4.375000000000032
 21
22.22143424691524
 31
0.0
  0
LINE
  5
22F
330
229
100
AcDbEntity
  8
치수문자_일반주서
 62
     0
370
    -2
100
AcDbLine
 10
4.374999999999972
 20
39.52343424691524
 30
0.0
 11
4.37499999999996
 21
42.82543424691524
 31
0.0
  0
LINE
  5
230
330
229
100
AcDbEntity
  8
치수문자_일반주서
 62
     0
370
    -2
100
AcDbLine
 10
4.375000000000044
 20
18.91943424691524
 30
0.0
 11
4.375000000000055
 21
15.61743424691524
 31
0.0
  0
SOLID
  5
231
330
229
100
AcDbEntity
  8
치수문자_일반주서
 62
     0
100
AcDbTrace
 10
3.824666666666638
 20
39.52343424691524
 30
0.0
 11
4.925333333333305
 21
39.52343424691524
 31
0.0
 12
4.374999999999983
 22
36.22143424691524
 32
0.0
 13
4.374999999999983
 23
36.22143424691524
 33
0.0
  0
SOLID
  5
232
330
229
100
AcDbEntity
  8
치수문자_일반주서
 62
     0
100
AcDbTrace
 10
4.925333333333377
 20
18.91943424691524
 30
0.0
 11
3.82466666666671
 21
18.91943424691523
 31
0.0
 12
4.375000000000032
 22
22.22143424691524
 32
0.0
 13
4.375000000000032
 23
22.22143424691524
 33
0.0
  0
MTEXT
  5
233
330
229
100
AcDbEntity
  8
치수문자_일반주서
 62
     0
100
AcDbMText
 10
0.0000000000000071
 20
29.22143424691528
 30
0.0
 40
3.5
 41
0.0
 71
     2
 72
     1
  1
\A1;%%c14
  7
SLDTEXTSTYLE0
 11
-3.489272363107635E-15
 21
1.0
 31
0.0
 73
     1
 44
1.0
  0
POINT
  5
234
330
229
100
AcDbEntity
  8
Defpoints
 62
     0
100
AcDbPoint
 10
19.87500000000005
 20
36.22143424691529
 30
0.0
  0
POINT
  5
235
330
229
100
AcDbEntity
  8
Defpoints
 62
     0
100
AcDbPoint
 10
19.87500000000005
 20
22.22143424691529
 30
0.0
  0
POINT
  5
236
330
229
100
AcDbEntity
  8
Defpoints
 62
     0
100
AcDbPoint
 10
4.375000000000043
 20
22.22143424691524
 30
0.0
  0
ENDBLK
  5
22B
330
229
100
AcDbEntity
  8
0
100
AcDbBlockEnd
  0
BLOCK
  5
285
330
284
100
AcDbEntity
  8
0
100
AcDbBlockBegin
  2
*D12
 70
     1
 10
0.0
 20
0.0
 30
0.0
  3
*D12
  1
*D13
  0
LINE
  5
287
330
284
100
AcDbEntity
  8
치수문자_일반주서
 62
     0
370
    -2
100
AcDbLine
 10
-41.55278565596039
 20
80.3991645720624
 30
0.0
 11
-41.55278565596039
 21
115.4991487401412
 31
0.0
  0
LINE
  5
288
330
284
100
AcDbEntity
  8
치수문자_일반주서
 62
     0
370
    -2
100
AcDbLine
 10
41.44721434403962
 20
80.9616645720624
 30
0.0
 11
41.44721434403962
 21
115.4991487401412
 31
0.0
  0
LINE
  5
289
330
284
100
AcDbEntity
  8
치수문자_일반주서
 62
     0
370
    -2
100
AcDbLine
 10
-38.25078565596039
 20
115.4991487401412
 30
0.0
 11
38.14521434403962
 21
115.4991487401412
 31
0.0
  0
SOLID
  5
28A
330
284
100
AcDbEntity
  8
치수문자_일반주서
 62
     0
100
AcDbTrace
 10
-38.25078565596039
 20
116.0494820734745
 30
0.0
 11
-38.25078565596039
 21
114.9488154068078
 31
0.0
 12
-41.55278565596039
 22
115.4991487401412
 32
0.0
 13
-41.55278565596039
 23
115.4991487401412
 33
0.0
  0
SOLID
  5
28B
330
284
100
AcDbEntity
  8
치수문자_일반주서
 62
     0
100
AcDbTrace
 10
38.14521434403962
 20
114.9488154068078
 30
0.0
 11
38.14521434403962
 21
116.0494820734745
 31
0.0
 12
41.44721434403962
 22
115.4991487401412
 32
0.0
 13
41.44721434403962
 23
115.4991487401412
 33
0.0
  0
MTEXT
  5
28C
330
284
100
AcDbEntity
  8
치수문자_일반주서
 62
     0
100
AcDbMText
 10
-0.0527856559603848
 20
119.8741487401412
 30
0.0
 40
3.5
 41
0.0
 71
     2
 72
     1
  1
\A1;83 [3.27]
  7
SLDTEXTSTYLE0
 73
     1
 44
1.0
  0
POINT
  5
28D
330
284
100
AcDbEntity
  8
Defpoints
 62
     0
100
AcDbPoint
 10
-41.55278565596039
 20
80.3366645720624
 30
0.0
  0
POINT
  5
28E
330
284
100
AcDbEntity
  8
Defpoints
 62
     0
100
AcDbPoint
 10
41.44721434403962
 20
80.8991645720624
 30
0.0
  0
POINT
  5
28F
330
284
100
AcDbEntity
  8
Defpoints
 62
     0
100
AcDbPoint
 10
41.44721434403962
 20
115.4991487401412
 30
0.0
  0
ENDBLK
  5
286
330
284
100
AcDbEntity
  8
0
100
AcDbBlockEnd
  0
BLOCK
  5
291
330
290
100
AcDbEntity
  8
0
100
AcDbBlockBegin
  2
*D13
 70
     1
 10
0.0
 20
0.0
 30
0.0
  3
*D13
  1
*D14
  0
LINE
  5
293
330
290
100
AcDbEntity
  8
치수문자_일반주서
 62
     0
370
    -2
100
AcDbLine
 10
15.44725620826839
 20
73.23561708827754
 30
0.0
 11
15.44725620826839
 21
106.5161441613244
 31
0.0
  0
LINE
  5
294
330
290
100
AcDbEntity
  8
치수문자_일반주서
 62
     0
370
    -2
100
AcDbLine
 10
41.44721434403962
 20
80.8991645720624
 30
0.0
 11
41.44721434403962
 21
106.5161441613244
 31
0.0
  0
LINE
  5
295
330
290
100
AcDbEntity
  8
치수문자_일반주서
 62
     0
370
    -2
100
AcDbLine
 10
18.74925620826838
 20
106.5161441613244
 30
0.0
 11
38.14521434403962
 21
106.5161441613244
 31
0.0
  0
SOLID
  5
296
330
290
100
AcDbEntity
  8
치수문자_일반주서
 62
     0
100
AcDbTrace
 10
18.74925620826838
 20
107.0664774946577
 30
0.0
 11
18.74925620826838
 21
105.965810827991
 31
0.0
 12
15.44725620826839
 22
106.5161441613244
 32
0.0
 13
15.44725620826839
 23
106.5161441613244
 33
0.0
  0
SOLID
  5
297
330
290
100
AcDbEntity
  8
치수문자_일반주서
 62
     0
100
AcDbTrace
 10
38.14521434403962
 20
105.965810827991
 30
0.0
 11
38.14521434403962
 21
107.0664774946577
 31
0.0
 12
41.44721434403962
 22
106.5161441613244
 32
0.0
 13
41.44721434403962
 23
106.5161441613244
 33
0.0
  0
MTEXT
  5
298
330
290
100
AcDbEntity
  8
치수문자_일반주서
 62
     0
100
AcDbMText
 10
28.49381007097165
 20
110.8911441613244
 30
0.0
 40
3.5
 41
0.0
 71
     2
 72
     1
  1
\A1;26 [1.02]
  7
SLDTEXTSTYLE0
 73
     1
 44
1.0
  0
POINT
  5
299
330
290
100
AcDbEntity
  8
Defpoints
 62
     0
100
AcDbPoint
 10
15.44725620826839
 20
73.17311708827754
 30
0.0
  0
POINT
  5
29A
330
290
100
AcDbEntity
  8
Defpoints
 62
     0
100
AcDbPoint
 10
41.44721434403962
 20
80.8366645720624
 30
0.0
  0
POINT
  5
29B
330
290
100
AcDbEntity
  8
Defpoints
 62
     0
100
AcDbPoint
 10
41.44721434403962
 20
106.5161441613244
 30
0.0
  0
ENDBLK
  5
292
330
290
100
AcDbEntity
  8
0
100
AcDbBlockEnd
  0
BLOCK
  5
29D
330
29C
100
AcDbEntity
  8
0
100
AcDbBlockBegin
  2
*D14
 70
     1
 10
0.0
 20
0.0
 30
0.0
  3
*D14
  1
*D15
  0
LINE
  5
29F
330
29C
100
AcDbEntity
  8
치수문자_일반주서
 62
     0
370
    -2
100
AcDbLine
 10
-41.11528565596038
 20
80.8366645720624
 30
0.0
 11
-56.55278565596045
 21
80.83666457206235
 31
0.0
  0
LINE
  5
2A0
330
29C
100
AcDbEntity
  8
치수문자_일반주서
 62
     0
370
    -2
100
AcDbLine
 10
-41.11528565596038
 20
66.8366645720624
 30
0.0
 11
-56.5527856559604
 21
66.83666457206235
 31
0.0
  0
LINE
  5
2A1
330
29C
100
AcDbEntity
  8
치수문자_일반주서
 62
     0
370
    -2
100
AcDbLine
 10
-56.55278565596045
 20
80.83666457206235
 30
0.0
 11
-56.5527856559604
 21
66.83666457206235
 31
0.0
  0
LINE
  5
2A2
330
29C
100
AcDbEntity
  8
치수문자_일반주서
 62
     0
370
    -2
100
AcDbLine
 10
-56.55278565596046
 20
84.13866457206235
 30
0.0
 11
-56.55278565596048
 21
87.44066457206236
 31
0.0
  0
LINE
  5
2A3
330
29C
100
AcDbEntity
  8
치수문자_일반주서
 62
     0
370
    -2
100
AcDbLine
 10
-56.55278565596038
 20
63.53466457206235
 30
0.0
 11
-56.55278565596037
 21
60.23266457206235
 31
0.0
  0
SOLID
  5
2A4
330
29C
100
AcDbEntity
  8
치수문자_일반주서
 62
     0
100
AcDbTrace
 10
-57.1031189892938
 20
84.13866457206235
 30
0.0
 11
-56.00245232262713
 21
84.13866457206235
 31
0.0
 12
-56.55278565596045
 22
80.83666457206235
 32
0.0
 13
-56.55278565596045
 23
80.83666457206235
 33
0.0
  0
SOLID
  5
2A5
330
29C
100
AcDbEntity
  8
치수문자_일반주서
 62
     0
100
AcDbTrace
 10
-56.00245232262705
 20
63.53466457206235
 30
0.0
 11
-57.10311898929372
 21
63.53466457206235
 31
0.0
 12
-56.5527856559604
 22
66.83666457206235
 32
0.0
 13
-56.5527856559604
 23
66.83666457206235
 33
0.0
  0
MTEXT
  5
2A6
330
29C
100
AcDbEntity
  8
치수문자_일반주서
 62
     0
100
AcDbMText
 10
-60.92778565596043
 20
73.83666457206239
 30
0.0
 40
3.5
 41
0.0
 71
     2
 72
     1
  1
\A1;%%c14
  7
SLDTEXTSTYLE0
 11
-3.552713678800501E-15
 21
1.0
 31
0.0
 73
     1
 44
1.0
  0
POINT
  5
2A7
330
29C
100
AcDbEntity
  8
Defpoints
 62
     0
100
AcDbPoint
 10
-41.05278565596038
 20
80.8366645720624
 30
0.0
  0
POINT
  5
2A8
330
29C
100
AcDbEntity
  8
Defpoints
 62
     0
100
AcDbPoint
 10
-41.05278565596038
 20
66.8366645720624
 30
0.0
  0
POINT
  5
2A9
330
29C
100
AcDbEntity
  8
Defpoints
 62
     0
100
AcDbPoint
 10
-56.55278565596041
 20
66.83666457206235
 30
0.0
  0
ENDBLK
  5
29E
330
29C
100
AcDbEntity
  8
0
100
AcDbBlockEnd
  0
BLOCK
  5
2AB
330
2AA
100
AcDbEntity
  8
0
100
AcDbBlockBegin
  2
*D15
 70
     1
 10
0.0
 20
0.0
 30
0.0
  3
*D15
  1
*D16
  0
LINE
  5
2AD
330
2AA
100
AcDbEntity
  8
치수문자_일반주서
 62
     0
370
    -2
100
AcDbLine
 10
41.50971434403964
 20
80.8366645720624
 30
0.0
 11
56.44721434403963
 21
80.83666457206246
 31
0.0
  0
LINE
  5
2AE
330
2AA
100
AcDbEntity
  8
치수문자_일반주서
 62
     0
370
    -2
100
AcDbLine
 10
41.50971434403962
 20
66.8366645720624
 30
0.0
 11
56.44721434403968
 21
66.83666457206246
 31
0.0
  0
LINE
  5
2AF
330
2AA
100
AcDbEntity
  8
치수문자_일반주서
 62
     0
370
    -2
100
AcDbLine
 10
56.44721434403963
 20
80.83666457206246
 30
0.0
 11
56.44721434403968
 21
66.83666457206246
 31
0.0
  0
LINE
  5
2B0
330
2AA
100
AcDbEntity
  8
치수문자_일반주서
 62
     0
370
    -2
100
AcDbLine
 10
56.44721434403962
 20
84.13866457206247
 30
0.0
 11
56.4472143440396
 21
87.44066457206247
 31
0.0
  0
LINE
  5
2B1
330
2AA
100
AcDbEntity
  8
치수문자_일반주서
 62
     0
370
    -2
100
AcDbLine
 10
56.44721434403969
 20
63.53466457206246
 30
0.0
 11
56.44721434403971
 21
60.23266457206246
 31
0.0
  0
SOLID
  5
2B2
330
2AA
100
AcDbEntity
  8
치수문자_일반주서
 62
     0
100
AcDbTrace
 10
55.89688101070628
 20
84.13866457206247
 30
0.0
 11
56.99754767737295
 21
84.13866457206247
 31
0.0
 12
56.44721434403963
 22
80.83666457206246
 32
0.0
 13
56.44721434403963
 23
80.83666457206246
 33
0.0
  0
SOLID
  5
2B3
330
2AA
100
AcDbEntity
  8
치수문자_일반주서
 62
     0
100
AcDbTrace
 10
56.99754767737303
 20
63.53466457206246
 30
0.0
 11
55.89688101070636
 21
63.53466457206246
 31
0.0
 12
56.44721434403968
 22
66.83666457206246
 32
0.0
 13
56.44721434403968
 23
66.83666457206246
 33
0.0
  0
MTEXT
  5
2B4
330
2AA
100
AcDbEntity
  8
치수문자_일반주서
 62
     0
100
AcDbMText
 10
52.07221434403965
 20
73.90236895377544
 30
0.0
 40
3.5
 41
0.0
 71
     2
 72
     1
  1
\A1;%%c14
  7
SLDTEXTSTYLE0
 11
-3.552713678800501E-15
 21
1.0
 31
0.0
 73
     1
 44
1.0
  0
POINT
  5
2B5
330
2AA
100
AcDbEntity
  8
Defpoints
 62
     0
100
AcDbPoint
 10
41.44721434403964
 20
80.8366645720624
 30
0.0
  0
POINT
  5
2B6
330
2AA
100
AcDbEntity
  8
Defpoints
 62
     0
100
AcDbPoint
 10
41.44721434403962
 20
66.8366645720624
 30
0.0
  0
POINT
  5
2B7
330
2AA
100
AcDbEntity
  8
Defpoints
 62
     0
100
AcDbPoint
 10
56.44721434403968
 20
66.83666457206246
 30
0.0
  0
ENDBLK
  5
2AC
330
2AA
100
AcDbEntity
  8
0
100
AcDbBlockEnd
  0
BLOCK
  5
2B9
330
2B8
100
AcDbEntity
  8
0
100
AcDbBlockBegin
  2
*D16
 70
     1
 10
0.0
 20
0.0
 30
0.0
  3
*D16
  1
*D17
  0
LINE
  5
2BB
330
2B8
100
AcDbEntity
  8
치수문자_일반주서
 62
     0
370
    -2
100
AcDbLine
 10
42.93798952570907
 20
64.09752607918362
 30
0.0
 11
59.2643423942349
 21
37.53334218152425
 31
0.0
  0
MTEXT
  5
2BC
330
2B8
100
AcDbEntity
  8
치수문자_일반주서
 62
     0
100
AcDbMText
 10
54.74285274546723
 20
49.90338847968283
 30
0.0
 40
3.5
 41
0.0
 71
     5
 72
     1
  1
\A1;R.50 [R0.02]
  7
SLDTEXTSTYLE0
 11
0.5236126201129557
 21
-0.8519564684057781
 31
0.0
 73
     1
 44
1.0
  0
SOLID
  5
2BD
330
2B8
100
AcDbEntity
  8
치수문자_일반주서
 62
     0
100
AcDbTrace
 10
43.40684956882172
 20
64.38568755778579
 30
0.0
 11
42.46912948259642
 21
63.80936460058146
 31
0.0
 12
41.20902065409609
 22
66.9106863378595
 32
0.0
 13
41.20902065409609
 23
66.9106863378595
 33
0.0
  0
LINE
  5
2BE
330
2B8
100
AcDbEntity
  8
치수문자_일반주서
 62
     0
100
AcDbLine
 10
40.8572143440396
 20
67.3366645720624
 30
0.0
 11
41.03721434403961
 21
67.3366645720624
 31
0.0
  0
LINE
  5
2BF
330
2B8
100
AcDbEntity
  8
치수문자_일반주서
 62
     0
100
AcDbLine
 10
40.94721434403961
 20
67.2466645720624
 30
0.0
 11
40.94721434403961
 21
67.4266645720624
 31
0.0
  0
POINT
  5
2C0
330
2B8
100
AcDbEntity
  8
Defpoints
 62
     0
100
AcDbPoint
 10
41.20902065409609
 20
66.9106863378595
 30
0.0
  0
POINT
  5
2C1
330
2B8
100
AcDbEntity
  8
Defpoints
 62
     0
100
AcDbPoint
 10
40.94721434403961
 20
67.3366645720624
 30
0.0
  0
ENDBLK
  5
2BA
330
2B8
100
AcDbEntity
  8
0
100
AcDbBlockEnd
  0
BLOCK
  5
2CF
330
2CE
100
AcDbEntity
  8
0
100
AcDbBlockBegin
  2
*D17
 70
     1
 10
0.0
 20
0.0
 30
0.0
  3
*D17
  1
*D18
  0
LINE
  5
2D1
330
2CE
100
AcDbEntity
  8
치수문자_일반주서
 62
     0
370
    -2
100
AcDbLine
 10
31.01994554582013
 20
-5.629056267623011
 30
0.0
 11
53.6482685672291
 21
-32.91704221085504
 31
0.0
  0
MTEXT
  5
2D2
330
2CE
100
AcDbEntity
  8
치수문자_일반주서
 62
     0
100
AcDbMText
 10
46.73238072064442
 20
-20.4646882047459
 30
0.0
 40
3.5
 41
0.0
 71
     5
 72
     1
  1
\A1;R.38 [R0.015]
  7
SLDTEXTSTYLE0
 11
0.6383235258811094
 21
-0.7697681964765162
 31
0.0
 73
     1
 44
1.0
  0
LINE
  5
2D3
330
2CE
100
AcDbEntity
  8
치수문자_일반주서
 62
     0
370
    -2
100
AcDbLine
 10
28.669
 20
-2.794000000000002
 30
0.0
 11
28.91220126336071
 21
-3.087281682857555
 31
0.0
  0
SOLID
  5
2D4
330
2CE
100
AcDbEntity
  8
치수문자_일반주서
 62
     0
100
AcDbTrace
 10
31.44357464328104
 20
-5.277765553879774
 30
0.0
 11
30.59631644835922
 21
-5.980346981366249
 31
0.0
 12
28.91220126336071
 22
-3.087281682857555
 32
0.0
 13
28.91220126336071
 23
-3.087281682857555
 33
0.0
  0
POINT
  5
2D5
330
2CE
100
AcDbEntity
  8
Defpoints
 62
     0
100
AcDbPoint
 10
28.91220126336071
 20
-3.087281682857555
 30
0.0
  0
POINT
  5
2D6
330
2CE
100
AcDbEntity
  8
Defpoints
 62
     0
100
AcDbPoint
 10
28.669
 20
-2.794000000000002
 30
0.0
  0
ENDBLK
  5
2D0
330
2CE
100
AcDbEntity
  8
0
100
AcDbBlockEnd
  0
BLOCK
  5
309
330
308
100
AcDbEntity
  8
0
100
AcDbBlockBegin
  2
*D18
 70
     1
 10
0.0
 20
0.0
 30
0.0
  3
*D18
  1
*D18
  0
LINE
  5
30B
330
308
100
AcDbEntity
  8
치수문자_일반주서
 62
     0
370
    -2
100
AcDbLine
 10
30.22006555192471
 20
-5.988362737270988
 30
0.0
 11
46.34929487774888
 21
-35.83613133653103
 31
0.0
  0
MTEXT
  5
30C
330
308
100
AcDbEntity
  8
치수문자_일반주서
 62
     0
100
AcDbMText
 10
42.41892253924608
 20
-23.04127208444341
 30
0.0
 40
3.5
 41
0.0
 71
     5
 72
     1
  1
\A1;R.76 [R0.03]
  7
SLDTEXTSTYLE0
 11
0.475409830690134
 21
-0.8797644530686486
 31
0.0
 73
     1
 44
1.0
  0
LINE
  5
30D
330
308
100
AcDbEntity
  8
치수문자_일반주서
 62
     0
370
    -2
100
AcDbLine
 10
28.288
 20
-2.413
 30
0.0
 11
28.65026229098588
 21
-3.08338051323831
 31
0.0
  0
SOLID
  5
30E
330
308
100
AcDbEntity
  8
치수문자_일반주서
 62
     0
100
AcDbTrace
 10
30.70422925593015
 20
-5.72672886044785
 30
0.0
 11
29.73590184791926
 21
-6.249996614094125
 31
0.0
 12
28.65026229098588
 22
-3.08338051323831
 32
0.0
 13
28.65026229098588
 23
-3.08338051323831
 33
0.0
  0
POINT
  5
30F
330
308
100
AcDbEntity
  8
Defpoints
 62
     0
100
AcDbPoint
 10
28.65026229098588
 20
-3.08338051323831
 30
0.0
  0
POINT
  5
310
330
308
100
AcDbEntity
  8
Defpoints
 62
     0
100
AcDbPoint
 10
28.288
 20
-2.413
 30
0.0
  0
ENDBLK
  5
30A
330
308
100
AcDbEntity
  8
0
100
AcDbBlockEnd
  0
ENDSEC
  0
SECTION
  2
ENTITIES
  0
LINE
  5
96
330
1F
100
AcDbEntity
  8
0
  6
Continuous
 62
     1
370
    15
100
AcDbLine
 10
10.61233280027382
 20
0.9292436351617791
 30
0.0
 11
10.56894900576818
 21
0.9525173555455193
 31
0.0
  0
LINE
  5
97
330
1F
100
AcDbEntity
  8
0
  6
Continuous
 62
     1
370
    15
100
AcDbLine
 10
27.88750737241497
 20
0.929782879124475
 30
0.0
 11
27.84736522827127
 21
0.9514272011583348
 31
0.0
  0
LINE
  5
98
330
1F
100
AcDbEntity
  8
외형선
  6
Continuous
370
    15
100
AcDbLine
 10
24.45129438688446
 20
-0.9285760638571082
 30
0.0
 11
24.49584064486956
 21
-0.9525402773704275
 31
0.0
  0
LINE
  5
99
330
1F
100
AcDbEntity
  8
0
  6
Continuous
 62
     1
370
    15
100
AcDbLine
 10
20.88312505142653
 20
-3.175000000000006
 30
0.0
 11
22.81993563243268
 21
-3.175000000000006
 31
0.0
  0
LINE
  5
9A
330
1F
100
AcDbEntity
  8
0
  6
Continuous
 62
     1
370
    15
100
AcDbLine
 10
14.18093184292164
 20
3.175000000000006
 30
0.0
 11
12.24526970652512
 21
3.175000000000006
 31
0.0
  0
LINE
  5
9B
330
1F
100
AcDbEntity
  8
0
  6
Continuous
 62
     1
370
    15
100
AcDbLine
 10
22.81993563243268
 20
3.175000000000006
 30
0.0
 11
20.88312505142656
 21
3.175000000000006
 31
0.0
  0
LINE
  5
9C
330
1F
100
AcDbEntity
  8
0
  6
Continuous
 62
     1
370
    15
100
AcDbLine
 10
12.2452697065251
 20
-3.175000000000006
 30
0.0
 11
14.18093184292161
 21
-3.175000000000006
 31
0.0
  0
LINE
  5
9D
330
1F
100
AcDbEntity
  8
외형선
  6
Continuous
370
    15
100
AcDbLine
 10
-33.81499999999998
 20
-3.175
 30
0.0
 11
8.99990277871143
 21
-3.175
 31
0.0
  0
LINE
  5
9E
330
1F
100
AcDbEntity
  8
외형선
  6
Continuous
370
    15
100
AcDbLine
 10
8.99990277871143
 20
3.175
 30
0.0
 11
-33.81499999999998
 21
3.175
 31
0.0
  0
LINE
  5
9F
330
1F
100
AcDbEntity
  8
외형선
  6
Continuous
370
    15
100
AcDbLine
 10
-33.81499999999998
 20
3.175
 30
0.0
 11
-34.44999999999999
 21
2.540000000000002
 31
0.0
  0
LINE
  5
A0
330
1F
100
AcDbEntity
  8
외형선
  6
Continuous
370
    15
100
AcDbLine
 10
-34.44999999999999
 20
-2.540000000000003
 30
0.0
 11
-33.81499999999998
 21
-3.175000000000001
 31
0.0
  0
SPLINE
  5
A1
330
1F
100
AcDbEntity
  8
0
  6
Continuous
 62
     1
370
    15
100
AcDbSpline
210
0.0
220
0.0
230
1.0
 70
     8
 71
     3
 72
    21
 73
    17
 74
     0
 42
0.000000001
 43
0.00000001
 40
0.0
 40
0.0
 40
0.0
 40
0.0
 40
0.0723779616167258
 40
0.1447343739677641
 40
0.2171191463770735
 40
0.2895818701681322
 40
0.3620667085862773
 40
0.4331689332699745
 40
0.50422999955601
 40
0.5753123715055366
 40
0.6464782362912521
 40
0.7191246168188363
 40
0.791684468849062
 40
0.8642026183670449
 40
0.9367275297581973
 40
1.0
 40
1.0
 40
1.0
 40
1.0
 10
10.00000000000002
 20
2.188393671248446
 30
0.0
 10
10.39008338249159
 20
2.015594511804325
 30
0.0
 10
11.17013400700511
 20
1.670047640828047
 30
0.0
 10
12.34017749179895
 20
1.049633156285606
 30
0.0
 10
13.51076798951055
 20
0.3887868253813564
 30
0.0
 10
14.68236849292746
 20
-0.2913686181533663
 30
0.0
 10
15.84720371222799
 20
-0.9536972777784066
 30
0.0
 10
17.0040037008615
 20
-1.570230986228341
 30
0.0
 10
18.15315313214031
 20
-2.114444110907228
 30
0.0
 10
19.30268559818098
 20
-2.566601190329432
 30
0.0
 10
20.46111027908559
 20
-2.909149920352917
 30
0.0
 10
21.62769741886937
 20
-3.124096461257265
 30
0.0
 10
22.80112801066405
 20
-3.19968760586781
 30
0.0
 10
23.97381781645954
 20
-3.127009048571101
 30
0.0
 10
25.0964392439628
 20
-2.932659171032902
 30
0.0
 10
25.82842702156248
 20
-2.70355370377319
 30
0.0
 10
26.16948422250852
 20
-2.596805924949253
 30
0.0
  0
SPLINE
  5
A2
330
1F
100
AcDbEntity
  8
외형선
  6
Continuous
370
    15
100
AcDbSpline
210
0.0
220
0.0
230
1.0
 70
    24
 71
     3
 72
    10
 73
     6
 74
     0
 42
0.000000001
 43
0.00000001
 40
0.0
 40
0.0
 40
0.0
 40
0.0
 40
0.2814403244653609
 40
0.566089357974573
 40
0.9999999999999999
 40
0.9999999999999999
 40
0.9999999999999999
 40
0.9999999999999999
 10
10.00000000000001
 20
2.913831269117746
 30
0.0
 10
10.0
 20
2.847286037742169
 30
0.0
 10
9.999999999999986
 20
2.713436890939093
 30
0.0
 10
10.00000000000003
 20
2.482018384667187
 30
0.0
 10
10.00000000000003
 20
2.326239256298112
 30
0.0
 10
10.00000000000003
 20
2.232170212478621
 30
0.0
  0
SPLINE
  5
A3
330
1F
100
AcDbEntity
  8
0
  6
Continuous
 62
     1
370
    15
100
AcDbSpline
210
0.0
220
0.0
230
1.0
 70
     8
 71
     3
 72
    54
 73
    50
 74
     0
 42
0.000000001
 43
0.00000001
 40
0.0417085100204495
 40
0.0417085100204495
 40
0.0417085100204495
 40
0.0417085100204495
 40
0.0625000000000022
 40
0.0625000000000022
 40
0.1250000000000035
 40
0.1250000000000035
 40
0.1562500000000041
 40
0.1562500000000041
 40
0.1875000000000048
 40
0.1875000000000048
 40
0.2187500000000054
 40
0.2187500000000054
 40
0.2500000000000061
 40
0.2500000000000061
 40
0.2812500000000067
 40
0.2812500000000067
 40
0.3125000000000073
 40
0.3125000000000073
 40
0.343750000000008
 40
0.343750000000008
 40
0.3750000000000086
 40
0.3750000000000086
 40
0.4375000000000091
 40
0.4375000000000091
 40
0.5000000000000095
 40
0.5000000000000095
 40
0.5312500000000093
 40
0.5312500000000093
 40
0.5625000000000091
 40
0.5625000000000091
 40
0.6250000000000087
 40
0.6250000000000087
 40
0.656250000000008
 40
0.656250000000008
 40
0.6875000000000073
 40
0.6875000000000073
 40
0.750000000000006
 40
0.750000000000006
 40
0.8125000000000048
 40
0.8125000000000048
 40
0.8437500000000041
 40
0.8437500000000041
 40
0.8750000000000034
 40
0.8750000000000034
 40
0.9375000000000021
 40
0.9375000000000021
 40
0.9687500000000011
 40
0.9687500000000011
 40
1.0
 40
1.0
 40
1.0
 40
1.0
 10
28.288
 20
-3.175
 30
0.0
 10
27.75915132663074
 20
-3.050489351101601
 30
0.0
 10
27.63053035003908
 20
-3.012906634219006
 30
0.0
 10
27.11478166809675
 20
-2.882581788163037
 30
0.0
 10
26.72089475841202
 20
-2.77917797490391
 30
0.0
 10
26.13946966289909
 20
-2.594883996650579
 30
0.0
 10
25.94676282681471
 20
-2.528610800617157
 30
0.0
 10
25.55702721844807
 20
-2.386331266067857
 30
0.0
 10
25.36131022926413
 20
-2.310459559028286
 30
0.0
 10
24.97147979742527
 20
-2.150530152014153
 30
0.0
 10
24.77863186235535
 20
-2.066668596146145
 30
0.0
 10
24.39119748281541
 20
-1.891297891206492
 30
0.0
 10
24.19586671764298
 20
-1.799656485602774
 30
0.0
 10
23.80525839836956
 20
-1.609948364231229
 30
0.0
 10
23.60998702943534
 20
-1.511884659700281
 30
0.0
 10
23.22278692456754
 20
-1.311039758332355
 30
0.0
 10
23.02973927810245
 20
-1.208076980522541
 30
0.0
 10
22.63979845785266
 20
-0.9973204949979293
 30
0.0
 10
22.44408530903787
 20
-0.8897312786353151
 30
0.0
 10
22.05447523598061
 20
-0.671948988404299
 30
0.0
 10
21.86191974719915
 20
-0.5620158506712497
 30
0.0
 10
21.28016552192767
 20
-0.2289149813764452
 30
0.0
 10
20.88629429053269
 20
-0.0023026318207909
 30
0.0
 10
20.11278077081539
 20
0.4448752872492848
 30
0.0
 10
19.72155060589833
 20
0.6676496407606028
 30
0.0
 10
19.13750695674409
 20
0.9912970434472731
 30
0.0
 10
18.94515662341186
 20
1.097096630893635
 30
0.0
 10
18.55694557002719
 20
1.304836859418094
 30
0.0
 10
18.36143570917199
 20
1.406700651970449
 30
0.0
 10
17.77562865001891
 20
1.703652513457786
 30
0.0
 10
17.39073273614507
 20
1.889365506832011
 30
0.0
 10
16.80532904799018
 20
2.145929474646552
 30
0.0
 10
16.60966513657807
 20
2.227642889631854
 30
0.0
 10
16.22057756765945
 20
2.382100506495238
 30
0.0
 10
16.02834505121236
 20
2.454716498219263
 30
0.0
 10
15.4455065484617
 20
2.659150493810863
 30
0.0
 10
15.05176409236929
 20
2.776902037175686
 30
0.0
 10
14.28018343451928
 20
2.967755511940917
 30
0.0
 10
13.88686798624675
 20
3.042131156172575
 30
0.0
 10
13.30368966759973
 20
3.118238147936954
 30
0.0
 10
13.1114876020619
 20
3.137735805273758
 30
0.0
 10
12.7226076876652
 20
3.165063001344561
 30
0.0
 10
12.52697395007725
 20
3.172827021444473
 30
0.0
 10
11.94143729520024
 20
3.178156491224335
 30
0.0
 10
11.55659312901085
 20
3.157877497854483
 30
0.0
 10
10.97086158903013
 20
3.092092759243779
 30
0.0
 10
10.77530227962645
 20
3.064279683500407
 30
0.0
 10
10.38684584577329
 20
2.997412777526446
 30
0.0
 10
10.19458685808349
 20
2.958434063890243
 30
0.0
 10
10.0
 20
2.913831269117751
 30
0.0
  0
SPLINE
  5
A5
330
1F
100
AcDbEntity
  8
0
  6
Continuous
 62
     1
370
    15
100
AcDbSpline
210
0.0
220
0.0
230
1.0
 70
     8
 71
     3
 72
    14
 73
    10
 74
     0
 42
0.000000001
 43
0.00000001
 40
0.0
 40
0.0
 40
0.0
 40
0.0
 40
0.1553522156733351
 40
0.3106581779554994
 40
0.466025012328983
 40
0.6215591617193476
 40
0.7771407779938269
 40
0.9297547491140498
 40
1.0
 40
1.0
 40
1.0
 40
1.0
 10
10.00000000000003
 20
-2.300338701069862
 30
0.0
 10
10.39008338085219
 20
-2.445545803004492
 30
0.0
 10
11.17013400208742
 20
-2.735916774011851
 30
0.0
 10
12.34017751146617
 20
-3.020396293708655
 30
0.0
 10
13.51076791569196
 20
-3.175456306375495
 30
0.0
 10
14.68236876887955
 20
-3.186792904776042
 30
0.0
 10
15.84720269032903
 20
-3.049139294457687
 30
0.0
 10
16.79741323246319
 20
-2.845316487775644
 30
0.0
 10
17.35693993142879
 20
-2.65056281770772
 30
0.0
 10
17.5333028074741
 20
-2.589176439833252
 30
0.0
  0
SPLINE
  5
A6
330
1F
100
AcDbEntity
  8
외형선
  6
Continuous
370
    15
100
AcDbSpline
210
0.0
220
0.0
230
1.0
 70
    24
 71
     3
 72
    22
 73
    18
 74
     0
 42
0.000000001
 43
0.00000001
 40
0.0
 40
0.0
 40
0.0
 40
0.0
 40
0.1249999999999999
 40
0.1249999999999999
 40
0.2499999999999998
 40
0.2499999999999998
 40
0.3749999999999999
 40
0.3749999999999999
 40
0.4999999999999999
 40
0.4999999999999999
 40
0.6249999999999999
 40
0.6249999999999999
 40
0.75
 40
0.75
 40
0.875
 40
0.875
 40
1.0
 40
1.0
 40
1.0
 40
1.0
 10
10.00000000000001
 20
1.261036214829569
 30
0.0
 10
10.00000000000003
 20
1.245154764049043
 30
0.0
 10
10.00000000000003
 20
1.212752710577548
 30
0.0
 10
10.00000000000003
 20
1.132726258850875
 30
0.0
 10
10.00000000000003
 20
1.076982779850284
 30
0.0
 10
10.00000000000002
 20
0.918509394069675
 30
0.0
 10
10.00000000000001
 20
0.8154804320770088
 30
0.0
 10
10.00000000000001
 20
0.5481119218775067
 30
0.0
 10
10.00000000000002
 20
0.3831926878860897
 30
0.0
 10
10.00000000000002
 20
-0.0076145813817614
 30
0.0
 10
10.00000000000003
 20
-0.2338409102094238
 30
0.0
 10
10.00000000000003
 20
-0.715625562651372
 30
0.0
 10
10.00000000000002
 20
-0.9703505281698185
 30
0.0
 10
10.00000000000001
 20
-1.450645135904943
 30
0.0
 10
10.00000000000003
 20
-1.674824638255507
 30
0.0
 10
10.00000000000002
 20
-2.046769471689079
 30
0.0
 10
10.00000000000004
 20
-2.194347684168336
 30
0.0
 10
10.00000000000003
 20
-2.300338701069855
 30
0.0
  0
SPLINE
  5
A7
330
1F
100
AcDbEntity
  8
0
  6
Continuous
 62
     1
370
    15
100
AcDbSpline
210
0.0
220
0.0
230
1.0
 70
     8
 71
     3
 72
    17
 73
    13
 74
     0
 42
0.000000001
 43
0.00000001
 40
0.0
 40
0.0
 40
0.0
 40
0.0
 40
0.0340430686765153
 40
0.1397442188376332
 40
0.2453402813777174
 40
0.3530834770429959
 40
0.4608881135694937
 40
0.568821224029641
 40
0.6767115464053152
 40
0.7844902989359119
 40
0.8922290980911667
 40
1.0
 40
1.0
 40
1.0
 40
1.0
 10
20.88312505142653
 20
-3.159853286422466
 30
0.0
 10
20.75959282842176
 20
-3.164093566787593
 30
0.0
 10
20.25250240807467
 20
-3.181499596570275
 30
0.0
 10
19.36243692822904
 20
-3.070681520354916
 30
0.0
 10
18.20525718601148
 20
-2.828497095164318
 30
0.0
 10
17.04038711344307
 20
-2.448553758971349
 30
0.0
 10
15.86696547346655
 20
-1.957488439657678
 30
0.0
 10
14.69256615600581
 20
-1.377338058000064
 30
0.0
 10
13.51843646211609
 20
-0.7344201715490547
 30
0.0
 10
12.34530972227832
 20
-0.0591196319913248
 30
0.0
 10
11.17270409202289
 20
0.6228514382079295
 30
0.0
 10
10.39094018170979
 20
1.048286831388333
 30
0.0
 10
10.00000000000001
 20
1.261036214829576
 30
0.0
  0
LINE
  5
A8
330
1F
100
AcDbEntity
  8
0
  6
Continuous
 62
     1
370
    15
100
AcDbLine
 10
29.05000000000001
 20
-2.413
 30
0.0
 11
29.05000000000001
 21
0.3173185599993049
 31
0.0
  0
SPLINE
  5
A9
330
1F
100
AcDbEntity
  8
0
  6
Continuous
 62
     1
370
    15
100
AcDbSpline
210
0.0
220
0.0
230
1.0
 70
     8
 71
     3
 72
    10
 73
     6
 74
     0
 42
0.000000001
 43
0.00000001
 40
0.0
 40
0.0
 40
0.0
 40
0.0
 40
0.5
 40
0.5
 40
0.6345155993290136
 40
0.6345155993290136
 40
0.6345155993290136
 40
0.6345155993290136
 10
28.669
 20
-2.77524446299403
 30
0.0
 10
28.76728283051914
 20
-2.802781568499682
 30
0.0
 10
28.85734397934644
 20
-2.800812484554281
 30
0.0
 10
28.9473811849684
 20
-2.757138971632536
 30
0.0
 10
28.96500733018395
 20
-2.745194549498979
 30
0.0
 10
28.98057683206806
 20
-2.730775599570772
 30
0.0
  0
SPLINE
  5
AA
330
1F
100
AcDbEntity
  8
0
  6
Continuous
 62
     1
370
    15
100
AcDbSpline
210
0.0
220
0.0
230
1.0
 70
     8
 71
     3
 72
    20
 73
    16
 74
     0
 42
0.000000001
 43
0.00000001
 40
0.0
 40
0.0
 40
0.0
 40
0.0
 40
0.0345996976156015
 40
0.1155001817841707
 40
0.1948575277879051
 40
0.2741689368154228
 40
0.3535041251398207
 40
0.4329324999983905
 40
0.5140132816629935
 40
0.5949974886854592
 40
0.6759351514442539
 40
0.7568803611442465
 40
0.8378871258939125
 40
0.918981369601865
 40
1.0
 40
1.0
 40
1.0
 40
1.0
 10
14.18093184292164
 20
3.157390286340923
 30
0.0
 10
14.3480425202391
 20
3.161541546558707
 30
0.0
 10
14.90588882926404
 20
3.175399219972915
 30
0.0
 10
15.84721198972768
 20
3.047950142001724
 30
0.0
 10
17.00400150035374
 20
2.787608344972955
 30
0.0
 10
18.15315372958397
 20
2.399161185113239
 30
0.0
 10
19.3026854087695
 20
1.908289855796355
 30
0.0
 10
20.4611104410294
 20
1.329911264337436
 30
0.0
 10
21.62769695446837
 20
0.6884750609001449
 30
0.0
 10
22.80112969950657
 20
0.0109935597161092
 30
0.0
 10
23.97381152829465
 20
-0.6665977040981368
 30
0.0
 10
25.14662174112712
 20
-1.314638089250092
 30
0.0
 10
26.32033798933237
 20
-1.900745369351742
 30
0.0
 10
27.49486068905421
 20
-2.409266320157077
 30
0.0
 10
28.27774194784664
 20
-2.653289688154103
 30
0.0
 10
28.66899999999998
 20
-2.775244462994017
 30
0.0
  0
SPLINE
  5
AB
330
1F
100
AcDbEntity
  8
0
  6
Continuous
 62
     1
370
    15
100
AcDbSpline
210
0.0
220
0.0
230
1.0
 70
     8
 71
     3
 72
    17
 73
    13
 74
     0
 42
0.000000001
 43
0.00000001
 40
0.0
 40
0.0
 40
0.0
 40
0.0
 40
0.1051789442671924
 40
0.2104558388547806
 40
0.315615823615173
 40
0.4206962345940377
 40
0.5257693997317083
 40
0.6290356139984787
 40
0.7324398654246556
 40
0.8357462877920561
 40
0.9389500033663177
 40
0.9999999999999999
 40
0.9999999999999999
 40
0.9999999999999999
 40
0.9999999999999999
 10
28.669
 20
0.4908019379401175
 30
0.0
 10
28.27859135748666
 20
0.7113460409046047
 30
0.0
 10
27.49741049539726
 20
1.152639633621755
 30
0.0
 10
26.32544941854196
 20
1.755731739549202
 30
0.0
 10
25.15431666684995
 20
2.281641690962013
 30
0.0
 10
23.98408978029475
 20
2.703869017071904
 30
0.0
 10
22.82089413615703
 20
3.002426824532879
 30
0.0
 10
21.66385634013074
 20
3.165930182341832
 30
0.0
 10
20.51283271194998
 20
3.19186759750785
 30
0.0
 10
19.36243513031574
 20
3.073523377937321
 30
0.0
 10
18.36948923900335
 20
2.872438917255868
 30
0.0
 10
17.75988220597785
 20
2.665931382670235
 30
0.0
 10
17.53330280747413
 20
2.589176439833252
 30
0.0
  0
SPLINE
  5
AC
330
1F
100
AcDbEntity
  8
0
  6
Continuous
 62
     1
370
    15
100
AcDbSpline
210
0.0
220
0.0
230
1.0
 70
     8
 71
     3
 72
    10
 73
     6
 74
     0
 42
0.000000001
 43
0.00000001
 40
0.0
 40
0.0
 40
0.0
 40
0.0
 40
0.5
 40
0.5
 40
1.0
 40
1.0
 40
1.0
 40
1.0
 10
29.05000000000001
 20
0.3173185599993044
 30
0.0
 10
29.05
 20
0.3158677353054701
 30
0.0
 10
29.00393467539824
 20
0.3283199256866046
 30
0.0
 10
28.85658956621047
 20
0.3902146155342675
 30
0.0
 10
28.75990737811809
 20
0.4389975085509099
 30
0.0
 10
28.669
 20
0.4908019379401011
 30
0.0
  0
LINE
  5
AD
330
1F
100
AcDbEntity
  8
외형선
  6
Continuous
370
    15
100
AcDbLine
 10
10.00000000000001
 20
1.261036214829573
 30
0.0
 11
10.00000000000001
 21
2.188393671248444
 31
0.0
  0
SPLINE
  5
AE
330
1F
100
AcDbEntity
  8
0
  6
Continuous
 62
     1
370
    15
100
AcDbSpline
210
0.0
220
0.0
230
1.0
 70
     8
 71
     3
 72
    10
 73
     6
 74
     0
 42
0.000000001
 43
0.00000001
 40
0.0
 40
0.0
 40
0.0
 40
0.0
 40
0.5
 40
0.5
 40
1.0
 40
1.0
 40
1.0
 40
1.0
 10
28.669
 20
1.542285048433321
 30
0.0
 10
28.76728283051915
 20
1.492733767586064
 30
0.0
 10
28.85734397934647
 20
1.418590784661177
 30
0.0
 10
28.99924310005709
 20
1.258220429916167
 30
0.0
 10
29.05000000000001
 20
1.171423672959423
 30
0.0
 10
29.05000000000001
 20
1.113155244393171
 30
0.0
  0
LINE
  5
AF
330
1F
100
AcDbEntity
  8
0
  6
Continuous
 62
     1
370
    15
100
AcDbLine
 10
29.05000000000001
 20
0.3173185599993048
 30
0.0
 11
29.05000000000001
 21
1.113155244393166
 31
0.0
  0
SPLINE
  5
B0
330
1F
100
AcDbEntity
  8
0
  6
Continuous
 62
     1
370
    15
100
AcDbSpline
210
0.0
220
0.0
230
1.0
 70
     8
 71
     3
 72
    12
 73
     8
 74
     0
 42
0.000000001
 43
0.00000001
 40
0.0
 40
0.0
 40
0.0
 40
0.0
 40
0.1973003346775021
 40
0.3977993799309911
 40
0.5984508953397345
 40
0.7993190937082385
 40
1.0
 40
1.0
 40
1.0
 40
1.0
 10
22.8199356324327
 20
3.173876313333482
 30
0.0
 10
23.20455020811801
 20
3.160804604711578
 30
0.0
 10
23.98001488216494
 20
3.134449263789672
 30
0.0
 10
25.1466205868578
 20
2.915206015664401
 30
0.0
 10
26.32033829761718
 20
2.571828992121614
 30
0.0
 10
27.49486061203219
 20
2.11433025728261
 30
0.0
 10
28.2777419221806
 20
1.732907483157656
 30
0.0
 10
28.66899999999998
 20
1.542285048433328
 30
0.0
  0
LINE
  5
B1
330
1F
100
AcDbEntity
  8
0
  6
Continuous
 62
     1
370
    15
100
AcDbLine
 10
29.05000000000001
 20
1.113155244393166
 30
0.0
 11
29.05
 21
2.413000000000013
 31
0.0
  0
SPLINE
  5
B2
330
1F
100
AcDbEntity
  8
0
  6
Continuous
 62
     1
370
    15
100
AcDbSpline
210
0.0
220
0.0
230
1.0
 70
     8
 71
     3
 72
    10
 73
     6
 74
     0
 42
0.000000001
 43
0.00000001
 40
0.0627170126740283
 40
0.0627170126740283
 40
0.0627170126740283
 40
0.0627170126740283
 40
0.4686503335167796
 40
0.9377371084776283
 40
1.0
 40
1.0
 40
1.0
 40
1.0
 10
28.288
 20
3.175000000000008
 30
0.0
 10
27.89715595467683
 20
3.072233760359342
 30
0.0
 10
27.44515972736169
 20
2.972019385088745
 30
0.0
 10
26.6639970454075
 20
2.780081226888028
 30
0.0
 10
26.22135273140939
 20
2.616029322583701
 30
0.0
 10
26.16948422250852
 20
2.596805924949252
 30
0.0
  0
SPLINE
  5
B3
330
1F
100
AcDbEntity
  8
0
  6
Continuous
 62
     1
370
    15
100
AcDbSpline
210
0.0
220
0.0
230
1.0
 70
     8
 71
     3
 72
     9
 73
     5
 74
     0
 42
0.000000001
 43
0.00000001
 40
0.0
 40
0.0
 40
0.0
 40
0.0
 40
0.4776725697749792
 40
1.0
 40
1.0
 40
1.0
 40
1.0
 10
12.2452697065251
 20
-3.169384573196282
 30
0.0
 10
11.88778469391639
 20
-3.16146151627858
 30
0.0
 10
11.1393954515173
 20
-3.144874721434077
 30
0.0
 10
10.39093922002913
 20
-2.993104840836068
 30
0.0
 10
10.0
 20
-2.913831269117752
 30
0.0
  0
LINE
  5
B5
330
1F
100
AcDbEntity
  8
외형선
  6
Continuous
370
    15
100
AcDbLine
 10
10.00000000000001
 20
-2.913831269117746
 30
0.0
 11
10.00000000000002
 21
-2.300338701069855
 31
0.0
  0
SPLINE
  5
B7
330
1F
100
AcDbEntity
  8
외형선
  6
Continuous
370
    15
100
AcDbSpline
210
0.0
220
0.0
230
1.0
 70
     8
 71
     3
 72
     8
 73
     4
 74
     0
 42
0.000000001
 43
0.00000001
 40
0.0
 40
0.0
 40
0.0
 40
0.0
 40
1.0
 40
1.0
 40
1.0
 40
1.0
 10
10.0
 20
2.913831269117741
 30
0.0
 10
9.667066000885235
 20
2.837516830508897
 30
0.0
 10
9.330954240346042
 20
2.744825373746491
 30
0.0
 10
8.999902778711437
 20
2.638115562460379
 30
0.0
  0
LINE
  5
B8
330
1F
100
AcDbEntity
  8
외형선
  6
Continuous
370
    15
100
AcDbLine
 10
8.999902778711437
 20
2.567897150025557
 30
0.0
 11
8.99990277871143
 21
3.175
 31
0.0
  0
SPLINE
  5
B9
330
1F
100
AcDbEntity
  8
외형선
  6
Continuous
370
    15
100
AcDbSpline
210
0.0
220
0.0
230
1.0
 70
     8
 71
     3
 72
     8
 73
     4
 74
     0
 42
0.000000001
 43
0.00000001
 40
0.0
 40
0.0
 40
0.0
 40
0.0
 40
1.0
 40
1.0
 40
1.0
 40
1.0
 10
10.00000000000002
 20
2.188393671248436
 30
0.0
 10
9.66706600088525
 20
2.327603833905087
 30
0.0
 10
9.330954240346042
 20
2.455128081553788
 30
0.0
 10
8.99990277871143
 20
2.56791300506353
 30
0.0
  0
SPLINE
  5
BA
330
1F
100
AcDbEntity
  8
외형선
  6
Continuous
370
    15
100
AcDbSpline
210
0.0
220
0.0
230
1.0
 70
     8
 71
     3
 72
     8
 73
     4
 74
     0
 42
0.000000001
 43
0.00000001
 40
0.0
 40
0.0
 40
0.0
 40
0.0
 40
1.0
 40
1.0
 40
1.0
 40
1.0
 10
10.0
 20
1.261036214829581
 30
0.0
 10
9.667066000885235
 20
1.437373258039455
 30
0.0
 10
9.330954240346042
 20
1.60727664573039
 30
0.0
 10
8.999902778711437
 20
1.766627091127155
 30
0.0
  0
SPLINE
  5
BB
330
1F
100
AcDbEntity
  8
외형선
  6
Continuous
370
    15
100
AcDbSpline
210
0.0
220
0.0
230
1.0
 70
     8
 71
     3
 72
     8
 73
     4
 74
     0
 42
0.000000001
 43
0.00000001
 40
0.0
 40
0.0
 40
0.0
 40
0.0
 40
1.0
 40
1.0
 40
1.0
 40
1.0
 10
10.00000000000002
 20
-2.300338701069859
 30
0.0
 10
9.66706600088525
 20
-2.167903143301955
 30
0.0
 10
9.330954240346042
 20
-2.022313193211887
 30
0.0
 10
8.99990277871143
 20
-1.867203202232036
 30
0.0
  0
SPLINE
  5
BC
330
1F
100
AcDbEntity
  8
외형선
  6
Continuous
370
    15
100
AcDbSpline
210
0.0
220
0.0
230
1.0
 70
     8
 71
     3
 72
     8
 73
     4
 74
     0
 42
0.000000001
 43
0.00000001
 40
0.0
 40
0.0
 40
0.0
 40
0.0
 40
1.0
 40
1.0
 40
1.0
 40
1.0
 10
10.0
 20
-2.913831269117742
 30
0.0
 10
9.667066000885235
 20
-2.837516830508897
 30
0.0
 10
9.330954240346042
 20
-2.744825373746491
 30
0.0
 10
8.999902778711437
 20
-2.638115562460379
 30
0.0
  0
LINE
  5
BD
330
1F
100
AcDbEntity
  8
외형선
  6
Continuous
370
    15
100
AcDbLine
 10
8.99990277871143
 20
-3.175
 30
0.0
 11
8.99990277871143
 21
-2.638101431482857
 31
0.0
  0
LINE
  5
BE
330
1F
100
AcDbEntity
  8
외형선
  6
Continuous
370
    15
100
AcDbLine
 10
-33.81499999999998
 20
-0.0000000000000002
 30
0.0
 11
-33.81499999999998
 21
3.175
 31
0.0
  0
LINE
  5
BF
330
1F
100
AcDbEntity
  8
외형선
  6
Continuous
370
    15
100
AcDbLine
 10
-33.81499999999998
 20
-3.175
 30
0.0
 11
-33.81499999999998
 21
-0.0000000000000002
 31
0.0
  0
LINE
  5
C0
330
1F
100
AcDbEntity
  8
외형선
  6
Continuous
370
    15
100
AcDbLine
 10
8.999902778711437
 20
-1.867225007033321
 30
0.0
 11
8.99990277871143
 21
1.76664819282395
 31
0.0
  0
LINE
  5
C1
330
1F
100
AcDbEntity
  8
외형선
  6
Continuous
370
    15
100
AcDbLine
 10
-34.44999999999999
 20
-0.0000000000000002
 30
0.0
 11
-34.44999999999999
 21
2.540000000000002
 31
0.0
  0
LINE
  5
C2
330
1F
100
AcDbEntity
  8
외형선
  6
Continuous
370
    15
100
AcDbLine
 10
-34.44999999999999
 20
-2.540000000000003
 30
0.0
 11
-34.44999999999999
 21
-0.0000000000000002
 31
0.0
  0
SPLINE
  5
C3
330
1F
100
AcDbEntity
  8
외형선
  6
Continuous
370
    15
100
AcDbSpline
210
0.0
220
0.0
230
1.0
 70
    24
 71
     3
 72
    22
 73
    18
 74
     0
 42
0.000000001
 43
0.00000001
 40
0.0
 40
0.0
 40
0.0
 40
0.0
 40
0.125
 40
0.125
 40
0.25
 40
0.25
 40
0.3749999999999999
 40
0.3749999999999999
 40
0.4999999999999999
 40
0.4999999999999999
 40
0.6249999999999999
 40
0.6249999999999999
 40
0.7499999999999999
 40
0.7499999999999999
 40
0.875
 40
0.875
 40
1.0
 40
1.0
 40
1.0
 40
1.0
 10
10.00000000000003
 20
-2.300338701069855
 30
0.0
 10
10.00000000000005
 20
-2.194347684168835
 30
0.0
 10
10.00000000000002
 20
-2.046769471690483
 30
0.0
 10
10.00000000000002
 20
-1.674824638259353
 30
0.0
 10
10.00000000000002
 20
-1.450645135910315
 30
0.0
 10
10.00000000000001
 20
-0.9703505281780055
 30
0.0
 10
10.00000000000003
 20
-0.7156255626608151
 30
0.0
 10
10.00000000000001
 20
-0.2338409102203834
 30
0.0
 10
10.00000000000002
 20
-0.0076145813929831
 30
0.0
 10
10.00000000000002
 20
0.3831926878752429
 30
0.0
 10
10.00000000000002
 20
0.5481119218672742
 30
0.0
 10
10.00000000000002
 20
0.8154804320683698
 30
0.0
 10
10.00000000000002
 20
0.918509394062007
 30
0.0
 10
10.00000000000001
 20
1.076982779844531
 30
0.0
 10
10.0
 20
1.132726258846066
 30
0.0
 10
10.00000000000001
 20
1.212752710574449
 30
0.0
 10
10.00000000000003
 20
1.245154764046055
 30
0.0
 10
10.00000000000003
 20
1.261036214827776
 30
0.0
  0
SPLINE
  5
C4
330
1F
100
AcDbEntity
  8
외형선
  6
Continuous
370
    15
100
AcDbSpline
210
0.0
220
0.0
230
1.0
 70
    24
 71
     3
 72
    11
 73
     7
 74
     0
 42
0.000000001
 43
0.00000001
 40
0.0
 40
0.0
 40
0.0
 40
0.0
 40
0.0445417610036126
 40
0.4860892042697598
 40
0.9404415533031832
 40
1.0
 40
1.0
 40
1.0
 40
1.0
 10
10.00000000000002
 20
2.232170212478621
 30
0.0
 10
10.00000000000002
 20
2.241209211344106
 30
0.0
 10
10.0
 20
2.339852813817803
 30
0.0
 10
10.00000000000002
 20
2.555294868809912
 30
0.0
 10
9.999999999999936
 20
2.777664337955733
 30
0.0
 10
10.00000000000005
 20
2.899689462861475
 30
0.0
 10
10.00000000000005
 20
2.913831269100521
 30
0.0
  0
LINE
  5
C5
330
1F
100
AcDbEntity
  8
중심선
 62
     1
100
AcDbLine
 10
-37.44999999999999
 20
-0.0000000000000041
 30
0.0
 11
32.05000000000002
 21
0.0000000000000044
 31
0.0
  0
LINE
  5
C6
330
1F
100
AcDbEntity
  8
참조1
100
AcDbLine
 10
6.824999999999998
 20
0.0010749287238892
 30
0.0
 11
6.825000000000005
 21
-39.99892507127611
 31
0.0
  0
LINE
  5
C7
330
1F
100
AcDbEntity
  8
참조1
100
AcDbLine
 10
6.825000000000005
 20
-39.99892507127611
 30
0.0
 11
-14.68385681430867
 21
-39.9989250712761
 31
0.0
  0
CIRCLE
  5
C8
330
1F
100
AcDbEntity
  8
해칭선
100
AcDbCircle
 10
0.0
 20
0.0
 30
0.0
 40
3.000000000000001
  0
INSERT
  5
C9
330
1F
100
AcDbEntity
  8
0
  6
Continuous
 62
     7
100
AcDbBlockReference
 66
     1
  2
블럭10
 10
-16.64027293212519
 20
-52.04717430164393
 30
0.0
  0
ATTRIB
  5
CA
330
C9
100
AcDbEntity
  8
FORMAT
 62
     2
100
AcDbText
 10
-25.82156822086647
 20
-49.97180738881174
 30
0.0
 40
4.233333333333333
  1
E5216903 [ 4 FLUTE ]
 41
0.75
  7
SLDTEXTSTYLE0
 11
-25.82156822086647
 21
-52.08847405547841
 31
0.0
100
AcDbAttribute
  2
AUTOATTR0
 70
     0
 74
     1
  0
SEQEND
  5
CB
330
C9
100
AcDbEntity
  8
0
  6
Continuous
 62
     7
  0
HATCH
  5
CC
330
1F
100
AcDbEntity
  8
중심선
100
AcDbHatch
 10
0.0
 20
0.0
 30
0.0
210
0.0
220
0.0
230
1.0
  2
SOLID
 70
     1
 71
     0
 91
        1
 92
        0
 93
        4
 72
     1
 10
-10.92536362774436
 20
-35.8
 11
-14.37163887158164
 21
-35.8
 72
     1
 10
-14.37163887158164
 20
-35.8
 11
-16.49986873078566
 21
-38.3363255805726
 72
     1
 10
-16.49986873078566
 20
-38.3363255805726
 11
-13.05356040183523
 21
-38.33628615127011
 72
     1
 10
-13.05356040183523
 20
-38.33628615127011
 11
-10.92536362774436
 21
-35.8
 97
        0
 75
     0
 76
     1
 98
        1
 10
-9.524999999999984
 20
-0.0010749287238934
  0
HATCH
  5
CD
330
1F
100
AcDbEntity
  8
중심선
100
AcDbHatch
 10
0.0
 20
0.0
 30
0.0
210
0.0
220
0.0
230
1.0
  2
SOLID
 70
     1
 71
     0
 91
        1
 92
        0
 93
        4
 72
     1
 10
-5.912599636708378
 20
-35.8
 11
-9.35887488054566
 21
-35.8
 72
     1
 10
-9.35887488054566
 20
-35.8
 11
-13.89001288890308
 21
-41.20000000000002
 72
     1
 10
-13.89001288890308
 20
-41.20000000000002
 11
-10.44373764506579
 21
-41.20000000000002
 72
     1
 10
-10.44373764506579
 20
-41.20000000000002
 11
-5.912599636708378
 21
-35.8
 97
        0
 75
     0
 76
     1
 98
        1
 10
-9.524999999999984
 20
-0.0010749287238934
  0
HATCH
  5
CE
330
1F
100
AcDbEntity
  8
중심선
100
AcDbHatch
 10
0.0
 20
0.0
 30
0.0
210
0.0
220
0.0
230
1.0
  2
SOLID
 70
     1
 71
     0
 91
        1
 92
        0
 93
        4
 72
     1
 10
-0.8998356456725105
 20
-35.8
 11
-4.346110889509625
 21
-35.8
 72
     1
 10
-4.346110889509625
 20
-35.8
 11
-11.39454779139887
 21
-44.20000000000002
 72
     1
 10
-11.39454779139887
 20
-44.20000000000002
 11
-7.948272547561592
 21
-44.20000000000002
 72
     1
 10
-7.948272547561592
 20
-44.20000000000002
 11
-0.8998356456725105
 21
-35.8
 97
        0
 75
     0
 76
     1
 98
        1
 10
-9.524999999999984
 20
-0.0010749287238934
  0
HATCH
  5
CF
330
1F
100
AcDbEntity
  8
중심선
100
AcDbHatch
 10
0.0
 20
0.0
 30
0.0
210
0.0
220
0.0
230
1.0
  2
SOLID
 70
     1
 71
     0
 91
        1
 92
        0
 93
        6
 72
     3
 10
3.900054785339689
 20
-40.00000000005127
 11
3.960054785062285
 21
1.540882976769353E-10
 40
0.3939339440162626
 50
17.09539180608436
 51
320.0019657685081
 73
     0
 72
     1
 10
5.583054441040286
 20
-38.5878940046383
 11
7.888356314741351
 21
-36.65356729459035
 72
     3
 10
3.900054785286843
 20
-40.00000000000015
 11
6.600054785286828
 21
-1.278976924368180E-13
 40
0.6363583540795982
 50
39.99873849337411
 51
368.4976242363724
 73
     1
 72
     1
 10
10.32538727718745
 20
-39.03999999993002
 11
2.580122092122766
 21
-39.03999999993002
 72
     1
 10
2.580122092122766
 20
-39.03999999993002
 11
2.580097047676832
 21
-40.95999999992991
 72
     1
 10
2.580097047676832
 20
-40.95999999992991
 11
7.021476817148869
 21
-40.95999999992988
 97
        0
 75
     0
 76
     1
 98
        1
 10
-9.524999999999984
 20
-0.0010749287238934
  0
DIMENSION
  5
D0
330
1F
100
AcDbEntity
  8
치수문자_일반주서
100
AcDbDimension
  2
_D
 10
-45.09552766150365
 20
-3.175000000000054
 30
0.0
 11
-45.09552766150374
 21
23.12274999999997
 31
0.0
 70
   160
  1
%%c<>
 71
     2
 42
6.350000000000023
 52
-270.0
  3
SLDDIMSTYLE0
100
AcDbAlignedDimension
 13
-33.81499999999998
 23
3.175000000000011
 33
0.0
 14
-33.81499999999998
 24
-3.175000000000011
 34
0.0
 50
90.0000000000002
100
AcDbRotatedDimension
1001
ACAD
1000
DSTYLE
1002
{
1070
   171
1070
     6
1070
   273
1070
     5
1002
}
  0
DIMENSION
  5
E5
330
1F
100
AcDbEntity
  8
치수문자_일반주서
100
AcDbDimension
  2
_D_1
 10
10.00000000000005
 20
13.78858090296075
 30
0.0
 11
19.23711131922332
 21
13.78858090296075
 31
0.0
 70
   160
  1
<>
 71
     2
 42
19.04999999999996
  3
SLDDIMSTYLE0
100
AcDbAlignedDimension
 13
29.05
 23
3.175
 33
0.0
 14
10.00000000000005
 24
2.913831269100521
 34
0.0
100
AcDbRotatedDimension
1001
ACAD
1000
DSTYLE
1002
{
1070
   171
1070
     6
1070
   273
1070
     5
1002
}
  0
DIMENSION
  5
FA
330
1F
100
AcDbEntity
  8
치수문자_일반주서
100
AcDbDimension
  2
_D_2
 10
-34.44999999999999
 20
37.19528618047637
 30
0.0
 11
-2.699999999999983
 21
37.19528618047637
 31
0.0
 70
   160
  1
<>
 71
     2
 42
63.49999999999999
  3
SLDDIMSTYLE0
100
AcDbAlignedDimension
 13
29.05
 23
3.175
 33
0.0
 14
-34.44999999999999
 24
2.540000000000002
 34
0.0
100
AcDbRotatedDimension
1001
ACAD
1000
DSTYLE
1002
{
1070
   171
1070
     6
1070
   273
1070
     5
1002
}
  0
DIMENSION
  5
10E
330
1F
100
AcDbEntity
  8
치수문자_일반주서
100
AcDbDimension
  2
_D_3
 10
46.49322037395587
 20
-3.174999999999937
 30
0.0
 11
46.49322037395579
 21
23.12275000000008
 31
0.0
 70
   160
  1
%%c<>
 71
     2
 42
6.350000000000001
 52
-270.0
  3
SLDDIMSTYLE0
100
AcDbAlignedDimension
 13
29.05
 23
3.175
 33
0.0
 14
29.05
 24
-3.175000000000002
 34
0.0
 50
90.0000000000002
100
AcDbRotatedDimension
1001
ACAD
1000
DSTYLE
1002
{
1070
   171
1070
     6
1070
   273
1070
     5
1002
}
  0
LINE
  5
122
330
1F
100
AcDbEntity
  8
참조1
100
AcDbLine
 10
83.28848381534559
 20
7.441074928723896
 30
0.0
 11
83.28848381534559
 21
-7.438925071276109
 31
0.0
  0
LINE
  5
123
330
1F
100
AcDbEntity
  8
참조1
100
AcDbLine
 10
95.9884838153456
 20
5.441074928723896
 30
0.0
 11
83.28848381534559
 21
5.441074928723896
 31
0.0
  0
SOLID
  5
124
330
1F
100
AcDbEntity
  8
참조1
100
AcDbTrace
 10
83.28848381534559
 20
5.441074928723896
 30
0.0
 11
89.63848381534558
 21
4.425074928723896
 31
0.0
 12
89.63848381534558
 22
6.457074928723896
 32
0.0
 13
89.63848381534558
 23
6.457074928723896
 33
0.0
  0
LINE
  5
125
330
1F
100
AcDbEntity
  8
참조1
100
AcDbLine
 10
95.9884838153456
 20
-5.438925071276109
 30
0.0
 11
83.28848381534559
 21
-5.438925071276109
 31
0.0
  0
SOLID
  5
126
330
1F
100
AcDbEntity
  8
참조1
100
AcDbTrace
 10
83.28848381534559
 20
-5.438925071276109
 30
0.0
 11
89.63848381534558
 21
-6.454925071276109
 31
0.0
 12
89.63848381534558
 22
-4.422925071276109
 32
0.0
 13
89.63848381534558
 23
-4.422925071276109
 33
0.0
  0
MTEXT
  5
127
330
1F
100
AcDbEntity
  8
참조1
100
AcDbMText
 10
92.68597390781586
 20
10.98929157337383
 30
0.0
 40
3.5
 41
0.0
 71
     1
 72
     1
  1
A
  7
SLDTEXTSTYLE0
 73
     1
 44
1.0
  0
MTEXT
  5
128
330
1F
100
AcDbEntity
  8
참조1
100
AcDbMText
 10
92.68597390781586
 20
0.1092915733738259
 30
0.0
 40
3.5
 41
0.0
 71
     1
 72
     1
  1
A
  7
SLDTEXTSTYLE0
 73
     1
 44
1.0
  0
INSERT
  5
12F
330
1F
100
AcDbEntity
  8
해칭선
100
AcDbBlockReference
  2
SW_DOWELSYMBOL_0
 10
0.0
 20
0.0
 30
0.0
  0
ARC
  5
300
102
{ACAD_REACTORS
102
}
330
1F
100
AcDbEntity
  8
0
  6
Continuous
 62
     1
370
    15
100
AcDbCircle
 10
28.288
 20
-2.413
 30
0.0
 40
0.7619999999999998
100
AcDbArc
 50
270.0
 51
0.0
  0
ARC
  5
304
330
1F
100
AcDbEntity
  8
0
  6
Continuous
 62
     1
370
    15
100
AcDbCircle
 10
28.288
 20
2.413000000000008
 30
0.0
 40
0.7619999999999998
100
AcDbArc
 50
0.0
 51
90.0
  0
DIMENSION
  5
305
102
{ACAD_REACTORS
102
}
102
{ACAD_XDICTIONARY
360
306
102
}
330
1F
100
AcDbEntity
  8
치수문자_일반주서
100
AcDbDimension
  2
*D18
 10
28.288
 20
-2.413
 30
0.0
 11
40.10954084994087
 21
-24.28922289000501
 31
0.0
 70
   164
  1
<>
 71
     5
 42
0.7619999999999997
  3
SLDDIMSTYLE0
100
AcDbRadialDimension
 15
28.65026229098588
 25
-3.08338051323831
 35
0.0
 40
0.0
1001
ACAD
1000
DSTYLE
1002
{
1070
   171
1070
     2
1070
   273
1070
     2
1002
}
1001
ACAD_DSTYLE_DIMRADIAL_EXTENSION
1070
   387
1070
     1
1070
   388
1040
4.71238898038469
1070
   390
1040
0.0
  0
ENDSEC
  0
SECTION
  2
OBJECTS
  0
DICTIONARY
  5
C
330
0
100
AcDbDictionary
281
     1
  3
ACAD_GROUP
350
D
  3
ACAD_IMAGE_VARS
350
153
  3
ACAD_LAYOUT
350
1A
  3
ACAD_MLINESTYLE
350
17
  3
ACAD_PLOTSETTINGS
350
19
  3
ACAD_PLOTSTYLENAME
350
E
  3
ACAD_SCALELIST
350
47
  3
APPDATA
350
151
  3
DWGPROPS
350
314
  0
DICTIONARY
  5
20D
330
2
100
AcDbDictionary
280
     1
281
     1
  3
ACAD_LAYERSTATES
360
20E
  0
DICTIONARY
  5
306
330
305
100
AcDbDictionary
280
     1
281
     1
  0
DICTIONARY
  5
D
102
{ACAD_REACTORS
330
C
102
}
330
C
100
AcDbDictionary
281
     1
  0
RASTERVARIABLES
  5
153
102
{ACAD_REACTORS
330
C
102
}
330
C
100
AcDbRasterVariables
 90
        0
 70
     1
 71
     1
 72
     1
  0
DICTIONARY
  5
1A
102
{ACAD_REACTORS
330
C
102
}
330
C
100
AcDbDictionary
281
     1
  3
Layout1
350
1E
  3
Layout2
350
26
  3
Model
350
22
  0
DICTIONARY
  5
17
102
{ACAD_REACTORS
330
C
102
}
330
C
100
AcDbDictionary
281
     1
  3
Standard
350
18
  0
DICTIONARY
  5
19
102
{ACAD_REACTORS
330
C
102
}
330
C
100
AcDbDictionary
281
     1
  0
ACDBDICTIONARYWDFLT
  5
E
102
{ACAD_REACTORS
330
C
102
}
330
C
100
AcDbDictionary
281
     1
  3
Normal
350
F
100
AcDbDictionaryWithDefault
340
F
  0
DICTIONARY
  5
47
102
{ACAD_REACTORS
330
C
102
}
330
C
100
AcDbDictionary
281
     1
  3
A0
350
48
  3
A1
350
49
  3
A2
350
4A
  3
A3
350
4B
  3
A4
350
4C
  3
A5
350
4D
  3
A6
350
4E
  3
A7
350
4F
  3
A8
350
50
  3
A9
350
51
  3
B0
350
52
  3
B1
350
53
  3
B2
350
54
  3
B3
350
55
  3
B4
350
56
  3
B5
350
57
  3
B6
350
58
  3
B7
350
59
  3
B8
350
5A
  3
B9
350
5B
  3
C0
350
5C
  3
C1
350
5D
  3
C2
350
5E
  3
C3
350
5F
  3
C4
350
60
  3
C5
350
61
  3
C6
350
62
  3
C7
350
63
  3
C8
350
64
  3
C9
350
65
  3
D0
350
66
  3
D1
350
67
  3
D2
350
68
  0
DICTIONARY
  5
151
102
{ACAD_REACTORS
330
C
102
}
330
C
100
AcDbDictionary
281
     1
  0
XRECORD
  5
314
102
{ACAD_REACTORS
330
C
102
}
330
C
100
AcDbXrecord
280
     1
  1
DWGPROPS COOKIE
  2

  3

  4

  6

  7

  8
12014074
  9

300
=
301
=
302
=
303
=
304
=
305
=
306
=
307
=
308
=
309
=
 40
0.0
 41
2458323.368701505
 42
2458324.039253021
  1

 90
        0
  0
DICTIONARY
  5
20E
102
{ACAD_REACTORS
330
20D
102
}
330
20D
100
AcDbDictionary
281
     1
  0
LAYOUT
  5
1E
102
{ACAD_REACTORS
330
1A
102
}
330
1A
100
AcDbPlotSettings
  1

  2
none_device
  4

  6

 40
0.0
 41
0.0
 42
0.0
 43
0.0
 44
0.0
 45
0.0
 46
0.0
 47
0.0
 48
0.0
 49
0.0
140
0.0
141
0.0
142
1.0
143
1.0
 70
   688
 72
     1
 73
     0
 74
     5
  7

 75
    16
147
1.0
148
0.0
149
0.0
100
AcDbLayout
  1
Layout1
 70
     1
 71
     1
 10
0.0
 20
0.0
 11
420.0
 21
297.0
 12
0.0
 22
0.0
 32
0.0
 14
1.000000000000000E+20
 24
1.000000000000000E+20
 34
1.000000000000000E+20
 15
-1.000000000000000E+20
 25
-1.000000000000000E+20
 35
-1.000000000000000E+20
146
0.0
 13
0.0
 23
0.0
 33
0.0
 16
1.0
 26
0.0
 36
0.0
 17
0.0
 27
1.0
 37
0.0
 76
     0
330
1B
  0
LAYOUT
  5
26
102
{ACAD_REACTORS
330
1A
102
}
330
1A
100
AcDbPlotSettings
  1

  2
none_device
  4

  6

 40
0.0
 41
0.0
 42
0.0
 43
0.0
 44
0.0
 45
0.0
 46
0.0
 47
0.0
 48
0.0
 49
0.0
140
0.0
141
0.0
142
1.0
143
1.0
 70
   688
 72
     1
 73
     0
 74
     5
  7

 75
    16
147
1.0
148
0.0
149
0.0
100
AcDbLayout
  1
Layout2
 70
     1
 71
     2
 10
0.0
 20
0.0
 11
0.0
 21
0.0
 12
0.0
 22
0.0
 32
0.0
 14
0.0
 24
0.0
 34
0.0
 15
0.0
 25
0.0
 35
0.0
146
0.0
 13
0.0
 23
0.0
 33
0.0
 16
1.0
 26
0.0
 36
0.0
 17
0.0
 27
1.0
 37
0.0
 76
     0
330
23
  0
LAYOUT
  5
22
102
{ACAD_REACTORS
330
1A
102
}
330
1A
100
AcDbPlotSettings
  1

  2
none_device
  4
ANSI_A_(11.00_x_8.50_Inches)
  6

 40
6.35
 41
19.05
 42
6.35000508
 43
19.05000254
 44
279.4
 45
215.9
 46
87.96964539209986
 47
91.50771144132653
 48
0.0
 49
0.0
140
0.0
141
0.0
142
0.0753384963146296
143
1.0
 70
  1696
 72
     0
 73
     0
 74
     0
  7

 75
     0
147
0.0235690232323232
148
0.0
149
0.0
100
AcDbLayout
  1
Model
 70
     1
 71
     0
 10
0.0
 20
0.0
 11
420.0
 21
297.0
 12
0.0
 22
0.0
 32
0.0
 14
-49.47052766150377
 24
-49.97180738881174
 34
0.0
 15
95.9884838153456
 25
41.57028618047637
 35
0.0
146
0.0
 13
0.0
 23
0.0
 33
0.0
 16
1.0
 26
0.0
 36
0.0
 17
0.0
 27
1.0
 37
0.0
 76
     0
330
1F
331
29
  0
MLINESTYLE
  5
18
102
{ACAD_REACTORS
330
17
102
}
330
17
100
AcDbMlineStyle
  2
Standard
 70
     0
  3

 62
   256
 51
90.0
 52
90.0
 71
     2
 49
0.5
 62
   256
  6
BYLAYER
 49
-0.5
 62
   256
  6
BYLAYER
  0
ACDBPLACEHOLDER
  5
F
102
{ACAD_REACTORS
330
E
102
}
330
E
  0
SCALE
  5
48
102
{ACAD_REACTORS
330
47
102
}
330
47
100
AcDbScale
 70
     0
300
1:1
140
1.0
141
1.0
290
     1
  0
SCALE
  5
49
102
{ACAD_REACTORS
330
47
102
}
330
47
100
AcDbScale
 70
     0
300
1:2
140
1.0
141
2.0
290
     0
  0
SCALE
  5
4A
102
{ACAD_REACTORS
330
47
102
}
330
47
100
AcDbScale
 70
     0
300
1:4
140
1.0
141
4.0
290
     0
  0
SCALE
  5
4B
102
{ACAD_REACTORS
330
47
102
}
330
47
100
AcDbScale
 70
     0
300
1:5
140
1.0
141
5.0
290
     0
  0
SCALE
  5
4C
102
{ACAD_REACTORS
330
47
102
}
330
47
100
AcDbScale
 70
     0
300
1:8
140
1.0
141
8.0
290
     0
  0
SCALE
  5
4D
102
{ACAD_REACTORS
330
47
102
}
330
47
100
AcDbScale
 70
     0
300
1:10
140
1.0
141
10.0
290
     0
  0
SCALE
  5
4E
102
{ACAD_REACTORS
330
47
102
}
330
47
100
AcDbScale
 70
     0
300
1:16
140
1.0
141
16.0
290
     0
  0
SCALE
  5
4F
102
{ACAD_REACTORS
330
47
102
}
330
47
100
AcDbScale
 70
     0
300
1:20
140
1.0
141
20.0
290
     0
  0
SCALE
  5
50
102
{ACAD_REACTORS
330
47
102
}
330
47
100
AcDbScale
 70
     0
300
1:30
140
1.0
141
30.0
290
     0
  0
SCALE
  5
51
102
{ACAD_REACTORS
330
47
102
}
330
47
100
AcDbScale
 70
     0
300
1:40
140
1.0
141
40.0
290
     0
  0
SCALE
  5
52
102
{ACAD_REACTORS
330
47
102
}
330
47
100
AcDbScale
 70
     0
300
1:50
140
1.0
141
50.0
290
     0
  0
SCALE
  5
53
102
{ACAD_REACTORS
330
47
102
}
330
47
100
AcDbScale
 70
     0
300
1:100
140
1.0
141
100.0
290
     0
  0
SCALE
  5
54
102
{ACAD_REACTORS
330
47
102
}
330
47
100
AcDbScale
 70
     0
300
2:1
140
2.0
141
1.0
290
     0
  0
SCALE
  5
55
102
{ACAD_REACTORS
330
47
102
}
330
47
100
AcDbScale
 70
     0
300
4:1
140
4.0
141
1.0
290
     0
  0
SCALE
  5
56
102
{ACAD_REACTORS
330
47
102
}
330
47
100
AcDbScale
 70
     0
300
8:1
140
8.0
141
1.0
290
     0
  0
SCALE
  5
57
102
{ACAD_REACTORS
330
47
102
}
330
47
100
AcDbScale
 70
     0
300
10:1
140
10.0
141
1.0
290
     0
  0
SCALE
  5
58
102
{ACAD_REACTORS
330
47
102
}
330
47
100
AcDbScale
 70
     0
300
100:1
140
100.0
141
1.0
290
     0
  0
SCALE
  5
59
102
{ACAD_REACTORS
330
47
102
}
330
47
100
AcDbScale
 70
     0
300
1/128" = 1'-0"
140
0.0078125
141
12.0
290
     0
  0
SCALE
  5
5A
102
{ACAD_REACTORS
330
47
102
}
330
47
100
AcDbScale
 70
     0
300
1/64" = 1'-0"
140
0.015625
141
12.0
290
     0
  0
SCALE
  5
5B
102
{ACAD_REACTORS
330
47
102
}
330
47
100
AcDbScale
 70
     0
300
1/32" = 1'-0"
140
0.03125
141
12.0
290
     0
  0
SCALE
  5
5C
102
{ACAD_REACTORS
330
47
102
}
330
47
100
AcDbScale
 70
     0
300
1/16" = 1'-0"
140
0.0625
141
12.0
290
     0
  0
SCALE
  5
5D
102
{ACAD_REACTORS
330
47
102
}
330
47
100
AcDbScale
 70
     0
300
3/32" = 1'-0"
140
0.09375
141
12.0
290
     0
  0
SCALE
  5
5E
102
{ACAD_REACTORS
330
47
102
}
330
47
100
AcDbScale
 70
     0
300
1/8" = 1'-0"
140
0.125
141
12.0
290
     0
  0
SCALE
  5
5F
102
{ACAD_REACTORS
330
47
102
}
330
47
100
AcDbScale
 70
     0
300
3/16" = 1'-0"
140
0.1875
141
12.0
290
     0
  0
SCALE
  5
60
102
{ACAD_REACTORS
330
47
102
}
330
47
100
AcDbScale
 70
     0
300
1/4" = 1'-0"
140
0.25
141
12.0
290
     0
  0
SCALE
  5
61
102
{ACAD_REACTORS
330
47
102
}
330
47
100
AcDbScale
 70
     0
300
3/8" = 1'-0"
140
0.375
141
12.0
290
     0
  0
SCALE
  5
62
102
{ACAD_REACTORS
330
47
102
}
330
47
100
AcDbScale
 70
     0
300
1/2" = 1'-0"
140
0.5
141
12.0
290
     0
  0
SCALE
  5
63
102
{ACAD_REACTORS
330
47
102
}
330
47
100
AcDbScale
 70
     0
300
3/4" = 1'-0"
140
0.75
141
12.0
290
     0
  0
SCALE
  5
64
102
{ACAD_REACTORS
330
47
102
}
330
47
100
AcDbScale
 70
     0
300
1" = 1'-0"
140
1.0
141
12.0
290
     0
  0
SCALE
  5
65
102
{ACAD_REACTORS
330
47
102
}
330
47
100
AcDbScale
 70
     0
300
1-1/2" = 1'-0"
140
1.5
141
12.0
290
     0
  0
SCALE
  5
66
102
{ACAD_REACTORS
330
47
102
}
330
47
100
AcDbScale
 70
     0
300
3" = 1'-0"
140
3.0
141
12.0
290
     0
  0
SCALE
  5
67
102
{ACAD_REACTORS
330
47
102
}
330
47
100
AcDbScale
 70
     0
300
6" = 1'-0"
140
6.0
141
12.0
290
     0
  0
SCALE
  5
68
102
{ACAD_REACTORS
330
47
102
}
330
47
100
AcDbScale
 70
     0
300
1'-0" = 1'-0"
140
12.0
141
12.0
290
     0
  0
ENDSEC
  0
EOF
