  0
SECTION
  2
HEADER
  9
$ACADVER
  1
AC1015
  9
$ACADMAINTVER
 70
     6
  9
$DWGCODEPAGE
  3
ANSI_949
  9
$INSBASE
 10
0.0
 20
0.0
 30
0.0
  9
$EXTMIN
 10
-69.5507304776003
 20
-49.97180738881174
 30
0.0
  9
$EXTMAX
 10
95.9884838153456
 20
48.39507903661281
 30
0.0
  9
$LIMMIN
 10
0.0
 20
0.0
  9
$LIMMAX
 10
420.0
 20
297.0
  9
$ORTHOMODE
 70
     1
  9
$REGENMODE
 70
     1
  9
$FILLMODE
 70
     1
  9
$QTEXTMODE
 70
     0
  9
$MIRRTEXT
 70
     1
  9
$LTSCALE
 40
1.0
  9
$ATTMODE
 70
     1
  9
$TEXTSIZE
 40
3.5
  9
$TRACEWID
 40
1.0
  9
$TEXTSTYLE
  7
Standard
  9
$CLAYER
  8
0
  9
$CELTYPE
  6
ByLayer
  9
$CECOLOR
 62
   256
  9
$CELTSCALE
 40
1.0
  9
$DISPSILH
 70
     0
  9
$DIMSCALE
 40
1.0
  9
$DIMASZ
 40
3.302
  9
$DIMEXO
 40
1.0
  9
$DIMDLI
 40
3.75
  9
$DIMRND
 40
0.0
  9
$DIMDLE
 40
0.0
  9
$DIMEXE
 40
1.0
  9
$DIMTP
 40
0.0
  9
$DIMTM
 40
0.0
  9
$DIMTXT
 40
3.5
  9
$DIMCEN
 40
2.5
  9
$DIMTSZ
 40
0.0
  9
$DIMTOL
 70
     0
  9
$DIMLIM
 70
     0
  9
$DIMTIH
 70
     1
  9
$DIMTOH
 70
     1
  9
$DIMSE1
 70
     0
  9
$DIMSE2
 70
     0
  9
$DIMTAD
 70
     1
  9
$DIMZIN
 70
     0
  9
$DIMBLK
  1

  9
$DIMASO
 70
     1
  9
$DIMSHO
 70
     1
  9
$DIMPOST
  1

  9
$DIMAPOST
  1

  9
$DIMALT
 70
     0
  9
$DIMALTD
 70
     3
  9
$DIMALTF
 40
0.0393700787401575
  9
$DIMLFAC
 40
1.0
  9
$DIMTOFL
 70
     1
  9
$DIMTVP
 40
0.0
  9
$DIMTIX
 70
     0
  9
$DIMSOXD
 70
     0
  9
$DIMSAH
 70
     0
  9
$DIMBLK1
  1

  9
$DIMBLK2
  1

  9
$DIMSTYLE
  2
ISO-25
  9
$DIMCLRD
 70
     0
  9
$DIMCLRE
 70
     0
  9
$DIMCLRT
 70
     0
  9
$DIMTFAC
 40
1.0
  9
$DIMGAP
 40
1.524
  9
$DIMJUST
 70
     0
  9
$DIMSD1
 70
     0
  9
$DIMSD2
 70
     0
  9
$DIMTOLJ
 70
     0
  9
$DIMTZIN
 70
     0
  9
$DIMALTZ
 70
     0
  9
$DIMALTTZ
 70
     0
  9
$DIMUPT
 70
     0
  9
$DIMDEC
 70
     2
  9
$DIMTDEC
 70
     2
  9
$DIMALTU
 70
     2
  9
$DIMALTTD
 70
     3
  9
$DIMTXSTY
  7
Standard
  9
$DIMAUNIT
 70
     0
  9
$DIMADEC
 70
     2
  9
$DIMALTRND
 40
0.0
  9
$DIMAZIN
 70
     0
  9
$DIMDSEP
 70
    44
  9
$DIMATFIT
 70
     3
  9
$DIMFRAC
 70
     0
  9
$DIMLDRBLK
  1

  9
$DIMLUNIT
 70
     2
  9
$DIMLWD
 70
    -2
  9
$DIMLWE
 70
    -2
  9
$DIMTMOVE
 70
     0
  9
$LUNITS
 70
     2
  9
$LUPREC
 70
     2
  9
$SKETCHINC
 40
1.0
  9
$FILLETRAD
 40
10.0
  9
$AUNITS
 70
     0
  9
$AUPREC
 70
     2
  9
$MENU
  1
.
  9
$ELEVATION
 40
0.0
  9
$PELEVATION
 40
0.0
  9
$THICKNESS
 40
0.0
  9
$LIMCHECK
 70
     0
  9
$CHAMFERA
 40
0.0
  9
$CHAMFERB
 40
0.0
  9
$CHAMFERC
 40
0.0
  9
$CHAMFERD
 40
0.0
  9
$SKPOLY
 70
     0
  9
$TDCREATE
 40
2458323.744972431
  9
$TDUCREATE
 40
2458323.369972431
  9
$TDUPDATE
 40
2458324.465323878
  9
$TDUUPDATE
 40
2458324.090323878
  9
$TDINDWG
 40
0.0027670718
  9
$TDUSRTIMER
 40
2458324.089106748
  9
$USRTIMER
 70
     1
  9
$ANGBASE
 50
0.0
  9
$ANGDIR
 70
     0
  9
$PDMODE
 70
     0
  9
$PDSIZE
 40
-1.0
  9
$PLINEWID
 40
0.0
  9
$SPLFRAME
 70
     0
  9
$SPLINETYPE
 70
     6
  9
$SPLINESEGS
 70
     8
  9
$HANDSEED
  5
30A
  9
$SURFTAB1
 70
     6
  9
$SURFTAB2
 70
     6
  9
$SURFTYPE
 70
     6
  9
$SURFU
 70
     6
  9
$SURFV
 70
     6
  9
$UCSBASE
  2

  9
$UCSNAME
  2

  9
$UCSORG
 10
0.0
 20
0.0
 30
0.0
  9
$UCSXDIR
 10
1.0
 20
0.0
 30
0.0
  9
$UCSYDIR
 10
0.0
 20
1.0
 30
0.0
  9
$UCSORTHOREF
  2

  9
$UCSORTHOVIEW
 70
     0
  9
$UCSORGTOP
 10
0.0
 20
0.0
 30
0.0
  9
$UCSORGBOTTOM
 10
0.0
 20
0.0
 30
0.0
  9
$UCSORGLEFT
 10
0.0
 20
0.0
 30
0.0
  9
$UCSORGRIGHT
 10
0.0
 20
0.0
 30
0.0
  9
$UCSORGFRONT
 10
0.0
 20
0.0
 30
0.0
  9
$UCSORGBACK
 10
0.0
 20
0.0
 30
0.0
  9
$PUCSBASE
  2

  9
$PUCSNAME
  2

  9
$PUCSORG
 10
0.0
 20
0.0
 30
0.0
  9
$PUCSXDIR
 10
1.0
 20
0.0
 30
0.0
  9
$PUCSYDIR
 10
0.0
 20
1.0
 30
0.0
  9
$PUCSORTHOREF
  2

  9
$PUCSORTHOVIEW
 70
     0
  9
$PUCSORGTOP
 10
0.0
 20
0.0
 30
0.0
  9
$PUCSORGBOTTOM
 10
0.0
 20
0.0
 30
0.0
  9
$PUCSORGLEFT
 10
0.0
 20
0.0
 30
0.0
  9
$PUCSORGRIGHT
 10
0.0
 20
0.0
 30
0.0
  9
$PUCSORGFRONT
 10
0.0
 20
0.0
 30
0.0
  9
$PUCSORGBACK
 10
0.0
 20
0.0
 30
0.0
  9
$USERI1
 70
     0
  9
$USERI2
 70
     0
  9
$USERI3
 70
     0
  9
$USERI4
 70
     0
  9
$USERI5
 70
     0
  9
$USERR1
 40
0.0
  9
$USERR2
 40
0.0
  9
$USERR3
 40
0.0
  9
$USERR4
 40
0.0
  9
$USERR5
 40
0.0
  9
$WORLDVIEW
 70
     1
  9
$SHADEDGE
 70
     3
  9
$SHADEDIF
 70
    70
  9
$TILEMODE
 70
     1
  9
$MAXACTVP
 70
    64
  9
$PINSBASE
 10
0.0
 20
0.0
 30
0.0
  9
$PLIMCHECK
 70
     0
  9
$PEXTMIN
 10
1.000000000000000E+20
 20
1.000000000000000E+20
 30
1.000000000000000E+20
  9
$PEXTMAX
 10
-1.000000000000000E+20
 20
-1.000000000000000E+20
 30
-1.000000000000000E+20
  9
$PLIMMIN
 10
0.0
 20
0.0
  9
$PLIMMAX
 10
0.0
 20
0.0
  9
$UNITMODE
 70
     0
  9
$VISRETAIN
 70
     1
  9
$PLINEGEN
 70
     0
  9
$PSLTSCALE
 70
     1
  9
$TREEDEPTH
 70
  3020
  9
$CMLSTYLE
  2
Standard
  9
$CMLJUST
 70
     0
  9
$CMLSCALE
 40
20.0
  9
$PROXYGRAPHICS
 70
     1
  9
$MEASUREMENT
 70
     1
  9
$CELWEIGHT
370
    -1
  9
$ENDCAPS
280
     0
  9
$JOINSTYLE
280
     0
  9
$LWDISPLAY
290
     1
  9
$INSUNITS
 70
     4
  9
$HYPERLINKBASE
  1

  9
$STYLESHEET
  1

  9
$XEDIT
290
     1
  9
$CEPSNTYPE
380
     0
  9
$PSTYLEMODE
290
     1
  9
$FINGERPRINTGUID
  2
{D4F3C5B8-3343-4893-9C46-8210033A3FDA}
  9
$VERSIONGUID
  2
{FAEB1C32-E019-11D5-929B-00C0DF256EC4}
  9
$EXTNAMES
290
     1
  9
$PSVPSCALE
 40
0.0
  9
$OLESTARTUP
290
     0
  0
ENDSEC
  0
SECTION
  2
CLASSES
  0
CLASS
  1
ACDBDICTIONARYWDFLT
  2
AcDbDictionaryWithDefault
  3
ObjectDBX Classes
 90
        0
280
     0
281
     0
  0
CLASS
  1
VISUALSTYLE
  2
AcDbVisualStyle
  3
ObjectDBX Classes
 90
     4095
280
     0
281
     0
  0
CLASS
  1
MATERIAL
  2
AcDbMaterial
  3
ObjectDBX Classes
 90
     1153
280
     0
281
     0
  0
CLASS
  1
SCALE
  2
AcDbScale
  3
ObjectDBX Classes
 90
     1153
280
     0
281
     0
  0
CLASS
  1
SUN
  2
AcDbSun
  3
SCENEOE
 90
     1153
280
     0
281
     0
  0
CLASS
  1
ACDBPLACEHOLDER
  2
AcDbPlaceHolder
  3
ObjectDBX Classes
 90
        0
280
     0
281
     0
  0
CLASS
  1
LAYOUT
  2
AcDbLayout
  3
ObjectDBX Classes
 90
        0
280
     0
281
     0
  0
CLASS
  1
TABLESTYLE
  2
AcDbTableStyle
  3
ObjectDBX Classes
 90
     4095
280
     0
281
     0
  0
CLASS
  1
MLEADERSTYLE
  2
AcDbMLeaderStyle
  3
ACDB_MLEADERSTYLE_CLASS
 90
     4095
280
     0
281
     0
  0
CLASS
  1
RASTERVARIABLES
  2
AcDbRasterVariables
  3
ISM
 90
        0
280
     0
281
     0
  0
CLASS
  1
DIMASSOC
  2
AcDbDimAssoc
  3
"AcDbDimAssoc|Product Desc:     AcDim ARX App For Dimension|Company:          Autodesk, Inc.|WEB Address:      www.autodesk.com"
 90
        0
280
     0
281
     0
  0
ENDSEC
  0
SECTION
  2
TABLES
  0
TABLE
  2
VPORT
  5
8
330
0
100
AcDbSymbolTable
 70
     1
  0
VPORT
  5
29
330
8
100
AcDbSymbolTableRecord
100
AcDbViewportTableRecord
  2
*Active
 70
     0
 10
0.0
 20
0.0
 11
1.0
 21
1.0
 12
13.50881303276984
 22
-1.103541013015285
 13
0.0
 23
0.0
 14
10.0
 24
10.0
 15
10.0
 25
10.0
 16
0.0
 26
0.0
 36
1.0
 17
0.0
 27
0.0
 37
0.0
 40
112.3723436813354
 41
1.970186335403727
 42
50.0
 43
0.0
 44
0.0
 50
0.0
 51
0.0
 71
    16
 72
  2000
 73
     1
 74
     3
 75
     0
 76
     0
 77
     0
 78
     0
281
     0
 65
     1
110
0.0
120
0.0
130
0.0
111
1.0
121
0.0
131
0.0
112
0.0
122
1.0
132
0.0
 79
     0
146
0.0
  0
ENDTAB
  0
TABLE
  2
LTYPE
  5
5
330
0
100
AcDbSymbolTable
 70
     6
  0
LTYPE
  5
14
330
5
100
AcDbSymbolTableRecord
100
AcDbLinetypeTableRecord
  2
ByBlock
 70
     0
  3

 72
    65
 73
     0
 40
0.0
  0
LTYPE
  5
15
330
5
100
AcDbSymbolTableRecord
100
AcDbLinetypeTableRecord
  2
ByLayer
 70
     0
  3

 72
    65
 73
     0
 40
0.0
  0
LTYPE
  5
16
330
5
100
AcDbSymbolTableRecord
100
AcDbLinetypeTableRecord
  2
Continuous
 70
     0
  3
Solid line
 72
    65
 73
     0
 40
0.0
  0
LTYPE
  5
6A
330
5
100
AcDbSymbolTableRecord
100
AcDbLinetypeTableRecord
  2
HIDDEN
 70
     0
  3
Hidden __ __ __ __ __ __ __ __ __ __ __ __ __ __
 72
    65
 73
     2
 40
1.905
 49
1.27
 74
     0
 49
-0.635
 74
     0
  0
LTYPE
  5
6B
330
5
100
AcDbSymbolTableRecord
100
AcDbLinetypeTableRecord
  2
PHANTOM
 70
     0
  3
Phantom ______  __  __  ______  __  __  ______
 72
    65
 73
     6
 40
12.7
 49
6.35
 74
     0
 49
-1.27
 74
     0
 49
1.27
 74
     0
 49
-1.27
 74
     0
 49
1.27
 74
     0
 49
-1.27
 74
     0
  0
LTYPE
  5
6C
330
5
100
AcDbSymbolTableRecord
100
AcDbLinetypeTableRecord
  2
CENTER
 70
     0
  3
Center ____ _ ____ _ ____ _ ____ _ ____ _ ____
 72
    65
 73
     4
 40
10.16
 49
6.35
 74
     0
 49
-1.27
 74
     0
 49
1.27
 74
     0
 49
-1.27
 74
     0
  0
LTYPE
  5
6D
330
5
100
AcDbSymbolTableRecord
100
AcDbLinetypeTableRecord
  2
CENTERX2
 70
     0
  3
Center (2x) ________  __  ________  __  _____
 72
    65
 73
     4
 40
20.32
 49
12.7
 74
     0
 49
-2.54
 74
     0
 49
2.54
 74
     0
 49
-2.54
 74
     0
  0
LTYPE
  5
6E
330
5
100
AcDbSymbolTableRecord
100
AcDbLinetypeTableRecord
  2
DOT2
 70
     0
  3
Dot (.5x) ........................................
 72
    65
 73
     2
 40
0.635
 49
0.0
 74
     0
 49
-0.635
 74
     0
  0
ENDTAB
  0
TABLE
  2
LAYER
  5
2
102
{ACAD_XDICTIONARY
360
206
102
}
330
0
100
AcDbSymbolTable
 70
    18
  0
LAYER
  5
10
330
2
100
AcDbSymbolTableRecord
100
AcDbLayerTableRecord
  2
0
 70
     0
 62
     7
  6
Continuous
370
    -3
390
F
  0
LAYER
  5
6F
330
2
100
AcDbSymbolTableRecord
100
AcDbLayerTableRecord
  2
FORMAT
 70
     0
 62
     2
  6
Continuous
370
    -3
390
F
  0
LAYER
  5
70
330
2
100
AcDbSymbolTableRecord
100
AcDbLayerTableRecord
  2
외형선
 70
     0
 62
     4
  6
Continuous
370
    30
390
F
  0
LAYER
  5
71
330
2
100
AcDbSymbolTableRecord
100
AcDbLayerTableRecord
  2
숨은선
 70
     0
 62
     2
  6
HIDDEN
370
    15
390
F
  0
LAYER
  5
72
330
2
100
AcDbSymbolTableRecord
100
AcDbLayerTableRecord
  2
중심선
 70
     0
 62
     1
  6
CENTERX2
370
    -3
390
F
  0
LAYER
  5
73
330
2
100
AcDbSymbolTableRecord
100
AcDbLayerTableRecord
  2
파단선
 70
     0
 62
     4
  6
Continuous
370
    -3
390
F
  0
LAYER
  5
74
330
2
100
AcDbSymbolTableRecord
100
AcDbLayerTableRecord
  2
해칭선
 70
     0
 62
   100
  6
Continuous
370
    -3
390
F
  0
LAYER
  5
75
330
2
100
AcDbSymbolTableRecord
100
AcDbLayerTableRecord
  2
가는실선
 70
     0
 62
     4
  6
Continuous
370
    -3
390
F
  0
LAYER
  5
76
330
2
100
AcDbSymbolTableRecord
100
AcDbLayerTableRecord
  2
치수_보조선
 70
     0
 62
     4
  6
Continuous
370
    -3
390
F
  0
LAYER
  5
77
330
2
100
AcDbSymbolTableRecord
100
AcDbLayerTableRecord
  2
치수문자_일반주서
 70
     0
 62
     7
  6
Continuous
370
    15
390
F
  0
LAYER
  5
78
330
2
100
AcDbSymbolTableRecord
100
AcDbLayerTableRecord
  2
개별주서
 70
     0
 62
   100
  6
Continuous
370
    30
390
F
  0
LAYER
  5
79
330
2
100
AcDbSymbolTableRecord
100
AcDbLayerTableRecord
  2
중간선
 70
     0
 62
     2
  6
Continuous
370
    15
390
F
  0
LAYER
  5
7A
330
2
100
AcDbSymbolTableRecord
100
AcDbLayerTableRecord
  2
윤곽선
 70
     0
 62
     3
  6
Continuous
370
    40
390
F
  0
LAYER
  5
7B
330
2
100
AcDbSymbolTableRecord
100
AcDbLayerTableRecord
  2
중심마크
 70
     0
 62
   100
  6
Continuous
370
    30
390
F
  0
LAYER
  5
7C
330
2
100
AcDbSymbolTableRecord
100
AcDbLayerTableRecord
  2
가상선
 70
     0
 62
     4
  6
PHANTOM
370
    -3
390
F
  0
LAYER
  5
7D
330
2
100
AcDbSymbolTableRecord
100
AcDbLayerTableRecord
  2
특수지정선
 70
     0
 62
     5
  6
CENTERX2
370
    60
390
F
  0
LAYER
  5
7E
330
2
100
AcDbSymbolTableRecord
100
AcDbLayerTableRecord
  2
참조1
 70
     0
 62
    -4
  6
Continuous
370
    -3
390
F
  0
LAYER
  5
14E
330
2
100
AcDbSymbolTableRecord
100
AcDbLayerTableRecord
  2
Defpoints
 70
     0
 62
     7
  6
Continuous
290
     0
370
    -3
390
F
  0
ENDTAB
  0
TABLE
  2
STYLE
  5
3
330
0
100
AcDbSymbolTable
 70
     2
  0
STYLE
  5
11
330
3
100
AcDbSymbolTableRecord
100
AcDbTextStyleTableRecord
  2
Standard
 70
     0
 40
0.0
 41
1.0
 50
0.0
 71
     0
 42
3.5
  3
txt
  4

  0
STYLE
  5
94
330
3
100
AcDbSymbolTableRecord
100
AcDbTextStyleTableRecord
  2
SLDTEXTSTYLE0
 70
     0
 40
0.0
 41
0.75
 50
0.0
 71
     0
 42
3.5
  3
TXT
  4

  0
ENDTAB
  0
TABLE
  2
VIEW
  5
6
330
0
100
AcDbSymbolTable
 70
     0
  0
ENDTAB
  0
TABLE
  2
UCS
  5
7
330
0
100
AcDbSymbolTable
 70
     0
  0
ENDTAB
  0
TABLE
  2
APPID
  5
9
330
0
100
AcDbSymbolTable
 70
     3
  0
APPID
  5
12
330
9
100
AcDbSymbolTableRecord
100
AcDbRegAppTableRecord
  2
ACAD
 70
     0
  0
APPID
  5
158
330
9
100
AcDbSymbolTableRecord
100
AcDbRegAppTableRecord
  2
PE_URL
 70
     0
  0
APPID
  5
159
330
9
100
AcDbSymbolTableRecord
100
AcDbRegAppTableRecord
  2
ACAD_DSTYLE_DIMRADIAL_EXTENSION
 70
     0
  0
ENDTAB
  0
TABLE
  2
DIMSTYLE
  5
A
330
0
100
AcDbSymbolTable
 70
     4
100
AcDbDimStyleTable
  0
DIMSTYLE
105
27
330
A
100
AcDbSymbolTableRecord
100
AcDbDimStyleTableRecord
  2
ISO-25
 70
     0
 41
2.5
 42
0.625
 43
3.75
 44
1.25
 73
     0
 74
     0
 77
     1
 78
     8
140
2.5
141
2.5
143
0.03937007874016
147
0.625
171
     3
172
     1
178
     0
271
     2
272
     2
274
     3
278
    44
283
     0
284
     8
340
11
  0
DIMSTYLE
105
CC
330
A
100
AcDbSymbolTableRecord
100
AcDbDimStyleTableRecord
  2
SLDDIMSTYLE0
 70
     0
 41
3.302
 44
0.0
 45
0.000000001
 73
     0
 74
     0
 77
     1
 78
    12
 79
     3
140
3.5
143
0.0393700787401575
147
0.875
148
0.000000001
170
     1
172
     1
173
     1
178
     0
271
     2
272
     2
276
     2
284
    12
289
     0
340
94
  0
DIMSTYLE
105
E1
330
A
100
AcDbSymbolTableRecord
100
AcDbDimStyleTableRecord
  2
SLDDIMSTYLE1
 70
     0
 41
3.302
 44
0.0
 45
0.000000001
 73
     0
 74
     0
 77
     1
 78
     4
 79
     1
140
3.5
143
0.0393700787401575
147
0.875
148
0.000000001
170
     1
173
     1
178
     0
271
     2
272
     2
276
     2
284
    12
340
94
  0
DIMSTYLE
105
108
102
{ACAD_REACTORS
330
107
330
CB
330
E0
330
F4
330
2FC
102
}
330
A
100
AcDbSymbolTableRecord
100
AcDbDimStyleTableRecord
  2
SLDDIMSTYLE2
 70
     0
 41
3.302
 44
0.0
 45
0.000000001
 73
     0
 74
     0
 77
     1
 78
    12
 79
     3
140
3.5
143
0.0393700787401575
147
0.875
148
0.000000001
170
     1
173
     1
178
     0
271
     2
272
     2
276
     2
284
    12
340
94
  0
ENDTAB
  0
TABLE
  2
BLOCK_RECORD
  5
1
330
0
100
AcDbSymbolTable
 70
    19
  0
BLOCK_RECORD
  5
1F
330
1
100
AcDbSymbolTableRecord
100
AcDbBlockTableRecord
  2
*Model_Space
340
22
  0
BLOCK_RECORD
  5
1B
330
1
100
AcDbSymbolTableRecord
100
AcDbBlockTableRecord
  2
*Paper_Space
340
1E
  0
BLOCK_RECORD
  5
23
330
1
100
AcDbSymbolTableRecord
100
AcDbBlockTableRecord
  2
*Paper_Space0
340
26
  0
BLOCK_RECORD
  5
7F
330
1
100
AcDbSymbolTableRecord
100
AcDbBlockTableRecord
  2
블럭10
340
0
102
{BLKREFS
331
C4
102
}
  0
BLOCK_RECORD
  5
CD
330
1
100
AcDbSymbolTableRecord
100
AcDbBlockTableRecord
  2
_D
340
0
  0
BLOCK_RECORD
  5
E2
330
1
100
AcDbSymbolTableRecord
100
AcDbBlockTableRecord
  2
_D_1
340
0
  0
BLOCK_RECORD
  5
F5
330
1
100
AcDbSymbolTableRecord
100
AcDbBlockTableRecord
  2
_D_2
340
0
  0
BLOCK_RECORD
  5
109
330
1
100
AcDbSymbolTableRecord
100
AcDbBlockTableRecord
  2
_D_3
340
0
  0
BLOCK_RECORD
  5
122
330
1
100
AcDbSymbolTableRecord
100
AcDbBlockTableRecord
  2
SW_DOWELSYMBOL_0
340
0
102
{BLKREFS
331
128
102
}
  0
BLOCK_RECORD
  5
1ED
330
1
100
AcDbSymbolTableRecord
100
AcDbBlockTableRecord
  2
*D7
340
0
  0
BLOCK_RECORD
  5
1F8
330
1
100
AcDbSymbolTableRecord
100
AcDbBlockTableRecord
  2
*D8
340
0
  0
BLOCK_RECORD
  5
20A
330
1
100
AcDbSymbolTableRecord
100
AcDbBlockTableRecord
  2
*D9
340
0
  0
BLOCK_RECORD
  5
216
330
1
100
AcDbSymbolTableRecord
100
AcDbBlockTableRecord
  2
*D10
340
0
  0
BLOCK_RECORD
  5
222
330
1
100
AcDbSymbolTableRecord
100
AcDbBlockTableRecord
  2
*D11
340
0
  0
BLOCK_RECORD
  5
27D
330
1
100
AcDbSymbolTableRecord
100
AcDbBlockTableRecord
  2
*D12
340
0
  0
BLOCK_RECORD
  5
289
330
1
100
AcDbSymbolTableRecord
100
AcDbBlockTableRecord
  2
*D13
340
0
  0
BLOCK_RECORD
  5
295
330
1
100
AcDbSymbolTableRecord
100
AcDbBlockTableRecord
  2
*D14
340
0
  0
BLOCK_RECORD
  5
2A3
330
1
100
AcDbSymbolTableRecord
100
AcDbBlockTableRecord
  2
*D15
340
0
  0
BLOCK_RECORD
  5
2AD
330
1
100
AcDbSymbolTableRecord
100
AcDbBlockTableRecord
  2
*D16
340
0
  0
BLOCK_RECORD
  5
2C6
330
1
100
AcDbSymbolTableRecord
100
AcDbBlockTableRecord
  2
*D17
340
0
  0
BLOCK_RECORD
  5
2FF
330
1
100
AcDbSymbolTableRecord
100
AcDbBlockTableRecord
  2
*D18
340
0
  0
ENDTAB
  0
ENDSEC
  0
SECTION
  2
BLOCKS
  0
BLOCK
  5
20
330
1F
100
AcDbEntity
  8
0
100
AcDbBlockBegin
  2
*Model_Space
 70
     0
 10
0.0
 20
0.0
 30
0.0
  3
*Model_Space
  1
*Model_Space
  0
ENDBLK
  5
21
330
1F
100
AcDbEntity
  8
0
100
AcDbBlockEnd
  0
BLOCK
  5
1C
330
1B
100
AcDbEntity
 67
     1
  8
0
100
AcDbBlockBegin
  2
*Paper_Space
 70
     0
 10
0.0
 20
0.0
 30
0.0
  3
*Paper_Space
  1
*Paper_Space
  0
ENDBLK
  5
1D
330
1B
100
AcDbEntity
 67
     1
  8
0
100
AcDbBlockEnd
  0
BLOCK
  5
24
330
23
100
AcDbEntity
  8
0
100
AcDbBlockBegin
  2
*Paper_Space0
 70
     0
 10
0.0
 20
0.0
 30
0.0
  3
*Paper_Space0
  1
*Paper_Space0
  0
ENDBLK
  5
25
330
23
100
AcDbEntity
  8
0
100
AcDbBlockEnd
  0
BLOCK
  5
80
330
7F
100
AcDbEntity
  8
0
100
AcDbBlockBegin
  2
블럭10
 70
     2
 10
0.0
 20
0.0
 30
0.0
  3
블럭10
  1
블럭10
  0
ELLIPSE
  5
82
330
7F
100
AcDbEntity
  8
중심선
100
AcDbEllipse
 10
20.54032771741204
 20
12.0471743016438
 30
0.0
 11
6.600054785286829
 21
-1.261213355974178E-13
 31
0.0
210
0.0
220
0.0
230
1.0
 40
0.636358354079598
 41
0.9219305317359503
 42
6.513795318482858
  0
ELLIPSE
  5
83
330
7F
100
AcDbEntity
  8
중심선
100
AcDbEllipse
 10
20.54032771746488
 20
12.04717430159265
 30
0.0
 11
3.960054785062283
 21
1.540847449632565E-10
 31
0.0
210
0.0
220
0.0
230
1.0
 40
0.3939339440162632
 41
1.131841032648279
 42
5.62031148352944
  0
LINE
  5
84
330
7F
100
AcDbEntity
  8
중심선
100
AcDbLine
 10
2.268634060543552
 20
16.24717430164393
 30
0.0
 11
5.714909304380834
 21
16.24717430164393
 31
0.0
  0
LINE
  5
85
330
7F
100
AcDbEntity
  8
중심선
100
AcDbLine
 10
5.245725140726316
 20
7.84717430164391
 30
0.0
 11
8.692000384563599
 21
7.84717430164391
 31
0.0
  0
LINE
  5
86
330
7F
100
AcDbEntity
  8
중심선
100
AcDbLine
 10
15.74043728645272
 20
16.24717430164393
 30
0.0
 11
8.692000384563599
 21
7.84717430164391
 31
0.0
  0
LINE
  5
87
330
7F
100
AcDbEntity
  8
중심선
100
AcDbLine
 10
0.1404042013395286
 20
13.71084872107135
 30
0.0
 11
3.58671253028996
 21
13.71088815037384
 31
0.0
  0
LINE
  5
88
330
7F
100
AcDbEntity
  8
중심선
100
AcDbLine
 10
2.750260043222114
 20
10.84717430164391
 30
0.0
 11
6.196535287059397
 21
10.84717430164391
 31
0.0
  0
LINE
  5
89
330
7F
100
AcDbEntity
  8
중심선
100
AcDbLine
 10
12.29416204261559
 20
16.24717430164393
 30
0.0
 11
5.245725140726316
 21
7.84717430164391
 31
0.0
  0
LINE
  5
8A
330
7F
100
AcDbEntity
  8
중심선
100
AcDbLine
 10
10.72767329541681
 20
16.24717430164393
 30
0.0
 11
6.196535287059397
 21
10.84717430164391
 31
0.0
  0
LINE
  5
8B
330
7F
100
AcDbEntity
  8
중심선
100
AcDbLine
 10
7.28139805157953
 20
16.24717430164393
 30
0.0
 11
2.750260043222114
 21
10.84717430164391
 31
0.0
  0
LINE
  5
8C
330
7F
100
AcDbEntity
  8
중심선
100
AcDbLine
 10
5.714909304380834
 20
16.24717430164393
 30
0.0
 11
3.58671253028996
 21
13.71088815037384
 31
0.0
  0
LINE
  5
8D
330
7F
100
AcDbEntity
  8
중심선
100
AcDbLine
 10
2.268634060543552
 20
16.24717430164393
 30
0.0
 11
0.1404042013395286
 21
13.71084872107135
 31
0.0
  0
LINE
  5
8E
330
7F
100
AcDbEntity
  8
중심선
100
AcDbLine
 10
7.28139805157953
 20
16.24717430164393
 30
0.0
 11
10.72767329541681
 21
16.24717430164393
 31
0.0
  0
LINE
  5
8F
330
7F
100
AcDbEntity
  8
중심선
100
AcDbLine
 10
12.29416204261559
 20
16.24717430164393
 30
0.0
 11
15.74043728645272
 21
16.24717430164393
 31
0.0
  0
LINE
  5
90
330
7F
100
AcDbEntity
  8
중심선
100
AcDbLine
 10
19.22036997980202
 20
11.08717430171403
 30
0.0
 11
23.66174974927406
 21
11.08717430171406
 31
0.0
  0
LINE
  5
91
330
7F
100
AcDbEntity
  8
중심선
100
AcDbLine
 10
19.22039502424796
 20
13.00717430171391
 30
0.0
 11
19.22036997980202
 21
11.08717430171403
 31
0.0
  0
LINE
  5
92
330
7F
100
AcDbEntity
  8
중심선
100
AcDbLine
 10
19.22039502424796
 20
13.00717430171391
 30
0.0
 11
26.96566020931264
 21
13.00717430171391
 31
0.0
  0
LINE
  5
93
330
7F
100
AcDbEntity
  8
중심선
100
AcDbLine
 10
22.22332737316547
 20
13.45928029700563
 30
0.0
 11
24.52862924686651
 21
15.39360700705356
 31
0.0
  0
ATTDEF
  5
95
330
7F
100
AcDbEntity
  8
FORMAT
 62
     2
100
AcDbText
 10
4.408487351596664
 20
2.075366912832191
 30
0.0
 40
4.233333333333333
  1
E5216048
 41
0.75
  7
SLDTEXTSTYLE0
 11
4.408487351596664
 21
-0.0412997538344756
 31
0.0
100
AcDbAttributeDefinition
  3

  2
AUTOATTR0
 70
     0
 74
     1
  0
ENDBLK
  5
81
330
7F
100
AcDbEntity
  8
0
100
AcDbBlockEnd
  0
BLOCK
  5
CE
330
CD
100
AcDbEntity
  8
0
100
AcDbBlockBegin
  2
_D
 70
     0
 10
0.0
 20
0.0
 30
0.0
  3
_D
  1
_D
  0
LINE
  5
D0
330
CD
100
AcDbEntity
  8
치수문자_일반주서
 62
     0
370
    -2
100
AcDbLine
 10
-49.65750000000001
 20
9.525000000000007
 30
0.0
 11
-64.67573047760017
 21
9.524999999999952
 31
0.0
  0
LINE
  5
D1
330
CD
100
AcDbEntity
  8
치수문자_일반주서
 62
     0
370
    -2
100
AcDbLine
 10
-49.65750000000001
 20
-9.525000000000004
 30
0.0
 11
-64.6757304776001
 21
-9.525000000000059
 31
0.0
  0
LINE
  5
D2
330
CD
100
AcDbEntity
  8
치수문자_일반주서
 62
     0
370
    -2
100
AcDbLine
 10
-64.67573047760017
 20
9.524999999999952
 30
0.0
 11
-64.6757304776003
 21
45.77499999999995
 31
0.0
  0
LINE
  5
D3
330
CD
100
AcDbEntity
  8
치수문자_일반주서
 62
     0
370
    -2
100
AcDbLine
 10
-64.67573047760015
 20
5.524999999999952
 30
0.0
 11
-64.67573047760011
 21
-5.525000000000059
 31
0.0
  0
SOLID
  5
D4
330
CD
100
AcDbEntity
  8
치수문자_일반주서
 62
     0
100
AcDbTrace
 10
-64.00906381093348
 20
5.524999999999955
 30
0.0
 11
-65.34239714426683
 21
5.52499999999995
 31
0.0
 12
-64.67573047760017
 22
9.524999999999952
 32
0.0
 13
-64.67573047760017
 23
9.524999999999952
 33
0.0
  0
SOLID
  5
D5
330
CD
100
AcDbEntity
  8
치수문자_일반주서
 62
     0
100
AcDbTrace
 10
-65.34239714426678
 20
-5.525000000000062
 30
0.0
 11
-64.00906381093344
 21
-5.525000000000056
 31
0.0
 12
-64.6757304776001
 22
-9.525000000000059
 32
0.0
 13
-64.6757304776001
 23
-9.525000000000059
 33
0.0
  0
MTEXT
  5
D6
330
CD
100
AcDbEntity
  8
치수문자_일반주서
 62
     0
100
AcDbMText
 10
-69.55073047760024
 20
30.14999999999993
 30
0.0
 40
4.0
 41
0.0
 71
     2
 72
     1
  1
\A1;%%c19.05 [3/4]
  7
SLDTEXTSTYLE0
 11
-3.729883127349605E-15
 21
1.0
 31
0.0
 73
     1
 44
1.0
  0
POINT
  5
D7
330
CD
100
AcDbEntity
  8
Defpoints
 62
     0
100
AcDbPoint
 10
-49.59500000000001
 20
9.525000000000007
 30
0.0
  0
POINT
  5
D8
330
CD
100
AcDbEntity
  8
Defpoints
 62
     0
100
AcDbPoint
 10
-49.59500000000001
 20
-9.525000000000004
 30
0.0
  0
POINT
  5
2BD
330
CD
100
AcDbEntity
  8
Defpoints
 62
     0
100
AcDbPoint
 10
-64.67573047760011
 20
-9.52500000000006
 30
0.0
  0
ENDBLK
  5
CF
330
CD
100
AcDbEntity
  8
0
100
AcDbBlockEnd
  0
BLOCK
  5
E3
330
E2
100
AcDbEntity
  8
0
100
AcDbBlockBegin
  2
_D_1
 70
     0
 10
0.0
 20
0.0
 30
0.0
  3
_D_1
  1
_D_1
  0
LINE
  5
E5
330
E2
100
AcDbEntity
  8
치수문자_일반주서
 62
     0
370
    -2
100
AcDbLine
 10
50.1
 20
9.587500000000079
 30
0.0
 11
50.1
 21
20.11337375909717
 31
0.0
  0
LINE
  5
E6
330
E2
100
AcDbEntity
  8
치수문자_일반주서
 62
     0
370
    -2
100
AcDbLine
 10
11.99999999999999
 20
8.856318598599296
 30
0.0
 11
11.99999999999999
 21
20.11337375909717
 31
0.0
  0
LINE
  5
E7
330
E2
100
AcDbEntity
  8
치수문자_일반주서
 62
     0
370
    -2
100
AcDbLine
 10
46.1
 20
20.11337375909717
 30
0.0
 11
15.99999999999999
 21
20.11337375909717
 31
0.0
  0
SOLID
  5
E8
330
E2
100
AcDbEntity
  8
치수문자_일반주서
 62
     0
100
AcDbTrace
 10
46.1
 20
19.4467070924305
 30
0.0
 11
46.1
 21
20.78004042576384
 31
0.0
 12
50.1
 22
20.11337375909717
 32
0.0
 13
50.1
 23
20.11337375909717
 33
0.0
  0
SOLID
  5
E9
330
E2
100
AcDbEntity
  8
치수문자_일반주서
 62
     0
100
AcDbTrace
 10
15.99999999999999
 20
20.78004042576384
 30
0.0
 11
15.99999999999999
 21
19.4467070924305
 31
0.0
 12
11.99999999999999
 22
20.11337375909717
 32
0.0
 13
11.99999999999999
 23
20.11337375909717
 33
0.0
  0
MTEXT
  5
EA
330
E2
100
AcDbEntity
  8
치수문자_일반주서
 62
     0
100
AcDbMText
 10
30.47422263844656
 20
24.98837375909717
 30
0.0
 40
4.0
 41
0.0
 71
     2
 72
     1
  1
\A1;38.1 [1 1/2]
  7
SLDTEXTSTYLE0
 73
     1
 44
1.0
  0
POINT
  5
EB
330
E2
100
AcDbEntity
  8
Defpoints
 62
     0
100
AcDbPoint
 10
50.1
 20
9.525000000000079
 30
0.0
  0
POINT
  5
EC
330
E2
100
AcDbEntity
  8
Defpoints
 62
     0
100
AcDbPoint
 10
11.99999999999999
 20
8.793818598599296
 30
0.0
  0
POINT
  5
ED
330
E2
100
AcDbEntity
  8
Defpoints
 62
     0
100
AcDbPoint
 10
11.99999999999999
 20
20.11337375909717
 30
0.0
  0
ENDBLK
  5
E4
330
E2
100
AcDbEntity
  8
0
100
AcDbBlockEnd
  0
BLOCK
  5
F6
330
F5
100
AcDbEntity
  8
0
100
AcDbBlockBegin
  2
_D_2
 70
     0
 10
0.0
 20
0.0
 30
0.0
  3
_D_2
  1
_D_2
  0
LINE
  5
F8
330
F5
100
AcDbEntity
  8
치수문자_일반주서
 62
     0
370
    -2
100
AcDbLine
 10
50.1
 20
9.587500000000079
 30
0.0
 11
50.09999999999999
 21
43.52007903661281
 31
0.0
  0
LINE
  5
F9
330
F5
100
AcDbEntity
  8
치수문자_일반주서
 62
     0
370
    -2
100
AcDbLine
 10
-51.5
 20
7.682500000000011
 30
0.0
 11
-51.50000000000001
 21
43.52007903661281
 31
0.0
  0
LINE
  5
FA
330
F5
100
AcDbEntity
  8
치수문자_일반주서
 62
     0
370
    -2
100
AcDbLine
 10
46.09999999999999
 20
43.52007903661281
 30
0.0
 11
-47.50000000000001
 21
43.52007903661281
 31
0.0
  0
SOLID
  5
FB
330
F5
100
AcDbEntity
  8
치수문자_일반주서
 62
     0
100
AcDbTrace
 10
46.09999999999999
 20
42.85341236994615
 30
0.0
 11
46.09999999999999
 21
44.18674570327948
 31
0.0
 12
50.09999999999999
 22
43.52007903661281
 32
0.0
 13
50.09999999999999
 23
43.52007903661281
 33
0.0
  0
SOLID
  5
FC
330
F5
100
AcDbEntity
  8
치수문자_일반주서
 62
     0
100
AcDbTrace
 10
-47.50000000000001
 20
44.18674570327948
 30
0.0
 11
-47.50000000000001
 21
42.85341236994615
 31
0.0
 12
-51.50000000000001
 22
43.52007903661281
 32
0.0
 13
-51.50000000000001
 23
43.52007903661281
 33
0.0
  0
MTEXT
  5
FD
330
F5
100
AcDbEntity
  8
치수문자_일반주서
 62
     0
100
AcDbMText
 10
-0.6999999999999957
 20
48.39507903661281
 30
0.0
 40
4.0
 41
0.0
 71
     2
 72
     1
  1
\A1;101.6 [4]
  7
SLDTEXTSTYLE0
 73
     1
 44
1.0
  0
POINT
  5
FE
330
F5
100
AcDbEntity
  8
Defpoints
 62
     0
100
AcDbPoint
 10
50.1
 20
9.525000000000079
 30
0.0
  0
POINT
  5
FF
330
F5
100
AcDbEntity
  8
Defpoints
 62
     0
100
AcDbPoint
 10
-51.5
 20
7.620000000000011
 30
0.0
  0
POINT
  5
100
330
F5
100
AcDbEntity
  8
Defpoints
 62
     0
100
AcDbPoint
 10
-51.5
 20
43.52007903661281
 30
0.0
  0
ENDBLK
  5
F7
330
F5
100
AcDbEntity
  8
0
100
AcDbBlockEnd
  0
BLOCK
  5
10A
330
109
100
AcDbEntity
  8
0
100
AcDbBlockBegin
  2
_D_3
 70
     0
 10
0.0
 20
0.0
 30
0.0
  3
_D_3
  1
_D_3
  0
LINE
  5
10C
330
109
100
AcDbEntity
  8
치수문자_일반주서
 62
     0
370
    -2
100
AcDbLine
 10
50.1625
 20
9.525000000000079
 30
0.0
 11
64.72695597283241
 21
9.525000000000134
 31
0.0
  0
LINE
  5
10D
330
109
100
AcDbEntity
  8
치수문자_일반주서
 62
     0
370
    -2
100
AcDbLine
 10
50.16249999999999
 20
-9.524999999999999
 30
0.0
 11
64.72695597283249
 21
-9.524999999999945
 31
0.0
  0
LINE
  5
10E
330
109
100
AcDbEntity
  8
치수문자_일반주서
 62
     0
370
    -2
100
AcDbLine
 10
64.72695597283241
 20
9.525000000000134
 30
0.0
 11
64.72695597283229
 21
45.77500000000013
 31
0.0
  0
LINE
  5
10F
330
109
100
AcDbEntity
  8
치수문자_일반주서
 62
     0
370
    -2
100
AcDbLine
 10
64.72695597283243
 20
5.525000000000134
 30
0.0
 11
64.72695597283247
 21
-5.524999999999945
 31
0.0
  0
SOLID
  5
110
330
109
100
AcDbEntity
  8
치수문자_일반주서
 62
     0
100
AcDbTrace
 10
65.3936226394991
 20
5.525000000000136
 30
0.0
 11
64.06028930616576
 21
5.525000000000131
 31
0.0
 12
64.72695597283241
 22
9.525000000000134
 32
0.0
 13
64.72695597283241
 23
9.525000000000134
 33
0.0
  0
SOLID
  5
111
330
109
100
AcDbEntity
  8
치수문자_일반주서
 62
     0
100
AcDbTrace
 10
64.0602893061658
 20
-5.524999999999948
 30
0.0
 11
65.39362263949914
 21
-5.524999999999943
 31
0.0
 12
64.72695597283249
 22
-9.524999999999945
 32
0.0
 13
64.72695597283249
 23
-9.524999999999945
 33
0.0
  0
MTEXT
  5
112
330
109
100
AcDbEntity
  8
치수문자_일반주서
 62
     0
100
AcDbMText
 10
59.85195597283234
 20
30.15000000000011
 30
0.0
 40
4.0
 41
0.0
 71
     2
 72
     1
  1
\A1;%%c19.05 [3/4]
  7
SLDTEXTSTYLE0
 11
-3.729883127349592E-15
 21
1.0
 31
0.0
 73
     1
 44
1.0
  0
POINT
  5
113
330
109
100
AcDbEntity
  8
Defpoints
 62
     0
100
AcDbPoint
 10
50.1
 20
9.525000000000079
 30
0.0
  0
POINT
  5
114
330
109
100
AcDbEntity
  8
Defpoints
 62
     0
100
AcDbPoint
 10
50.09999999999999
 20
-9.524999999999999
 30
0.0
  0
POINT
  5
115
330
109
100
AcDbEntity
  8
Defpoints
 62
     0
100
AcDbPoint
 10
64.72695597283249
 20
-9.524999999999944
 30
0.0
  0
ENDBLK
  5
10B
330
109
100
AcDbEntity
  8
0
100
AcDbBlockEnd
  0
BLOCK
  5
123
330
122
100
AcDbEntity
  8
0
100
AcDbBlockBegin
  2
SW_DOWELSYMBOL_0
 70
     0
 10
0.0
 20
0.0
 30
0.0
  3
SW_DOWELSYMBOL_0
  1
SW_DOWELSYMBOL_0
  0
CIRCLE
  5
125
330
122
100
AcDbEntity
  8
해칭선
 62
     0
100
AcDbCircle
 10
0.0
 20
0.0
 30
0.0
 40
3.000000000000001
  0
HATCH
  5
126
330
122
100
AcDbEntity
  8
0
  6
Continuous
 62
     0
370
     0
100
AcDbHatch
 10
0.0
 20
0.0
 30
0.0
210
0.0
220
0.0
230
1.0
  2
SOLID
 70
     1
 71
     0
 91
        1
 92
        0
 93
        3
 72
     2
 10
0.0
 20
0.0
 40
3.000000000000001
 50
0.0
 51
90.0
 73
     1
 72
     1
 10
0.0
 20
3.000000000000001
 11
0.0
 21
0.0
 72
     1
 10
0.0
 20
0.0
 11
3.000000000000003
 21
0.0
 97
        0
 75
     0
 76
     1
 98
        1
 10
0.0
 20
0.0
  0
HATCH
  5
127
330
122
100
AcDbEntity
  8
0
  6
Continuous
 62
     0
370
     0
100
AcDbHatch
 10
0.0
 20
0.0
 30
0.0
210
0.0
220
0.0
230
1.0
  2
SOLID
 70
     1
 71
     0
 91
        1
 92
        0
 93
        3
 72
     2
 10
0.0
 20
0.0
 40
3.000000000000001
 50
180.0
 51
270.0000000000007
 73
     1
 72
     1
 10
0.0
 20
-3.000000000000001
 11
0.0
 21
0.0
 72
     1
 10
0.0
 20
0.0
 11
-3.000000000000003
 21
0.0
 97
        0
 75
     0
 76
     1
 98
        1
 10
0.0
 20
0.0
  0
ENDBLK
  5
124
330
122
100
AcDbEntity
  8
0
100
AcDbBlockEnd
  0
BLOCK
  5
1EE
330
1ED
100
AcDbEntity
  8
0
100
AcDbBlockBegin
  2
*D7
 70
     1
 10
0.0
 20
0.0
 30
0.0
  3
*D7
  1
*D19
  0
LINE
  5
1EF
330
1ED
100
AcDbEntity
  8
치수문자_일반주서
 62
     0
370
    -2
100
AcDbLine
 10
122.2075719207232
 20
21.09418497419865
 30
0.0
 11
145.7061677555407
 21
-7.320944101907674
 31
0.0
  0
MTEXT
  5
1F0
330
1ED
100
AcDbEntity
  8
치수문자_일반주서
 62
     0
100
AcDbMText
 10
140.03527720752
 20
4.047751970745924
 30
0.0
 40
4.0
 41
0.0
 71
     5
 72
     1
  1
\A1;R1 [R0.04]
  7
SLDTEXTSTYLE0
 11
0.6372880340174896
 21
-0.7706256949376417
 31
0.0
 73
     1
 44
1.0
  0
SOLID
  5
1F1
330
1ED
100
AcDbEntity
  8
치수문자_일반주서
 62
     0
100
AcDbTrace
 10
122.7213223840149
 20
21.51904366354364
 30
0.0
 11
121.6938214574314
 21
20.66932628485365
 31
0.0
 12
119.6584197846532
 22
24.17668775394921
 32
0.0
 13
119.6584197846532
 23
24.17668775394921
 33
0.0
  0
LINE
  5
1F2
330
1ED
100
AcDbEntity
  8
치수문자_일반주서
 62
     0
100
AcDbLine
 10
118.9311317506357
 20
24.94731344888685
 30
0.0
 11
119.1111317506357
 21
24.94731344888685
 31
0.0
  0
LINE
  5
1F3
330
1ED
100
AcDbEntity
  8
치수문자_일반주서
 62
     0
100
AcDbLine
 10
119.0211317506357
 20
24.85731344888685
 30
0.0
 11
119.0211317506357
 21
25.03731344888685
 31
0.0
  0
POINT
  5
1F4
330
1ED
100
AcDbEntity
  8
Defpoints
 62
     0
100
AcDbPoint
 10
119.6584197846532
 20
24.17668775394921
 30
0.0
  0
POINT
  5
230
330
1ED
100
AcDbEntity
  8
Defpoints
 62
     0
100
AcDbPoint
 10
119.0211317506357
 20
24.94731344888685
 30
0.0
  0
ENDBLK
  5
1F5
330
1ED
100
AcDbEntity
  8
0
100
AcDbBlockEnd
  0
BLOCK
  5
1F9
330
1F8
100
AcDbEntity
  8
0
100
AcDbBlockBegin
  2
*D8
 70
     1
 10
0.0
 20
0.0
 30
0.0
  3
*D8
  1
*D20
  0
LINE
  5
1FA
330
1F8
100
AcDbEntity
  8
치수문자_일반주서
 62
     0
370
    -2
100
AcDbLine
 10
120.0836317506357
 20
43.94731344888685
 30
0.0
 11
136.2577258430566
 21
43.94731344888685
 31
0.0
  0
LINE
  5
1FB
330
1F8
100
AcDbEntity
  8
치수문자_일반주서
 62
     0
370
    -2
100
AcDbLine
 10
120.0836317506357
 20
23.94731344888685
 30
0.0
 11
136.2577258430566
 21
23.94731344888685
 31
0.0
  0
LINE
  5
1FC
330
1F8
100
AcDbEntity
  8
치수문자_일반주서
 62
     0
370
    -2
100
AcDbLine
 10
136.2577258430566
 20
43.94731344888685
 30
0.0
 11
136.2577258430566
 21
23.94731344888685
 31
0.0
  0
LINE
  5
1FD
330
1F8
100
AcDbEntity
  8
치수문자_일반주서
 62
     0
370
    -2
100
AcDbLine
 10
136.2577258430566
 20
47.94731344888685
 30
0.0
 11
136.2577258430566
 21
51.94731344888685
 31
0.0
  0
LINE
  5
1FE
330
1F8
100
AcDbEntity
  8
치수문자_일반주서
 62
     0
370
    -2
100
AcDbLine
 10
136.2577258430566
 20
19.94731344888685
 30
0.0
 11
136.2577258430566
 21
15.94731344888685
 31
0.0
  0
SOLID
  5
1FF
330
1F8
100
AcDbEntity
  8
치수문자_일반주서
 62
     0
100
AcDbTrace
 10
135.59105917639
 20
47.94731344888685
 30
0.0
 11
136.9243925097233
 21
47.94731344888685
 31
0.0
 12
136.2577258430566
 22
43.94731344888685
 32
0.0
 13
136.2577258430566
 23
43.94731344888685
 33
0.0
  0
SOLID
  5
200
330
1F8
100
AcDbEntity
  8
치수문자_일반주서
 62
     0
100
AcDbTrace
 10
136.9243925097233
 20
19.94731344888685
 30
0.0
 11
135.59105917639
 21
19.94731344888685
 31
0.0
 12
136.2577258430566
 22
23.94731344888685
 32
0.0
 13
136.2577258430566
 23
23.94731344888685
 33
0.0
  0
MTEXT
  5
201
330
1F8
100
AcDbEntity
  8
치수문자_일반주서
 62
     0
100
AcDbMText
 10
133.3827258430566
 20
33.94731344888685
 30
0.0
 40
4.0
 41
0.0
 71
     5
 72
     1
  1
\A1;{%%c20}
  7
SLDTEXTSTYLE0
 11
0.0
 21
1.0
 31
0.0
 73
     1
 44
1.0
  0
POINT
  5
202
330
1F8
100
AcDbEntity
  8
Defpoints
 62
     0
100
AcDbPoint
 10
120.0211317506357
 20
43.94731344888685
 30
0.0
  0
POINT
  5
203
330
1F8
100
AcDbEntity
  8
Defpoints
 62
     0
100
AcDbPoint
 10
120.0211317506357
 20
23.94731344888685
 30
0.0
  0
POINT
  5
204
330
1F8
100
AcDbEntity
  8
Defpoints
 62
     0
100
AcDbPoint
 10
136.2577258430566
 20
23.94731344888685
 30
0.0
  0
ENDBLK
  5
205
330
1F8
100
AcDbEntity
  8
0
100
AcDbBlockEnd
  0
BLOCK
  5
20B
330
20A
100
AcDbEntity
  8
0
100
AcDbBlockBegin
  2
*D9
 70
     1
 10
0.0
 20
0.0
 30
0.0
  3
*D9
  1
*D10
  0
LINE
  5
20D
330
20A
100
AcDbEntity
  8
치수문자_일반주서
 62
     0
370
    -2
100
AcDbLine
 10
16.02113175063572
 20
43.50981344888685
 30
0.0
 11
16.02113175063573
 21
78.60979761696561
 31
0.0
  0
LINE
  5
20E
330
20A
100
AcDbEntity
  8
치수문자_일반주서
 62
     0
370
    -2
100
AcDbLine
 10
120.0211317506357
 20
44.00981344888685
 30
0.0
 11
120.0211317506357
 21
78.60979761696561
 31
0.0
  0
LINE
  5
20F
330
20A
100
AcDbEntity
  8
치수문자_일반주서
 62
     0
370
    -2
100
AcDbLine
 10
20.02113175063573
 20
78.60979761696561
 30
0.0
 11
116.0211317506357
 21
78.60979761696561
 31
0.0
  0
SOLID
  5
210
330
20A
100
AcDbEntity
  8
치수문자_일반주서
 62
     0
100
AcDbTrace
 10
20.02113175063573
 20
79.27646428363228
 30
0.0
 11
20.02113175063573
 21
77.94313095029894
 31
0.0
 12
16.02113175063573
 22
78.60979761696561
 32
0.0
 13
16.02113175063573
 23
78.60979761696561
 33
0.0
  0
SOLID
  5
211
330
20A
100
AcDbEntity
  8
치수문자_일반주서
 62
     0
100
AcDbTrace
 10
116.0211317506357
 20
77.94313095029894
 30
0.0
 11
116.0211317506357
 21
79.27646428363228
 31
0.0
 12
120.0211317506357
 22
78.60979761696561
 32
0.0
 13
120.0211317506357
 23
78.60979761696561
 33
0.0
  0
MTEXT
  5
212
330
20A
100
AcDbEntity
  8
치수문자_일반주서
 62
     0
100
AcDbMText
 10
68.02113175063575
 20
83.48479761696561
 30
0.0
 40
4.0
 41
0.0
 71
     2
 72
     1
  1
\A1;104 [4.09]
  7
SLDTEXTSTYLE0
 73
     1
 44
1.0
  0
POINT
  5
213
330
20A
100
AcDbEntity
  8
Defpoints
 62
     0
100
AcDbPoint
 10
16.02113175063572
 20
43.44731344888685
 30
0.0
  0
POINT
  5
214
330
20A
100
AcDbEntity
  8
Defpoints
 62
     0
100
AcDbPoint
 10
120.0211317506357
 20
43.94731344888685
 30
0.0
  0
POINT
  5
215
330
20A
100
AcDbEntity
  8
Defpoints
 62
     0
100
AcDbPoint
 10
120.0211317506357
 20
78.60979761696561
 30
0.0
  0
ENDBLK
  5
20C
330
20A
100
AcDbEntity
  8
0
100
AcDbBlockEnd
  0
BLOCK
  5
217
330
216
100
AcDbEntity
  8
0
100
AcDbBlockBegin
  2
*D10
 70
     1
 10
0.0
 20
0.0
 30
0.0
  3
*D10
  1
*D11
  0
LINE
  5
219
330
216
100
AcDbEntity
  8
치수문자_일반주서
 62
     0
370
    -2
100
AcDbLine
 10
82.02101279996386
 20
33.65694216895067
 30
0.0
 11
82.02101279996386
 21
65.23491305159995
 31
0.0
  0
LINE
  5
21A
330
216
100
AcDbEntity
  8
치수문자_일반주서
 62
     0
370
    -2
100
AcDbLine
 10
120.0211317506357
 20
44.07231344888685
 30
0.0
 11
120.0211317506357
 21
65.23491305159995
 31
0.0
  0
LINE
  5
21B
330
216
100
AcDbEntity
  8
치수문자_일반주서
 62
     0
370
    -2
100
AcDbLine
 10
86.02101279996386
 20
65.23491305159995
 30
0.0
 11
116.0211317506357
 21
65.23491305159995
 31
0.0
  0
SOLID
  5
21C
330
216
100
AcDbEntity
  8
치수문자_일반주서
 62
     0
100
AcDbTrace
 10
86.02101279996386
 20
65.90157971826662
 30
0.0
 11
86.02101279996386
 21
64.56824638493327
 31
0.0
 12
82.02101279996386
 22
65.23491305159995
 32
0.0
 13
82.02101279996386
 23
65.23491305159995
 33
0.0
  0
SOLID
  5
21D
330
216
100
AcDbEntity
  8
치수문자_일반주서
 62
     0
100
AcDbTrace
 10
116.0211317506357
 20
64.56824638493327
 30
0.0
 11
116.0211317506357
 21
65.90157971826662
 31
0.0
 12
120.0211317506357
 22
65.23491305159995
 32
0.0
 13
120.0211317506357
 23
65.23491305159995
 33
0.0
  0
MTEXT
  5
21E
330
216
100
AcDbEntity
  8
치수문자_일반주서
 62
     0
100
AcDbMText
 10
101.0891571575877
 20
70.10991305159995
 30
0.0
 40
4.0
 41
0.0
 71
     2
 72
     1
  1
\A1;38 [1.50]
  7
SLDTEXTSTYLE0
 73
     1
 44
1.0
  0
POINT
  5
21F
330
216
100
AcDbEntity
  8
Defpoints
 62
     0
100
AcDbPoint
 10
82.02101279996386
 20
33.59444216895067
 30
0.0
  0
POINT
  5
220
330
216
100
AcDbEntity
  8
Defpoints
 62
     0
100
AcDbPoint
 10
120.0211317506357
 20
44.00981344888685
 30
0.0
  0
POINT
  5
221
330
216
100
AcDbEntity
  8
Defpoints
 62
     0
100
AcDbPoint
 10
120.0211317506357
 20
65.23491305159995
 30
0.0
  0
ENDBLK
  5
218
330
216
100
AcDbEntity
  8
0
100
AcDbBlockEnd
  0
BLOCK
  5
223
330
222
100
AcDbEntity
  8
0
100
AcDbBlockBegin
  2
*D11
 70
     1
 10
0.0
 20
0.0
 30
0.0
  3
*D11
  1
*D12
  0
LINE
  5
225
330
222
100
AcDbEntity
  8
치수문자_일반주서
 62
     0
370
    -2
100
AcDbLine
 10
16.45863175063572
 20
43.94731344888685
 30
0.0
 11
4.87499999999998
 21
43.94731344888681
 31
0.0
  0
LINE
  5
226
330
222
100
AcDbEntity
  8
치수문자_일반주서
 62
     0
370
    -2
100
AcDbLine
 10
16.45863175063572
 20
23.94731344888685
 30
0.0
 11
4.87500000000005
 21
23.94731344888681
 31
0.0
  0
LINE
  5
227
330
222
100
AcDbEntity
  8
치수문자_일반주서
 62
     0
370
    -2
100
AcDbLine
 10
4.87499999999998
 20
43.94731344888681
 30
0.0
 11
4.87500000000005
 21
23.94731344888681
 31
0.0
  0
LINE
  5
228
330
222
100
AcDbEntity
  8
치수문자_일반주서
 62
     0
370
    -2
100
AcDbLine
 10
4.874999999999965
 20
47.94731344888681
 30
0.0
 11
4.874999999999951
 21
51.94731344888681
 31
0.0
  0
LINE
  5
229
330
222
100
AcDbEntity
  8
치수문자_일반주서
 62
     0
370
    -2
100
AcDbLine
 10
4.875000000000064
 20
19.94731344888681
 30
0.0
 11
4.875000000000078
 21
15.94731344888681
 31
0.0
  0
SOLID
  5
22A
330
222
100
AcDbEntity
  8
치수문자_일반주서
 62
     0
100
AcDbTrace
 10
4.208333333333298
 20
47.94731344888681
 30
0.0
 11
5.541666666666632
 21
47.94731344888681
 31
0.0
 12
4.87499999999998
 22
43.94731344888681
 32
0.0
 13
4.87499999999998
 23
43.94731344888681
 33
0.0
  0
SOLID
  5
22B
330
222
100
AcDbEntity
  8
치수문자_일반주서
 62
     0
100
AcDbTrace
 10
5.541666666666731
 20
19.94731344888681
 30
0.0
 11
4.208333333333397
 21
19.94731344888681
 31
0.0
 12
4.87500000000005
 22
23.94731344888681
 32
0.0
 13
4.87500000000005
 23
23.94731344888681
 33
0.0
  0
MTEXT
  5
22C
330
222
100
AcDbEntity
  8
치수문자_일반주서
 62
     0
100
AcDbMText
 10
0.0000000000000142
 20
33.94731344888684
 30
0.0
 40
4.0
 41
0.0
 71
     2
 72
     1
  1
\A1;%%c20 [0.79]
  7
SLDTEXTSTYLE0
 11
-3.508304757815495E-15
 21
1.0
 31
0.0
 73
     1
 44
1.0
  0
POINT
  5
22D
330
222
100
AcDbEntity
  8
Defpoints
 62
     0
100
AcDbPoint
 10
16.52113175063572
 20
43.94731344888685
 30
0.0
  0
POINT
  5
22E
330
222
100
AcDbEntity
  8
Defpoints
 62
     0
100
AcDbPoint
 10
16.52113175063572
 20
23.94731344888685
 30
0.0
  0
POINT
  5
22F
330
222
100
AcDbEntity
  8
Defpoints
 62
     0
100
AcDbPoint
 10
4.875000000000057
 20
23.94731344888681
 30
0.0
  0
ENDBLK
  5
224
330
222
100
AcDbEntity
  8
0
100
AcDbBlockEnd
  0
BLOCK
  5
27E
330
27D
100
AcDbEntity
  8
0
100
AcDbBlockBegin
  2
*D12
 70
     1
 10
0.0
 20
0.0
 30
0.0
  3
*D12
  1
*D13
  0
LINE
  5
280
330
27D
100
AcDbEntity
  8
치수문자_일반주서
 62
     0
370
    -2
100
AcDbLine
 10
-36.96806180865696
 20
113.2563304024042
 30
0.0
 11
-36.96806180865696
 21
148.356314570483
 31
0.0
  0
LINE
  5
281
330
27D
100
AcDbEntity
  8
치수문자_일반주서
 62
     0
370
    -2
100
AcDbLine
 10
67.03193819134304
 20
113.7563304024042
 30
0.0
 11
67.03193819134304
 21
148.356314570483
 31
0.0
  0
LINE
  5
282
330
27D
100
AcDbEntity
  8
치수문자_일반주서
 62
     0
370
    -2
100
AcDbLine
 10
-32.96806180865696
 20
148.356314570483
 30
0.0
 11
63.03193819134304
 21
148.356314570483
 31
0.0
  0
SOLID
  5
283
330
27D
100
AcDbEntity
  8
치수문자_일반주서
 62
     0
100
AcDbTrace
 10
-32.96806180865696
 20
149.0229812371497
 30
0.0
 11
-32.96806180865696
 21
147.6896479038163
 31
0.0
 12
-36.96806180865696
 22
148.356314570483
 32
0.0
 13
-36.96806180865696
 23
148.356314570483
 33
0.0
  0
SOLID
  5
284
330
27D
100
AcDbEntity
  8
치수문자_일반주서
 62
     0
100
AcDbTrace
 10
63.03193819134304
 20
147.6896479038163
 30
0.0
 11
63.03193819134304
 21
149.0229812371497
 31
0.0
 12
67.03193819134304
 22
148.356314570483
 32
0.0
 13
67.03193819134304
 23
148.356314570483
 33
0.0
  0
MTEXT
  5
285
330
27D
100
AcDbEntity
  8
치수문자_일반주서
 62
     0
100
AcDbMText
 10
15.03193819134306
 20
153.231314570483
 30
0.0
 40
4.0
 41
0.0
 71
     2
 72
     1
  1
\A1;104 [4.09]
  7
SLDTEXTSTYLE0
 73
     1
 44
1.0
  0
POINT
  5
286
330
27D
100
AcDbEntity
  8
Defpoints
 62
     0
100
AcDbPoint
 10
-36.96806180865696
 20
113.1938304024042
 30
0.0
  0
POINT
  5
287
330
27D
100
AcDbEntity
  8
Defpoints
 62
     0
100
AcDbPoint
 10
67.03193819134304
 20
113.6938304024042
 30
0.0
  0
POINT
  5
288
330
27D
100
AcDbEntity
  8
Defpoints
 62
     0
100
AcDbPoint
 10
67.03193819134304
 20
148.356314570483
 30
0.0
  0
ENDBLK
  5
27F
330
27D
100
AcDbEntity
  8
0
100
AcDbBlockEnd
  0
BLOCK
  5
28A
330
289
100
AcDbEntity
  8
0
100
AcDbBlockBegin
  2
*D13
 70
     1
 10
0.0
 20
0.0
 30
0.0
  3
*D13
  1
*D14
  0
LINE
  5
28C
330
289
100
AcDbEntity
  8
치수문자_일반주서
 62
     0
370
    -2
100
AcDbLine
 10
29.03181924067117
 20
103.4034591224681
 30
0.0
 11
29.03181924067117
 21
134.9814300051173
 31
0.0
  0
LINE
  5
28D
330
289
100
AcDbEntity
  8
치수문자_일반주서
 62
     0
370
    -2
100
AcDbLine
 10
67.03193819134304
 20
113.8188304024042
 30
0.0
 11
67.03193819134304
 21
134.9814300051173
 31
0.0
  0
LINE
  5
28E
330
289
100
AcDbEntity
  8
치수문자_일반주서
 62
     0
370
    -2
100
AcDbLine
 10
33.03181924067117
 20
134.9814300051173
 30
0.0
 11
63.03193819134304
 21
134.9814300051173
 31
0.0
  0
SOLID
  5
28F
330
289
100
AcDbEntity
  8
치수문자_일반주서
 62
     0
100
AcDbTrace
 10
33.03181924067117
 20
135.648096671784
 30
0.0
 11
33.03181924067117
 21
134.3147633384507
 31
0.0
 12
29.03181924067117
 22
134.9814300051173
 32
0.0
 13
29.03181924067117
 23
134.9814300051173
 33
0.0
  0
SOLID
  5
290
330
289
100
AcDbEntity
  8
치수문자_일반주서
 62
     0
100
AcDbTrace
 10
63.03193819134304
 20
134.3147633384507
 30
0.0
 11
63.03193819134304
 21
135.648096671784
 31
0.0
 12
67.03193819134304
 22
134.9814300051173
 32
0.0
 13
67.03193819134304
 23
134.9814300051173
 33
0.0
  0
MTEXT
  5
291
330
289
100
AcDbEntity
  8
치수문자_일반주서
 62
     0
100
AcDbMText
 10
48.09996359829503
 20
139.8564300051173
 30
0.0
 40
4.0
 41
0.0
 71
     2
 72
     1
  1
\A1;38 [1.50]
  7
SLDTEXTSTYLE0
 73
     1
 44
1.0
  0
POINT
  5
292
330
289
100
AcDbEntity
  8
Defpoints
 62
     0
100
AcDbPoint
 10
29.03181924067117
 20
103.3409591224681
 30
0.0
  0
POINT
  5
293
330
289
100
AcDbEntity
  8
Defpoints
 62
     0
100
AcDbPoint
 10
67.03193819134304
 20
113.7563304024042
 30
0.0
  0
POINT
  5
294
330
289
100
AcDbEntity
  8
Defpoints
 62
     0
100
AcDbPoint
 10
67.03193819134304
 20
134.9814300051173
 30
0.0
  0
ENDBLK
  5
28B
330
289
100
AcDbEntity
  8
0
100
AcDbBlockEnd
  0
BLOCK
  5
296
330
295
100
AcDbEntity
  8
0
100
AcDbBlockBegin
  2
*D14
 70
     1
 10
0.0
 20
0.0
 30
0.0
  3
*D14
  1
*D15
  0
LINE
  5
298
330
295
100
AcDbEntity
  8
치수문자_일반주서
 62
     0
370
    -2
100
AcDbLine
 10
-36.53056180865696
 20
113.6938304024042
 30
0.0
 11
-48.11419355929271
 21
113.6938304024042
 31
0.0
  0
LINE
  5
299
330
295
100
AcDbEntity
  8
치수문자_일반주서
 62
     0
370
    -2
100
AcDbLine
 10
-36.53056180865696
 20
93.69383040240425
 30
0.0
 11
-48.11419355929264
 21
93.6938304024042
 31
0.0
  0
LINE
  5
29A
330
295
100
AcDbEntity
  8
치수문자_일반주서
 62
     0
370
    -2
100
AcDbLine
 10
-48.11419355929271
 20
113.6938304024042
 30
0.0
 11
-48.11419355929264
 21
93.6938304024042
 31
0.0
  0
LINE
  5
29B
330
295
100
AcDbEntity
  8
치수문자_일반주서
 62
     0
370
    -2
100
AcDbLine
 10
-48.11419355929272
 20
117.6938304024042
 30
0.0
 11
-48.11419355929274
 21
121.6938304024042
 31
0.0
  0
LINE
  5
29C
330
295
100
AcDbEntity
  8
치수문자_일반주서
 62
     0
370
    -2
100
AcDbLine
 10
-48.11419355929262
 20
89.6938304024042
 30
0.0
 11
-48.11419355929261
 21
85.6938304024042
 31
0.0
  0
SOLID
  5
29D
330
295
100
AcDbEntity
  8
치수문자_일반주서
 62
     0
100
AcDbTrace
 10
-48.78086022595939
 20
117.6938304024042
 30
0.0
 11
-47.44752689262606
 21
117.6938304024042
 31
0.0
 12
-48.11419355929271
 22
113.6938304024042
 32
0.0
 13
-48.11419355929271
 23
113.6938304024042
 33
0.0
  0
SOLID
  5
29E
330
295
100
AcDbEntity
  8
치수문자_일반주서
 62
     0
100
AcDbTrace
 10
-47.44752689262596
 20
89.6938304024042
 30
0.0
 11
-48.78086022595929
 21
89.6938304024042
 31
0.0
 12
-48.11419355929264
 22
93.6938304024042
 32
0.0
 13
-48.11419355929264
 23
93.6938304024042
 33
0.0
  0
MTEXT
  5
29F
330
295
100
AcDbEntity
  8
치수문자_일반주서
 62
     0
100
AcDbMText
 10
-52.98919355929267
 20
103.6938304024042
 30
0.0
 40
4.0
 41
0.0
 71
     2
 72
     1
  1
\A1;%%c20 [0.79]
  7
SLDTEXTSTYLE0
 11
-3.552713678800501E-15
 21
1.0
 31
0.0
 73
     1
 44
1.0
  0
POINT
  5
2A0
330
295
100
AcDbEntity
  8
Defpoints
 62
     0
100
AcDbPoint
 10
-36.46806180865696
 20
113.6938304024042
 30
0.0
  0
POINT
  5
2A1
330
295
100
AcDbEntity
  8
Defpoints
 62
     0
100
AcDbPoint
 10
-36.46806180865696
 20
93.69383040240425
 30
0.0
  0
POINT
  5
2A2
330
295
100
AcDbEntity
  8
Defpoints
 62
     0
100
AcDbPoint
 10
-48.11419355929264
 20
93.6938304024042
 30
0.0
  0
ENDBLK
  5
297
330
295
100
AcDbEntity
  8
0
100
AcDbBlockEnd
  0
BLOCK
  5
2A4
330
2A3
100
AcDbEntity
  8
0
100
AcDbBlockBegin
  2
*D15
 70
     1
 10
0.0
 20
0.0
 30
0.0
  3
*D15
  1
*D16
  0
LINE
  5
2A6
330
2A3
100
AcDbEntity
  8
치수문자_일반주서
 62
     0
370
    -2
100
AcDbLine
 10
69.21837836143047
 20
90.84070192771601
 30
0.0
 11
92.71697419624778
 21
62.42557285160954
 31
0.0
  0
MTEXT
  5
2A7
330
2A3
100
AcDbEntity
  8
치수문자_일반주서
 62
     0
100
AcDbMText
 10
87.04608364822714
 20
73.79426892426318
 30
0.0
 40
4.0
 41
0.0
 71
     5
 72
     1
  1
\A1;R1 [R0.04]
  7
SLDTEXTSTYLE0
 11
0.6372880340174844
 21
-0.7706256949376459
 31
0.0
 73
     1
 44
1.0
  0
SOLID
  5
2A8
330
2A3
100
AcDbEntity
  8
치수문자_일반주서
 62
     0
100
AcDbTrace
 10
69.73212882472222
 20
91.265560617061
 30
0.0
 11
68.70462789813871
 21
90.41584323837102
 31
0.0
 12
66.66922622536053
 22
93.9232047074666
 32
0.0
 13
66.66922622536053
 23
93.9232047074666
 33
0.0
  0
LINE
  5
2A9
330
2A3
100
AcDbEntity
  8
치수문자_일반주서
 62
     0
100
AcDbLine
 10
65.94193819134304
 20
94.69383040240425
 30
0.0
 11
66.12193819134305
 21
94.69383040240425
 31
0.0
  0
LINE
  5
2AA
330
2A3
100
AcDbEntity
  8
치수문자_일반주서
 62
     0
100
AcDbLine
 10
66.03193819134304
 20
94.60383040240424
 30
0.0
 11
66.03193819134304
 21
94.78383040240425
 31
0.0
  0
POINT
  5
2AB
330
2A3
100
AcDbEntity
  8
Defpoints
 62
     0
100
AcDbPoint
 10
66.66922622536053
 20
93.9232047074666
 30
0.0
  0
POINT
  5
2AC
330
2A3
100
AcDbEntity
  8
Defpoints
 62
     0
100
AcDbPoint
 10
66.03193819134304
 20
94.69383040240425
 30
0.0
  0
ENDBLK
  5
2A5
330
2A3
100
AcDbEntity
  8
0
100
AcDbBlockEnd
  0
BLOCK
  5
2AE
330
2AD
100
AcDbEntity
  8
0
100
AcDbBlockBegin
  2
*D16
 70
     1
 10
0.0
 20
0.0
 30
0.0
  3
*D16
  1
*D17
  0
LINE
  5
2B0
330
2AD
100
AcDbEntity
  8
치수문자_일반주서
 62
     0
370
    -2
100
AcDbLine
 10
67.09443819134304
 20
113.6938304024042
 30
0.0
 11
83.26853228376393
 21
113.6938304024042
 31
0.0
  0
LINE
  5
2B1
330
2AD
100
AcDbEntity
  8
치수문자_일반주서
 62
     0
370
    -2
100
AcDbLine
 10
67.09443819134304
 20
93.69383040240425
 30
0.0
 11
83.26853228376393
 21
93.69383040240425
 31
0.0
  0
LINE
  5
2B2
330
2AD
100
AcDbEntity
  8
치수문자_일반주서
 62
     0
370
    -2
100
AcDbLine
 10
83.26853228376393
 20
113.6938304024042
 30
0.0
 11
83.26853228376393
 21
93.69383040240425
 31
0.0
  0
LINE
  5
2B3
330
2AD
100
AcDbEntity
  8
치수문자_일반주서
 62
     0
370
    -2
100
AcDbLine
 10
83.26853228376393
 20
117.6938304024042
 30
0.0
 11
83.26853228376393
 21
121.6938304024042
 31
0.0
  0
LINE
  5
2B4
330
2AD
100
AcDbEntity
  8
치수문자_일반주서
 62
     0
370
    -2
100
AcDbLine
 10
83.26853228376393
 20
89.69383040240425
 30
0.0
 11
83.26853228376393
 21
85.69383040240425
 31
0.0
  0
SOLID
  5
2B5
330
2AD
100
AcDbEntity
  8
치수문자_일반주서
 62
     0
100
AcDbTrace
 10
82.60186561709726
 20
117.6938304024042
 30
0.0
 11
83.9351989504306
 21
117.6938304024042
 31
0.0
 12
83.26853228376393
 22
113.6938304024042
 32
0.0
 13
83.26853228376393
 23
113.6938304024042
 33
0.0
  0
SOLID
  5
2B6
330
2AD
100
AcDbEntity
  8
치수문자_일반주서
 62
     0
100
AcDbTrace
 10
83.9351989504306
 20
89.69383040240425
 30
0.0
 11
82.60186561709726
 21
89.69383040240425
 31
0.0
 12
83.26853228376393
 22
93.69383040240425
 32
0.0
 13
83.26853228376393
 23
93.69383040240425
 33
0.0
  0
MTEXT
  5
2B7
330
2AD
100
AcDbEntity
  8
치수문자_일반주서
 62
     0
100
AcDbMText
 10
80.39353228376393
 20
103.6938304024042
 30
0.0
 40
4.0
 41
0.0
 71
     5
 72
     1
  1
\A1;{%%c20}
  7
SLDTEXTSTYLE0
 11
0.0
 21
1.0
 31
0.0
 73
     1
 44
1.0
  0
POINT
  5
2B8
330
2AD
100
AcDbEntity
  8
Defpoints
 62
     0
100
AcDbPoint
 10
67.03193819134304
 20
113.6938304024042
 30
0.0
  0
POINT
  5
2B9
330
2AD
100
AcDbEntity
  8
Defpoints
 62
     0
100
AcDbPoint
 10
67.03193819134304
 20
93.69383040240425
 30
0.0
  0
POINT
  5
2BA
330
2AD
100
AcDbEntity
  8
Defpoints
 62
     0
100
AcDbPoint
 10
83.26853228376393
 20
93.69383040240425
 30
0.0
  0
ENDBLK
  5
2AF
330
2AD
100
AcDbEntity
  8
0
100
AcDbBlockEnd
  0
BLOCK
  5
2C7
330
2C6
100
AcDbEntity
  8
0
100
AcDbBlockBegin
  2
*D17
 70
     1
 10
0.0
 20
0.0
 30
0.0
  3
*D17
  1
*D18
  0
LINE
  5
2C9
330
2C6
100
AcDbEntity
  8
치수문자_일반주서
 62
     0
370
    -2
100
AcDbLine
 10
52.31297754478855
 20
-12.67450159285231
 30
0.0
 11
73.48045009128268
 21
-41.48423269179555
 31
0.0
  0
MTEXT
  5
2CA
330
2C6
100
AcDbEntity
  8
치수문자_일반주서
 62
     0
100
AcDbMText
 10
66.39777457334891
 20
-26.98882108992438
 30
0.0
 40
4.0
 41
0.0
 71
     5
 72
     1
  1
\A1;R.38 [R0.015]
  7
SLDTEXTSTYLE0
 11
0.5920971341676681
 21
-0.8058666041662444
 31
0.0
 73
     1
 44
1.0
  0
SOLID
  5
2CB
330
2C6
100
AcDbEntity
  8
치수문자_일반주서
 62
     0
100
AcDbTrace
 10
52.85022194756605
 20
-12.27977017007387
 30
0.0
 11
51.77573314201106
 21
-13.06923301563076
 31
0.0
 12
49.94458900811788
 22
-9.451035176187334
 32
0.0
 13
49.94458900811788
 23
-9.451035176187334
 33
0.0
  0
LINE
  5
2CC
330
2C6
100
AcDbEntity
  8
치수문자_일반주서
 62
     0
100
AcDbLine
 10
49.629
 20
-9.143999999999998
 30
0.0
 11
49.809
 21
-9.143999999999998
 31
0.0
  0
LINE
  5
2CD
330
2C6
100
AcDbEntity
  8
치수문자_일반주서
 62
     0
100
AcDbLine
 10
49.719
 20
-9.233999999999998
 30
0.0
 11
49.719
 21
-9.053999999999998
 31
0.0
  0
POINT
  5
2CE
330
2C6
100
AcDbEntity
  8
Defpoints
 62
     0
100
AcDbPoint
 10
49.94458900811788
 20
-9.451035176187334
 30
0.0
  0
POINT
  5
2CF
330
2C6
100
AcDbEntity
  8
Defpoints
 62
     0
100
AcDbPoint
 10
49.719
 20
-9.143999999999998
 30
0.0
  0
ENDBLK
  5
2C8
330
2C6
100
AcDbEntity
  8
0
100
AcDbBlockEnd
  0
BLOCK
  5
300
330
2FF
100
AcDbEntity
  8
0
100
AcDbBlockBegin
  2
*D18
 70
     1
 10
0.0
 20
0.0
 30
0.0
  3
*D18
  1
*D18
  0
LINE
  5
302
330
2FF
100
AcDbEntity
  8
치수문자_일반주서
 62
     0
370
    -2
100
AcDbLine
 10
52.37384563368882
 20
-12.43182614584182
 30
0.0
 11
77.07754540383615
 21
-42.2863018181162
 31
0.0
  0
MTEXT
  5
303
330
2FF
100
AcDbEntity
  8
치수문자_일반주서
 62
     0
100
AcDbMText
 10
69.80952175162575
 20
-28.99318020613543
 30
0.0
 40
4.0
 41
0.0
 71
     5
 72
     1
  1
\A1;R.76 [R0.03]
  7
SLDTEXTSTYLE0
 11
0.6375148327779957
 21
-0.7704380818651453
 31
0.0
 73
     1
 44
1.0
  0
SOLID
  5
304
330
2FF
100
AcDbEntity
  8
치수문자_일반주서
 62
     0
100
AcDbTrace
 10
52.88747102159891
 20
-12.00681625732316
 30
0.0
 11
51.86022024577872
 21
-12.85683603436049
 31
0.0
 12
49.82378630257683
 22
-9.35007381838124
 32
0.0
 13
49.82378630257683
 23
-9.35007381838124
 33
0.0
  0
LINE
  5
305
330
2FF
100
AcDbEntity
  8
치수문자_일반주서
 62
     0
100
AcDbLine
 10
49.248
 20
-8.762999999999998
 30
0.0
 11
49.428
 21
-8.762999999999998
 31
0.0
  0
LINE
  5
306
330
2FF
100
AcDbEntity
  8
치수문자_일반주서
 62
     0
100
AcDbLine
 10
49.338
 20
-8.852999999999998
 30
0.0
 11
49.338
 21
-8.672999999999998
 31
0.0
  0
POINT
  5
307
330
2FF
100
AcDbEntity
  8
Defpoints
 62
     0
100
AcDbPoint
 10
49.82378630257683
 20
-9.35007381838124
 30
0.0
  0
POINT
  5
308
330
2FF
100
AcDbEntity
  8
Defpoints
 62
     0
100
AcDbPoint
 10
49.338
 20
-8.762999999999998
 30
0.0
  0
ENDBLK
  5
301
330
2FF
100
AcDbEntity
  8
0
100
AcDbBlockEnd
  0
ENDSEC
  0
SECTION
  2
ENTITIES
  0
LINE
  5
96
330
1F
100
AcDbEntity
  8
0
  6
Continuous
 62
     1
370
    15
100
AcDbLine
 10
46.54335293995633
 20
2.828310463006266
 30
0.0
 11
46.48936817522308
 21
2.857494717665959
 31
0.0
  0
LINE
  5
97
330
1F
100
AcDbEntity
  8
0
  6
Continuous
 62
     1
370
    15
100
AcDbLine
 10
31.40832345031463
 20
9.525000000000011
 30
0.0
 11
25.60070225314809
 21
9.525000000000011
 31
0.0
  0
LINE
  5
98
330
1F
100
AcDbEntity
  8
0
  6
Continuous
 62
     1
370
    15
100
AcDbLine
 10
25.60070225314797
 20
-9.525000000000007
 30
0.0
 11
31.40832345031465
 21
-9.525000000000007
 31
0.0
  0
LINE
  5
99
330
1F
100
AcDbEntity
  8
외형선
  6
Continuous
370
    15
100
AcDbLine
 10
-49.595
 20
-9.524999999999999
 30
0.0
 11
10.99983513694396
 21
-9.524999999999999
 31
0.0
  0
LINE
  5
9A
330
1F
100
AcDbEntity
  8
외형선
  6
Continuous
370
    15
100
AcDbLine
 10
10.99983513694396
 20
9.525000000000002
 30
0.0
 11
-49.595
 21
9.525000000000002
 31
0.0
  0
LINE
  5
9B
330
1F
100
AcDbEntity
  8
외형선
  6
Continuous
370
    15
100
AcDbLine
 10
-49.595
 20
9.525000000000004
 30
0.0
 11
-51.5
 21
7.620000000000011
 31
0.0
  0
LINE
  5
9C
330
1F
100
AcDbEntity
  8
외형선
  6
Continuous
370
    15
100
AcDbLine
 10
-51.5
 20
-7.620000000000008
 30
0.0
 11
-49.595
 21
-9.525
 31
0.0
  0
LINE
  5
9D
330
1F
100
AcDbEntity
  8
0
  6
Continuous
 62
     1
370
    15
100
AcDbLine
 10
50.1
 20
-8.325781134176188
 30
0.0
 11
50.1
 21
0.8886611341762981
 31
0.0
  0
SPLINE
  5
9E
330
1F
100
AcDbEntity
  8
0
  6
Continuous
 62
     1
370
    15
100
AcDbSpline
210
0.0
220
0.0
230
1.0
 70
     8
 71
     3
 72
    10
 73
     6
 74
     0
 42
0.000000001
 43
0.00000001
 40
0.0
 40
0.0
 40
0.0
 40
0.0
 40
0.5
 40
0.5
 40
1.0
 40
1.0
 40
1.0
 40
1.0
 10
49.71899999999997
 20
-8.530881278959919
 30
0.0
 10
49.8188780050262
 20
-8.556555490611899
 30
0.0
 10
49.91036914209871
 20
-8.551283460427056
 30
0.0
 10
50.0515829779871
 20
-8.481926351627472
 30
0.0
 10
50.10000000000007
 20
-8.416326453184757
 30
0.0
 10
50.10000000000007
 20
-8.325781134176186
 30
0.0
  0
SPLINE
  5
9F
330
1F
100
AcDbEntity
  8
0
  6
Continuous
 62
     1
370
    15
100
AcDbSpline
210
0.0
220
0.0
230
1.0
 70
     8
 71
     3
 72
    52
 73
    48
 74
     0
 42
0.000000001
 43
0.00000001
 40
0.0
 40
0.0
 40
0.0
 40
0.0
 40
0.0624999999999995
 40
0.0624999999999995
 40
0.0937499999999992
 40
0.0937499999999992
 40
0.1249999999999989
 40
0.1249999999999989
 40
0.1874999999999984
 40
0.1874999999999984
 40
0.2187499999999981
 40
0.2187499999999981
 40
0.2499999999999979
 40
0.2499999999999979
 40
0.3124999999999974
 40
0.3124999999999974
 40
0.3749999999999969
 40
0.3749999999999969
 40
0.4062499999999967
 40
0.4062499999999967
 40
0.4374999999999964
 40
0.4374999999999964
 40
0.4999999999999959
 40
0.4999999999999959
 40
0.5312499999999957
 40
0.5312499999999957
 40
0.5624999999999954
 40
0.5624999999999954
 40
0.6249999999999949
 40
0.6249999999999949
 40
0.6562499999999951
 40
0.6562499999999951
 40
0.6874999999999952
 40
0.6874999999999952
 40
0.7499999999999956
 40
0.7499999999999956
 40
0.7812499999999961
 40
0.7812499999999961
 40
0.8124999999999966
 40
0.8124999999999966
 40
0.8749999999999977
 40
0.8749999999999977
 40
0.9374999999999988
 40
0.9374999999999988
 40
0.9687499999999993
 40
0.9687499999999993
 40
1.0
 40
1.0
 40
1.0
 40
1.0
 10
49.71900000000002
 20
-8.530881278959926
 30
0.0
 10
48.93435964075692
 20
-8.329184993089944
 30
0.0
 10
48.14388230206577
 20
-8.097842818265212
 30
0.0
 10
46.9674782156219
 20
-7.711668045218674
 30
0.0
 10
46.57628314036041
 20
-7.576392629283379
 30
0.0
 10
45.78974467761076
 20
-7.292701107299178
 30
0.0
 10
45.39563716160767
 20
-7.144417802613691
 30
0.0
 10
44.21532514234227
 20
-6.681950097462211
 30
0.0
 10
43.43357814755691
 20
-6.350530506618932
 30
0.0
 10
42.2524644975636
 20
-5.821515589028597
 30
0.0
 10
41.85854593427988
 20
-5.640029564401936
 30
0.0
 10
41.07329289684531
 20
-5.268177425164192
 30
0.0
 10
40.68262902807758
 20
-5.077932082061283
 30
0.0
 10
39.50382708495595
 20
-4.493631881404216
 30
0.0
 10
38.71357144162551
 20
-4.086679562776212
 30
0.0
 10
37.1483523898748
 20
-3.25045610065473
 30
0.0
 10
36.35851545424651
 20
-2.818553507683272
 30
0.0
 10
35.17942952638388
 20
-2.159535697727256
 30
0.0
 10
34.78868741917751
 20
-1.938268394410818
 30
0.0
 10
34.0036698263824
 20
-1.49215440877329
 30
0.0
 10
33.60980238851186
 20
-1.267380180081905
 30
0.0
 10
32.42864037418315
 20
-0.5904744174090416
 30
0.0
 10
31.64675961069091
 20
-0.1367220244479714
 30
0.0
 10
30.46663527215108
 20
0.5436925716732086
 30
0.0
 10
30.07252324333875
 20
0.7703686946394456
 30
0.0
 10
29.28584172368686
 20
1.221728282816865
 30
0.0
 10
28.89441199279729
 20
1.446194939476639
 30
0.0
 10
27.71842998580345
 20
2.115664567430304
 30
0.0
 10
26.92796707886043
 20
2.557496968168019
 30
0.0
 10
25.75062666897242
 20
3.203412358450358
 30
0.0
 10
25.35982950050985
 20
3.415880724036778
 30
0.0
 10
24.57368068762242
 20
3.835468184978065
 30
0.0
 10
24.17960816075485
 20
4.042349902481628
 30
0.0
 10
22.99892026625962
 20
4.651871180303567
 30
0.0
 10
22.2173537891178
 20
5.04281994839815
 30
0.0
 10
21.03642801024955
 20
5.602959010303428
 30
0.0
 10
20.64241155522686
 20
5.785111431814611
 30
0.0
 10
19.85664419296524
 20
6.138919643648392
 30
0.0
 10
19.46600466027064
 20
6.310425178824072
 30
0.0
 10
18.28795268525665
 20
6.809315892186476
 30
0.0
 10
17.49755556661918
 20
7.12046818072245
 30
0.0
 10
15.93078485861812
 20
7.690527086465647
 30
0.0
 10
15.14264725027144
 20
7.950892545040714
 30
0.0
 10
13.96295526093019
 20
8.299259224141878
 30
0.0
 10
13.57186390050484
 20
8.408214916600684
 30
0.0
 10
12.78745623318424
 20
8.611876176528279
 30
0.0
 10
12.39373502775985
 20
8.70659747854081
 30
0.0
 10
12.0
 20
8.7938185985993
 30
0.0
  0
SPLINE
  5
A0
330
1F
100
AcDbEntity
  8
0
  6
Continuous
 62
     1
370
    15
100
AcDbSpline
210
0.0
220
0.0
230
1.0
 70
     8
 71
     3
 72
    21
 73
    17
 74
     0
 42
0.000000001
 43
0.00000001
 40
0.0
 40
0.0
 40
0.0
 40
0.0
 40
0.0692867723025997
 40
0.1385267356167256
 40
0.2077327476798416
 40
0.2769477460325706
 40
0.3462145963151224
 40
0.4142486228274767
 40
0.4822250614437437
 40
0.5501951917429013
 40
0.6182103977898449
 40
0.6991837365271072
 40
0.7801474180419069
 40
0.8610990483642301
 40
0.9420416519781324
 40
1.0
 40
1.0
 40
1.0
 40
1.0
 10
49.71899999999999
 20
1.035448429654243
 30
0.0
 10
48.9297539301206
 20
1.486058393446669
 30
0.0
 10
47.35179499185119
 20
2.386973896450891
 30
0.0
 10
44.98592632846157
 20
3.683985791104528
 30
0.0
 10
42.62112560852794
 20
4.906857968169994
 30
0.0
 10
40.25599296362109
 20
6.02868460695534
 30
0.0
 10
37.90369315215991
 20
7.020575083238483
 30
0.0
 10
35.56546894400598
 20
7.865238419980795
 30
0.0
 10
33.24260946515717
 20
8.549462139257303
 30
0.0
 10
30.91997824887189
 20
9.06424486631593
 30
0.0
 10
28.44892784101599
 20
9.420820033589306
 30
0.0
 10
25.82951940732036
 20
9.568465988964467
 30
0.0
 10
23.06294035096348
 20
9.458124177472056
 30
0.0
 10
20.29677134928783
 20
9.074693533904084
 30
0.0
 10
17.79269294943255
 20
8.5236431477953
 30
0.0
 10
16.21066389828343
 20
8.005367056262228
 30
0.0
 10
15.5505403408319
 20
7.78910917083568
 30
0.0
  0
SPLINE
  5
A1
330
1F
100
AcDbEntity
  8
0
  6
Continuous
 62
     1
370
    15
100
AcDbSpline
210
0.0
220
0.0
230
1.0
 70
     8
 71
     3
 72
    10
 73
     6
 74
     0
 42
0.000000001
 43
0.00000001
 40
0.0
 40
0.0
 40
0.0
 40
0.0
 40
0.5
 40
0.5
 40
1.0
 40
1.0
 40
1.0
 40
1.0
 10
50.1
 20
0.8886611341763078
 30
0.0
 10
50.1
 20
0.8729775304893608
 30
0.0
 10
50.05485488437807
 20
0.8785064811169585
 30
0.0
 10
49.90669091925893
 20
0.9349289720213846
 30
0.0
 10
49.80995158512508
 20
0.9831976693323629
 30
0.0
 10
49.71899999999997
 20
1.035448429654244
 30
0.0
  0
SPLINE
  5
A2
330
1F
100
AcDbEntity
  8
0
  6
Continuous
 62
     1
370
    15
100
AcDbSpline
210
0.0
220
0.0
230
1.0
 70
     8
 71
     3
 72
    20
 73
    16
 74
     0
 42
0.000000001
 43
0.00000001
 40
0.0
 40
0.0
 40
0.0
 40
0.0
 40
0.0801924530599465
 40
0.1604339154046362
 40
0.2407109301344451
 40
0.3209212815722489
 40
0.4011078741750769
 40
0.4798896304113044
 40
0.5587410266101838
 40
0.6375371245316526
 40
0.7162908822473538
 40
0.810070691051958
 40
0.9038566499599988
 40
0.9976522806220334
 40
1.0
 40
1.0
 40
1.0
 40
1.0
 10
11.99999999999999
 20
-3.659833255071861
 30
0.0
 10
12.78814516925306
 20
-4.072863330202137
 30
0.0
 10
14.36491717940715
 20
-4.899175902078282
 30
0.0
 10
16.73099919433289
 20
-6.017711602049078
 30
0.0
 10
19.09765693920379
 20
-7.017726325250523
 30
0.0
 10
21.4630986291255
 20
-7.872844360140155
 30
0.0
 10
23.81379505608736
 20
-8.562426741072734
 30
0.0
 10
26.15116775157618
 20
-9.075676121387215
 30
0.0
 10
28.47562668498693
 20
-9.405778567509035
 30
0.0
 10
30.79923029594659
 20
-9.550245706382348
 30
0.0
 10
33.26915575233821
 20
-9.501236108517785
 30
0.0
 10
35.88716447548851
 20
-9.223329139828321
 30
0.0
 10
38.65285109201128
 20
-8.646000701761986
 30
0.0
 10
40.51984978728952
 20
-8.155455679495832
 30
0.0
 10
41.46496809220633
 20
-7.807481188955061
 30
0.0
 10
41.48804688609068
 20
-7.798984018280846
 30
0.0
  0
SPLINE
  5
A3
330
1F
100
AcDbEntity
  8
외형선
  6
Continuous
370
    15
100
AcDbSpline
210
0.0
220
0.0
230
1.0
 70
    24
 71
     3
 72
    26
 73
    22
 74
     0
 42
0.000000001
 43
0.00000001
 40
0.0
 40
0.0
 40
0.0
 40
0.0
 40
0.1250000000000001
 40
0.1250000000000001
 40
0.2500000000000003
 40
0.2500000000000003
 40
0.3750000000000004
 40
0.3750000000000004
 40
0.5000000000000003
 40
0.5000000000000003
 40
0.6250000000000002
 40
0.6250000000000002
 40
0.6875000000000002
 40
0.6875000000000002
 40
0.7500000000000002
 40
0.7500000000000002
 40
0.8125000000000001
 40
0.8125000000000001
 40
0.8750000000000001
 40
0.8750000000000001
 40
1.0
 40
1.0
 40
1.0
 40
1.0
 10
11.99999999999999
 20
6.992637492342824
 30
0.0
 10
11.99999999999999
 20
6.764159880046649
 30
0.0
 10
11.99999999999996
 20
6.511092443071641
 30
0.0
 10
11.99999999999999
 20
6.001713806883191
 30
0.0
 10
11.99999999999999
 20
5.693798594118278
 30
0.0
 10
11.99999999999997
 20
4.940266201480052
 30
0.0
 10
11.99999999999997
 20
4.49361006556197
 30
0.0
 10
11.99999999999997
 20
3.450457745486573
 30
0.0
 10
11.99999999999999
 20
2.85255762929645
 30
0.0
 10
11.99999999999999
 20
1.553679027078392
 30
0.0
 10
11.99999999999999
 20
0.8528415264193505
 30
0.0
 10
11.99999999999999
 20
-0.1754249534729836
 30
0.0
 10
11.99999999999999
 20
-0.5136661469610888
 30
0.0
 10
12.0
 20
-1.160099752514558
 30
0.0
 10
11.99999999999999
 20
-1.46815401464062
 30
0.0
 10
11.99999999999999
 20
-2.034686883271057
 30
0.0
 10
11.99999999999999
 20
-2.293055085063176
 30
0.0
 10
11.99999999999997
 20
-2.746347687261065
 30
0.0
 10
11.99999999999997
 20
-2.941232400749736
 30
0.0
 10
11.99999999999996
 20
-3.421992096787349
 30
0.0
 10
11.99999999999996
 20
-3.601035969758526
 30
0.0
 10
11.99999999999997
 20
-3.65983325507186
 30
0.0
  0
LINE
  5
A6
330
1F
100
AcDbEntity
  8
외형선
  6
Continuous
370
    15
100
AcDbLine
 10
11.99999999999997
 20
6.992637492342827
 30
0.0
 11
11.99999999999999
 21
8.793818598599302
 31
0.0
  0
SPLINE
  5
A7
330
1F
100
AcDbEntity
  8
0
  6
Continuous
 62
     1
370
    15
100
AcDbSpline
210
0.0
220
0.0
230
1.0
 70
     8
 71
     3
 72
    10
 73
     6
 74
     0
 42
0.000000001
 43
0.00000001
 40
0.0
 40
0.0
 40
0.0
 40
0.0
 40
0.5
 40
0.5
 40
1.0
 40
1.0
 40
1.0
 40
1.0
 10
49.71899999999997
 20
4.236707401307143
 30
0.0
 10
49.8188780050262
 20
4.185010734346766
 30
0.0
 10
49.91036914209864
 20
4.109977899277847
 30
0.0
 10
50.0515829779871
 20
3.943814728990058
 30
0.0
 10
50.10000000000009
 20
3.852963195229038
 30
0.0
 10
50.10000000000007
 20
3.780754488960544
 30
0.0
  0
LINE
  5
A8
330
1F
100
AcDbEntity
  8
0
  6
Continuous
 62
     1
370
    15
100
AcDbLine
 10
50.1
 20
0.888661134176298
 30
0.0
 11
50.1
 21
3.780754488960546
 31
0.0
  0
SPLINE
  5
A9
330
1F
100
AcDbEntity
  8
0
  6
Continuous
 62
     1
370
    15
100
AcDbSpline
210
0.0
220
0.0
230
1.0
 70
     8
 71
     3
 72
    14
 73
    10
 74
     0
 42
0.000000001
 43
0.00000001
 40
0.0
 40
0.0
 40
0.0
 40
0.0
 40
0.0935838689547362
 40
0.2446188882164588
 40
0.3956638123927133
 40
0.5467243132007539
 40
0.6978060406146729
 40
0.8489108596448389
 40
1.0
 40
1.0
 40
1.0
 40
1.0
 10
31.40832345031463
 20
9.506748681344433
 30
0.0
 10
31.97939462625177
 20
9.503869190643957
 30
0.0
 10
33.47211765331298
 20
9.496342489497192
 30
0.0
 10
35.88716507382353
 20
9.214010095700162
 30
0.0
 10
38.65284531477675
 20
8.662855742531422
 30
0.0
 10
41.41893174052624
 20
7.861122163509037
 30
0.0
 10
44.18543380849405
 20
6.838773589503666
 30
0.0
 10
46.95225535674587
 20
5.632672869700535
 30
0.0
 10
48.79678368535946
 20
4.702013129020778
 30
0.0
 10
49.71900000000002
 20
4.23670740130712
 30
0.0
  0
SPLINE
  5
AA
330
1F
100
AcDbEntity
  8
0
  6
Continuous
 62
     1
370
    15
100
AcDbSpline
210
0.0
220
0.0
230
1.0
 70
     8
 71
     3
 72
    12
 73
     8
 74
     0
 42
0.000000001
 43
0.00000001
 40
0.0
 40
0.0
 40
0.0
 40
0.0
 40
0.186591411576794
 40
0.389969940555642
 40
0.5933257913169814
 40
0.796666594057677
 40
1.0
 40
1.0
 40
1.0
 40
1.0
 10
25.60070225314797
 20
-9.514863787272482
 30
0.0
 10
24.75473382244998
 20
-9.497225119597868
 30
0.0
 10
22.98668750218584
 20
-9.460360881708123
 30
0.0
 10
20.29677324234875
 20
-9.076269055137528
 30
0.0
 10
17.53097652640035
 20
-8.446628909145907
 30
0.0
 10
14.76542770738049
 20
-7.586950437370336
 30
0.0
 10
12.92179805816733
 20
-6.840650241664863
 30
0.0
 10
11.99999999999997
 20
-6.467506930856837
 30
0.0
  0
LINE
  5
AB
330
1F
100
AcDbEntity
  8
외형선
  6
Continuous
370
    15
100
AcDbLine
 10
11.99999999999997
 20
-6.46750693085683
 30
0.0
 11
11.99999999999999
 21
-3.659833255071861
 31
0.0
  0
SPLINE
  5
AC
330
1F
100
AcDbEntity
  8
0
  6
Continuous
 62
     1
370
    15
100
AcDbSpline
210
0.0
220
0.0
230
1.0
 70
     8
 71
     3
 72
    11
 73
     7
 74
     0
 42
0.000000001
 43
0.00000001
 40
0.0217449658052085
 40
0.0217449658052085
 40
0.0217449658052085
 40
0.0217449658052085
 40
0.2876156387574909
 40
0.5750369691835073
 40
0.8623173649055197
 40
1.0
 40
1.0
 40
1.0
 40
1.0
 10
49.338
 20
9.52500000000002
 30
0.0
 10
48.5739120207587
 20
9.390243702943902
 30
0.0
 10
47.29213709381532
 20
9.253707794056213
 30
0.0
 10
44.9859173587191
 20
8.811290025699083
 30
0.0
 10
43.03164966920504
 20
8.325167388366195
 30
0.0
 10
41.86577537774138
 20
7.927744119576479
 30
0.0
 10
41.48804688609068
 20
7.79898401828085
 30
0.0
  0
LINE
  5
AE
330
1F
100
AcDbEntity
  8
0
  6
Continuous
 62
     1
370
    15
100
AcDbLine
 10
50.1
 20
3.780275492922946
 30
0.0
 11
50.1
 21
8.76300000000002
 31
0.0
  0
SPLINE
  5
AF
330
1F
100
AcDbEntity
  8
0
  6
Continuous
 62
     1
370
    15
100
AcDbSpline
210
0.0
220
0.0
230
1.0
 70
     8
 71
     3
 72
     9
 73
     5
 74
     0
 42
0.000000001
 43
0.00000001
 40
0.0
 40
0.0
 40
0.0
 40
0.0
 40
0.6659796463578449
 40
1.0
 40
1.0
 40
1.0
 40
1.0
 10
12.0
 20
-8.793818598599275
 30
0.0
 10
12.7881316222245
 20
-8.608042936694867
 30
0.0
 10
13.97154860281049
 20
-8.329091976375905
 30
0.0
 10
15.15518252092149
 20
-7.924313440526763
 30
0.0
 10
15.55054034083177
 20
-7.789109170835678
 30
0.0
  0
SPLINE
  5
B0
330
1F
100
AcDbEntity
  8
외형선
  6
Continuous
370
    15
100
AcDbSpline
210
0.0
220
0.0
230
1.0
 70
    24
 71
     3
 72
    11
 73
     7
 74
     0
 42
0.000000001
 43
0.00000001
 40
0.0
 40
0.0
 40
0.0
 40
0.0
 40
0.0940028728948807
 40
0.4925838500610674
 40
0.9027237025668654
 40
1.0
 40
1.0
 40
1.0
 40
1.0
 10
12.00000000000003
 20
-6.539264518163012
 30
0.0
 10
12.00000000000004
 20
-6.602237618083509
 30
0.0
 10
12.00000000000004
 20
-6.932222554222702
 30
0.0
 10
11.99999999999991
 20
-7.614771154568002
 30
0.0
 10
12.0000000000001
 20
-8.31612729671925
 30
0.0
 10
12.0
 20
-8.716972854345567
 30
0.0
 10
12.0
 20
-8.793818598599277
 30
0.0
  0
LINE
  5
B1
330
1F
100
AcDbEntity
  8
0
  6
Continuous
 62
     1
370
    15
100
AcDbLine
 10
50.1
 20
-8.762999999999998
 30
0.0
 11
50.1
 21
-8.325781134176188
 31
0.0
  0
LINE
  5
B2
330
1F
100
AcDbEntity
  8
외형선
  6
Continuous
370
    15
100
AcDbLine
 10
10.99983513694396
 20
8.99924280879043
 30
0.0
 11
10.99983513694396
 21
9.525000000000002
 31
0.0
  0
SPLINE
  5
B3
330
1F
100
AcDbEntity
  8
외형선
  6
Continuous
370
    15
100
AcDbSpline
210
0.0
220
0.0
230
1.0
 70
     8
 71
     3
 72
     8
 73
     4
 74
     0
 42
0.000000001
 43
0.00000001
 40
0.0
 40
0.0
 40
0.0
 40
0.0
 40
1.0
 40
1.0
 40
1.0
 40
1.0
 10
11.99999999999999
 20
8.793818598599294
 30
0.0
 10
11.6663146955611
 20
8.86773736108738
 30
0.0
 10
11.33262095127144
 20
8.936270831446965
 30
0.0
 10
10.99983513694395
 20
8.999245310921719
 30
0.0
  0
SPLINE
  5
B4
330
1F
100
AcDbEntity
  8
외형선
  6
Continuous
370
    15
100
AcDbSpline
210
0.0
220
0.0
230
1.0
 70
     8
 71
     3
 72
     8
 73
     4
 74
     0
 42
0.000000001
 43
0.00000001
 40
0.0
 40
0.0
 40
0.0
 40
0.0
 40
1.0
 40
1.0
 40
1.0
 40
1.0
 10
11.99999999999999
 20
6.992637492342832
 30
0.0
 10
11.66631469556111
 20
7.123263691787724
 30
0.0
 10
11.33262095127144
 20
7.249608159707324
 30
0.0
 10
10.99983513694396
 20
7.371335473003885
 30
0.0
  0
LINE
  5
B5
330
1F
100
AcDbEntity
  8
외형선
  6
Continuous
370
    15
100
AcDbLine
 10
10.99983513694396
 20
-3.120777766588694
 30
0.0
 11
10.99983513694396
 21
7.371333962631898
 31
0.0
  0
SPLINE
  5
B6
330
1F
100
AcDbEntity
  8
외형선
  6
Continuous
370
    15
100
AcDbSpline
210
0.0
220
0.0
230
1.0
 70
     8
 71
     3
 72
     8
 73
     4
 74
     0
 42
0.000000001
 43
0.00000001
 40
0.0
 40
0.0
 40
0.0
 40
0.0
 40
1.0
 40
1.0
 40
1.0
 40
1.0
 10
11.99999999999999
 20
-3.65983325507186
 30
0.0
 10
11.6663146955611
 20
-3.482221833171049
 30
0.0
 10
11.33262095127144
 20
-3.302367621575311
 30
0.0
 10
10.99983513694395
 20
-3.12077055129885
 30
0.0
  0
SPLINE
  5
B7
330
1F
100
AcDbEntity
  8
외형선
  6
Continuous
370
    15
100
AcDbSpline
210
0.0
220
0.0
230
1.0
 70
     8
 71
     3
 72
     8
 73
     4
 74
     0
 42
0.000000001
 43
0.00000001
 40
0.0
 40
0.0
 40
0.0
 40
0.0
 40
1.0
 40
1.0
 40
1.0
 40
1.0
 10
11.99999999999999
 20
-6.467506930856825
 30
0.0
 10
11.66631469556111
 20
-6.326274510159661
 30
0.0
 10
11.33262095127144
 20
-6.181079987486235
 30
0.0
 10
10.99983513694396
 20
-6.032332744837134
 30
0.0
  0
LINE
  5
B8
330
1F
100
AcDbEntity
  8
외형선
  6
Continuous
370
    15
100
AcDbLine
 10
10.99983513694396
 20
-9.524999999999999
 30
0.0
 11
10.99983513694396
 21
-6.032334590467378
 31
0.0
  0
SPLINE
  5
B9
330
1F
100
AcDbEntity
  8
외형선
  6
Continuous
370
    15
100
AcDbSpline
210
0.0
220
0.0
230
1.0
 70
     8
 71
     3
 72
     8
 73
     4
 74
     0
 42
0.000000001
 43
0.00000001
 40
0.0
 40
0.0
 40
0.0
 40
0.0
 40
1.0
 40
1.0
 40
1.0
 40
1.0
 10
11.99999999999999
 20
-8.793818598599266
 30
0.0
 10
11.6663146955611
 20
-8.867737361087354
 30
0.0
 10
11.33262095127144
 20
-8.936270831446938
 30
0.0
 10
10.99983513694395
 20
-8.999245310921692
 30
0.0
  0
LINE
  5
BA
330
1F
100
AcDbEntity
  8
외형선
  6
Continuous
370
    15
100
AcDbLine
 10
-49.595
 20
0.0000000000000016
 30
0.0
 11
-49.595
 21
9.525000000000007
 31
0.0
  0
LINE
  5
BB
330
1F
100
AcDbEntity
  8
외형선
  6
Continuous
370
    15
100
AcDbLine
 10
-49.595
 20
-9.525000000000016
 30
0.0
 11
-49.595
 21
0.0000000000000016
 31
0.0
  0
LINE
  5
BC
330
1F
100
AcDbEntity
  8
외형선
  6
Continuous
370
    15
100
AcDbLine
 10
-51.5
 20
0.0000000000000016
 30
0.0
 11
-51.5
 21
7.620000000000005
 31
0.0
  0
LINE
  5
BD
330
1F
100
AcDbEntity
  8
외형선
  6
Continuous
370
    15
100
AcDbLine
 10
-51.5
 20
-7.619999999999989
 30
0.0
 11
-51.5
 21
0.0000000000000016
 31
0.0
  0
SPLINE
  5
BE
330
1F
100
AcDbEntity
  8
외형선
  6
Continuous
370
    15
100
AcDbSpline
210
0.0
220
0.0
230
1.0
 70
    24
 71
     3
 72
    26
 73
    22
 74
     0
 42
0.000000001
 43
0.00000001
 40
0.0
 40
0.0
 40
0.0
 40
0.0
 40
0.1249999999999999
 40
0.1249999999999999
 40
0.1874999999999998
 40
0.1874999999999998
 40
0.2499999999999997
 40
0.2499999999999997
 40
0.3124999999999997
 40
0.3124999999999997
 40
0.3749999999999996
 40
0.3749999999999996
 40
0.4999999999999997
 40
0.4999999999999997
 40
0.6249999999999997
 40
0.6249999999999997
 40
0.7499999999999997
 40
0.7499999999999997
 40
0.8749999999999998
 40
0.8749999999999998
 40
1.0
 40
1.0
 40
1.0
 40
1.0
 10
11.99999999999999
 20
-3.659833255071847
 30
0.0
 10
12.0
 20
-3.601035969758494
 30
0.0
 10
11.99999999999995
 20
-3.421992096787292
 30
0.0
 10
11.99999999999997
 20
-2.941232400749654
 30
0.0
 10
11.99999999999997
 20
-2.746347687260976
 30
0.0
 10
12.00000000000001
 20
-2.293055085063075
 30
0.0
 10
11.99999999999997
 20
-2.034686883270945
 30
0.0
 10
11.99999999999999
 20
-1.468154014640503
 30
0.0
 10
11.99999999999997
 20
-1.160099752514445
 30
0.0
 10
11.99999999999999
 20
-0.5136661469609765
 30
0.0
 10
11.99999999999999
 20
-0.1754249534728657
 30
0.0
 10
11.99999999999999
 20
0.8528415264194591
 30
0.0
 10
12.0
 20
1.553679027078491
 30
0.0
 10
12.00000000000001
 20
2.852557629296526
 30
0.0
 10
12.0
 20
3.450457745486635
 30
0.0
 10
12.00000000000001
 20
4.493610065562011
 30
0.0
 10
11.99999999999997
 20
4.940266201480091
 30
0.0
 10
11.99999999999996
 20
5.693798594118298
 30
0.0
 10
11.99999999999999
 20
6.001713806883205
 30
0.0
 10
12.0
 20
6.511092443071647
 30
0.0
 10
11.99999999999999
 20
6.764159880046658
 30
0.0
 10
11.99999999999997
 20
6.992637492342827
 30
0.0
  0
SPLINE
  5
BF
330
1F
100
AcDbEntity
  8
외형선
  6
Continuous
370
    15
100
AcDbSpline
210
0.0
220
0.0
230
1.0
 70
    24
 71
     3
 72
    11
 73
     7
 74
     0
 42
0.000000001
 43
0.00000001
 40
0.0
 40
0.0
 40
0.0
 40
0.0
 40
0.2656223809607327
 40
0.5345665359641042
 40
0.9333598073762506
 40
1.0
 40
1.0
 40
1.0
 40
1.0
 10
11.99999999999999
 20
-8.793818598599268
 30
0.0
 10
11.99999999999999
 20
-8.584214312766044
 30
0.0
 10
12.0
 20
-8.162384508380471
 30
0.0
 10
11.99999999999996
 20
-7.448980943226383
 30
0.0
 10
12.0
 20
-6.893647928364665
 30
0.0
 10
11.99999999999995
 20
-6.583640938773819
 30
0.0
 10
11.99999999999996
 20
-6.539254518163013
 30
0.0
  0
LINE
  5
C0
330
1F
100
AcDbEntity
  8
중심선
 62
     1
100
AcDbLine
 10
-54.5
 20
-0.0000000000000023
 30
0.0
 11
53.1
 21
0.0000000000000104
 31
0.0
  0
LINE
  5
C1
330
1F
100
AcDbEntity
  8
참조1
100
AcDbLine
 10
25.875
 20
0.0010749287238892
 30
0.0
 11
25.875
 21
-39.99892507127611
 31
0.0
  0
LINE
  5
C2
330
1F
100
AcDbEntity
  8
참조1
100
AcDbLine
 10
25.875
 20
-39.99892507127611
 30
0.0
 11
-14.68385681430867
 21
-39.9989250712761
 31
0.0
  0
CIRCLE
  5
C3
330
1F
100
AcDbEntity
  8
해칭선
100
AcDbCircle
 10
0.0
 20
0.0
 30
0.0
 40
3.000000000000001
  0
INSERT
  5
C4
330
1F
100
AcDbEntity
  8
0
  6
Continuous
 62
     7
100
AcDbBlockReference
 66
     1
  2
블럭10
 10
-14.6402729321252
 20
-52.04717430164393
 30
0.0
  0
ATTRIB
  5
C5
330
C4
100
AcDbEntity
  8
FORMAT
 62
     2
100
AcDbText
 10
-23.82156822086649
 20
-49.97180738881174
 30
0.0
 40
4.233333333333333
  1
E5216924 [ 4 FLUTE ]
 41
0.75
  7
SLDTEXTSTYLE0
 11
-23.82156822086649
 21
-52.08847405547841
 31
0.0
100
AcDbAttribute
  2
AUTOATTR0
 70
     0
 74
     1
  0
SEQEND
  5
C6
330
C4
100
AcDbEntity
  8
0
  6
Continuous
 62
     7
  0
HATCH
  5
C7
330
1F
100
AcDbEntity
  8
중심선
100
AcDbHatch
 10
0.0
 20
0.0
 30
0.0
210
0.0
220
0.0
230
1.0
  2
SOLID
 70
     1
 71
     0
 91
        1
 92
        0
 93
        4
 72
     1
 10
-8.925363627744357
 20
-35.8
 11
-12.37163887158164
 21
-35.8
 72
     1
 10
-12.37163887158164
 20
-35.8
 11
-14.49986873078566
 21
-38.3363255805726
 72
     1
 10
-14.49986873078566
 20
-38.33632558057259
 11
-11.05356040183523
 21
-38.3362861512701
 72
     1
 10
-11.05356040183523
 20
-38.3362861512701
 11
-8.925363627744357
 21
-35.79999999999999
 97
        0
 75
     0
 76
     1
 98
        1
 10
-26.575
 20
-0.0010749287238916
  0
HATCH
  5
C8
330
1F
100
AcDbEntity
  8
중심선
100
AcDbHatch
 10
0.0
 20
0.0
 30
0.0
210
0.0
220
0.0
230
1.0
  2
SOLID
 70
     1
 71
     0
 91
        1
 92
        0
 93
        4
 72
     1
 10
-3.91259963670835
 20
-35.8
 11
-7.358874880545631
 21
-35.79999999999998
 72
     1
 10
-7.358874880545631
 20
-35.79999999999997
 11
-11.89001288890308
 21
-41.20000000000001
 72
     1
 10
-11.89001288890308
 20
-41.20000000000002
 11
-8.443737645065795
 21
-41.20000000000002
 72
     1
 10
-8.443737645065795
 20
-41.20000000000002
 11
-3.91259963670835
 21
-35.8
 97
        0
 75
     0
 76
     1
 98
        1
 10
-26.575
 20
-0.0010749287238916
  0
HATCH
  5
C9
330
1F
100
AcDbEntity
  8
중심선
100
AcDbHatch
 10
0.0
 20
0.0
 30
0.0
210
0.0
220
0.0
230
1.0
  2
SOLID
 70
     1
 71
     0
 91
        1
 92
        0
 93
        4
 72
     1
 10
1.100164354327489
 20
-35.8
 11
-2.346110889509571
 21
-35.79999999999998
 72
     1
 10
-2.346110889509571
 20
-35.79999999999997
 11
-9.394547791398875
 21
-44.20000000000001
 72
     1
 10
-9.394547791398875
 20
-44.20000000000002
 11
-5.948272547561594
 21
-44.20000000000002
 72
     1
 10
-5.948272547561594
 20
-44.20000000000002
 11
1.100164354327489
 21
-35.8
 97
        0
 75
     0
 76
     1
 98
        1
 10
-26.575
 20
-0.0010749287238916
  0
HATCH
  5
CA
330
1F
100
AcDbEntity
  8
중심선
100
AcDbHatch
 10
0.0
 20
0.0
 30
0.0
210
0.0
220
0.0
230
1.0
  2
SOLID
 70
     1
 71
     0
 91
        1
 92
        0
 93
        6
 72
     3
 10
5.900054785339691
 20
-40.00000000005127
 11
3.960054785062283
 21
1.540882976769353E-10
 40
0.3939339440162628
 50
17.09539180608439
 51
320.0019657685078
 73
     0
 72
     1
 10
7.583054441040282
 20
-38.5878940046383
 11
9.888356314741351
 21
-36.65356729459038
 72
     3
 10
5.900054785286841
 20
-40.00000000000014
 11
6.600054785286829
 21
-1.278976924368180E-13
 40
0.636358354079598
 50
39.99873849337379
 51
368.4976242363724
 73
     1
 72
     1
 10
12.32538727718745
 20
-39.03999999993002
 11
4.580122092122764
 21
-39.03999999992999
 72
     1
 10
4.580122092122764
 20
-39.03999999992999
 11
4.58009704767683
 21
-40.95999999992991
 72
     1
 10
4.58009704767683
 20
-40.95999999992991
 11
9.021476817148866
 21
-40.95999999992988
 97
        0
 75
     0
 76
     1
 98
        1
 10
-26.575
 20
-0.0010749287238916
  0
DIMENSION
  5
CB
330
1F
100
AcDbEntity
  8
치수문자_일반주서
100
AcDbDimension
  2
_D
 10
-64.6757304776001
 20
-9.525000000000059
 30
0.0
 11
-64.67573047760024
 21
30.14999999999995
 31
0.0
 70
   160
  1
%%c<>
 71
     2
 42
19.05000000000001
 52
-270.0
  3
SLDDIMSTYLE2
100
AcDbAlignedDimension
 13
-49.59500000000001
 23
9.525000000000007
 33
0.0
 14
-49.59500000000001
 24
-9.525000000000004
 34
0.0
 50
90.0000000000002
100
AcDbRotatedDimension
1001
ACAD
1000
DSTYLE
1002
{
1070
   171
1070
     6
1070
   273
1070
     5
1070
    41
1040
4.0
1070
   140
1040
4.0
1002
}
  0
DIMENSION
  5
E0
330
1F
100
AcDbEntity
  8
치수문자_일반주서
100
AcDbDimension
  2
_D_1
 10
11.99999999999999
 20
20.11337375909717
 30
0.0
 11
30.47422263844656
 21
20.11337375909717
 31
0.0
 70
   160
  1
<>
 71
     2
 42
38.10000000000002
  3
SLDDIMSTYLE2
100
AcDbAlignedDimension
 13
50.1
 23
9.525000000000079
 33
0.0
 14
11.99999999999999
 24
8.793818598599296
 34
0.0
 50
0.0000000000000107
100
AcDbRotatedDimension
1001
ACAD
1000
DSTYLE
1002
{
1070
   171
1070
     6
1070
   273
1070
     5
1070
    41
1040
4.0
1070
   140
1040
4.0
1002
}
  0
DIMENSION
  5
F4
330
1F
100
AcDbEntity
  8
치수문자_일반주서
100
AcDbDimension
  2
_D_2
 10
-51.50000000000001
 20
43.52007903661281
 30
0.0
 11
-0.6999999999999957
 21
43.52007903661281
 31
0.0
 70
   160
  1
<>
 71
     2
 42
101.6
  3
SLDDIMSTYLE2
100
AcDbAlignedDimension
 13
50.1
 23
9.525000000000079
 33
0.0
 14
-51.5
 24
7.620000000000011
 34
0.0
100
AcDbRotatedDimension
1001
ACAD
1000
DSTYLE
1002
{
1070
   171
1070
     6
1070
   273
1070
     5
1070
    41
1040
4.0
1070
   140
1040
4.0
1002
}
  0
DIMENSION
  5
107
330
1F
100
AcDbEntity
  8
치수문자_일반주서
100
AcDbDimension
  2
_D_3
 10
64.72695597283249
 20
-9.524999999999945
 30
0.0
 11
64.72695597283234
 21
30.15000000000013
 31
0.0
 70
   160
  1
%%c<>
 71
     2
 42
19.05000000000008
 52
-270.0
  3
SLDDIMSTYLE2
100
AcDbAlignedDimension
 13
50.1
 23
9.525000000000079
 33
0.0
 14
50.09999999999999
 24
-9.524999999999999
 34
0.0
 50
90.0000000000002
100
AcDbRotatedDimension
1001
ACAD
1000
DSTYLE
1002
{
1070
   171
1070
     6
1070
   273
1070
     5
1070
    41
1040
4.0
1070
   140
1040
4.0
1002
}
  0
LINE
  5
11B
330
1F
100
AcDbEntity
  8
참조1
100
AcDbLine
 10
83.28848381534559
 20
7.441074928723896
 30
0.0
 11
83.28848381534559
 21
-7.438925071276109
 31
0.0
  0
LINE
  5
11C
330
1F
100
AcDbEntity
  8
참조1
100
AcDbLine
 10
95.9884838153456
 20
5.441074928723896
 30
0.0
 11
83.28848381534559
 21
5.441074928723896
 31
0.0
  0
SOLID
  5
11D
330
1F
100
AcDbEntity
  8
참조1
100
AcDbTrace
 10
83.28848381534559
 20
5.441074928723896
 30
0.0
 11
89.63848381534558
 21
4.425074928723896
 31
0.0
 12
89.63848381534558
 22
6.457074928723896
 32
0.0
 13
89.63848381534558
 23
6.457074928723896
 33
0.0
  0
LINE
  5
11E
330
1F
100
AcDbEntity
  8
참조1
100
AcDbLine
 10
95.9884838153456
 20
-5.438925071276109
 30
0.0
 11
83.28848381534559
 21
-5.438925071276109
 31
0.0
  0
SOLID
  5
11F
330
1F
100
AcDbEntity
  8
참조1
100
AcDbTrace
 10
83.28848381534559
 20
-5.438925071276109
 30
0.0
 11
89.63848381534558
 21
-6.454925071276109
 31
0.0
 12
89.63848381534558
 22
-4.422925071276109
 32
0.0
 13
89.63848381534558
 23
-4.422925071276109
 33
0.0
  0
MTEXT
  5
120
330
1F
100
AcDbEntity
  8
참조1
100
AcDbMText
 10
92.68597390781586
 20
10.98929157337383
 30
0.0
 40
3.5
 41
0.0
 71
     1
 72
     1
  1
A
  7
SLDTEXTSTYLE0
 73
     1
 44
1.0
  0
MTEXT
  5
121
330
1F
100
AcDbEntity
  8
참조1
100
AcDbMText
 10
92.68597390781586
 20
0.1092915733738259
 30
0.0
 40
3.5
 41
0.0
 71
     1
 72
     1
  1
A
  7
SLDTEXTSTYLE0
 73
     1
 44
1.0
  0
INSERT
  5
128
330
1F
100
AcDbEntity
  8
해칭선
100
AcDbBlockReference
  2
SW_DOWELSYMBOL_0
 10
0.0
 20
0.0
 30
0.0
  0
SPLINE
  5
2F9
330
1F
100
AcDbEntity
  8
0
  6
Continuous
 62
     1
370
    15
100
AcDbSpline
210
0.0
220
0.0
230
1.0
 70
     8
 71
     3
 72
    52
 73
    48
 74
     0
 42
0.000000001
 43
0.00000001
 40
0.0198820254829194
 40
0.0198820254829194
 40
0.0198820254829194
 40
0.0198820254829194
 40
0.0625000000000009
 40
0.0625000000000009
 40
0.0937500000000013
 40
0.0937500000000013
 40
0.1250000000000018
 40
0.1250000000000018
 40
0.1875000000000027
 40
0.1875000000000027
 40
0.2187500000000032
 40
0.2187500000000032
 40
0.2500000000000036
 40
0.2500000000000036
 40
0.3125000000000046
 40
0.3125000000000046
 40
0.3750000000000055
 40
0.3750000000000055
 40
0.4062500000000056
 40
0.4062500000000056
 40
0.4375000000000056
 40
0.4375000000000056
 40
0.5000000000000057
 40
0.5000000000000057
 40
0.5312500000000053
 40
0.5312500000000053
 40
0.562500000000005
 40
0.562500000000005
 40
0.6250000000000034
 40
0.6250000000000034
 40
0.6562500000000027
 40
0.6562500000000027
 40
0.6875000000000019
 40
0.6875000000000019
 40
0.7500000000000012
 40
0.7500000000000012
 40
0.7812500000000009
 40
0.7812500000000009
 40
0.8125000000000006
 40
0.8125000000000006
 40
0.8750000000000007
 40
0.8750000000000007
 40
0.9375000000000008
 40
0.9375000000000008
 40
0.9687500000000004
 40
0.9687500000000004
 40
1.0
 40
1.0
 40
1.0
 40
1.0
 10
49.338
 20
-9.524999999999999
 30
0.0
 10
48.43206655822691
 20
-9.364074807318515
 30
0.0
 10
47.89439647780031
 20
-9.30154638284831
 30
0.0
 10
46.96747821562187
 20
-9.168012584327268
 30
0.0
 10
46.57628314036037
 20
-9.103738354398384
 30
0.0
 10
45.78974467761072
 20
-8.959579062319738
 30
0.0
 10
45.39563716160766
 20
-8.87975004596207
 30
0.0
 10
44.21532514234217
 20
-8.6179218258606
 30
0.0
 10
43.43357814755678
 20
-8.41384126158933
 30
0.0
 10
42.25246449756357
 20
-8.065121722715011
 30
0.0
 10
41.85854593427987
 20
-7.941882429658008
 30
0.0
 10
41.07329289684525
 20
-7.682385208904939
 30
0.0
 10
40.68262902807758
 20
-7.546222622592736
 30
0.0
 10
39.50382708495599
 20
-7.118051153629459
 30
0.0
 10
38.71357144162548
 20
-6.806755208508005
 30
0.0
 10
37.14835238987474
 20
-6.142146201596943
 30
0.0
 10
36.35851545424651
 20
-5.7867452410713
 30
0.0
 10
35.17942952638388
 20
-5.226757634658914
 30
0.0
 10
34.78868741917751
 20
-5.035859304958554
 30
0.0
 10
34.00366982638241
 20
-4.645262166458753
 30
0.0
 10
33.60980238851183
 20
-4.44561786583194
 30
0.0
 10
32.42864037418309
 20
-3.835903143662779
 30
0.0
 10
31.6467596106909
 20
-3.415945983236563
 30
0.0
 10
30.46663527215107
 20
-2.76944753964275
 30
0.0
 10
30.07252324333877
 20
-2.551268989887176
 30
0.0
 10
29.28584172368687
 20
-2.111224362598357
 30
0.0
 10
28.89441199279727
 20
-1.889575993059287
 30
0.0
 10
27.71842998580345
 20
-1.220068978759591
 30
0.0
 10
26.92796707886043
 20
-0.7668196688120232
 30
0.0
 10
25.75062666897237
 20
-0.0869324141969598
 30
0.0
 10
25.35982950050986
 20
0.1396457313842409
 30
0.0
 10
24.57368068762243
 20
0.5930554463963604
 30
0.0
 10
24.17960816075481
 20
0.8196397931893358
 30
0.0
 10
22.9989202662596
 20
1.496427475030148
 30
0.0
 10
22.21735378911783
 20
1.943001472928543
 30
0.0
 10
21.03642801024954
 20
2.602300425706815
 30
0.0
 10
20.64241155522689
 20
2.820104019929333
 30
0.0
 10
19.85664419296526
 20
3.250127700449204
 30
0.0
 10
19.46600466027059
 20
3.462153419551235
 30
0.0
 10
18.28795268525662
 20
4.089971037717258
 30
0.0
 10
17.49755556661918
 20
4.496847686358822
 30
0.0
 10
15.9307848586181
 20
5.274938971918466
 30
0.0
 10
15.1426472502714
 20
5.648116678417033
 30
0.0
 10
13.96295526093014
 20
6.176763185324919
 30
0.0
 10
13.5718639005048
 20
6.347558323598372
 30
0.0
 10
12.7874562331842
 20
6.678407543761303
 30
0.0
 10
12.3937350277598
 20
6.838503913247759
 30
0.0
 10
11.99999999999997
 20
6.992637492342832
 30
0.0
  0
ARC
  5
2FA
102
{ACAD_REACTORS
102
}
330
1F
100
AcDbEntity
  8
0
  6
Continuous
 62
     1
370
    15
100
AcDbCircle
 10
49.338
 20
-8.762999999999998
 30
0.0
 40
0.7619999999999998
100
AcDbArc
 50
270.0
 51
0.0
  0
ARC
  5
2FB
330
1F
100
AcDbEntity
  8
0
  6
Continuous
 62
     1
370
    15
100
AcDbCircle
 10
49.338
 20
8.76300000000002
 30
0.0
 40
0.7619999999999998
100
AcDbArc
 50
0.0
 51
90.0
  0
DIMENSION
  5
2FC
102
{ACAD_REACTORS
102
}
102
{ACAD_XDICTIONARY
360
2FD
102
}
330
1F
100
AcDbEntity
  8
치수문자_일반주서
100
AcDbDimension
  2
*D18
 10
49.338
 20
-8.762999999999998
 30
0.0
 11
67.59451226626346
 21
-30.82603535037217
 31
0.0
 70
   164
  1
<>
 71
     5
 42
0.7620000000000019
  3
SLDDIMSTYLE2
100
AcDbRadialDimension
 15
49.82378630257683
 25
-9.35007381838124
 35
0.0
 40
0.0
1001
ACAD
1000
DSTYLE
1002
{
1070
   171
1070
     2
1070
   273
1070
     2
1070
    41
1040
4.0
1070
   140
1040
4.0
1002
}
1001
ACAD_DSTYLE_DIMRADIAL_EXTENSION
1070
   387
1070
     1
1070
   388
1040
4.71238898038469
1070
   390
1040
0.0
  0
ENDSEC
  0
SECTION
  2
OBJECTS
  0
DICTIONARY
  5
C
330
0
100
AcDbDictionary
281
     1
  3
ACAD_GROUP
350
D
  3
ACAD_IMAGE_VARS
350
14C
  3
ACAD_LAYOUT
350
1A
  3
ACAD_MLINESTYLE
350
17
  3
ACAD_PLOTSETTINGS
350
19
  3
ACAD_PLOTSTYLENAME
350
E
  3
ACAD_SCALELIST
350
47
  3
APPDATA
350
14A
  3
DWGPROPS
350
309
  0
DICTIONARY
  5
206
330
2
100
AcDbDictionary
280
     1
281
     1
  3
ACAD_LAYERSTATES
360
207
  0
DICTIONARY
  5
2FD
330
2FC
100
AcDbDictionary
280
     1
281
     1
  0
DICTIONARY
  5
D
102
{ACAD_REACTORS
330
C
102
}
330
C
100
AcDbDictionary
281
     1
  0
RASTERVARIABLES
  5
14C
102
{ACAD_REACTORS
330
C
102
}
330
C
100
AcDbRasterVariables
 90
        0
 70
     1
 71
     1
 72
     1
  0
DICTIONARY
  5
1A
102
{ACAD_REACTORS
330
C
102
}
330
C
100
AcDbDictionary
281
     1
  3
Layout1
350
1E
  3
Layout2
350
26
  3
Model
350
22
  0
DICTIONARY
  5
17
102
{ACAD_REACTORS
330
C
102
}
330
C
100
AcDbDictionary
281
     1
  3
Standard
350
18
  0
DICTIONARY
  5
19
102
{ACAD_REACTORS
330
C
102
}
330
C
100
AcDbDictionary
281
     1
  0
ACDBDICTIONARYWDFLT
  5
E
102
{ACAD_REACTORS
330
C
102
}
330
C
100
AcDbDictionary
281
     1
  3
Normal
350
F
100
AcDbDictionaryWithDefault
340
F
  0
DICTIONARY
  5
47
102
{ACAD_REACTORS
330
C
102
}
330
C
100
AcDbDictionary
281
     1
  3
A0
350
48
  3
A1
350
49
  3
A2
350
4A
  3
A3
350
4B
  3
A4
350
4C
  3
A5
350
4D
  3
A6
350
4E
  3
A7
350
4F
  3
A8
350
50
  3
A9
350
51
  3
B0
350
52
  3
B1
350
53
  3
B2
350
54
  3
B3
350
55
  3
B4
350
56
  3
B5
350
57
  3
B6
350
58
  3
B7
350
59
  3
B8
350
5A
  3
B9
350
5B
  3
C0
350
5C
  3
C1
350
5D
  3
C2
350
5E
  3
C3
350
5F
  3
C4
350
60
  3
C5
350
61
  3
C6
350
62
  3
C7
350
63
  3
C8
350
64
  3
C9
350
65
  3
D0
350
66
  3
D1
350
67
  3
D2
350
68
  0
DICTIONARY
  5
14A
102
{ACAD_REACTORS
330
C
102
}
330
C
100
AcDbDictionary
281
     1
  0
XRECORD
  5
309
102
{ACAD_REACTORS
330
C
102
}
330
C
100
AcDbXrecord
280
     1
  1
DWGPROPS COOKIE
  2

  3

  4

  6

  7

  8
12014074
  9

300
=
301
=
302
=
303
=
304
=
305
=
306
=
307
=
308
=
309
=
 40
0.0
 41
2458323.369972431
 42
2458324.090323878
  1

 90
        0
  0
DICTIONARY
  5
207
102
{ACAD_REACTORS
330
206
102
}
330
206
100
AcDbDictionary
281
     1
  0
LAYOUT
  5
1E
102
{ACAD_REACTORS
330
1A
102
}
330
1A
100
AcDbPlotSettings
  1

  2
none_device
  4

  6

 40
0.0
 41
0.0
 42
0.0
 43
0.0
 44
0.0
 45
0.0
 46
0.0
 47
0.0
 48
0.0
 49
0.0
140
0.0
141
0.0
142
1.0
143
1.0
 70
   688
 72
     1
 73
     0
 74
     5
  7

 75
    16
147
1.0
148
0.0
149
0.0
100
AcDbLayout
  1
Layout1
 70
     1
 71
     1
 10
0.0
 20
0.0
 11
420.0
 21
297.0
 12
0.0
 22
0.0
 32
0.0
 14
1.000000000000000E+20
 24
1.000000000000000E+20
 34
1.000000000000000E+20
 15
-1.000000000000000E+20
 25
-1.000000000000000E+20
 35
-1.000000000000000E+20
146
0.0
 13
0.0
 23
0.0
 33
0.0
 16
1.0
 26
0.0
 36
0.0
 17
0.0
 27
1.0
 37
0.0
 76
     0
330
1B
  0
LAYOUT
  5
26
102
{ACAD_REACTORS
330
1A
102
}
330
1A
100
AcDbPlotSettings
  1

  2
none_device
  4

  6

 40
0.0
 41
0.0
 42
0.0
 43
0.0
 44
0.0
 45
0.0
 46
0.0
 47
0.0
 48
0.0
 49
0.0
140
0.0
141
0.0
142
1.0
143
1.0
 70
   688
 72
     1
 73
     0
 74
     5
  7

 75
    16
147
1.0
148
0.0
149
0.0
100
AcDbLayout
  1
Layout2
 70
     1
 71
     2
 10
0.0
 20
0.0
 11
0.0
 21
0.0
 12
0.0
 22
0.0
 32
0.0
 14
0.0
 24
0.0
 34
0.0
 15
0.0
 25
0.0
 35
0.0
146
0.0
 13
0.0
 23
0.0
 33
0.0
 16
1.0
 26
0.0
 36
0.0
 17
0.0
 27
1.0
 37
0.0
 76
     0
330
23
  0
LAYOUT
  5
22
102
{ACAD_REACTORS
330
1A
102
}
330
1A
100
AcDbPlotSettings
  1

  2
none_device
  4
ANSI_A_(11.00_x_8.50_Inches)
  6

 40
6.35
 41
19.05
 42
6.35000508
 43
19.05000254
 44
279.4
 45
215.9
 46
86.3414925486773
 47
81.78891014557202
 48
0.0
 49
0.0
140
0.0
141
0.0
142
0.0760062900238194
143
1.0
 70
  1696
 72
     0
 73
     0
 74
     0
  7

 75
     0
147
0.0235690232323232
148
0.0
149
0.0
100
AcDbLayout
  1
Model
 70
     1
 71
     0
 10
0.0
 20
0.0
 11
420.0
 21
297.0
 12
0.0
 22
0.0
 32
0.0
 14
-69.5507304776003
 24
-49.97180738881174
 34
0.0
 15
95.9884838153456
 25
48.39507903661281
 35
0.0
146
0.0
 13
0.0
 23
0.0
 33
0.0
 16
1.0
 26
0.0
 36
0.0
 17
0.0
 27
1.0
 37
0.0
 76
     0
330
1F
331
29
  0
MLINESTYLE
  5
18
102
{ACAD_REACTORS
330
17
102
}
330
17
100
AcDbMlineStyle
  2
Standard
 70
     0
  3

 62
   256
 51
90.0
 52
90.0
 71
     2
 49
0.5
 62
   256
  6
BYLAYER
 49
-0.5
 62
   256
  6
BYLAYER
  0
ACDBPLACEHOLDER
  5
F
102
{ACAD_REACTORS
330
E
102
}
330
E
  0
SCALE
  5
48
102
{ACAD_REACTORS
330
47
102
}
330
47
100
AcDbScale
 70
     0
300
1:1
140
1.0
141
1.0
290
     1
  0
SCALE
  5
49
102
{ACAD_REACTORS
330
47
102
}
330
47
100
AcDbScale
 70
     0
300
1:2
140
1.0
141
2.0
290
     0
  0
SCALE
  5
4A
102
{ACAD_REACTORS
330
47
102
}
330
47
100
AcDbScale
 70
     0
300
1:4
140
1.0
141
4.0
290
     0
  0
SCALE
  5
4B
102
{ACAD_REACTORS
330
47
102
}
330
47
100
AcDbScale
 70
     0
300
1:5
140
1.0
141
5.0
290
     0
  0
SCALE
  5
4C
102
{ACAD_REACTORS
330
47
102
}
330
47
100
AcDbScale
 70
     0
300
1:8
140
1.0
141
8.0
290
     0
  0
SCALE
  5
4D
102
{ACAD_REACTORS
330
47
102
}
330
47
100
AcDbScale
 70
     0
300
1:10
140
1.0
141
10.0
290
     0
  0
SCALE
  5
4E
102
{ACAD_REACTORS
330
47
102
}
330
47
100
AcDbScale
 70
     0
300
1:16
140
1.0
141
16.0
290
     0
  0
SCALE
  5
4F
102
{ACAD_REACTORS
330
47
102
}
330
47
100
AcDbScale
 70
     0
300
1:20
140
1.0
141
20.0
290
     0
  0
SCALE
  5
50
102
{ACAD_REACTORS
330
47
102
}
330
47
100
AcDbScale
 70
     0
300
1:30
140
1.0
141
30.0
290
     0
  0
SCALE
  5
51
102
{ACAD_REACTORS
330
47
102
}
330
47
100
AcDbScale
 70
     0
300
1:40
140
1.0
141
40.0
290
     0
  0
SCALE
  5
52
102
{ACAD_REACTORS
330
47
102
}
330
47
100
AcDbScale
 70
     0
300
1:50
140
1.0
141
50.0
290
     0
  0
SCALE
  5
53
102
{ACAD_REACTORS
330
47
102
}
330
47
100
AcDbScale
 70
     0
300
1:100
140
1.0
141
100.0
290
     0
  0
SCALE
  5
54
102
{ACAD_REACTORS
330
47
102
}
330
47
100
AcDbScale
 70
     0
300
2:1
140
2.0
141
1.0
290
     0
  0
SCALE
  5
55
102
{ACAD_REACTORS
330
47
102
}
330
47
100
AcDbScale
 70
     0
300
4:1
140
4.0
141
1.0
290
     0
  0
SCALE
  5
56
102
{ACAD_REACTORS
330
47
102
}
330
47
100
AcDbScale
 70
     0
300
8:1
140
8.0
141
1.0
290
     0
  0
SCALE
  5
57
102
{ACAD_REACTORS
330
47
102
}
330
47
100
AcDbScale
 70
     0
300
10:1
140
10.0
141
1.0
290
     0
  0
SCALE
  5
58
102
{ACAD_REACTORS
330
47
102
}
330
47
100
AcDbScale
 70
     0
300
100:1
140
100.0
141
1.0
290
     0
  0
SCALE
  5
59
102
{ACAD_REACTORS
330
47
102
}
330
47
100
AcDbScale
 70
     0
300
1/128" = 1'-0"
140
0.0078125
141
12.0
290
     0
  0
SCALE
  5
5A
102
{ACAD_REACTORS
330
47
102
}
330
47
100
AcDbScale
 70
     0
300
1/64" = 1'-0"
140
0.015625
141
12.0
290
     0
  0
SCALE
  5
5B
102
{ACAD_REACTORS
330
47
102
}
330
47
100
AcDbScale
 70
     0
300
1/32" = 1'-0"
140
0.03125
141
12.0
290
     0
  0
SCALE
  5
5C
102
{ACAD_REACTORS
330
47
102
}
330
47
100
AcDbScale
 70
     0
300
1/16" = 1'-0"
140
0.0625
141
12.0
290
     0
  0
SCALE
  5
5D
102
{ACAD_REACTORS
330
47
102
}
330
47
100
AcDbScale
 70
     0
300
3/32" = 1'-0"
140
0.09375
141
12.0
290
     0
  0
SCALE
  5
5E
102
{ACAD_REACTORS
330
47
102
}
330
47
100
AcDbScale
 70
     0
300
1/8" = 1'-0"
140
0.125
141
12.0
290
     0
  0
SCALE
  5
5F
102
{ACAD_REACTORS
330
47
102
}
330
47
100
AcDbScale
 70
     0
300
3/16" = 1'-0"
140
0.1875
141
12.0
290
     0
  0
SCALE
  5
60
102
{ACAD_REACTORS
330
47
102
}
330
47
100
AcDbScale
 70
     0
300
1/4" = 1'-0"
140
0.25
141
12.0
290
     0
  0
SCALE
  5
61
102
{ACAD_REACTORS
330
47
102
}
330
47
100
AcDbScale
 70
     0
300
3/8" = 1'-0"
140
0.375
141
12.0
290
     0
  0
SCALE
  5
62
102
{ACAD_REACTORS
330
47
102
}
330
47
100
AcDbScale
 70
     0
300
1/2" = 1'-0"
140
0.5
141
12.0
290
     0
  0
SCALE
  5
63
102
{ACAD_REACTORS
330
47
102
}
330
47
100
AcDbScale
 70
     0
300
3/4" = 1'-0"
140
0.75
141
12.0
290
     0
  0
SCALE
  5
64
102
{ACAD_REACTORS
330
47
102
}
330
47
100
AcDbScale
 70
     0
300
1" = 1'-0"
140
1.0
141
12.0
290
     0
  0
SCALE
  5
65
102
{ACAD_REACTORS
330
47
102
}
330
47
100
AcDbScale
 70
     0
300
1-1/2" = 1'-0"
140
1.5
141
12.0
290
     0
  0
SCALE
  5
66
102
{ACAD_REACTORS
330
47
102
}
330
47
100
AcDbScale
 70
     0
300
3" = 1'-0"
140
3.0
141
12.0
290
     0
  0
SCALE
  5
67
102
{ACAD_REACTORS
330
47
102
}
330
47
100
AcDbScale
 70
     0
300
6" = 1'-0"
140
6.0
141
12.0
290
     0
  0
SCALE
  5
68
102
{ACAD_REACTORS
330
47
102
}
330
47
100
AcDbScale
 70
     0
300
1'-0" = 1'-0"
140
12.0
141
12.0
290
     0
  0
ENDSEC
  0
EOF
