  0
SECTION
  2
HEADER
  9
$ACADVER
  1
AC1015
  9
$ACADMAINTVER
 70
     6
  9
$DWGCODEPAGE
  3
ANSI_949
  9
$INSBASE
 10
0.0
 20
0.0
 30
0.0
  9
$EXTMIN
 10
-70.40388583383692
 20
-49.97180738881175
 30
0.0
  9
$EXTMAX
 10
95.9884838153456
 20
51.55822874227098
 30
0.0
  9
$LIMMIN
 10
0.0
 20
0.0
  9
$LIMMAX
 10
420.0
 20
297.0
  9
$ORTHOMODE
 70
     1
  9
$REGENMODE
 70
     1
  9
$FILLMODE
 70
     1
  9
$QTEXTMODE
 70
     0
  9
$MIRRTEXT
 70
     1
  9
$LTSCALE
 40
1.0
  9
$ATTMODE
 70
     1
  9
$TEXTSIZE
 40
3.5
  9
$TRACEWID
 40
1.0
  9
$TEXTSTYLE
  7
Standard
  9
$CLAYER
  8
0
  9
$CELTYPE
  6
ByLayer
  9
$CECOLOR
 62
   256
  9
$CELTSCALE
 40
1.0
  9
$DISPSILH
 70
     0
  9
$DIMSCALE
 40
1.0
  9
$DIMASZ
 40
3.302
  9
$DIMEXO
 40
1.0
  9
$DIMDLI
 40
3.75
  9
$DIMRND
 40
0.0
  9
$DIMDLE
 40
0.0
  9
$DIMEXE
 40
1.0
  9
$DIMTP
 40
0.0
  9
$DIMTM
 40
0.0
  9
$DIMTXT
 40
3.5
  9
$DIMCEN
 40
2.5
  9
$DIMTSZ
 40
0.0
  9
$DIMTOL
 70
     0
  9
$DIMLIM
 70
     0
  9
$DIMTIH
 70
     1
  9
$DIMTOH
 70
     1
  9
$DIMSE1
 70
     0
  9
$DIMSE2
 70
     0
  9
$DIMTAD
 70
     1
  9
$DIMZIN
 70
     0
  9
$DIMBLK
  1

  9
$DIMASO
 70
     1
  9
$DIMSHO
 70
     1
  9
$DIMPOST
  1

  9
$DIMAPOST
  1

  9
$DIMALT
 70
     0
  9
$DIMALTD
 70
     3
  9
$DIMALTF
 40
0.0393700787401575
  9
$DIMLFAC
 40
1.0
  9
$DIMTOFL
 70
     1
  9
$DIMTVP
 40
0.0
  9
$DIMTIX
 70
     0
  9
$DIMSOXD
 70
     0
  9
$DIMSAH
 70
     0
  9
$DIMBLK1
  1

  9
$DIMBLK2
  1

  9
$DIMSTYLE
  2
ISO-25
  9
$DIMCLRD
 70
     0
  9
$DIMCLRE
 70
     0
  9
$DIMCLRT
 70
     0
  9
$DIMTFAC
 40
1.0
  9
$DIMGAP
 40
1.524
  9
$DIMJUST
 70
     0
  9
$DIMSD1
 70
     0
  9
$DIMSD2
 70
     0
  9
$DIMTOLJ
 70
     0
  9
$DIMTZIN
 70
     0
  9
$DIMALTZ
 70
     0
  9
$DIMALTTZ
 70
     0
  9
$DIMUPT
 70
     0
  9
$DIMDEC
 70
     2
  9
$DIMTDEC
 70
     2
  9
$DIMALTU
 70
     2
  9
$DIMALTTD
 70
     3
  9
$DIMTXSTY
  7
Standard
  9
$DIMAUNIT
 70
     0
  9
$DIMADEC
 70
     2
  9
$DIMALTRND
 40
0.0
  9
$DIMAZIN
 70
     0
  9
$DIMDSEP
 70
    44
  9
$DIMATFIT
 70
     3
  9
$DIMFRAC
 70
     0
  9
$DIMLDRBLK
  1

  9
$DIMLUNIT
 70
     2
  9
$DIMLWD
 70
    -2
  9
$DIMLWE
 70
    -2
  9
$DIMTMOVE
 70
     0
  9
$LUNITS
 70
     2
  9
$LUPREC
 70
     2
  9
$SKETCHINC
 40
1.0
  9
$FILLETRAD
 40
10.0
  9
$AUNITS
 70
     0
  9
$AUPREC
 70
     2
  9
$MENU
  1
.
  9
$ELEVATION
 40
0.0
  9
$PELEVATION
 40
0.0
  9
$THICKNESS
 40
0.0
  9
$LIMCHECK
 70
     0
  9
$CHAMFERA
 40
0.0
  9
$CHAMFERB
 40
0.0
  9
$CHAMFERC
 40
0.0
  9
$CHAMFERD
 40
0.0
  9
$SKPOLY
 70
     0
  9
$TDCREATE
 40
2458323.744972431
  9
$TDUCREATE
 40
2458323.369972431
  9
$TDUPDATE
 40
2458324.475345822
  9
$TDUUPDATE
 40
2458324.100345822
  9
$TDINDWG
 40
0.0055952083
  9
$TDUSRTIMER
 40
2458324.095644363
  9
$USRTIMER
 70
     1
  9
$ANGBASE
 50
0.0
  9
$ANGDIR
 70
     0
  9
$PDMODE
 70
     0
  9
$PDSIZE
 40
-1.0
  9
$PLINEWID
 40
0.0
  9
$SPLFRAME
 70
     0
  9
$SPLINETYPE
 70
     6
  9
$SPLINESEGS
 70
     8
  9
$HANDSEED
  5
497
  9
$SURFTAB1
 70
     6
  9
$SURFTAB2
 70
     6
  9
$SURFTYPE
 70
     6
  9
$SURFU
 70
     6
  9
$SURFV
 70
     6
  9
$UCSBASE
  2

  9
$UCSNAME
  2

  9
$UCSORG
 10
0.0
 20
0.0
 30
0.0
  9
$UCSXDIR
 10
1.0
 20
0.0
 30
0.0
  9
$UCSYDIR
 10
0.0
 20
1.0
 30
0.0
  9
$UCSORTHOREF
  2

  9
$UCSORTHOVIEW
 70
     0
  9
$UCSORGTOP
 10
0.0
 20
0.0
 30
0.0
  9
$UCSORGBOTTOM
 10
0.0
 20
0.0
 30
0.0
  9
$UCSORGLEFT
 10
0.0
 20
0.0
 30
0.0
  9
$UCSORGRIGHT
 10
0.0
 20
0.0
 30
0.0
  9
$UCSORGFRONT
 10
0.0
 20
0.0
 30
0.0
  9
$UCSORGBACK
 10
0.0
 20
0.0
 30
0.0
  9
$PUCSBASE
  2

  9
$PUCSNAME
  2

  9
$PUCSORG
 10
0.0
 20
0.0
 30
0.0
  9
$PUCSXDIR
 10
1.0
 20
0.0
 30
0.0
  9
$PUCSYDIR
 10
0.0
 20
1.0
 30
0.0
  9
$PUCSORTHOREF
  2

  9
$PUCSORTHOVIEW
 70
     0
  9
$PUCSORGTOP
 10
0.0
 20
0.0
 30
0.0
  9
$PUCSORGBOTTOM
 10
0.0
 20
0.0
 30
0.0
  9
$PUCSORGLEFT
 10
0.0
 20
0.0
 30
0.0
  9
$PUCSORGRIGHT
 10
0.0
 20
0.0
 30
0.0
  9
$PUCSORGFRONT
 10
0.0
 20
0.0
 30
0.0
  9
$PUCSORGBACK
 10
0.0
 20
0.0
 30
0.0
  9
$USERI1
 70
     0
  9
$USERI2
 70
     0
  9
$USERI3
 70
     0
  9
$USERI4
 70
     0
  9
$USERI5
 70
     0
  9
$USERR1
 40
0.0
  9
$USERR2
 40
0.0
  9
$USERR3
 40
0.0
  9
$USERR4
 40
0.0
  9
$USERR5
 40
0.0
  9
$WORLDVIEW
 70
     1
  9
$SHADEDGE
 70
     3
  9
$SHADEDIF
 70
    70
  9
$TILEMODE
 70
     1
  9
$MAXACTVP
 70
    64
  9
$PINSBASE
 10
0.0
 20
0.0
 30
0.0
  9
$PLIMCHECK
 70
     0
  9
$PEXTMIN
 10
1.000000000000000E+20
 20
1.000000000000000E+20
 30
1.000000000000000E+20
  9
$PEXTMAX
 10
-1.000000000000000E+20
 20
-1.000000000000000E+20
 30
-1.000000000000000E+20
  9
$PLIMMIN
 10
0.0
 20
0.0
  9
$PLIMMAX
 10
0.0
 20
0.0
  9
$UNITMODE
 70
     0
  9
$VISRETAIN
 70
     1
  9
$PLINEGEN
 70
     0
  9
$PSLTSCALE
 70
     1
  9
$TREEDEPTH
 70
  3020
  9
$CMLSTYLE
  2
Standard
  9
$CMLJUST
 70
     0
  9
$CMLSCALE
 40
20.0
  9
$PROXYGRAPHICS
 70
     1
  9
$MEASUREMENT
 70
     1
  9
$CELWEIGHT
370
    -1
  9
$ENDCAPS
280
     0
  9
$JOINSTYLE
280
     0
  9
$LWDISPLAY
290
     1
  9
$INSUNITS
 70
     4
  9
$HYPERLINKBASE
  1

  9
$STYLESHEET
  1

  9
$XEDIT
290
     1
  9
$CEPSNTYPE
380
     0
  9
$PSTYLEMODE
290
     1
  9
$FINGERPRINTGUID
  2
{D4F3C5B8-3343-4893-9C46-8210033A3FDA}
  9
$VERSIONGUID
  2
{FAEB1C32-E019-11D5-929B-00C0DF256EC4}
  9
$EXTNAMES
290
     1
  9
$PSVPSCALE
 40
0.0
  9
$OLESTARTUP
290
     0
  0
ENDSEC
  0
SECTION
  2
CLASSES
  0
CLASS
  1
ACDBDICTIONARYWDFLT
  2
AcDbDictionaryWithDefault
  3
ObjectDBX Classes
 90
        0
280
     0
281
     0
  0
CLASS
  1
VISUALSTYLE
  2
AcDbVisualStyle
  3
ObjectDBX Classes
 90
     4095
280
     0
281
     0
  0
CLASS
  1
MATERIAL
  2
AcDbMaterial
  3
ObjectDBX Classes
 90
     1153
280
     0
281
     0
  0
CLASS
  1
SCALE
  2
AcDbScale
  3
ObjectDBX Classes
 90
     1153
280
     0
281
     0
  0
CLASS
  1
SUN
  2
AcDbSun
  3
SCENEOE
 90
     1153
280
     0
281
     0
  0
CLASS
  1
ACDBPLACEHOLDER
  2
AcDbPlaceHolder
  3
ObjectDBX Classes
 90
        0
280
     0
281
     0
  0
CLASS
  1
LAYOUT
  2
AcDbLayout
  3
ObjectDBX Classes
 90
        0
280
     0
281
     0
  0
CLASS
  1
TABLESTYLE
  2
AcDbTableStyle
  3
ObjectDBX Classes
 90
     4095
280
     0
281
     0
  0
CLASS
  1
MLEADERSTYLE
  2
AcDbMLeaderStyle
  3
ACDB_MLEADERSTYLE_CLASS
 90
     4095
280
     0
281
     0
  0
CLASS
  1
RASTERVARIABLES
  2
AcDbRasterVariables
  3
ISM
 90
        0
280
     0
281
     0
  0
CLASS
  1
DIMASSOC
  2
AcDbDimAssoc
  3
"AcDbDimAssoc|Product Desc:     AcDim ARX App For Dimension|Company:          Autodesk, Inc.|WEB Address:      www.autodesk.com"
 90
        0
280
     0
281
     0
  0
ENDSEC
  0
SECTION
  2
TABLES
  0
TABLE
  2
VPORT
  5
8
330
0
100
AcDbSymbolTable
 70
     1
  0
VPORT
  5
29
330
8
100
AcDbSymbolTableRecord
100
AcDbViewportTableRecord
  2
*Active
 70
     0
 10
0.0
 20
0.0
 11
1.0
 21
1.0
 12
14.02152070154487
 22
-7.310114485011312
 13
0.0
 23
0.0
 14
10.0
 24
10.0
 15
10.0
 25
10.0
 16
0.0
 26
0.0
 36
1.0
 17
0.0
 27
0.0
 37
0.0
 40
140.465429601669
 41
1.970186335403727
 42
50.0
 43
0.0
 44
0.0
 50
0.0
 51
0.0
 71
    16
 72
  2000
 73
     1
 74
     3
 75
     0
 76
     0
 77
     0
 78
     0
281
     0
 65
     1
110
0.0
120
0.0
130
0.0
111
1.0
121
0.0
131
0.0
112
0.0
122
1.0
132
0.0
 79
     0
146
0.0
  0
ENDTAB
  0
TABLE
  2
LTYPE
  5
5
330
0
100
AcDbSymbolTable
 70
     6
  0
LTYPE
  5
14
330
5
100
AcDbSymbolTableRecord
100
AcDbLinetypeTableRecord
  2
ByBlock
 70
     0
  3

 72
    65
 73
     0
 40
0.0
  0
LTYPE
  5
15
330
5
100
AcDbSymbolTableRecord
100
AcDbLinetypeTableRecord
  2
ByLayer
 70
     0
  3

 72
    65
 73
     0
 40
0.0
  0
LTYPE
  5
16
330
5
100
AcDbSymbolTableRecord
100
AcDbLinetypeTableRecord
  2
Continuous
 70
     0
  3
Solid line
 72
    65
 73
     0
 40
0.0
  0
LTYPE
  5
6A
330
5
100
AcDbSymbolTableRecord
100
AcDbLinetypeTableRecord
  2
HIDDEN
 70
     0
  3
Hidden __ __ __ __ __ __ __ __ __ __ __ __ __ __
 72
    65
 73
     2
 40
1.905
 49
1.27
 74
     0
 49
-0.635
 74
     0
  0
LTYPE
  5
6B
330
5
100
AcDbSymbolTableRecord
100
AcDbLinetypeTableRecord
  2
PHANTOM
 70
     0
  3
Phantom ______  __  __  ______  __  __  ______
 72
    65
 73
     6
 40
12.7
 49
6.35
 74
     0
 49
-1.27
 74
     0
 49
1.27
 74
     0
 49
-1.27
 74
     0
 49
1.27
 74
     0
 49
-1.27
 74
     0
  0
LTYPE
  5
6C
330
5
100
AcDbSymbolTableRecord
100
AcDbLinetypeTableRecord
  2
CENTER
 70
     0
  3
Center ____ _ ____ _ ____ _ ____ _ ____ _ ____
 72
    65
 73
     4
 40
10.16
 49
6.35
 74
     0
 49
-1.27
 74
     0
 49
1.27
 74
     0
 49
-1.27
 74
     0
  0
LTYPE
  5
6D
330
5
100
AcDbSymbolTableRecord
100
AcDbLinetypeTableRecord
  2
CENTERX2
 70
     0
  3
Center (2x) ________  __  ________  __  _____
 72
    65
 73
     4
 40
20.32
 49
12.7
 74
     0
 49
-2.54
 74
     0
 49
2.54
 74
     0
 49
-2.54
 74
     0
  0
LTYPE
  5
6E
330
5
100
AcDbSymbolTableRecord
100
AcDbLinetypeTableRecord
  2
DOT2
 70
     0
  3
Dot (.5x) ........................................
 72
    65
 73
     2
 40
0.635
 49
0.0
 74
     0
 49
-0.635
 74
     0
  0
ENDTAB
  0
TABLE
  2
LAYER
  5
2
102
{ACAD_XDICTIONARY
360
206
102
}
330
0
100
AcDbSymbolTable
 70
    18
  0
LAYER
  5
10
330
2
100
AcDbSymbolTableRecord
100
AcDbLayerTableRecord
  2
0
 70
     0
 62
     7
  6
Continuous
370
    -3
390
F
  0
LAYER
  5
6F
330
2
100
AcDbSymbolTableRecord
100
AcDbLayerTableRecord
  2
FORMAT
 70
     0
 62
     2
  6
Continuous
370
    -3
390
F
  0
LAYER
  5
70
330
2
100
AcDbSymbolTableRecord
100
AcDbLayerTableRecord
  2
외형선
 70
     0
 62
     4
  6
Continuous
370
    30
390
F
  0
LAYER
  5
71
330
2
100
AcDbSymbolTableRecord
100
AcDbLayerTableRecord
  2
숨은선
 70
     0
 62
     2
  6
HIDDEN
370
    15
390
F
  0
LAYER
  5
72
330
2
100
AcDbSymbolTableRecord
100
AcDbLayerTableRecord
  2
중심선
 70
     0
 62
     1
  6
CENTERX2
370
    -3
390
F
  0
LAYER
  5
73
330
2
100
AcDbSymbolTableRecord
100
AcDbLayerTableRecord
  2
파단선
 70
     0
 62
     4
  6
Continuous
370
    -3
390
F
  0
LAYER
  5
74
330
2
100
AcDbSymbolTableRecord
100
AcDbLayerTableRecord
  2
해칭선
 70
     0
 62
   100
  6
Continuous
370
    -3
390
F
  0
LAYER
  5
75
330
2
100
AcDbSymbolTableRecord
100
AcDbLayerTableRecord
  2
가는실선
 70
     0
 62
     4
  6
Continuous
370
    -3
390
F
  0
LAYER
  5
76
330
2
100
AcDbSymbolTableRecord
100
AcDbLayerTableRecord
  2
치수_보조선
 70
     0
 62
     4
  6
Continuous
370
    -3
390
F
  0
LAYER
  5
77
330
2
100
AcDbSymbolTableRecord
100
AcDbLayerTableRecord
  2
치수문자_일반주서
 70
     0
 62
     7
  6
Continuous
370
    15
390
F
  0
LAYER
  5
78
330
2
100
AcDbSymbolTableRecord
100
AcDbLayerTableRecord
  2
개별주서
 70
     0
 62
   100
  6
Continuous
370
    30
390
F
  0
LAYER
  5
79
330
2
100
AcDbSymbolTableRecord
100
AcDbLayerTableRecord
  2
중간선
 70
     0
 62
     2
  6
Continuous
370
    15
390
F
  0
LAYER
  5
7A
330
2
100
AcDbSymbolTableRecord
100
AcDbLayerTableRecord
  2
윤곽선
 70
     0
 62
     3
  6
Continuous
370
    40
390
F
  0
LAYER
  5
7B
330
2
100
AcDbSymbolTableRecord
100
AcDbLayerTableRecord
  2
중심마크
 70
     0
 62
   100
  6
Continuous
370
    30
390
F
  0
LAYER
  5
7C
330
2
100
AcDbSymbolTableRecord
100
AcDbLayerTableRecord
  2
가상선
 70
     0
 62
     4
  6
PHANTOM
370
    -3
390
F
  0
LAYER
  5
7D
330
2
100
AcDbSymbolTableRecord
100
AcDbLayerTableRecord
  2
특수지정선
 70
     0
 62
     5
  6
CENTERX2
370
    60
390
F
  0
LAYER
  5
7E
330
2
100
AcDbSymbolTableRecord
100
AcDbLayerTableRecord
  2
참조1
 70
     0
 62
    -4
  6
Continuous
370
    -3
390
F
  0
LAYER
  5
14E
330
2
100
AcDbSymbolTableRecord
100
AcDbLayerTableRecord
  2
Defpoints
 70
     0
 62
     7
  6
Continuous
290
     0
370
    -3
390
F
  0
ENDTAB
  0
TABLE
  2
STYLE
  5
3
330
0
100
AcDbSymbolTable
 70
     2
  0
STYLE
  5
11
330
3
100
AcDbSymbolTableRecord
100
AcDbTextStyleTableRecord
  2
Standard
 70
     0
 40
0.0
 41
1.0
 50
0.0
 71
     0
 42
3.5
  3
txt
  4

  0
STYLE
  5
94
330
3
100
AcDbSymbolTableRecord
100
AcDbTextStyleTableRecord
  2
SLDTEXTSTYLE0
 70
     0
 40
0.0
 41
0.75
 50
0.0
 71
     0
 42
3.5
  3
TXT
  4

  0
ENDTAB
  0
TABLE
  2
VIEW
  5
6
330
0
100
AcDbSymbolTable
 70
     0
  0
ENDTAB
  0
TABLE
  2
UCS
  5
7
330
0
100
AcDbSymbolTable
 70
     0
  0
ENDTAB
  0
TABLE
  2
APPID
  5
9
330
0
100
AcDbSymbolTable
 70
     3
  0
APPID
  5
12
330
9
100
AcDbSymbolTableRecord
100
AcDbRegAppTableRecord
  2
ACAD
 70
     0
  0
APPID
  5
158
330
9
100
AcDbSymbolTableRecord
100
AcDbRegAppTableRecord
  2
PE_URL
 70
     0
  0
APPID
  5
159
330
9
100
AcDbSymbolTableRecord
100
AcDbRegAppTableRecord
  2
ACAD_DSTYLE_DIMRADIAL_EXTENSION
 70
     0
  0
ENDTAB
  0
TABLE
  2
DIMSTYLE
  5
A
330
0
100
AcDbSymbolTable
 70
     4
100
AcDbDimStyleTable
  0
DIMSTYLE
105
27
330
A
100
AcDbSymbolTableRecord
100
AcDbDimStyleTableRecord
  2
ISO-25
 70
     0
 41
2.5
 42
0.625
 43
3.75
 44
1.25
 73
     0
 74
     0
 77
     1
 78
     8
140
2.5
141
2.5
143
0.03937007874016
147
0.625
171
     3
172
     1
178
     0
271
     2
272
     2
274
     3
278
    44
283
     0
284
     8
340
11
  0
DIMSTYLE
105
CC
330
A
100
AcDbSymbolTableRecord
100
AcDbDimStyleTableRecord
  2
SLDDIMSTYLE0
 70
     0
 41
3.302
 44
0.0
 45
0.000000001
 73
     0
 74
     0
 77
     1
 78
    12
 79
     3
140
3.5
143
0.0393700787401575
147
0.875
148
0.000000001
170
     1
172
     1
173
     1
178
     0
271
     2
272
     2
276
     2
284
    12
289
     0
340
94
  0
DIMSTYLE
105
E1
330
A
100
AcDbSymbolTableRecord
100
AcDbDimStyleTableRecord
  2
SLDDIMSTYLE1
 70
     0
 41
3.302
 44
0.0
 45
0.000000001
 73
     0
 74
     0
 77
     1
 78
     4
 79
     1
140
3.5
143
0.0393700787401575
147
0.875
148
0.000000001
170
     1
173
     1
178
     0
271
     2
272
     2
276
     2
284
    12
340
94
  0
DIMSTYLE
105
108
102
{ACAD_REACTORS
330
3EA
330
3EB
330
3EC
330
3ED
330
489
102
}
330
A
100
AcDbSymbolTableRecord
100
AcDbDimStyleTableRecord
  2
SLDDIMSTYLE2
 70
     0
 41
3.302
 44
0.0
 45
0.000000001
 73
     0
 74
     0
 77
     1
 78
    12
 79
     3
140
3.5
143
0.0393700787401575
147
0.875
148
0.000000001
170
     1
173
     1
178
     0
271
     2
272
     2
276
     2
284
    12
340
94
  0
ENDTAB
  0
TABLE
  2
BLOCK_RECORD
  5
1
330
0
100
AcDbSymbolTable
 70
    30
  0
BLOCK_RECORD
  5
1F
330
1
100
AcDbSymbolTableRecord
100
AcDbBlockTableRecord
  2
*Model_Space
340
22
  0
BLOCK_RECORD
  5
1B
330
1
100
AcDbSymbolTableRecord
100
AcDbBlockTableRecord
  2
*Paper_Space
340
1E
  0
BLOCK_RECORD
  5
23
330
1
100
AcDbSymbolTableRecord
100
AcDbBlockTableRecord
  2
*Paper_Space0
340
26
  0
BLOCK_RECORD
  5
7F
330
1
100
AcDbSymbolTableRecord
100
AcDbBlockTableRecord
  2
블럭10
340
0
102
{BLKREFS
331
3E3
102
}
  0
BLOCK_RECORD
  5
CD
330
1
100
AcDbSymbolTableRecord
100
AcDbBlockTableRecord
  2
_D
340
0
  0
BLOCK_RECORD
  5
E2
330
1
100
AcDbSymbolTableRecord
100
AcDbBlockTableRecord
  2
_D_1
340
0
  0
BLOCK_RECORD
  5
F5
330
1
100
AcDbSymbolTableRecord
100
AcDbBlockTableRecord
  2
_D_2
340
0
  0
BLOCK_RECORD
  5
109
330
1
100
AcDbSymbolTableRecord
100
AcDbBlockTableRecord
  2
_D_3
340
0
  0
BLOCK_RECORD
  5
122
330
1
100
AcDbSymbolTableRecord
100
AcDbBlockTableRecord
  2
SW_DOWELSYMBOL_0
340
0
102
{BLKREFS
331
3EE
102
}
  0
BLOCK_RECORD
  5
1ED
330
1
100
AcDbSymbolTableRecord
100
AcDbBlockTableRecord
  2
*D7
340
0
  0
BLOCK_RECORD
  5
1F8
330
1
100
AcDbSymbolTableRecord
100
AcDbBlockTableRecord
  2
*D8
340
0
  0
BLOCK_RECORD
  5
20A
330
1
100
AcDbSymbolTableRecord
100
AcDbBlockTableRecord
  2
*D9
340
0
  0
BLOCK_RECORD
  5
216
330
1
100
AcDbSymbolTableRecord
100
AcDbBlockTableRecord
  2
*D10
340
0
  0
BLOCK_RECORD
  5
222
330
1
100
AcDbSymbolTableRecord
100
AcDbBlockTableRecord
  2
*D11
340
0
  0
BLOCK_RECORD
  5
27D
330
1
100
AcDbSymbolTableRecord
100
AcDbBlockTableRecord
  2
*D12
340
0
  0
BLOCK_RECORD
  5
289
330
1
100
AcDbSymbolTableRecord
100
AcDbBlockTableRecord
  2
*D13
340
0
  0
BLOCK_RECORD
  5
295
330
1
100
AcDbSymbolTableRecord
100
AcDbBlockTableRecord
  2
*D14
340
0
  0
BLOCK_RECORD
  5
2A3
330
1
100
AcDbSymbolTableRecord
100
AcDbBlockTableRecord
  2
*D15
340
0
  0
BLOCK_RECORD
  5
2AD
330
1
100
AcDbSymbolTableRecord
100
AcDbBlockTableRecord
  2
*D16
340
0
  0
BLOCK_RECORD
  5
2C6
330
1
100
AcDbSymbolTableRecord
100
AcDbBlockTableRecord
  2
*D17
340
0
  0
BLOCK_RECORD
  5
388
330
1
100
AcDbSymbolTableRecord
100
AcDbBlockTableRecord
  2
*D18
340
0
  0
BLOCK_RECORD
  5
395
330
1
100
AcDbSymbolTableRecord
100
AcDbBlockTableRecord
  2
*D19
340
0
  0
BLOCK_RECORD
  5
3A1
330
1
100
AcDbSymbolTableRecord
100
AcDbBlockTableRecord
  2
*D20
340
0
  0
BLOCK_RECORD
  5
3AD
330
1
100
AcDbSymbolTableRecord
100
AcDbBlockTableRecord
  2
*D21
340
0
  0
BLOCK_RECORD
  5
3F2
330
1
100
AcDbSymbolTableRecord
100
AcDbBlockTableRecord
  2
*D22
340
0
  0
BLOCK_RECORD
  5
3FF
330
1
100
AcDbSymbolTableRecord
100
AcDbBlockTableRecord
  2
*D23
340
0
  0
BLOCK_RECORD
  5
40B
330
1
100
AcDbSymbolTableRecord
100
AcDbBlockTableRecord
  2
*D24
340
0
  0
BLOCK_RECORD
  5
417
330
1
100
AcDbSymbolTableRecord
100
AcDbBlockTableRecord
  2
*D25
340
0
  0
BLOCK_RECORD
  5
427
330
1
100
AcDbSymbolTableRecord
100
AcDbBlockTableRecord
  2
*D26
340
0
  0
BLOCK_RECORD
  5
45E
330
1
100
AcDbSymbolTableRecord
100
AcDbBlockTableRecord
  2
*D27
340
0
  0
BLOCK_RECORD
  5
473
330
1
100
AcDbSymbolTableRecord
100
AcDbBlockTableRecord
  2
*D28
340
0
  0
BLOCK_RECORD
  5
48C
330
1
100
AcDbSymbolTableRecord
100
AcDbBlockTableRecord
  2
*D29
340
0
  0
ENDTAB
  0
ENDSEC
  0
SECTION
  2
BLOCKS
  0
BLOCK
  5
20
330
1F
100
AcDbEntity
  8
0
100
AcDbBlockBegin
  2
*Model_Space
 70
     0
 10
0.0
 20
0.0
 30
0.0
  3
*Model_Space
  1
*Model_Space
  0
ENDBLK
  5
21
330
1F
100
AcDbEntity
  8
0
100
AcDbBlockEnd
  0
BLOCK
  5
1C
330
1B
100
AcDbEntity
 67
     1
  8
0
100
AcDbBlockBegin
  2
*Paper_Space
 70
     0
 10
0.0
 20
0.0
 30
0.0
  3
*Paper_Space
  1
*Paper_Space
  0
ENDBLK
  5
1D
330
1B
100
AcDbEntity
 67
     1
  8
0
100
AcDbBlockEnd
  0
BLOCK
  5
24
330
23
100
AcDbEntity
  8
0
100
AcDbBlockBegin
  2
*Paper_Space0
 70
     0
 10
0.0
 20
0.0
 30
0.0
  3
*Paper_Space0
  1
*Paper_Space0
  0
ENDBLK
  5
25
330
23
100
AcDbEntity
  8
0
100
AcDbBlockEnd
  0
BLOCK
  5
80
330
7F
100
AcDbEntity
  8
0
100
AcDbBlockBegin
  2
블럭10
 70
     2
 10
0.0
 20
0.0
 30
0.0
  3
블럭10
  1
블럭10
  0
ELLIPSE
  5
82
330
7F
100
AcDbEntity
  8
중심선
100
AcDbEllipse
 10
20.54032771741204
 20
12.0471743016438
 30
0.0
 11
6.600054785286829
 21
-1.261213355974178E-13
 31
0.0
210
0.0
220
0.0
230
1.0
 40
0.636358354079598
 41
0.9219305317359503
 42
6.513795318482858
  0
ELLIPSE
  5
83
330
7F
100
AcDbEntity
  8
중심선
100
AcDbEllipse
 10
20.54032771746488
 20
12.04717430159265
 30
0.0
 11
3.960054785062283
 21
1.540847449632565E-10
 31
0.0
210
0.0
220
0.0
230
1.0
 40
0.3939339440162632
 41
1.131841032648279
 42
5.62031148352944
  0
LINE
  5
84
330
7F
100
AcDbEntity
  8
중심선
100
AcDbLine
 10
2.268634060543552
 20
16.24717430164393
 30
0.0
 11
5.714909304380834
 21
16.24717430164393
 31
0.0
  0
LINE
  5
85
330
7F
100
AcDbEntity
  8
중심선
100
AcDbLine
 10
5.245725140726316
 20
7.84717430164391
 30
0.0
 11
8.692000384563599
 21
7.84717430164391
 31
0.0
  0
LINE
  5
86
330
7F
100
AcDbEntity
  8
중심선
100
AcDbLine
 10
15.74043728645272
 20
16.24717430164393
 30
0.0
 11
8.692000384563599
 21
7.84717430164391
 31
0.0
  0
LINE
  5
87
330
7F
100
AcDbEntity
  8
중심선
100
AcDbLine
 10
0.1404042013395286
 20
13.71084872107135
 30
0.0
 11
3.58671253028996
 21
13.71088815037384
 31
0.0
  0
LINE
  5
88
330
7F
100
AcDbEntity
  8
중심선
100
AcDbLine
 10
2.750260043222114
 20
10.84717430164391
 30
0.0
 11
6.196535287059397
 21
10.84717430164391
 31
0.0
  0
LINE
  5
89
330
7F
100
AcDbEntity
  8
중심선
100
AcDbLine
 10
12.29416204261559
 20
16.24717430164393
 30
0.0
 11
5.245725140726316
 21
7.84717430164391
 31
0.0
  0
LINE
  5
8A
330
7F
100
AcDbEntity
  8
중심선
100
AcDbLine
 10
10.72767329541681
 20
16.24717430164393
 30
0.0
 11
6.196535287059397
 21
10.84717430164391
 31
0.0
  0
LINE
  5
8B
330
7F
100
AcDbEntity
  8
중심선
100
AcDbLine
 10
7.28139805157953
 20
16.24717430164393
 30
0.0
 11
2.750260043222114
 21
10.84717430164391
 31
0.0
  0
LINE
  5
8C
330
7F
100
AcDbEntity
  8
중심선
100
AcDbLine
 10
5.714909304380834
 20
16.24717430164393
 30
0.0
 11
3.58671253028996
 21
13.71088815037384
 31
0.0
  0
LINE
  5
8D
330
7F
100
AcDbEntity
  8
중심선
100
AcDbLine
 10
2.268634060543552
 20
16.24717430164393
 30
0.0
 11
0.1404042013395286
 21
13.71084872107135
 31
0.0
  0
LINE
  5
8E
330
7F
100
AcDbEntity
  8
중심선
100
AcDbLine
 10
7.28139805157953
 20
16.24717430164393
 30
0.0
 11
10.72767329541681
 21
16.24717430164393
 31
0.0
  0
LINE
  5
8F
330
7F
100
AcDbEntity
  8
중심선
100
AcDbLine
 10
12.29416204261559
 20
16.24717430164393
 30
0.0
 11
15.74043728645272
 21
16.24717430164393
 31
0.0
  0
LINE
  5
90
330
7F
100
AcDbEntity
  8
중심선
100
AcDbLine
 10
19.22036997980202
 20
11.08717430171403
 30
0.0
 11
23.66174974927406
 21
11.08717430171406
 31
0.0
  0
LINE
  5
91
330
7F
100
AcDbEntity
  8
중심선
100
AcDbLine
 10
19.22039502424796
 20
13.00717430171391
 30
0.0
 11
19.22036997980202
 21
11.08717430171403
 31
0.0
  0
LINE
  5
92
330
7F
100
AcDbEntity
  8
중심선
100
AcDbLine
 10
19.22039502424796
 20
13.00717430171391
 30
0.0
 11
26.96566020931264
 21
13.00717430171391
 31
0.0
  0
LINE
  5
93
330
7F
100
AcDbEntity
  8
중심선
100
AcDbLine
 10
22.22332737316547
 20
13.45928029700563
 30
0.0
 11
24.52862924686651
 21
15.39360700705356
 31
0.0
  0
ATTDEF
  5
95
330
7F
100
AcDbEntity
  8
FORMAT
 62
     2
100
AcDbText
 10
4.408487351596664
 20
2.075366912832191
 30
0.0
 40
4.233333333333333
  1
E5216048
 41
0.75
  7
SLDTEXTSTYLE0
 11
4.408487351596664
 21
-0.0412997538344756
 31
0.0
100
AcDbAttributeDefinition
  3

  2
AUTOATTR0
 70
     0
 74
     1
  0
ENDBLK
  5
81
330
7F
100
AcDbEntity
  8
0
100
AcDbBlockEnd
  0
BLOCK
  5
CE
330
CD
100
AcDbEntity
  8
0
100
AcDbBlockBegin
  2
_D
 70
     0
 10
0.0
 20
0.0
 30
0.0
  3
_D
  1
_D
  0
LINE
  5
D0
330
CD
100
AcDbEntity
  8
치수문자_일반주서
 62
     0
370
    -2
100
AcDbLine
 10
-49.65750000000001
 20
9.525000000000007
 30
0.0
 11
-64.67573047760017
 21
9.524999999999952
 31
0.0
  0
LINE
  5
D1
330
CD
100
AcDbEntity
  8
치수문자_일반주서
 62
     0
370
    -2
100
AcDbLine
 10
-49.65750000000001
 20
-9.525000000000004
 30
0.0
 11
-64.6757304776001
 21
-9.525000000000059
 31
0.0
  0
LINE
  5
D2
330
CD
100
AcDbEntity
  8
치수문자_일반주서
 62
     0
370
    -2
100
AcDbLine
 10
-64.67573047760017
 20
9.524999999999952
 30
0.0
 11
-64.6757304776003
 21
45.77499999999995
 31
0.0
  0
LINE
  5
D3
330
CD
100
AcDbEntity
  8
치수문자_일반주서
 62
     0
370
    -2
100
AcDbLine
 10
-64.67573047760015
 20
5.524999999999952
 30
0.0
 11
-64.67573047760011
 21
-5.525000000000059
 31
0.0
  0
SOLID
  5
D4
330
CD
100
AcDbEntity
  8
치수문자_일반주서
 62
     0
100
AcDbTrace
 10
-64.00906381093348
 20
5.524999999999955
 30
0.0
 11
-65.34239714426683
 21
5.52499999999995
 31
0.0
 12
-64.67573047760017
 22
9.524999999999952
 32
0.0
 13
-64.67573047760017
 23
9.524999999999952
 33
0.0
  0
SOLID
  5
D5
330
CD
100
AcDbEntity
  8
치수문자_일반주서
 62
     0
100
AcDbTrace
 10
-65.34239714426678
 20
-5.525000000000062
 30
0.0
 11
-64.00906381093344
 21
-5.525000000000056
 31
0.0
 12
-64.6757304776001
 22
-9.525000000000059
 32
0.0
 13
-64.6757304776001
 23
-9.525000000000059
 33
0.0
  0
MTEXT
  5
D6
330
CD
100
AcDbEntity
  8
치수문자_일반주서
 62
     0
100
AcDbMText
 10
-69.55073047760024
 20
30.14999999999993
 30
0.0
 40
4.0
 41
0.0
 71
     2
 72
     1
  1
\A1;%%c19.05 [3/4]
  7
SLDTEXTSTYLE0
 11
-3.729883127349605E-15
 21
1.0
 31
0.0
 73
     1
 44
1.0
  0
POINT
  5
D7
330
CD
100
AcDbEntity
  8
Defpoints
 62
     0
100
AcDbPoint
 10
-49.59500000000001
 20
9.525000000000007
 30
0.0
  0
POINT
  5
D8
330
CD
100
AcDbEntity
  8
Defpoints
 62
     0
100
AcDbPoint
 10
-49.59500000000001
 20
-9.525000000000004
 30
0.0
  0
POINT
  5
2BD
330
CD
100
AcDbEntity
  8
Defpoints
 62
     0
100
AcDbPoint
 10
-64.67573047760011
 20
-9.52500000000006
 30
0.0
  0
ENDBLK
  5
CF
330
CD
100
AcDbEntity
  8
0
100
AcDbBlockEnd
  0
BLOCK
  5
E3
330
E2
100
AcDbEntity
  8
0
100
AcDbBlockBegin
  2
_D_1
 70
     0
 10
0.0
 20
0.0
 30
0.0
  3
_D_1
  1
_D_1
  0
LINE
  5
E5
330
E2
100
AcDbEntity
  8
치수문자_일반주서
 62
     0
370
    -2
100
AcDbLine
 10
50.1
 20
9.587500000000079
 30
0.0
 11
50.1
 21
20.11337375909717
 31
0.0
  0
LINE
  5
E6
330
E2
100
AcDbEntity
  8
치수문자_일반주서
 62
     0
370
    -2
100
AcDbLine
 10
11.99999999999999
 20
8.856318598599296
 30
0.0
 11
11.99999999999999
 21
20.11337375909717
 31
0.0
  0
LINE
  5
E7
330
E2
100
AcDbEntity
  8
치수문자_일반주서
 62
     0
370
    -2
100
AcDbLine
 10
46.1
 20
20.11337375909717
 30
0.0
 11
15.99999999999999
 21
20.11337375909717
 31
0.0
  0
SOLID
  5
E8
330
E2
100
AcDbEntity
  8
치수문자_일반주서
 62
     0
100
AcDbTrace
 10
46.1
 20
19.4467070924305
 30
0.0
 11
46.1
 21
20.78004042576384
 31
0.0
 12
50.1
 22
20.11337375909717
 32
0.0
 13
50.1
 23
20.11337375909717
 33
0.0
  0
SOLID
  5
E9
330
E2
100
AcDbEntity
  8
치수문자_일반주서
 62
     0
100
AcDbTrace
 10
15.99999999999999
 20
20.78004042576384
 30
0.0
 11
15.99999999999999
 21
19.4467070924305
 31
0.0
 12
11.99999999999999
 22
20.11337375909717
 32
0.0
 13
11.99999999999999
 23
20.11337375909717
 33
0.0
  0
MTEXT
  5
EA
330
E2
100
AcDbEntity
  8
치수문자_일반주서
 62
     0
100
AcDbMText
 10
30.47422263844656
 20
24.98837375909717
 30
0.0
 40
4.0
 41
0.0
 71
     2
 72
     1
  1
\A1;38.1 [1 1/2]
  7
SLDTEXTSTYLE0
 73
     1
 44
1.0
  0
POINT
  5
EB
330
E2
100
AcDbEntity
  8
Defpoints
 62
     0
100
AcDbPoint
 10
50.1
 20
9.525000000000079
 30
0.0
  0
POINT
  5
EC
330
E2
100
AcDbEntity
  8
Defpoints
 62
     0
100
AcDbPoint
 10
11.99999999999999
 20
8.793818598599296
 30
0.0
  0
POINT
  5
ED
330
E2
100
AcDbEntity
  8
Defpoints
 62
     0
100
AcDbPoint
 10
11.99999999999999
 20
20.11337375909717
 30
0.0
  0
ENDBLK
  5
E4
330
E2
100
AcDbEntity
  8
0
100
AcDbBlockEnd
  0
BLOCK
  5
F6
330
F5
100
AcDbEntity
  8
0
100
AcDbBlockBegin
  2
_D_2
 70
     0
 10
0.0
 20
0.0
 30
0.0
  3
_D_2
  1
_D_2
  0
LINE
  5
F8
330
F5
100
AcDbEntity
  8
치수문자_일반주서
 62
     0
370
    -2
100
AcDbLine
 10
50.1
 20
9.587500000000079
 30
0.0
 11
50.09999999999999
 21
43.52007903661281
 31
0.0
  0
LINE
  5
F9
330
F5
100
AcDbEntity
  8
치수문자_일반주서
 62
     0
370
    -2
100
AcDbLine
 10
-51.5
 20
7.682500000000011
 30
0.0
 11
-51.50000000000001
 21
43.52007903661281
 31
0.0
  0
LINE
  5
FA
330
F5
100
AcDbEntity
  8
치수문자_일반주서
 62
     0
370
    -2
100
AcDbLine
 10
46.09999999999999
 20
43.52007903661281
 30
0.0
 11
-47.50000000000001
 21
43.52007903661281
 31
0.0
  0
SOLID
  5
FB
330
F5
100
AcDbEntity
  8
치수문자_일반주서
 62
     0
100
AcDbTrace
 10
46.09999999999999
 20
42.85341236994615
 30
0.0
 11
46.09999999999999
 21
44.18674570327948
 31
0.0
 12
50.09999999999999
 22
43.52007903661281
 32
0.0
 13
50.09999999999999
 23
43.52007903661281
 33
0.0
  0
SOLID
  5
FC
330
F5
100
AcDbEntity
  8
치수문자_일반주서
 62
     0
100
AcDbTrace
 10
-47.50000000000001
 20
44.18674570327948
 30
0.0
 11
-47.50000000000001
 21
42.85341236994615
 31
0.0
 12
-51.50000000000001
 22
43.52007903661281
 32
0.0
 13
-51.50000000000001
 23
43.52007903661281
 33
0.0
  0
MTEXT
  5
FD
330
F5
100
AcDbEntity
  8
치수문자_일반주서
 62
     0
100
AcDbMText
 10
-0.6999999999999957
 20
48.39507903661281
 30
0.0
 40
4.0
 41
0.0
 71
     2
 72
     1
  1
\A1;101.6 [4]
  7
SLDTEXTSTYLE0
 73
     1
 44
1.0
  0
POINT
  5
FE
330
F5
100
AcDbEntity
  8
Defpoints
 62
     0
100
AcDbPoint
 10
50.1
 20
9.525000000000079
 30
0.0
  0
POINT
  5
FF
330
F5
100
AcDbEntity
  8
Defpoints
 62
     0
100
AcDbPoint
 10
-51.5
 20
7.620000000000011
 30
0.0
  0
POINT
  5
100
330
F5
100
AcDbEntity
  8
Defpoints
 62
     0
100
AcDbPoint
 10
-51.5
 20
43.52007903661281
 30
0.0
  0
ENDBLK
  5
F7
330
F5
100
AcDbEntity
  8
0
100
AcDbBlockEnd
  0
BLOCK
  5
10A
330
109
100
AcDbEntity
  8
0
100
AcDbBlockBegin
  2
_D_3
 70
     0
 10
0.0
 20
0.0
 30
0.0
  3
_D_3
  1
_D_3
  0
LINE
  5
10C
330
109
100
AcDbEntity
  8
치수문자_일반주서
 62
     0
370
    -2
100
AcDbLine
 10
50.1625
 20
9.525000000000079
 30
0.0
 11
64.72695597283241
 21
9.525000000000134
 31
0.0
  0
LINE
  5
10D
330
109
100
AcDbEntity
  8
치수문자_일반주서
 62
     0
370
    -2
100
AcDbLine
 10
50.16249999999999
 20
-9.524999999999999
 30
0.0
 11
64.72695597283249
 21
-9.524999999999945
 31
0.0
  0
LINE
  5
10E
330
109
100
AcDbEntity
  8
치수문자_일반주서
 62
     0
370
    -2
100
AcDbLine
 10
64.72695597283241
 20
9.525000000000134
 30
0.0
 11
64.72695597283229
 21
45.77500000000013
 31
0.0
  0
LINE
  5
10F
330
109
100
AcDbEntity
  8
치수문자_일반주서
 62
     0
370
    -2
100
AcDbLine
 10
64.72695597283243
 20
5.525000000000134
 30
0.0
 11
64.72695597283247
 21
-5.524999999999945
 31
0.0
  0
SOLID
  5
110
330
109
100
AcDbEntity
  8
치수문자_일반주서
 62
     0
100
AcDbTrace
 10
65.3936226394991
 20
5.525000000000136
 30
0.0
 11
64.06028930616576
 21
5.525000000000131
 31
0.0
 12
64.72695597283241
 22
9.525000000000134
 32
0.0
 13
64.72695597283241
 23
9.525000000000134
 33
0.0
  0
SOLID
  5
111
330
109
100
AcDbEntity
  8
치수문자_일반주서
 62
     0
100
AcDbTrace
 10
64.0602893061658
 20
-5.524999999999948
 30
0.0
 11
65.39362263949914
 21
-5.524999999999943
 31
0.0
 12
64.72695597283249
 22
-9.524999999999945
 32
0.0
 13
64.72695597283249
 23
-9.524999999999945
 33
0.0
  0
MTEXT
  5
112
330
109
100
AcDbEntity
  8
치수문자_일반주서
 62
     0
100
AcDbMText
 10
59.85195597283234
 20
30.15000000000011
 30
0.0
 40
4.0
 41
0.0
 71
     2
 72
     1
  1
\A1;%%c19.05 [3/4]
  7
SLDTEXTSTYLE0
 11
-3.729883127349592E-15
 21
1.0
 31
0.0
 73
     1
 44
1.0
  0
POINT
  5
113
330
109
100
AcDbEntity
  8
Defpoints
 62
     0
100
AcDbPoint
 10
50.1
 20
9.525000000000079
 30
0.0
  0
POINT
  5
114
330
109
100
AcDbEntity
  8
Defpoints
 62
     0
100
AcDbPoint
 10
50.09999999999999
 20
-9.524999999999999
 30
0.0
  0
POINT
  5
115
330
109
100
AcDbEntity
  8
Defpoints
 62
     0
100
AcDbPoint
 10
64.72695597283249
 20
-9.524999999999944
 30
0.0
  0
ENDBLK
  5
10B
330
109
100
AcDbEntity
  8
0
100
AcDbBlockEnd
  0
BLOCK
  5
123
330
122
100
AcDbEntity
  8
0
100
AcDbBlockBegin
  2
SW_DOWELSYMBOL_0
 70
     0
 10
0.0
 20
0.0
 30
0.0
  3
SW_DOWELSYMBOL_0
  1
SW_DOWELSYMBOL_0
  0
CIRCLE
  5
125
330
122
100
AcDbEntity
  8
해칭선
 62
     0
100
AcDbCircle
 10
0.0
 20
0.0
 30
0.0
 40
3.000000000000001
  0
HATCH
  5
126
330
122
100
AcDbEntity
  8
0
  6
Continuous
 62
     0
370
     0
100
AcDbHatch
 10
0.0
 20
0.0
 30
0.0
210
0.0
220
0.0
230
1.0
  2
SOLID
 70
     1
 71
     0
 91
        1
 92
        0
 93
        3
 72
     2
 10
0.0
 20
0.0
 40
3.000000000000001
 50
0.0
 51
90.0
 73
     1
 72
     1
 10
0.0
 20
3.000000000000001
 11
0.0
 21
0.0
 72
     1
 10
0.0
 20
0.0
 11
3.000000000000003
 21
0.0
 97
        0
 75
     0
 76
     1
 98
        1
 10
0.0
 20
0.0
  0
HATCH
  5
127
330
122
100
AcDbEntity
  8
0
  6
Continuous
 62
     0
370
     0
100
AcDbHatch
 10
0.0
 20
0.0
 30
0.0
210
0.0
220
0.0
230
1.0
  2
SOLID
 70
     1
 71
     0
 91
        1
 92
        0
 93
        3
 72
     2
 10
0.0
 20
0.0
 40
3.000000000000001
 50
180.0
 51
270.0000000000007
 73
     1
 72
     1
 10
0.0
 20
-3.000000000000001
 11
0.0
 21
0.0
 72
     1
 10
0.0
 20
0.0
 11
-3.000000000000003
 21
0.0
 97
        0
 75
     0
 76
     1
 98
        1
 10
0.0
 20
0.0
  0
ENDBLK
  5
124
330
122
100
AcDbEntity
  8
0
100
AcDbBlockEnd
  0
BLOCK
  5
1EE
330
1ED
100
AcDbEntity
  8
0
100
AcDbBlockBegin
  2
*D7
 70
     1
 10
0.0
 20
0.0
 30
0.0
  3
*D7
  1
*D19
  0
LINE
  5
1EF
330
1ED
100
AcDbEntity
  8
치수문자_일반주서
 62
     0
370
    -2
100
AcDbLine
 10
122.2075719207232
 20
21.09418497419865
 30
0.0
 11
145.7061677555407
 21
-7.320944101907674
 31
0.0
  0
MTEXT
  5
1F0
330
1ED
100
AcDbEntity
  8
치수문자_일반주서
 62
     0
100
AcDbMText
 10
140.03527720752
 20
4.047751970745924
 30
0.0
 40
4.0
 41
0.0
 71
     5
 72
     1
  1
\A1;R1 [R0.04]
  7
SLDTEXTSTYLE0
 11
0.6372880340174896
 21
-0.7706256949376417
 31
0.0
 73
     1
 44
1.0
  0
SOLID
  5
1F1
330
1ED
100
AcDbEntity
  8
치수문자_일반주서
 62
     0
100
AcDbTrace
 10
122.7213223840149
 20
21.51904366354364
 30
0.0
 11
121.6938214574314
 21
20.66932628485365
 31
0.0
 12
119.6584197846532
 22
24.17668775394921
 32
0.0
 13
119.6584197846532
 23
24.17668775394921
 33
0.0
  0
LINE
  5
1F2
330
1ED
100
AcDbEntity
  8
치수문자_일반주서
 62
     0
100
AcDbLine
 10
118.9311317506357
 20
24.94731344888685
 30
0.0
 11
119.1111317506357
 21
24.94731344888685
 31
0.0
  0
LINE
  5
1F3
330
1ED
100
AcDbEntity
  8
치수문자_일반주서
 62
     0
100
AcDbLine
 10
119.0211317506357
 20
24.85731344888685
 30
0.0
 11
119.0211317506357
 21
25.03731344888685
 31
0.0
  0
POINT
  5
1F4
330
1ED
100
AcDbEntity
  8
Defpoints
 62
     0
100
AcDbPoint
 10
119.6584197846532
 20
24.17668775394921
 30
0.0
  0
POINT
  5
230
330
1ED
100
AcDbEntity
  8
Defpoints
 62
     0
100
AcDbPoint
 10
119.0211317506357
 20
24.94731344888685
 30
0.0
  0
ENDBLK
  5
1F5
330
1ED
100
AcDbEntity
  8
0
100
AcDbBlockEnd
  0
BLOCK
  5
1F9
330
1F8
100
AcDbEntity
  8
0
100
AcDbBlockBegin
  2
*D8
 70
     1
 10
0.0
 20
0.0
 30
0.0
  3
*D8
  1
*D20
  0
LINE
  5
1FA
330
1F8
100
AcDbEntity
  8
치수문자_일반주서
 62
     0
370
    -2
100
AcDbLine
 10
120.0836317506357
 20
43.94731344888685
 30
0.0
 11
136.2577258430566
 21
43.94731344888685
 31
0.0
  0
LINE
  5
1FB
330
1F8
100
AcDbEntity
  8
치수문자_일반주서
 62
     0
370
    -2
100
AcDbLine
 10
120.0836317506357
 20
23.94731344888685
 30
0.0
 11
136.2577258430566
 21
23.94731344888685
 31
0.0
  0
LINE
  5
1FC
330
1F8
100
AcDbEntity
  8
치수문자_일반주서
 62
     0
370
    -2
100
AcDbLine
 10
136.2577258430566
 20
43.94731344888685
 30
0.0
 11
136.2577258430566
 21
23.94731344888685
 31
0.0
  0
LINE
  5
1FD
330
1F8
100
AcDbEntity
  8
치수문자_일반주서
 62
     0
370
    -2
100
AcDbLine
 10
136.2577258430566
 20
47.94731344888685
 30
0.0
 11
136.2577258430566
 21
51.94731344888685
 31
0.0
  0
LINE
  5
1FE
330
1F8
100
AcDbEntity
  8
치수문자_일반주서
 62
     0
370
    -2
100
AcDbLine
 10
136.2577258430566
 20
19.94731344888685
 30
0.0
 11
136.2577258430566
 21
15.94731344888685
 31
0.0
  0
SOLID
  5
1FF
330
1F8
100
AcDbEntity
  8
치수문자_일반주서
 62
     0
100
AcDbTrace
 10
135.59105917639
 20
47.94731344888685
 30
0.0
 11
136.9243925097233
 21
47.94731344888685
 31
0.0
 12
136.2577258430566
 22
43.94731344888685
 32
0.0
 13
136.2577258430566
 23
43.94731344888685
 33
0.0
  0
SOLID
  5
200
330
1F8
100
AcDbEntity
  8
치수문자_일반주서
 62
     0
100
AcDbTrace
 10
136.9243925097233
 20
19.94731344888685
 30
0.0
 11
135.59105917639
 21
19.94731344888685
 31
0.0
 12
136.2577258430566
 22
23.94731344888685
 32
0.0
 13
136.2577258430566
 23
23.94731344888685
 33
0.0
  0
MTEXT
  5
201
330
1F8
100
AcDbEntity
  8
치수문자_일반주서
 62
     0
100
AcDbMText
 10
133.3827258430566
 20
33.94731344888685
 30
0.0
 40
4.0
 41
0.0
 71
     5
 72
     1
  1
\A1;{%%c20}
  7
SLDTEXTSTYLE0
 11
0.0
 21
1.0
 31
0.0
 73
     1
 44
1.0
  0
POINT
  5
202
330
1F8
100
AcDbEntity
  8
Defpoints
 62
     0
100
AcDbPoint
 10
120.0211317506357
 20
43.94731344888685
 30
0.0
  0
POINT
  5
203
330
1F8
100
AcDbEntity
  8
Defpoints
 62
     0
100
AcDbPoint
 10
120.0211317506357
 20
23.94731344888685
 30
0.0
  0
POINT
  5
204
330
1F8
100
AcDbEntity
  8
Defpoints
 62
     0
100
AcDbPoint
 10
136.2577258430566
 20
23.94731344888685
 30
0.0
  0
ENDBLK
  5
205
330
1F8
100
AcDbEntity
  8
0
100
AcDbBlockEnd
  0
BLOCK
  5
20B
330
20A
100
AcDbEntity
  8
0
100
AcDbBlockBegin
  2
*D9
 70
     1
 10
0.0
 20
0.0
 30
0.0
  3
*D9
  1
*D10
  0
LINE
  5
20D
330
20A
100
AcDbEntity
  8
치수문자_일반주서
 62
     0
370
    -2
100
AcDbLine
 10
16.02113175063572
 20
43.50981344888685
 30
0.0
 11
16.02113175063573
 21
78.60979761696561
 31
0.0
  0
LINE
  5
20E
330
20A
100
AcDbEntity
  8
치수문자_일반주서
 62
     0
370
    -2
100
AcDbLine
 10
120.0211317506357
 20
44.00981344888685
 30
0.0
 11
120.0211317506357
 21
78.60979761696561
 31
0.0
  0
LINE
  5
20F
330
20A
100
AcDbEntity
  8
치수문자_일반주서
 62
     0
370
    -2
100
AcDbLine
 10
20.02113175063573
 20
78.60979761696561
 30
0.0
 11
116.0211317506357
 21
78.60979761696561
 31
0.0
  0
SOLID
  5
210
330
20A
100
AcDbEntity
  8
치수문자_일반주서
 62
     0
100
AcDbTrace
 10
20.02113175063573
 20
79.27646428363228
 30
0.0
 11
20.02113175063573
 21
77.94313095029894
 31
0.0
 12
16.02113175063573
 22
78.60979761696561
 32
0.0
 13
16.02113175063573
 23
78.60979761696561
 33
0.0
  0
SOLID
  5
211
330
20A
100
AcDbEntity
  8
치수문자_일반주서
 62
     0
100
AcDbTrace
 10
116.0211317506357
 20
77.94313095029894
 30
0.0
 11
116.0211317506357
 21
79.27646428363228
 31
0.0
 12
120.0211317506357
 22
78.60979761696561
 32
0.0
 13
120.0211317506357
 23
78.60979761696561
 33
0.0
  0
MTEXT
  5
212
330
20A
100
AcDbEntity
  8
치수문자_일반주서
 62
     0
100
AcDbMText
 10
68.02113175063575
 20
83.48479761696561
 30
0.0
 40
4.0
 41
0.0
 71
     2
 72
     1
  1
\A1;104 [4.09]
  7
SLDTEXTSTYLE0
 73
     1
 44
1.0
  0
POINT
  5
213
330
20A
100
AcDbEntity
  8
Defpoints
 62
     0
100
AcDbPoint
 10
16.02113175063572
 20
43.44731344888685
 30
0.0
  0
POINT
  5
214
330
20A
100
AcDbEntity
  8
Defpoints
 62
     0
100
AcDbPoint
 10
120.0211317506357
 20
43.94731344888685
 30
0.0
  0
POINT
  5
215
330
20A
100
AcDbEntity
  8
Defpoints
 62
     0
100
AcDbPoint
 10
120.0211317506357
 20
78.60979761696561
 30
0.0
  0
ENDBLK
  5
20C
330
20A
100
AcDbEntity
  8
0
100
AcDbBlockEnd
  0
BLOCK
  5
217
330
216
100
AcDbEntity
  8
0
100
AcDbBlockBegin
  2
*D10
 70
     1
 10
0.0
 20
0.0
 30
0.0
  3
*D10
  1
*D11
  0
LINE
  5
219
330
216
100
AcDbEntity
  8
치수문자_일반주서
 62
     0
370
    -2
100
AcDbLine
 10
82.02101279996386
 20
33.65694216895067
 30
0.0
 11
82.02101279996386
 21
65.23491305159995
 31
0.0
  0
LINE
  5
21A
330
216
100
AcDbEntity
  8
치수문자_일반주서
 62
     0
370
    -2
100
AcDbLine
 10
120.0211317506357
 20
44.07231344888685
 30
0.0
 11
120.0211317506357
 21
65.23491305159995
 31
0.0
  0
LINE
  5
21B
330
216
100
AcDbEntity
  8
치수문자_일반주서
 62
     0
370
    -2
100
AcDbLine
 10
86.02101279996386
 20
65.23491305159995
 30
0.0
 11
116.0211317506357
 21
65.23491305159995
 31
0.0
  0
SOLID
  5
21C
330
216
100
AcDbEntity
  8
치수문자_일반주서
 62
     0
100
AcDbTrace
 10
86.02101279996386
 20
65.90157971826662
 30
0.0
 11
86.02101279996386
 21
64.56824638493327
 31
0.0
 12
82.02101279996386
 22
65.23491305159995
 32
0.0
 13
82.02101279996386
 23
65.23491305159995
 33
0.0
  0
SOLID
  5
21D
330
216
100
AcDbEntity
  8
치수문자_일반주서
 62
     0
100
AcDbTrace
 10
116.0211317506357
 20
64.56824638493327
 30
0.0
 11
116.0211317506357
 21
65.90157971826662
 31
0.0
 12
120.0211317506357
 22
65.23491305159995
 32
0.0
 13
120.0211317506357
 23
65.23491305159995
 33
0.0
  0
MTEXT
  5
21E
330
216
100
AcDbEntity
  8
치수문자_일반주서
 62
     0
100
AcDbMText
 10
101.0891571575877
 20
70.10991305159995
 30
0.0
 40
4.0
 41
0.0
 71
     2
 72
     1
  1
\A1;38 [1.50]
  7
SLDTEXTSTYLE0
 73
     1
 44
1.0
  0
POINT
  5
21F
330
216
100
AcDbEntity
  8
Defpoints
 62
     0
100
AcDbPoint
 10
82.02101279996386
 20
33.59444216895067
 30
0.0
  0
POINT
  5
220
330
216
100
AcDbEntity
  8
Defpoints
 62
     0
100
AcDbPoint
 10
120.0211317506357
 20
44.00981344888685
 30
0.0
  0
POINT
  5
221
330
216
100
AcDbEntity
  8
Defpoints
 62
     0
100
AcDbPoint
 10
120.0211317506357
 20
65.23491305159995
 30
0.0
  0
ENDBLK
  5
218
330
216
100
AcDbEntity
  8
0
100
AcDbBlockEnd
  0
BLOCK
  5
223
330
222
100
AcDbEntity
  8
0
100
AcDbBlockBegin
  2
*D11
 70
     1
 10
0.0
 20
0.0
 30
0.0
  3
*D11
  1
*D12
  0
LINE
  5
225
330
222
100
AcDbEntity
  8
치수문자_일반주서
 62
     0
370
    -2
100
AcDbLine
 10
16.45863175063572
 20
43.94731344888685
 30
0.0
 11
4.87499999999998
 21
43.94731344888681
 31
0.0
  0
LINE
  5
226
330
222
100
AcDbEntity
  8
치수문자_일반주서
 62
     0
370
    -2
100
AcDbLine
 10
16.45863175063572
 20
23.94731344888685
 30
0.0
 11
4.87500000000005
 21
23.94731344888681
 31
0.0
  0
LINE
  5
227
330
222
100
AcDbEntity
  8
치수문자_일반주서
 62
     0
370
    -2
100
AcDbLine
 10
4.87499999999998
 20
43.94731344888681
 30
0.0
 11
4.87500000000005
 21
23.94731344888681
 31
0.0
  0
LINE
  5
228
330
222
100
AcDbEntity
  8
치수문자_일반주서
 62
     0
370
    -2
100
AcDbLine
 10
4.874999999999965
 20
47.94731344888681
 30
0.0
 11
4.874999999999951
 21
51.94731344888681
 31
0.0
  0
LINE
  5
229
330
222
100
AcDbEntity
  8
치수문자_일반주서
 62
     0
370
    -2
100
AcDbLine
 10
4.875000000000064
 20
19.94731344888681
 30
0.0
 11
4.875000000000078
 21
15.94731344888681
 31
0.0
  0
SOLID
  5
22A
330
222
100
AcDbEntity
  8
치수문자_일반주서
 62
     0
100
AcDbTrace
 10
4.208333333333298
 20
47.94731344888681
 30
0.0
 11
5.541666666666632
 21
47.94731344888681
 31
0.0
 12
4.87499999999998
 22
43.94731344888681
 32
0.0
 13
4.87499999999998
 23
43.94731344888681
 33
0.0
  0
SOLID
  5
22B
330
222
100
AcDbEntity
  8
치수문자_일반주서
 62
     0
100
AcDbTrace
 10
5.541666666666731
 20
19.94731344888681
 30
0.0
 11
4.208333333333397
 21
19.94731344888681
 31
0.0
 12
4.87500000000005
 22
23.94731344888681
 32
0.0
 13
4.87500000000005
 23
23.94731344888681
 33
0.0
  0
MTEXT
  5
22C
330
222
100
AcDbEntity
  8
치수문자_일반주서
 62
     0
100
AcDbMText
 10
0.0000000000000142
 20
33.94731344888684
 30
0.0
 40
4.0
 41
0.0
 71
     2
 72
     1
  1
\A1;%%c20 [0.79]
  7
SLDTEXTSTYLE0
 11
-3.508304757815495E-15
 21
1.0
 31
0.0
 73
     1
 44
1.0
  0
POINT
  5
22D
330
222
100
AcDbEntity
  8
Defpoints
 62
     0
100
AcDbPoint
 10
16.52113175063572
 20
43.94731344888685
 30
0.0
  0
POINT
  5
22E
330
222
100
AcDbEntity
  8
Defpoints
 62
     0
100
AcDbPoint
 10
16.52113175063572
 20
23.94731344888685
 30
0.0
  0
POINT
  5
22F
330
222
100
AcDbEntity
  8
Defpoints
 62
     0
100
AcDbPoint
 10
4.875000000000057
 20
23.94731344888681
 30
0.0
  0
ENDBLK
  5
224
330
222
100
AcDbEntity
  8
0
100
AcDbBlockEnd
  0
BLOCK
  5
27E
330
27D
100
AcDbEntity
  8
0
100
AcDbBlockBegin
  2
*D12
 70
     1
 10
0.0
 20
0.0
 30
0.0
  3
*D12
  1
*D13
  0
LINE
  5
280
330
27D
100
AcDbEntity
  8
치수문자_일반주서
 62
     0
370
    -2
100
AcDbLine
 10
-36.96806180865696
 20
113.2563304024042
 30
0.0
 11
-36.96806180865696
 21
148.356314570483
 31
0.0
  0
LINE
  5
281
330
27D
100
AcDbEntity
  8
치수문자_일반주서
 62
     0
370
    -2
100
AcDbLine
 10
67.03193819134304
 20
113.7563304024042
 30
0.0
 11
67.03193819134304
 21
148.356314570483
 31
0.0
  0
LINE
  5
282
330
27D
100
AcDbEntity
  8
치수문자_일반주서
 62
     0
370
    -2
100
AcDbLine
 10
-32.96806180865696
 20
148.356314570483
 30
0.0
 11
63.03193819134304
 21
148.356314570483
 31
0.0
  0
SOLID
  5
283
330
27D
100
AcDbEntity
  8
치수문자_일반주서
 62
     0
100
AcDbTrace
 10
-32.96806180865696
 20
149.0229812371497
 30
0.0
 11
-32.96806180865696
 21
147.6896479038163
 31
0.0
 12
-36.96806180865696
 22
148.356314570483
 32
0.0
 13
-36.96806180865696
 23
148.356314570483
 33
0.0
  0
SOLID
  5
284
330
27D
100
AcDbEntity
  8
치수문자_일반주서
 62
     0
100
AcDbTrace
 10
63.03193819134304
 20
147.6896479038163
 30
0.0
 11
63.03193819134304
 21
149.0229812371497
 31
0.0
 12
67.03193819134304
 22
148.356314570483
 32
0.0
 13
67.03193819134304
 23
148.356314570483
 33
0.0
  0
MTEXT
  5
285
330
27D
100
AcDbEntity
  8
치수문자_일반주서
 62
     0
100
AcDbMText
 10
15.03193819134306
 20
153.231314570483
 30
0.0
 40
4.0
 41
0.0
 71
     2
 72
     1
  1
\A1;104 [4.09]
  7
SLDTEXTSTYLE0
 73
     1
 44
1.0
  0
POINT
  5
286
330
27D
100
AcDbEntity
  8
Defpoints
 62
     0
100
AcDbPoint
 10
-36.96806180865696
 20
113.1938304024042
 30
0.0
  0
POINT
  5
287
330
27D
100
AcDbEntity
  8
Defpoints
 62
     0
100
AcDbPoint
 10
67.03193819134304
 20
113.6938304024042
 30
0.0
  0
POINT
  5
288
330
27D
100
AcDbEntity
  8
Defpoints
 62
     0
100
AcDbPoint
 10
67.03193819134304
 20
148.356314570483
 30
0.0
  0
ENDBLK
  5
27F
330
27D
100
AcDbEntity
  8
0
100
AcDbBlockEnd
  0
BLOCK
  5
28A
330
289
100
AcDbEntity
  8
0
100
AcDbBlockBegin
  2
*D13
 70
     1
 10
0.0
 20
0.0
 30
0.0
  3
*D13
  1
*D14
  0
LINE
  5
28C
330
289
100
AcDbEntity
  8
치수문자_일반주서
 62
     0
370
    -2
100
AcDbLine
 10
29.03181924067117
 20
103.4034591224681
 30
0.0
 11
29.03181924067117
 21
134.9814300051173
 31
0.0
  0
LINE
  5
28D
330
289
100
AcDbEntity
  8
치수문자_일반주서
 62
     0
370
    -2
100
AcDbLine
 10
67.03193819134304
 20
113.8188304024042
 30
0.0
 11
67.03193819134304
 21
134.9814300051173
 31
0.0
  0
LINE
  5
28E
330
289
100
AcDbEntity
  8
치수문자_일반주서
 62
     0
370
    -2
100
AcDbLine
 10
33.03181924067117
 20
134.9814300051173
 30
0.0
 11
63.03193819134304
 21
134.9814300051173
 31
0.0
  0
SOLID
  5
28F
330
289
100
AcDbEntity
  8
치수문자_일반주서
 62
     0
100
AcDbTrace
 10
33.03181924067117
 20
135.648096671784
 30
0.0
 11
33.03181924067117
 21
134.3147633384507
 31
0.0
 12
29.03181924067117
 22
134.9814300051173
 32
0.0
 13
29.03181924067117
 23
134.9814300051173
 33
0.0
  0
SOLID
  5
290
330
289
100
AcDbEntity
  8
치수문자_일반주서
 62
     0
100
AcDbTrace
 10
63.03193819134304
 20
134.3147633384507
 30
0.0
 11
63.03193819134304
 21
135.648096671784
 31
0.0
 12
67.03193819134304
 22
134.9814300051173
 32
0.0
 13
67.03193819134304
 23
134.9814300051173
 33
0.0
  0
MTEXT
  5
291
330
289
100
AcDbEntity
  8
치수문자_일반주서
 62
     0
100
AcDbMText
 10
48.09996359829503
 20
139.8564300051173
 30
0.0
 40
4.0
 41
0.0
 71
     2
 72
     1
  1
\A1;38 [1.50]
  7
SLDTEXTSTYLE0
 73
     1
 44
1.0
  0
POINT
  5
292
330
289
100
AcDbEntity
  8
Defpoints
 62
     0
100
AcDbPoint
 10
29.03181924067117
 20
103.3409591224681
 30
0.0
  0
POINT
  5
293
330
289
100
AcDbEntity
  8
Defpoints
 62
     0
100
AcDbPoint
 10
67.03193819134304
 20
113.7563304024042
 30
0.0
  0
POINT
  5
294
330
289
100
AcDbEntity
  8
Defpoints
 62
     0
100
AcDbPoint
 10
67.03193819134304
 20
134.9814300051173
 30
0.0
  0
ENDBLK
  5
28B
330
289
100
AcDbEntity
  8
0
100
AcDbBlockEnd
  0
BLOCK
  5
296
330
295
100
AcDbEntity
  8
0
100
AcDbBlockBegin
  2
*D14
 70
     1
 10
0.0
 20
0.0
 30
0.0
  3
*D14
  1
*D15
  0
LINE
  5
298
330
295
100
AcDbEntity
  8
치수문자_일반주서
 62
     0
370
    -2
100
AcDbLine
 10
-36.53056180865696
 20
113.6938304024042
 30
0.0
 11
-48.11419355929271
 21
113.6938304024042
 31
0.0
  0
LINE
  5
299
330
295
100
AcDbEntity
  8
치수문자_일반주서
 62
     0
370
    -2
100
AcDbLine
 10
-36.53056180865696
 20
93.69383040240425
 30
0.0
 11
-48.11419355929264
 21
93.6938304024042
 31
0.0
  0
LINE
  5
29A
330
295
100
AcDbEntity
  8
치수문자_일반주서
 62
     0
370
    -2
100
AcDbLine
 10
-48.11419355929271
 20
113.6938304024042
 30
0.0
 11
-48.11419355929264
 21
93.6938304024042
 31
0.0
  0
LINE
  5
29B
330
295
100
AcDbEntity
  8
치수문자_일반주서
 62
     0
370
    -2
100
AcDbLine
 10
-48.11419355929272
 20
117.6938304024042
 30
0.0
 11
-48.11419355929274
 21
121.6938304024042
 31
0.0
  0
LINE
  5
29C
330
295
100
AcDbEntity
  8
치수문자_일반주서
 62
     0
370
    -2
100
AcDbLine
 10
-48.11419355929262
 20
89.6938304024042
 30
0.0
 11
-48.11419355929261
 21
85.6938304024042
 31
0.0
  0
SOLID
  5
29D
330
295
100
AcDbEntity
  8
치수문자_일반주서
 62
     0
100
AcDbTrace
 10
-48.78086022595939
 20
117.6938304024042
 30
0.0
 11
-47.44752689262606
 21
117.6938304024042
 31
0.0
 12
-48.11419355929271
 22
113.6938304024042
 32
0.0
 13
-48.11419355929271
 23
113.6938304024042
 33
0.0
  0
SOLID
  5
29E
330
295
100
AcDbEntity
  8
치수문자_일반주서
 62
     0
100
AcDbTrace
 10
-47.44752689262596
 20
89.6938304024042
 30
0.0
 11
-48.78086022595929
 21
89.6938304024042
 31
0.0
 12
-48.11419355929264
 22
93.6938304024042
 32
0.0
 13
-48.11419355929264
 23
93.6938304024042
 33
0.0
  0
MTEXT
  5
29F
330
295
100
AcDbEntity
  8
치수문자_일반주서
 62
     0
100
AcDbMText
 10
-52.98919355929267
 20
103.6938304024042
 30
0.0
 40
4.0
 41
0.0
 71
     2
 72
     1
  1
\A1;%%c20 [0.79]
  7
SLDTEXTSTYLE0
 11
-3.552713678800501E-15
 21
1.0
 31
0.0
 73
     1
 44
1.0
  0
POINT
  5
2A0
330
295
100
AcDbEntity
  8
Defpoints
 62
     0
100
AcDbPoint
 10
-36.46806180865696
 20
113.6938304024042
 30
0.0
  0
POINT
  5
2A1
330
295
100
AcDbEntity
  8
Defpoints
 62
     0
100
AcDbPoint
 10
-36.46806180865696
 20
93.69383040240425
 30
0.0
  0
POINT
  5
2A2
330
295
100
AcDbEntity
  8
Defpoints
 62
     0
100
AcDbPoint
 10
-48.11419355929264
 20
93.6938304024042
 30
0.0
  0
ENDBLK
  5
297
330
295
100
AcDbEntity
  8
0
100
AcDbBlockEnd
  0
BLOCK
  5
2A4
330
2A3
100
AcDbEntity
  8
0
100
AcDbBlockBegin
  2
*D15
 70
     1
 10
0.0
 20
0.0
 30
0.0
  3
*D15
  1
*D16
  0
LINE
  5
2A6
330
2A3
100
AcDbEntity
  8
치수문자_일반주서
 62
     0
370
    -2
100
AcDbLine
 10
69.21837836143047
 20
90.84070192771601
 30
0.0
 11
92.71697419624778
 21
62.42557285160954
 31
0.0
  0
MTEXT
  5
2A7
330
2A3
100
AcDbEntity
  8
치수문자_일반주서
 62
     0
100
AcDbMText
 10
87.04608364822714
 20
73.79426892426318
 30
0.0
 40
4.0
 41
0.0
 71
     5
 72
     1
  1
\A1;R1 [R0.04]
  7
SLDTEXTSTYLE0
 11
0.6372880340174844
 21
-0.7706256949376459
 31
0.0
 73
     1
 44
1.0
  0
SOLID
  5
2A8
330
2A3
100
AcDbEntity
  8
치수문자_일반주서
 62
     0
100
AcDbTrace
 10
69.73212882472222
 20
91.265560617061
 30
0.0
 11
68.70462789813871
 21
90.41584323837102
 31
0.0
 12
66.66922622536053
 22
93.9232047074666
 32
0.0
 13
66.66922622536053
 23
93.9232047074666
 33
0.0
  0
LINE
  5
2A9
330
2A3
100
AcDbEntity
  8
치수문자_일반주서
 62
     0
100
AcDbLine
 10
65.94193819134304
 20
94.69383040240425
 30
0.0
 11
66.12193819134305
 21
94.69383040240425
 31
0.0
  0
LINE
  5
2AA
330
2A3
100
AcDbEntity
  8
치수문자_일반주서
 62
     0
100
AcDbLine
 10
66.03193819134304
 20
94.60383040240424
 30
0.0
 11
66.03193819134304
 21
94.78383040240425
 31
0.0
  0
POINT
  5
2AB
330
2A3
100
AcDbEntity
  8
Defpoints
 62
     0
100
AcDbPoint
 10
66.66922622536053
 20
93.9232047074666
 30
0.0
  0
POINT
  5
2AC
330
2A3
100
AcDbEntity
  8
Defpoints
 62
     0
100
AcDbPoint
 10
66.03193819134304
 20
94.69383040240425
 30
0.0
  0
ENDBLK
  5
2A5
330
2A3
100
AcDbEntity
  8
0
100
AcDbBlockEnd
  0
BLOCK
  5
2AE
330
2AD
100
AcDbEntity
  8
0
100
AcDbBlockBegin
  2
*D16
 70
     1
 10
0.0
 20
0.0
 30
0.0
  3
*D16
  1
*D17
  0
LINE
  5
2B0
330
2AD
100
AcDbEntity
  8
치수문자_일반주서
 62
     0
370
    -2
100
AcDbLine
 10
67.09443819134304
 20
113.6938304024042
 30
0.0
 11
83.26853228376393
 21
113.6938304024042
 31
0.0
  0
LINE
  5
2B1
330
2AD
100
AcDbEntity
  8
치수문자_일반주서
 62
     0
370
    -2
100
AcDbLine
 10
67.09443819134304
 20
93.69383040240425
 30
0.0
 11
83.26853228376393
 21
93.69383040240425
 31
0.0
  0
LINE
  5
2B2
330
2AD
100
AcDbEntity
  8
치수문자_일반주서
 62
     0
370
    -2
100
AcDbLine
 10
83.26853228376393
 20
113.6938304024042
 30
0.0
 11
83.26853228376393
 21
93.69383040240425
 31
0.0
  0
LINE
  5
2B3
330
2AD
100
AcDbEntity
  8
치수문자_일반주서
 62
     0
370
    -2
100
AcDbLine
 10
83.26853228376393
 20
117.6938304024042
 30
0.0
 11
83.26853228376393
 21
121.6938304024042
 31
0.0
  0
LINE
  5
2B4
330
2AD
100
AcDbEntity
  8
치수문자_일반주서
 62
     0
370
    -2
100
AcDbLine
 10
83.26853228376393
 20
89.69383040240425
 30
0.0
 11
83.26853228376393
 21
85.69383040240425
 31
0.0
  0
SOLID
  5
2B5
330
2AD
100
AcDbEntity
  8
치수문자_일반주서
 62
     0
100
AcDbTrace
 10
82.60186561709726
 20
117.6938304024042
 30
0.0
 11
83.9351989504306
 21
117.6938304024042
 31
0.0
 12
83.26853228376393
 22
113.6938304024042
 32
0.0
 13
83.26853228376393
 23
113.6938304024042
 33
0.0
  0
SOLID
  5
2B6
330
2AD
100
AcDbEntity
  8
치수문자_일반주서
 62
     0
100
AcDbTrace
 10
83.9351989504306
 20
89.69383040240425
 30
0.0
 11
82.60186561709726
 21
89.69383040240425
 31
0.0
 12
83.26853228376393
 22
93.69383040240425
 32
0.0
 13
83.26853228376393
 23
93.69383040240425
 33
0.0
  0
MTEXT
  5
2B7
330
2AD
100
AcDbEntity
  8
치수문자_일반주서
 62
     0
100
AcDbMText
 10
80.39353228376393
 20
103.6938304024042
 30
0.0
 40
4.0
 41
0.0
 71
     5
 72
     1
  1
\A1;{%%c20}
  7
SLDTEXTSTYLE0
 11
0.0
 21
1.0
 31
0.0
 73
     1
 44
1.0
  0
POINT
  5
2B8
330
2AD
100
AcDbEntity
  8
Defpoints
 62
     0
100
AcDbPoint
 10
67.03193819134304
 20
113.6938304024042
 30
0.0
  0
POINT
  5
2B9
330
2AD
100
AcDbEntity
  8
Defpoints
 62
     0
100
AcDbPoint
 10
67.03193819134304
 20
93.69383040240425
 30
0.0
  0
POINT
  5
2BA
330
2AD
100
AcDbEntity
  8
Defpoints
 62
     0
100
AcDbPoint
 10
83.26853228376393
 20
93.69383040240425
 30
0.0
  0
ENDBLK
  5
2AF
330
2AD
100
AcDbEntity
  8
0
100
AcDbBlockEnd
  0
BLOCK
  5
2C7
330
2C6
100
AcDbEntity
  8
0
100
AcDbBlockBegin
  2
*D17
 70
     1
 10
0.0
 20
0.0
 30
0.0
  3
*D17
  1
*D18
  0
LINE
  5
2C9
330
2C6
100
AcDbEntity
  8
치수문자_일반주서
 62
     0
370
    -2
100
AcDbLine
 10
52.31297754478855
 20
-12.67450159285231
 30
0.0
 11
73.48045009128268
 21
-41.48423269179555
 31
0.0
  0
MTEXT
  5
2CA
330
2C6
100
AcDbEntity
  8
치수문자_일반주서
 62
     0
100
AcDbMText
 10
66.39777457334891
 20
-26.98882108992438
 30
0.0
 40
4.0
 41
0.0
 71
     5
 72
     1
  1
\A1;R.38 [R0.015]
  7
SLDTEXTSTYLE0
 11
0.5920971341676681
 21
-0.8058666041662444
 31
0.0
 73
     1
 44
1.0
  0
SOLID
  5
2CB
330
2C6
100
AcDbEntity
  8
치수문자_일반주서
 62
     0
100
AcDbTrace
 10
52.85022194756605
 20
-12.27977017007387
 30
0.0
 11
51.77573314201106
 21
-13.06923301563076
 31
0.0
 12
49.94458900811788
 22
-9.451035176187334
 32
0.0
 13
49.94458900811788
 23
-9.451035176187334
 33
0.0
  0
LINE
  5
2CC
330
2C6
100
AcDbEntity
  8
치수문자_일반주서
 62
     0
100
AcDbLine
 10
49.629
 20
-9.143999999999998
 30
0.0
 11
49.809
 21
-9.143999999999998
 31
0.0
  0
LINE
  5
2CD
330
2C6
100
AcDbEntity
  8
치수문자_일반주서
 62
     0
100
AcDbLine
 10
49.719
 20
-9.233999999999998
 30
0.0
 11
49.719
 21
-9.053999999999998
 31
0.0
  0
POINT
  5
2CE
330
2C6
100
AcDbEntity
  8
Defpoints
 62
     0
100
AcDbPoint
 10
49.94458900811788
 20
-9.451035176187334
 30
0.0
  0
POINT
  5
2CF
330
2C6
100
AcDbEntity
  8
Defpoints
 62
     0
100
AcDbPoint
 10
49.719
 20
-9.143999999999998
 30
0.0
  0
ENDBLK
  5
2C8
330
2C6
100
AcDbEntity
  8
0
100
AcDbBlockEnd
  0
BLOCK
  5
389
330
388
100
AcDbEntity
  8
0
100
AcDbBlockBegin
  2
*D18
 70
     1
 10
0.0
 20
0.0
 30
0.0
  3
*D18
  1
*D20
  0
LINE
  5
38B
330
388
100
AcDbEntity
  8
치수문자_일반주서
 62
     0
370
    -2
100
AcDbLine
 10
21.38138583383692
 20
62.67180738881174
 30
0.0
 11
4.875000000000074
 21
62.67180738881167
 31
0.0
  0
LINE
  5
38C
330
388
100
AcDbEntity
  8
치수문자_일반주서
 62
     0
370
    -2
100
AcDbLine
 10
21.38138583383692
 20
37.27180738881176
 30
0.0
 11
4.875000000000163
 21
37.27180738881169
 31
0.0
  0
LINE
  5
38D
330
388
100
AcDbEntity
  8
치수문자_일반주서
 62
     0
370
    -2
100
AcDbLine
 10
4.875000000000074
 20
62.67180738881167
 30
0.0
 11
4.874999999999958
 21
95.42180738881167
 31
0.0
  0
LINE
  5
38E
330
388
100
AcDbEntity
  8
치수문자_일반주서
 62
     0
370
    -2
100
AcDbLine
 10
4.875000000000088
 20
58.67180738881167
 30
0.0
 11
4.875000000000148
 21
41.27180738881169
 31
0.0
  0
SOLID
  5
38F
330
388
100
AcDbEntity
  8
치수문자_일반주서
 62
     0
100
AcDbTrace
 10
5.541666666666755
 20
58.67180738881167
 30
0.0
 11
4.208333333333421
 21
58.67180738881167
 31
0.0
 12
4.875000000000074
 22
62.67180738881167
 32
0.0
 13
4.875000000000074
 23
62.67180738881167
 33
0.0
  0
SOLID
  5
390
330
388
100
AcDbEntity
  8
치수문자_일반주서
 62
     0
100
AcDbTrace
 10
4.208333333333481
 20
41.27180738881169
 30
0.0
 11
5.541666666666815
 21
41.27180738881169
 31
0.0
 12
4.875000000000163
 22
37.27180738881169
 32
0.0
 13
4.875000000000163
 23
37.27180738881169
 33
0.0
  0
MTEXT
  5
391
330
388
100
AcDbEntity
  8
치수문자_일반주서
 62
     0
100
AcDbMText
 10
0.0000000000000089
 20
81.04680738881166
 30
0.0
 40
4.0
 41
0.0
 71
     2
 72
     1
  1
\A1;%%c25.4 [1.00]
  7
SLDTEXTSTYLE0
 11
-3.496765431890260E-15
 21
1.0
 31
0.0
 73
     1
 44
1.0
  0
POINT
  5
392
330
388
100
AcDbEntity
  8
Defpoints
 62
     0
100
AcDbPoint
 10
21.44388583383692
 20
62.67180738881174
 30
0.0
  0
POINT
  5
393
330
388
100
AcDbEntity
  8
Defpoints
 62
     0
100
AcDbPoint
 10
21.44388583383692
 20
37.27180738881176
 30
0.0
  0
POINT
  5
394
330
388
100
AcDbEntity
  8
Defpoints
 62
     0
100
AcDbPoint
 10
4.875000000000156
 20
37.27180738881169
 30
0.0
  0
ENDBLK
  5
38A
330
388
100
AcDbEntity
  8
0
100
AcDbBlockEnd
  0
BLOCK
  5
396
330
395
100
AcDbEntity
  8
0
100
AcDbBlockBegin
  2
*D19
 70
     1
 10
0.0
 20
0.0
 30
0.0
  3
*D19
  1
*D21
  0
LINE
  5
398
330
395
100
AcDbEntity
  8
치수문자_일반주서
 62
     0
370
    -2
100
AcDbLine
 10
120.5038858338369
 20
62.73430738881184
 30
0.0
 11
120.5038858338369
 21
73.2483308535671
 31
0.0
  0
LINE
  5
399
330
395
100
AcDbEntity
  8
치수문자_일반주서
 62
     0
370
    -2
100
AcDbLine
 10
82.4038858338369
 20
62.34872404936161
 30
0.0
 11
82.4038858338369
 21
73.2483308535671
 31
0.0
  0
LINE
  5
39A
330
395
100
AcDbEntity
  8
치수문자_일반주서
 62
     0
370
    -2
100
AcDbLine
 10
116.5038858338369
 20
73.2483308535671
 30
0.0
 11
86.4038858338369
 21
73.2483308535671
 31
0.0
  0
SOLID
  5
39B
330
395
100
AcDbEntity
  8
치수문자_일반주서
 62
     0
100
AcDbTrace
 10
116.5038858338369
 20
72.58166418690043
 30
0.0
 11
116.5038858338369
 21
73.91499752023377
 31
0.0
 12
120.5038858338369
 22
73.2483308535671
 32
0.0
 13
120.5038858338369
 23
73.2483308535671
 33
0.0
  0
SOLID
  5
39C
330
395
100
AcDbEntity
  8
치수문자_일반주서
 62
     0
100
AcDbTrace
 10
86.4038858338369
 20
73.91499752023377
 30
0.0
 11
86.4038858338369
 21
72.58166418690043
 31
0.0
 12
82.4038858338369
 22
73.2483308535671
 32
0.0
 13
82.4038858338369
 23
73.2483308535671
 33
0.0
  0
MTEXT
  5
39D
330
395
100
AcDbEntity
  8
치수문자_일반주서
 62
     0
100
AcDbMText
 10
100.8781084722835
 20
78.1233308535671
 30
0.0
 40
4.0
 41
0.0
 71
     2
 72
     1
  1
\A1;38.1 [1.50]
  7
SLDTEXTSTYLE0
 73
     1
 44
1.0
  0
POINT
  5
39E
330
395
100
AcDbEntity
  8
Defpoints
 62
     0
100
AcDbPoint
 10
120.5038858338369
 20
62.67180738881184
 30
0.0
  0
POINT
  5
39F
330
395
100
AcDbEntity
  8
Defpoints
 62
     0
100
AcDbPoint
 10
82.4038858338369
 20
62.28622404936161
 30
0.0
  0
POINT
  5
3A0
330
395
100
AcDbEntity
  8
Defpoints
 62
     0
100
AcDbPoint
 10
82.4038858338369
 20
73.2483308535671
 30
0.0
  0
ENDBLK
  5
397
330
395
100
AcDbEntity
  8
0
100
AcDbBlockEnd
  0
BLOCK
  5
3A2
330
3A1
100
AcDbEntity
  8
0
100
AcDbBlockBegin
  2
*D20
 70
     1
 10
0.0
 20
0.0
 30
0.0
  3
*D20
  1
*D22
  0
LINE
  5
3A4
330
3A1
100
AcDbEntity
  8
치수문자_일반주서
 62
     0
370
    -2
100
AcDbLine
 10
120.5038858338369
 20
62.73430738881184
 30
0.0
 11
120.5038858338369
 21
96.65503613108274
 31
0.0
  0
LINE
  5
3A5
330
3A1
100
AcDbEntity
  8
치수문자_일반주서
 62
     0
370
    -2
100
AcDbLine
 10
18.9038858338369
 20
60.19430738881175
 30
0.0
 11
18.9038858338369
 21
96.65503613108274
 31
0.0
  0
LINE
  5
3A6
330
3A1
100
AcDbEntity
  8
치수문자_일반주서
 62
     0
370
    -2
100
AcDbLine
 10
116.5038858338369
 20
96.65503613108274
 30
0.0
 11
22.9038858338369
 21
96.65503613108274
 31
0.0
  0
SOLID
  5
3A7
330
3A1
100
AcDbEntity
  8
치수문자_일반주서
 62
     0
100
AcDbTrace
 10
116.5038858338369
 20
95.98836946441607
 30
0.0
 11
116.5038858338369
 21
97.32170279774941
 31
0.0
 12
120.5038858338369
 22
96.65503613108274
 32
0.0
 13
120.5038858338369
 23
96.65503613108274
 33
0.0
  0
SOLID
  5
3A8
330
3A1
100
AcDbEntity
  8
치수문자_일반주서
 62
     0
100
AcDbTrace
 10
22.9038858338369
 20
97.32170279774941
 30
0.0
 11
22.9038858338369
 21
95.98836946441607
 31
0.0
 12
18.9038858338369
 22
96.65503613108274
 32
0.0
 13
18.9038858338369
 23
96.65503613108274
 33
0.0
  0
MTEXT
  5
3A9
330
3A1
100
AcDbEntity
  8
치수문자_일반주서
 62
     0
100
AcDbMText
 10
69.70388583383689
 20
101.5300361310827
 30
0.0
 40
4.0
 41
0.0
 71
     2
 72
     1
  1
\A1;101.6 [4.00]
  7
SLDTEXTSTYLE0
 73
     1
 44
1.0
  0
POINT
  5
3AA
330
3A1
100
AcDbEntity
  8
Defpoints
 62
     0
100
AcDbPoint
 10
120.5038858338369
 20
62.67180738881184
 30
0.0
  0
POINT
  5
3AB
330
3A1
100
AcDbEntity
  8
Defpoints
 62
     0
100
AcDbPoint
 10
18.9038858338369
 20
60.13180738881175
 30
0.0
  0
POINT
  5
3AC
330
3A1
100
AcDbEntity
  8
Defpoints
 62
     0
100
AcDbPoint
 10
18.9038858338369
 20
96.65503613108274
 30
0.0
  0
ENDBLK
  5
3A3
330
3A1
100
AcDbEntity
  8
0
100
AcDbBlockEnd
  0
BLOCK
  5
3AE
330
3AD
100
AcDbEntity
  8
0
100
AcDbBlockBegin
  2
*D21
 70
     1
 10
0.0
 20
0.0
 30
0.0
  3
*D21
  1
*D23
  0
LINE
  5
3B0
330
3AD
100
AcDbEntity
  8
치수문자_일반주서
 62
     0
370
    -2
100
AcDbLine
 10
120.5663858338369
 20
62.67180738881184
 30
0.0
 11
135.5639649415326
 21
62.6718073888119
 31
0.0
  0
LINE
  5
3B1
330
3AD
100
AcDbEntity
  8
치수문자_일반주서
 62
     0
370
    -2
100
AcDbLine
 10
120.5663858338369
 20
37.27180738881175
 30
0.0
 11
135.5639649415326
 21
37.27180738881181
 31
0.0
  0
LINE
  5
3B2
330
3AD
100
AcDbEntity
  8
치수문자_일반주서
 62
     0
370
    -2
100
AcDbLine
 10
135.5639649415326
 20
62.6718073888119
 30
0.0
 11
135.5639649415324
 21
95.4218073888119
 31
0.0
  0
LINE
  5
3B3
330
3AD
100
AcDbEntity
  8
치수문자_일반주서
 62
     0
370
    -2
100
AcDbLine
 10
135.5639649415326
 20
58.6718073888119
 30
0.0
 11
135.5639649415326
 21
41.27180738881181
 31
0.0
  0
SOLID
  5
3B4
330
3AD
100
AcDbEntity
  8
치수문자_일반주서
 62
     0
100
AcDbTrace
 10
136.2306316081992
 20
58.6718073888119
 30
0.0
 11
134.8972982748659
 21
58.6718073888119
 31
0.0
 12
135.5639649415326
 22
62.6718073888119
 32
0.0
 13
135.5639649415326
 23
62.6718073888119
 33
0.0
  0
SOLID
  5
3B5
330
3AD
100
AcDbEntity
  8
치수문자_일반주서
 62
     0
100
AcDbTrace
 10
134.897298274866
 20
41.27180738881181
 30
0.0
 11
136.2306316081993
 21
41.27180738881181
 31
0.0
 12
135.5639649415326
 22
37.27180738881181
 32
0.0
 13
135.5639649415326
 23
37.27180738881181
 33
0.0
  0
MTEXT
  5
3B6
330
3AD
100
AcDbEntity
  8
치수문자_일반주서
 62
     0
100
AcDbMText
 10
130.6889649415325
 20
81.04680738881189
 30
0.0
 40
4.0
 41
0.0
 71
     2
 72
     1
  1
\A1;%%c25.4 [1.00]
  7
SLDTEXTSTYLE0
 11
-3.356894814614635E-15
 21
1.0
 31
0.0
 73
     1
 44
1.0
  0
POINT
  5
3B7
330
3AD
100
AcDbEntity
  8
Defpoints
 62
     0
100
AcDbPoint
 10
120.5038858338369
 20
62.67180738881184
 30
0.0
  0
POINT
  5
3B8
330
3AD
100
AcDbEntity
  8
Defpoints
 62
     0
100
AcDbPoint
 10
120.5038858338369
 20
37.27180738881175
 30
0.0
  0
POINT
  5
3B9
330
3AD
100
AcDbEntity
  8
Defpoints
 62
     0
100
AcDbPoint
 10
135.5639649415326
 20
37.27180738881181
 30
0.0
  0
ENDBLK
  5
3AF
330
3AD
100
AcDbEntity
  8
0
100
AcDbBlockEnd
  0
BLOCK
  5
3F3
330
3F2
100
AcDbEntity
  8
0
100
AcDbBlockBegin
  2
*D22
 70
     1
 10
0.0
 20
0.0
 30
0.0
  3
*D22
  1
*D24
  0
LINE
  5
3F5
330
3F2
100
AcDbEntity
  8
치수문자_일반주서
 62
     0
370
    -2
100
AcDbLine
 10
-49.02249999999998
 20
12.69999999999999
 30
0.0
 11
-65.52888583383682
 21
12.69999999999993
 31
0.0
  0
LINE
  5
3F6
330
3F2
100
AcDbEntity
  8
치수문자_일반주서
 62
     0
370
    -2
100
AcDbLine
 10
-49.02249999999998
 20
-12.69999999999999
 30
0.0
 11
-65.52888583383674
 21
-12.70000000000005
 31
0.0
  0
LINE
  5
3F7
330
3F2
100
AcDbEntity
  8
치수문자_일반주서
 62
     0
370
    -2
100
AcDbLine
 10
-65.52888583383682
 20
12.69999999999993
 30
0.0
 11
-65.52888583383692
 21
42.44999999999993
 31
0.0
  0
LINE
  5
3F8
330
3F2
100
AcDbEntity
  8
치수문자_일반주서
 62
     0
370
    -2
100
AcDbLine
 10
-65.52888583383681
 20
8.699999999999928
 30
0.0
 11
-65.52888583383675
 21
-8.700000000000045
 31
0.0
  0
SOLID
  5
3F9
330
3F2
100
AcDbEntity
  8
치수문자_일반주서
 62
     0
100
AcDbTrace
 10
-64.86221916717014
 20
8.69999999999993
 30
0.0
 11
-66.19555250050348
 21
8.699999999999926
 31
0.0
 12
-65.52888583383682
 22
12.69999999999993
 32
0.0
 13
-65.52888583383682
 23
12.69999999999993
 33
0.0
  0
SOLID
  5
3FA
330
3F2
100
AcDbEntity
  8
치수문자_일반주서
 62
     0
100
AcDbTrace
 10
-66.19555250050342
 20
-8.700000000000047
 30
0.0
 11
-64.86221916717008
 21
-8.700000000000044
 31
0.0
 12
-65.52888583383674
 22
-12.70000000000005
 32
0.0
 13
-65.52888583383674
 23
-12.70000000000005
 33
0.0
  0
MTEXT
  5
3FB
330
3F2
100
AcDbEntity
  8
치수문자_일반주서
 62
     0
100
AcDbMText
 10
-70.40388583383688
 20
31.07499999999991
 30
0.0
 40
4.0
 41
0.0
 71
     2
 72
     1
  1
\A1;%%c25.4 [1]
  7
SLDTEXTSTYLE0
 11
-3.356894814614649E-15
 21
1.0
 31
0.0
 73
     1
 44
1.0
  0
POINT
  5
3FC
330
3F2
100
AcDbEntity
  8
Defpoints
 62
     0
100
AcDbPoint
 10
-48.95999999999998
 20
12.69999999999999
 30
0.0
  0
POINT
  5
3FD
330
3F2
100
AcDbEntity
  8
Defpoints
 62
     0
100
AcDbPoint
 10
-48.95999999999998
 20
-12.69999999999999
 30
0.0
  0
POINT
  5
3FE
330
3F2
100
AcDbEntity
  8
Defpoints
 62
     0
100
AcDbPoint
 10
-65.52888583383674
 20
-12.70000000000005
 30
0.0
  0
ENDBLK
  5
3F4
330
3F2
100
AcDbEntity
  8
0
100
AcDbBlockEnd
  0
BLOCK
  5
400
330
3FF
100
AcDbEntity
  8
0
100
AcDbBlockBegin
  2
*D23
 70
     1
 10
0.0
 20
0.0
 30
0.0
  3
*D23
  1
*D25
  0
LINE
  5
402
330
3FF
100
AcDbEntity
  8
치수문자_일반주서
 62
     0
370
    -2
100
AcDbLine
 10
50.10000000000001
 20
12.76250000000009
 30
0.0
 11
50.10000000000001
 21
23.27652346475534
 31
0.0
  0
LINE
  5
403
330
3FF
100
AcDbEntity
  8
치수문자_일반주서
 62
     0
370
    -2
100
AcDbLine
 10
12.0
 20
12.37691666054985
 30
0.0
 11
12.0
 21
23.27652346475534
 31
0.0
  0
LINE
  5
404
330
3FF
100
AcDbEntity
  8
치수문자_일반주서
 62
     0
370
    -2
100
AcDbLine
 10
46.10000000000001
 20
23.27652346475534
 30
0.0
 11
16.0
 21
23.27652346475534
 31
0.0
  0
SOLID
  5
405
330
3FF
100
AcDbEntity
  8
치수문자_일반주서
 62
     0
100
AcDbTrace
 10
46.10000000000001
 20
22.60985679808867
 30
0.0
 11
46.10000000000001
 21
23.94319013142201
 31
0.0
 12
50.10000000000001
 22
23.27652346475534
 32
0.0
 13
50.10000000000001
 23
23.27652346475534
 33
0.0
  0
SOLID
  5
406
330
3FF
100
AcDbEntity
  8
치수문자_일반주서
 62
     0
100
AcDbTrace
 10
16.0
 20
23.94319013142201
 30
0.0
 11
16.0
 21
22.60985679808867
 31
0.0
 12
12.0
 22
23.27652346475534
 32
0.0
 13
12.0
 23
23.27652346475534
 33
0.0
  0
MTEXT
  5
407
330
3FF
100
AcDbEntity
  8
치수문자_일반주서
 62
     0
100
AcDbMText
 10
30.47422263844656
 20
28.15152346475534
 30
0.0
 40
4.0
 41
0.0
 71
     2
 72
     1
  1
\A1;38.1 [1 1/2]
  7
SLDTEXTSTYLE0
 73
     1
 44
1.0
  0
POINT
  5
408
330
3FF
100
AcDbEntity
  8
Defpoints
 62
     0
100
AcDbPoint
 10
50.10000000000001
 20
12.70000000000009
 30
0.0
  0
POINT
  5
409
330
3FF
100
AcDbEntity
  8
Defpoints
 62
     0
100
AcDbPoint
 10
12.0
 20
12.31441666054985
 30
0.0
  0
POINT
  5
40A
330
3FF
100
AcDbEntity
  8
Defpoints
 62
     0
100
AcDbPoint
 10
12.0
 20
23.27652346475534
 30
0.0
  0
ENDBLK
  5
401
330
3FF
100
AcDbEntity
  8
0
100
AcDbBlockEnd
  0
BLOCK
  5
40C
330
40B
100
AcDbEntity
  8
0
100
AcDbBlockBegin
  2
*D24
 70
     1
 10
0.0
 20
0.0
 30
0.0
  3
*D24
  1
*D26
  0
LINE
  5
40E
330
40B
100
AcDbEntity
  8
치수문자_일반주서
 62
     0
370
    -2
100
AcDbLine
 10
50.10000000000001
 20
12.76250000000009
 30
0.0
 11
50.10000000000001
 21
46.68322874227098
 31
0.0
  0
LINE
  5
40F
330
40B
100
AcDbEntity
  8
치수문자_일반주서
 62
     0
370
    -2
100
AcDbLine
 10
-51.5
 20
10.2225
 30
0.0
 11
-51.5
 21
46.68322874227098
 31
0.0
  0
LINE
  5
410
330
40B
100
AcDbEntity
  8
치수문자_일반주서
 62
     0
370
    -2
100
AcDbLine
 10
46.10000000000001
 20
46.68322874227098
 30
0.0
 11
-47.5
 21
46.68322874227098
 31
0.0
  0
SOLID
  5
411
330
40B
100
AcDbEntity
  8
치수문자_일반주서
 62
     0
100
AcDbTrace
 10
46.10000000000001
 20
46.01656207560432
 30
0.0
 11
46.10000000000001
 21
47.34989540893765
 31
0.0
 12
50.10000000000001
 22
46.68322874227098
 32
0.0
 13
50.10000000000001
 23
46.68322874227098
 33
0.0
  0
SOLID
  5
412
330
40B
100
AcDbEntity
  8
치수문자_일반주서
 62
     0
100
AcDbTrace
 10
-47.5
 20
47.34989540893765
 30
0.0
 11
-47.5
 21
46.01656207560432
 31
0.0
 12
-51.5
 22
46.68322874227098
 32
0.0
 13
-51.5
 23
46.68322874227098
 33
0.0
  0
MTEXT
  5
413
330
40B
100
AcDbEntity
  8
치수문자_일반주서
 62
     0
100
AcDbMText
 10
-0.7000000000000028
 20
51.55822874227098
 30
0.0
 40
4.0
 41
0.0
 71
     2
 72
     1
  1
\A1;101.6 [4]
  7
SLDTEXTSTYLE0
 73
     1
 44
1.0
  0
POINT
  5
414
330
40B
100
AcDbEntity
  8
Defpoints
 62
     0
100
AcDbPoint
 10
50.10000000000001
 20
12.70000000000009
 30
0.0
  0
POINT
  5
415
330
40B
100
AcDbEntity
  8
Defpoints
 62
     0
100
AcDbPoint
 10
-51.5
 20
10.16
 30
0.0
  0
POINT
  5
416
330
40B
100
AcDbEntity
  8
Defpoints
 62
     0
100
AcDbPoint
 10
-51.5
 20
46.68322874227098
 30
0.0
  0
ENDBLK
  5
40D
330
40B
100
AcDbEntity
  8
0
100
AcDbBlockEnd
  0
BLOCK
  5
418
330
417
100
AcDbEntity
  8
0
100
AcDbBlockBegin
  2
*D25
 70
     1
 10
0.0
 20
0.0
 30
0.0
  3
*D25
  1
*D27
  0
LINE
  5
41A
330
417
100
AcDbEntity
  8
치수문자_일반주서
 62
     0
370
    -2
100
AcDbLine
 10
50.16250000000001
 20
12.70000000000009
 30
0.0
 11
65.16007910769567
 21
12.70000000000014
 31
0.0
  0
LINE
  5
41B
330
417
100
AcDbEntity
  8
치수문자_일반주서
 62
     0
370
    -2
100
AcDbLine
 10
50.16250000000001
 20
-12.7
 30
0.0
 11
65.16007910769575
 21
-12.69999999999995
 31
0.0
  0
LINE
  5
41C
330
417
100
AcDbEntity
  8
치수문자_일반주서
 62
     0
370
    -2
100
AcDbLine
 10
65.16007910769567
 20
12.70000000000014
 30
0.0
 11
65.16007910769557
 21
42.45000000000013
 31
0.0
  0
LINE
  5
41D
330
417
100
AcDbEntity
  8
치수문자_일반주서
 62
     0
370
    -2
100
AcDbLine
 10
65.16007910769568
 20
8.700000000000145
 30
0.0
 11
65.16007910769574
 21
-8.699999999999946
 31
0.0
  0
SOLID
  5
41E
330
417
100
AcDbEntity
  8
치수문자_일반주서
 62
     0
100
AcDbTrace
 10
65.82674577436235
 20
8.700000000000147
 30
0.0
 11
64.49341244102901
 21
8.700000000000143
 31
0.0
 12
65.16007910769567
 22
12.70000000000014
 32
0.0
 13
65.16007910769567
 23
12.70000000000014
 33
0.0
  0
SOLID
  5
41F
330
417
100
AcDbEntity
  8
치수문자_일반주서
 62
     0
100
AcDbTrace
 10
64.49341244102907
 20
-8.699999999999948
 30
0.0
 11
65.82674577436241
 21
-8.699999999999944
 31
0.0
 12
65.16007910769575
 22
-12.69999999999995
 32
0.0
 13
65.16007910769575
 23
-12.69999999999995
 33
0.0
  0
MTEXT
  5
420
330
417
100
AcDbEntity
  8
치수문자_일반주서
 62
     0
100
AcDbMText
 10
60.28507910769561
 20
31.07500000000011
 30
0.0
 40
4.0
 41
0.0
 71
     2
 72
     1
  1
\A1;%%c25.4 [1]
  7
SLDTEXTSTYLE0
 11
-3.356894814614635E-15
 21
1.0
 31
0.0
 73
     1
 44
1.0
  0
POINT
  5
421
330
417
100
AcDbEntity
  8
Defpoints
 62
     0
100
AcDbPoint
 10
50.10000000000001
 20
12.70000000000009
 30
0.0
  0
POINT
  5
422
330
417
100
AcDbEntity
  8
Defpoints
 62
     0
100
AcDbPoint
 10
50.10000000000001
 20
-12.7
 30
0.0
  0
POINT
  5
423
330
417
100
AcDbEntity
  8
Defpoints
 62
     0
100
AcDbPoint
 10
65.16007910769576
 20
-12.69999999999995
 30
0.0
  0
ENDBLK
  5
419
330
417
100
AcDbEntity
  8
0
100
AcDbBlockEnd
  0
BLOCK
  5
428
330
427
100
AcDbEntity
  8
0
100
AcDbBlockBegin
  2
*D26
 70
     1
 10
0.0
 20
0.0
 30
0.0
  3
*D26
  1
*D28
  0
LINE
  5
42A
330
427
100
AcDbEntity
  8
치수문자_일반주서
 62
     0
370
    -2
100
AcDbLine
 10
52.44117171115792
 20
-15.75162904709665
 30
0.0
 11
74.65473908707563
 21
-43.76269693883481
 31
0.0
  0
MTEXT
  5
42B
330
427
100
AcDbEntity
  8
치수문자_일반주서
 62
     0
100
AcDbMText
 10
67.04331078207014
 20
-29.5378099741605
 30
0.0
 40
4.0
 41
0.0
 71
     5
 72
     1
  1
\A1;R.38 [R0.015]
  7
SLDTEXTSTYLE0
 11
0.6213585279976984
 21
-0.7835263745940743
 31
0.0
 73
     1
 44
1.0
  0
SOLID
  5
42C
330
427
100
AcDbEntity
  8
치수문자_일반주서
 62
     0
100
AcDbTrace
 10
52.96352262755397
 20
-15.33739002843152
 30
0.0
 11
51.91882079476187
 21
-16.16586806576179
 31
0.0
 12
49.95573759916713
 22
-12.61752354872036
 32
0.0
 13
49.95573759916713
 23
-12.61752354872036
 33
0.0
  0
LINE
  5
42D
330
427
100
AcDbEntity
  8
치수문자_일반주서
 62
     0
100
AcDbLine
 10
49.629
 20
-12.31900000000002
 30
0.0
 11
49.80900000000001
 21
-12.31900000000002
 31
0.0
  0
LINE
  5
42E
330
427
100
AcDbEntity
  8
치수문자_일반주서
 62
     0
100
AcDbLine
 10
49.71900000000001
 20
-12.40900000000002
 30
0.0
 11
49.71900000000001
 21
-12.22900000000002
 31
0.0
  0
POINT
  5
42F
330
427
100
AcDbEntity
  8
Defpoints
 62
     0
100
AcDbPoint
 10
49.95573759916713
 20
-12.61752354872036
 30
0.0
  0
POINT
  5
430
330
427
100
AcDbEntity
  8
Defpoints
 62
     0
100
AcDbPoint
 10
49.71900000000001
 20
-12.31900000000002
 30
0.0
  0
ENDBLK
  5
429
330
427
100
AcDbEntity
  8
0
100
AcDbBlockEnd
  0
BLOCK
  5
45F
330
45E
100
AcDbEntity
  8
0
100
AcDbBlockBegin
  2
*D27
 70
     1
 10
0.0
 20
0.0
 30
0.0
  3
*D27
  1
*D27
  0
LINE
  5
461
330
45E
100
AcDbEntity
  8
치수문자_일반주서
 62
     0
370
    -2
100
AcDbLine
 10
52.59759595115118
 20
-15.40955271243849
 30
0.0
 11
79.12202751501256
 21
-43.65874792600226
 31
0.0
  0
MTEXT
  5
462
330
45E
100
AcDbEntity
  8
치수문자_일반주서
 62
     0
100
AcDbMText
 10
71.03597633376245
 20
-30.8467603247671
 30
0.0
 40
4.0
 41
0.0
 71
     5
 72
     1
  1
\A1;R.76 [R0.03]
  7
SLDTEXTSTYLE0
 11
0.6845014597125517
 21
-0.729011489382291
 31
0.0
 73
     1
 44
1.0
  0
SOLID
  5
463
330
45E
100
AcDbEntity
  8
치수문자_일반주서
 62
     0
100
AcDbTrace
 10
53.08360361073937
 20
-14.95321840596345
 30
0.0
 11
52.11158829156298
 21
-15.86588701891352
 31
0.0
 12
49.85959011230097
 22
-12.49350675490932
 32
0.0
 13
49.85959011230097
 23
-12.49350675490932
 33
0.0
  0
LINE
  5
464
330
45E
100
AcDbEntity
  8
치수문자_일반주서
 62
     0
100
AcDbLine
 10
49.248
 20
-11.93800000000002
 30
0.0
 11
49.42800000000001
 21
-11.93800000000002
 31
0.0
  0
LINE
  5
465
330
45E
100
AcDbEntity
  8
치수문자_일반주서
 62
     0
100
AcDbLine
 10
49.33800000000001
 20
-12.02800000000002
 30
0.0
 11
49.33800000000001
 21
-11.84800000000002
 31
0.0
  0
POINT
  5
466
330
45E
100
AcDbEntity
  8
Defpoints
 62
     0
100
AcDbPoint
 10
49.85959011230097
 20
-12.49350675490932
 30
0.0
  0
POINT
  5
467
330
45E
100
AcDbEntity
  8
Defpoints
 62
     0
100
AcDbPoint
 10
49.33800000000001
 20
-11.93800000000002
 30
0.0
  0
ENDBLK
  5
460
330
45E
100
AcDbEntity
  8
0
100
AcDbBlockEnd
  0
BLOCK
  5
474
330
473
100
AcDbEntity
  8
0
100
AcDbBlockBegin
  2
*D28
 70
     1
 10
0.0
 20
0.0
 30
0.0
  3
*D28
  1
*D28
  0
LINE
  5
476
330
473
100
AcDbEntity
  8
치수문자_일반주서
 62
     0
370
    -2
100
AcDbLine
 10
52.10085796877682
 20
-15.62720958577794
 30
0.0
 11
77.46934050897474
 21
-48.47062739829669
 31
0.0
  0
MTEXT
  5
477
330
473
100
AcDbEntity
  8
치수문자_일반주서
 62
     0
100
AcDbMText
 10
69.42914010765308
 20
-33.35816805156602
 30
0.0
 40
4.0
 41
0.0
 71
     5
 72
     1
  1
\A1;R1.14 [R0.045]
  7
SLDTEXTSTYLE0
 11
0.6112887359083835
 21
-0.7914076581329818
 31
0.0
 73
     1
 44
1.0
  0
SOLID
  5
478
330
473
100
AcDbEntity
  8
치수문자_일반주서
 62
     0
100
AcDbTrace
 10
52.62846307419881
 20
-15.21968376183902
 30
0.0
 11
51.57325286335483
 21
-16.03473540971687
 31
0.0
 12
49.65570302514329
 22
-12.46157895324602
 32
0.0
 13
49.65570302514329
 23
-12.46157895324602
 33
0.0
  0
LINE
  5
479
330
473
100
AcDbEntity
  8
치수문자_일반주서
 62
     0
100
AcDbLine
 10
48.867
 20
-11.55700000000002
 30
0.0
 11
49.04700000000001
 21
-11.55700000000002
 31
0.0
  0
LINE
  5
47A
330
473
100
AcDbEntity
  8
치수문자_일반주서
 62
     0
100
AcDbLine
 10
48.95700000000001
 20
-11.64700000000002
 30
0.0
 11
48.95700000000001
 21
-11.46700000000002
 31
0.0
  0
POINT
  5
47B
330
473
100
AcDbEntity
  8
Defpoints
 62
     0
100
AcDbPoint
 10
49.65570302514329
 20
-12.46157895324602
 30
0.0
  0
POINT
  5
47C
330
473
100
AcDbEntity
  8
Defpoints
 62
     0
100
AcDbPoint
 10
48.95700000000001
 20
-11.55700000000002
 30
0.0
  0
ENDBLK
  5
475
330
473
100
AcDbEntity
  8
0
100
AcDbBlockEnd
  0
BLOCK
  5
48D
330
48C
100
AcDbEntity
  8
0
100
AcDbBlockBegin
  2
*D29
 70
     1
 10
0.0
 20
0.0
 30
0.0
  3
*D29
  1
*D29
  0
LINE
  5
48F
330
48C
100
AcDbEntity
  8
치수문자_일반주서
 62
     0
370
    -2
100
AcDbLine
 10
51.87687577542619
 20
-15.60531090748943
 30
0.0
 11
76.22710891239517
 21
-48.27989806900163
 31
0.0
  0
MTEXT
  5
490
330
48C
100
AcDbEntity
  8
치수문자_일반주서
 62
     0
100
AcDbMText
 10
69.04623742871333
 20
-33.83287987371839
 30
0.0
 40
4.0
 41
0.0
 71
     5
 72
     1
  1
\A1;R1.52 [R0.06]
  7
SLDTEXTSTYLE0
 11
0.5975517334225516
 21
-0.8018303597917104
 31
0.0
 73
     1
 44
1.0
  0
SOLID
  5
491
330
48C
100
AcDbEntity
  8
치수문자_일반주서
 62
     0
100
AcDbTrace
 10
52.41142934862066
 20
-15.20694308520773
 30
0.0
 11
51.34232220223171
 21
-16.00367872977113
 31
0.0
 12
49.48666884173598
 22
-12.39798946832259
 32
0.0
 13
49.48666884173598
 23
-12.39798946832259
 33
0.0
  0
LINE
  5
492
330
48C
100
AcDbEntity
  8
치수문자_일반주서
 62
     0
100
AcDbLine
 10
48.486
 20
-11.17600000000002
 30
0.0
 11
48.66600000000001
 21
-11.17600000000002
 31
0.0
  0
LINE
  5
493
330
48C
100
AcDbEntity
  8
치수문자_일반주서
 62
     0
100
AcDbLine
 10
48.57600000000001
 20
-11.26600000000002
 30
0.0
 11
48.57600000000001
 21
-11.08600000000002
 31
0.0
  0
POINT
  5
494
330
48C
100
AcDbEntity
  8
Defpoints
 62
     0
100
AcDbPoint
 10
49.48666884173598
 20
-12.39798946832259
 30
0.0
  0
POINT
  5
495
330
48C
100
AcDbEntity
  8
Defpoints
 62
     0
100
AcDbPoint
 10
48.57600000000001
 20
-11.17600000000002
 30
0.0
  0
ENDBLK
  5
48E
330
48C
100
AcDbEntity
  8
0
100
AcDbBlockEnd
  0
ENDSEC
  0
SECTION
  2
ENTITIES
  0
LINE
  5
C1
330
1F
100
AcDbEntity
  8
참조1
100
AcDbLine
 10
25.875
 20
0.0010749287238892
 30
0.0
 11
25.875
 21
-39.99892507127611
 31
0.0
  0
LINE
  5
C2
330
1F
100
AcDbEntity
  8
참조1
100
AcDbLine
 10
25.875
 20
-39.99892507127611
 30
0.0
 11
-14.68385681430867
 21
-39.9989250712761
 31
0.0
  0
LINE
  5
11B
330
1F
100
AcDbEntity
  8
참조1
100
AcDbLine
 10
83.28848381534559
 20
7.441074928723896
 30
0.0
 11
83.28848381534559
 21
-7.438925071276109
 31
0.0
  0
LINE
  5
11C
330
1F
100
AcDbEntity
  8
참조1
100
AcDbLine
 10
95.9884838153456
 20
5.441074928723896
 30
0.0
 11
83.28848381534559
 21
5.441074928723896
 31
0.0
  0
SOLID
  5
11D
330
1F
100
AcDbEntity
  8
참조1
100
AcDbTrace
 10
83.28848381534559
 20
5.441074928723896
 30
0.0
 11
89.63848381534558
 21
4.425074928723896
 31
0.0
 12
89.63848381534558
 22
6.457074928723896
 32
0.0
 13
89.63848381534558
 23
6.457074928723896
 33
0.0
  0
LINE
  5
11E
330
1F
100
AcDbEntity
  8
참조1
100
AcDbLine
 10
95.9884838153456
 20
-5.438925071276109
 30
0.0
 11
83.28848381534559
 21
-5.438925071276109
 31
0.0
  0
SOLID
  5
11F
330
1F
100
AcDbEntity
  8
참조1
100
AcDbTrace
 10
83.28848381534559
 20
-5.438925071276109
 30
0.0
 11
89.63848381534558
 21
-6.454925071276109
 31
0.0
 12
89.63848381534558
 22
-4.422925071276109
 32
0.0
 13
89.63848381534558
 23
-4.422925071276109
 33
0.0
  0
MTEXT
  5
120
330
1F
100
AcDbEntity
  8
참조1
100
AcDbMText
 10
92.68597390781586
 20
10.98929157337383
 30
0.0
 40
3.5
 41
0.0
 71
     1
 72
     1
  1
A
  7
SLDTEXTSTYLE0
 73
     1
 44
1.0
  0
MTEXT
  5
121
330
1F
100
AcDbEntity
  8
참조1
100
AcDbMText
 10
92.68597390781586
 20
0.1092915733738259
 30
0.0
 40
3.5
 41
0.0
 71
     1
 72
     1
  1
A
  7
SLDTEXTSTYLE0
 73
     1
 44
1.0
  0
LINE
  5
3BB
330
1F
100
AcDbEntity
  8
0
  6
Continuous
 62
     1
370
    15
100
AcDbLine
 10
45.36224992744793
 20
3.768393547758308
 30
0.0
 11
45.28980407102175
 21
3.807549488277274
 31
0.0
  0
LINE
  5
3BC
330
1F
100
AcDbEntity
  8
0
  6
Continuous
 62
     1
370
    15
100
AcDbLine
 10
25.17811333762116
 20
12.7
 30
0.0
 11
17.4341183075192
 21
12.7
 31
0.0
  0
LINE
  5
3BD
330
1F
100
AcDbEntity
  8
0
  6
Continuous
 62
     1
370
    15
100
AcDbLine
 10
17.43411830751904
 20
-12.70000000000002
 30
0.0
 11
25.17811333762116
 21
-12.70000000000002
 31
0.0
  0
LINE
  5
3BE
330
1F
100
AcDbEntity
  8
외형선
  6
Continuous
370
    15
100
AcDbLine
 10
-48.95999999999999
 20
-12.70000000000002
 30
0.0
 11
10.99984289474568
 21
-12.70000000000002
 31
0.0
  0
LINE
  5
3BF
330
1F
100
AcDbEntity
  8
외형선
  6
Continuous
370
    15
100
AcDbLine
 10
10.99984289474568
 20
12.69999999999999
 30
0.0
 11
-48.95999999999999
 21
12.69999999999999
 31
0.0
  0
LINE
  5
3C0
330
1F
100
AcDbEntity
  8
외형선
  6
Continuous
370
    15
100
AcDbLine
 10
-48.95999999999999
 20
12.69999999999999
 30
0.0
 11
-51.5
 21
10.16
 31
0.0
  0
LINE
  5
3C1
330
1F
100
AcDbEntity
  8
외형선
  6
Continuous
370
    15
100
AcDbLine
 10
-51.5
 20
-10.16000000000001
 30
0.0
 11
-48.95999999999999
 21
-12.7
 31
0.0
  0
LINE
  5
3C2
330
1F
100
AcDbEntity
  8
0
  6
Continuous
 62
     1
370
    15
100
AcDbLine
 10
50.10000000000001
 20
-11.20292213632271
 30
0.0
 11
50.10000000000001
 21
1.164207136322844
 31
0.0
  0
SPLINE
  5
3C3
330
1F
100
AcDbEntity
  8
0
  6
Continuous
 62
     1
370
    15
100
AcDbSpline
210
0.0
220
0.0
230
1.0
 70
     8
 71
     3
 72
    10
 73
     6
 74
     0
 42
0.000000001
 43
0.00000001
 40
0.0
 40
0.0
 40
0.0
 40
0.0
 40
0.5
 40
0.5
 40
1.0
 40
1.0
 40
1.0
 40
1.0
 10
49.71899999999998
 20
-11.40701789477393
 30
0.0
 10
49.81906918234036
 20
-11.4324414610015
 30
0.0
 10
49.91073174186953
 20
-11.42674446002817
 30
0.0
 10
50.0518394953766
 20
-11.3573647626005
 30
0.0
 10
50.10000000000004
 20
-11.29236227352945
 30
0.0
 10
50.10000000000004
 20
-11.20292213632271
 30
0.0
  0
SPLINE
  5
3C4
330
1F
100
AcDbEntity
  8
0
  6
Continuous
 62
     1
370
    15
100
AcDbSpline
210
0.0
220
0.0
230
1.0
 70
     8
 71
     3
 72
    38
 73
    34
 74
     0
 42
0.000000001
 43
0.00000001
 40
0.0
 40
0.0
 40
0.0
 40
0.0
 40
0.0625
 40
0.0625
 40
0.125
 40
0.125
 40
0.1875
 40
0.1875
 40
0.25
 40
0.25
 40
0.3125
 40
0.3125
 40
0.375
 40
0.375
 40
0.4375
 40
0.4375
 40
0.5
 40
0.5
 40
0.5625
 40
0.5625
 40
0.625
 40
0.625
 40
0.6875
 40
0.6875
 40
0.75
 40
0.75
 40
0.8125
 40
0.8125
 40
0.875
 40
0.875
 40
0.9375
 40
0.9375
 40
1.0
 40
1.0
 40
1.0
 40
1.0
 10
49.71900000000001
 20
-11.40701789477393
 30
0.0
 10
48.93437586125459
 20
-11.2076763663573
 30
0.0
 10
48.14562284474563
 20
-10.98611019768119
 30
0.0
 10
46.57341092818923
 20
-10.50225609734461
 30
0.0
 10
45.7908717760639
 20
-10.24014965023837
 30
0.0
 10
44.2169051944134
 20
-9.676762428889205
 30
0.0
 10
43.43030307024121
 20
-9.376003926899656
 30
0.0
 10
41.862567136415
 20
-8.740547042097745
 30
0.0
 10
41.07399261684715
 20
-8.404823754845651
 30
0.0
 10
39.50097218875651
 20
-7.703045228535444
 30
0.0
 10
38.71875468336727
 20
-7.337391709638212
 30
0.0
 10
37.14524227057753
 20
-6.578007155753554
 30
0.0
 10
36.35687641722571
 20
-6.184691848108173
 30
0.0
 10
34.79045526434363
 20
-5.377680355251272
 30
0.0
 10
34.00235404223055
 20
-4.962264664088821
 30
0.0
 10
32.42872416566453
 20
-4.11445185524174
 30
0.0
 10
31.64646672823925
 20
-3.682682432699352
 30
0.0
 10
30.07360775511856
 20
-2.805186075529747
 30
0.0
 10
29.28498516970991
 20
-2.35980277710793
 30
0.0
 10
27.71689825199819
 20
-1.46344795353329
 30
0.0
 10
26.93068137335329
 20
-1.011198004536624
 30
0.0
 10
25.35664136873305
 20
-0.1042434566423793
 30
0.0
 10
24.57398243734723
 20
0.3494628070173604
 30
0.0
 10
23.00197589879443
 20
1.255089698867266
 30
0.0
 10
22.21319700341617
 20
1.706892663357593
 30
0.0
 10
20.64364130505975
 20
2.600722519293754
 30
0.0
 10
19.85894887703058
 20
3.04350168485513
 30
0.0
 10
18.28469823803792
 20
3.916622698242804
 30
0.0
 10
17.50127642014247
 20
4.345832627159723
 30
0.0
 10
15.93032095133343
 20
5.186754272583187
 30
0.0
 10
15.14148623462977
 20
5.598664190077841
 30
0.0
 10
13.57065935789099
 20
6.398305016798474
 30
0.0
 10
12.78713084533921
 20
6.786334866746671
 30
0.0
 10
12.0
 20
7.161222673451263
 30
0.0
  0
SPLINE
  5
3C5
330
1F
100
AcDbEntity
  8
외형선
  6
Continuous
370
    15
100
AcDbSpline
210
0.0
220
0.0
230
1.0
 70
    24
 71
     3
 72
    12
 73
     8
 74
     0
 42
0.000000001
 43
0.00000001
 40
0.0
 40
0.0
 40
0.0
 40
0.0
 40
0.2074589392121462
 40
0.4196582945512386
 40
0.6521464286959916
 40
0.8913767344808073
 40
1.0
 40
1.0
 40
1.0
 40
1.0
 10
11.99999999999999
 20
12.31441666054985
 30
0.0
 10
12.00000000000001
 20
11.93742822930642
 30
0.0
 10
12.00000000000003
 20
11.17483721866122
 30
0.0
 10
12.00000000000003
 20
10.00159537742363
 30
0.0
 10
11.99999999999996
 20
8.826130023546668
 30
0.0
 10
12.0
 20
7.876694850631537
 30
0.0
 10
11.99999999999999
 20
7.387536697316335
 30
0.0
 10
11.99999999999999
 20
7.234788643676268
 30
0.0
  0
SPLINE
  5
3C6
330
1F
100
AcDbEntity
  8
0
  6
Continuous
 62
     1
370
    15
100
AcDbSpline
210
0.0
220
0.0
230
1.0
 70
     8
 71
     3
 72
    38
 73
    34
 74
     0
 42
0.000000001
 43
0.00000001
 40
0.0
 40
0.0
 40
0.0
 40
0.0
 40
0.0625
 40
0.0625
 40
0.125
 40
0.125
 40
0.1875
 40
0.1875
 40
0.25
 40
0.25
 40
0.3125
 40
0.3125
 40
0.375
 40
0.375
 40
0.4375
 40
0.4375
 40
0.5
 40
0.5
 40
0.5625
 40
0.5625
 40
0.625
 40
0.625
 40
0.6875
 40
0.6875
 40
0.75
 40
0.75
 40
0.8125
 40
0.8125
 40
0.875
 40
0.875
 40
0.9375
 40
0.9375
 40
1.0
 40
1.0
 40
1.0
 40
1.0
 10
49.71900000000001
 20
1.307493828788836
 30
0.0
 10
48.93437586125459
 20
1.758538584529333
 30
0.0
 10
48.14562284474563
 20
2.207864527075031
 30
0.0
 10
46.57341092818923
 20
3.095343417627845
 30
0.0
 10
45.79087177606387
 20
3.533342243922689
 30
0.0
 10
44.2169051944134
 20
4.395791329966812
 30
0.0
 10
43.43030307024124
 20
4.819334466489011
 30
0.0
 10
41.86256713641505
 20
5.645430128688844
 30
0.0
 10
41.07399261684718
 20
6.049274393984732
 30
0.0
 10
39.50097218875653
 20
6.83154279010472
 30
0.0
 10
38.71875468336721
 20
7.209649185163769
 30
0.0
 10
37.14524227057747
 20
7.938288273131178
 30
0.0
 10
36.35687641722571
 20
8.288301913272164
 30
0.0
 10
34.79045526434359
 20
8.953845406013016
 30
0.0
 10
34.00235404223058
 20
9.270797595849501
 30
0.0
 10
32.42872416566449
 20
9.867616814583172
 30
0.0
 10
31.64646672823919
 20
10.14714484008655
 30
0.0
 10
30.07360775511856
 20
10.66731624670695
 30
0.0
 10
29.28498516970988
 20
10.90765258124273
 30
0.0
 10
27.71689825199816
 20
11.34482225364874
 30
0.0
 10
26.93068137335328
 20
11.54231433300495
 30
0.0
 10
25.35664136873304
 20
11.89245482713451
 30
0.0
 10
24.57398243734721
 20
12.04477636091917
 30
0.0
 10
23.00197589879438
 20
12.30322767603936
 30
0.0
 10
22.21319700341613
 20
12.40923034544508
 30
0.0
 10
20.64364130505975
 20
12.57304162471125
 30
0.0
 10
19.85894887703056
 20
12.63104890477587
 30
0.0
 10
18.28469823803789
 20
12.6985815306638
 30
0.0
 10
17.50127642014247
 20
12.70804104084669
 30
0.0
 10
15.93032095133334
 20
12.67838575369842
 30
0.0
 10
15.14148623462974
 20
12.63917677572492
 30
0.0
 10
13.57065935789096
 20
12.51267392793171
 30
0.0
 10
12.78713084533915
 20
12.42542246589396
 30
0.0
 10
11.99999999999996
 20
12.31441666054985
 30
0.0
  0
SPLINE
  5
3C7
330
1F
100
AcDbEntity
  8
0
  6
Continuous
 62
     1
370
    15
100
AcDbSpline
210
0.0
220
0.0
230
1.0
 70
     8
 71
     3
 72
    12
 73
     8
 74
     0
 42
0.000000001
 43
0.00000001
 40
0.0
 40
0.0
 40
0.0
 40
0.0
 40
0.2499999999999882
 40
0.2499999999999882
 40
0.4999999999999765
 40
0.4999999999999765
 40
1.0
 40
1.0
 40
1.0
 40
1.0
 10
50.10000000000001
 20
1.164207136322858
 30
0.0
 10
50.10000000000001
 20
1.155468382753014
 30
0.0
 10
50.08960631609192
 20
1.151809377584016
 30
0.0
 10
50.04870085586357
 20
1.156615087957164
 30
0.0
 10
50.01794904374039
 20
1.165227280677797
 30
0.0
 10
49.9067299347159
 20
1.207000662892497
 30
0.0
 10
49.80997582809918
 20
1.255195960119011
 30
0.0
 10
49.71899999999998
 20
1.307493828788836
 30
0.0
  0
SPLINE
  5
3C8
330
1F
100
AcDbEntity
  8
0
  6
Continuous
 62
     1
370
    15
100
AcDbSpline
210
0.0
220
0.0
230
1.0
 70
     8
 71
     3
 72
    16
 73
    12
 74
     0
 42
0.000000001
 43
0.00000001
 40
0.0
 40
0.0
 40
0.0
 40
0.0
 40
0.1135258368927277
 40
0.2270714934078523
 40
0.3406600785071238
 40
0.4542572010504117
 40
0.5678081545384327
 40
0.6813355981422806
 40
0.794862708846974
 40
0.9197621440105643
 40
1.0
 40
1.0
 40
1.0
 40
1.0
 10
11.99999999999997
 20
-10.48841693589883
 30
0.0
 10
13.00548730941635
 20
-10.79681529091036
 30
0.0
 10
15.01663746871942
 20
-11.41366584188374
 30
0.0
 10
18.03391382893132
 20
-12.07176631898736
 30
0.0
 10
21.05212144013909
 20
-12.51710619060705
 30
0.0
 10
24.07046155124284
 20
-12.72366070000477
 30
0.0
 10
27.08788979889199
 20
-12.69159218245017
 30
0.0
 10
30.10462256645543
 20
-12.42304943450144
 30
0.0
 10
33.22178767999684
 20
-11.89580310231642
 30
0.0
 10
36.0444865110216
 20
-11.22940024275518
 30
0.0
 10
37.86155036900227
 20
-10.625710396054
 30
0.0
 10
38.57228076492773
 20
-10.38958180768458
 30
0.0
  0
SPLINE
  5
3C9
330
1F
100
AcDbEntity
  8
외형선
  6
Continuous
370
    15
100
AcDbSpline
210
0.0
220
0.0
230
1.0
 70
    24
 71
     3
 72
    22
 73
    18
 74
     0
 42
0.000000001
 43
0.00000001
 40
0.0
 40
0.0
 40
0.0
 40
0.0
 40
0.0260212218362395
 40
0.0985683648832623
 40
0.1732193799933414
 40
0.2457665230403667
 40
0.3204175381504488
 40
0.3929646811974746
 40
0.4676156963075569
 40
0.5401628393545821
 40
0.6148138544646635
 40
0.6873609975116892
 40
0.7620120126217715
 40
0.8345591556687967
 40
0.9092101707788782
 40
0.9543593140656113
 40
1.0
 40
1.0
 40
1.0
 40
1.0
 10
12.0
 20
2.970770867414529
 30
0.0
 10
12.0
 20
2.94837306042146
 30
0.0
 10
12.00000000000006
 20
2.863530187701215
 30
0.0
 10
11.99999999999993
 20
2.511278813049699
 30
0.0
 10
11.99999999999997
 20
1.912121925488549
 30
0.0
 10
12.00000000000003
 20
1.112000929087969
 30
0.0
 10
12.0
 20
0.1637738231049894
 30
0.0
 10
12.00000000000001
 20
-0.927030821704875
 30
0.0
 10
12.00000000000003
 20
-2.108769455274995
 30
0.0
 10
11.99999999999996
 20
-3.369570650559069
 30
0.0
 10
12.00000000000007
 20
-4.650960006873788
 30
0.0
 10
11.99999999999997
 20
-5.939804494793094
 30
0.0
 10
11.99999999999996
 20
-7.176227044194491
 30
0.0
 10
11.99999999999999
 20
-8.34821018556373
 30
0.0
 10
12.0
 20
-9.26780176842803
 30
0.0
 10
11.99999999999996
 20
-9.978520366079508
 30
0.0
 10
11.99999999999996
 20
-10.31783904739919
 30
0.0
 10
11.99999999999997
 20
-10.48841693589883
 30
0.0
  0
LINE
  5
3CA
330
1F
100
AcDbEntity
  8
외형선
  6
Continuous
370
    15
100
AcDbLine
 10
12.0
 20
3.105662942170483
 30
0.0
 11
12.0
 21
7.161222673451263
 31
0.0
  0
SPLINE
  5
3CB
330
1F
100
AcDbEntity
  8
0
  6
Continuous
 62
     1
370
    15
100
AcDbSpline
210
0.0
220
0.0
230
1.0
 70
     8
 71
     3
 72
    10
 73
     6
 74
     0
 42
0.000000001
 43
0.00000001
 40
0.0
 40
0.0
 40
0.0
 40
0.0
 40
0.5
 40
0.5
 40
1.0
 40
1.0
 40
1.0
 40
1.0
 10
49.71899999999998
 20
5.58300481356649
 30
0.0
 10
49.81906918234036
 20
5.531060191523153
 30
0.0
 10
49.91073174186947
 20
5.455941161399679
 30
0.0
 10
50.05183949537657
 20
5.289074257779433
 30
0.0
 10
50.10000000000004
 20
5.19758190227418
 30
0.0
 10
50.10000000000004
 20
5.123699504019498
 30
0.0
  0
LINE
  5
3CC
330
1F
100
AcDbEntity
  8
0
  6
Continuous
 62
     1
370
    15
100
AcDbLine
 10
50.10000000000001
 20
1.164207136322844
 30
0.0
 11
50.10000000000001
 21
5.123699504019498
 31
0.0
  0
SPLINE
  5
3CD
330
1F
100
AcDbEntity
  8
0
  6
Continuous
 62
     1
370
    15
100
AcDbSpline
210
0.0
220
0.0
230
1.0
 70
     8
 71
     3
 72
    15
 73
    11
 74
     0
 42
0.000000001
 43
0.00000001
 40
0.0
 40
0.0
 40
0.0
 40
0.0
 40
0.0778310347031084
 40
0.2007590822070639
 40
0.3236867692462562
 40
0.458928462458193
 40
0.594180051208498
 40
0.7294449080653135
 40
0.8647256108139078
 40
1.0
 40
1.0
 40
1.0
 40
1.0
 10
25.17811333762116
 20
12.67225608798361
 30
0.0
 10
25.81477554505224
 20
12.67394342740937
 30
0.0
 10
27.4569960413793
 20
12.67829578782417
 30
0.0
 10
30.10461638964522
 20
12.41550648527485
 30
0.0
 10
33.22178903282703
 20
11.90312038279754
 30
0.0
 10
36.44017713195079
 20
11.11268589426568
 30
0.0
 10
39.75942925219739
 20
10.0486401713342
 30
0.0
 10
43.0790846722647
 20
8.75290566504998
 30
0.0
 10
46.39904083313907
 20
7.267645722034246
 30
0.0
 10
48.61236416078107
 20
6.144543046968153
 30
0.0
 10
49.71899999999998
 20
5.583004813566475
 30
0.0
  0
SPLINE
  5
3CE
330
1F
100
AcDbEntity
  8
0
  6
Continuous
 62
     1
370
    15
100
AcDbSpline
210
0.0
220
0.0
230
1.0
 70
     8
 71
     3
 72
    11
 73
     7
 74
     0
 42
0.000000001
 43
0.00000001
 40
0.0415712763802089
 40
0.0415712763802089
 40
0.0415712763802089
 40
0.0415712763802089
 40
0.2708252068668471
 40
0.541571258971132
 40
0.8122316898186627
 40
1.0
 40
1.0
 40
1.0
 40
1.0
 10
48.57600000000001
 20
12.70000000000002
 30
0.0
 10
47.58588079815903
 20
12.52372284341602
 30
0.0
 10
46.54575396800555
 20
12.35740290205852
 30
0.0
 10
43.68225731862016
 20
11.83547447754287
 30
0.0
 10
40.97310391846871
 20
11.18157838757915
 30
0.0
 10
39.26989847417038
 20
10.61971572611964
 30
0.0
 10
38.57228076492773
 20
10.38958180768455
 30
0.0
  0
LINE
  5
3CF
330
1F
100
AcDbEntity
  8
0
  6
Continuous
 62
     1
370
    15
100
AcDbLine
 10
50.10000000000001
 20
5.121432532314401
 30
0.0
 11
50.10000000000001
 21
11.17600000000002
 31
0.0
  0
SPLINE
  5
3D0
330
1F
100
AcDbEntity
  8
0
  6
Continuous
 62
     1
370
    15
100
AcDbSpline
210
0.0
220
0.0
230
1.0
 70
     8
 71
     3
 72
     9
 73
     5
 74
     0
 42
0.000000001
 43
0.00000001
 40
0.0
 40
0.0
 40
0.0
 40
0.0
 40
0.3892897846637658
 40
1.0
 40
1.0
 40
1.0
 40
1.0
 10
17.43411830751906
 20
-12.6666077181024
 30
0.0
 10
16.72896734795047
 20
-12.67006120212248
 30
0.0
 10
14.91758932739019
 20
-12.67893244446205
 30
0.0
 10
13.10622108770893
 20
-12.4526249557273
 30
0.0
 10
11.99999999999996
 20
-12.31441666054991
 30
0.0
  0
LINE
  5
3D1
330
1F
100
AcDbEntity
  8
외형선
  6
Continuous
370
    15
100
AcDbLine
 10
12.0
 20
-12.31441666054991
 30
0.0
 11
11.99999999999997
 21
-10.48841693589883
 31
0.0
  0
LINE
  5
3D2
330
1F
100
AcDbEntity
  8
0
  6
Continuous
 62
     1
370
    15
100
AcDbLine
 10
50.10000000000001
 20
-11.20292213632271
 30
0.0
 11
50.10000000000001
 21
0.0
 31
0.0
  0
LINE
  5
3D3
330
1F
100
AcDbEntity
  8
외형선
  6
Continuous
370
    15
100
AcDbLine
 10
10.9998428947457
 20
7.63012226284556
 30
0.0
 11
10.99984289474568
 21
12.69999999999999
 31
0.0
  0
SPLINE
  5
3D4
330
1F
100
AcDbEntity
  8
외형선
  6
Continuous
370
    15
100
AcDbSpline
210
0.0
220
0.0
230
1.0
 70
     8
 71
     3
 72
     8
 73
     4
 74
     0
 42
0.000000001
 43
0.00000001
 40
0.0
 40
0.0
 40
0.0
 40
0.0
 40
1.0
 40
1.0
 40
1.0
 40
1.0
 10
11.99999999999997
 20
7.161222673451277
 30
0.0
 10
11.66648869823244
 20
7.320064524423259
 30
0.0
 10
11.33293107768957
 20
7.476448704203122
 30
0.0
 10
10.99984289474568
 20
7.630136550553928
 30
0.0
  0
SPLINE
  5
3D5
330
1F
100
AcDbEntity
  8
외형선
  6
Continuous
370
    15
100
AcDbSpline
210
0.0
220
0.0
230
1.0
 70
     8
 71
     3
 72
     8
 73
     4
 74
     0
 42
0.000000001
 43
0.00000001
 40
0.0
 40
0.0
 40
0.0
 40
0.0
 40
1.0
 40
1.0
 40
1.0
 40
1.0
 10
12.0
 20
3.105662942170497
 30
0.0
 10
11.66648869823247
 20
3.292158649573892
 30
0.0
 10
11.33293107768957
 20
3.477593926298354
 30
0.0
 10
10.99984289474567
 20
3.661683424099209
 30
0.0
  0
LINE
  5
3D6
330
1F
100
AcDbEntity
  8
외형선
  6
Continuous
370
    15
100
AcDbLine
 10
10.9998428947457
 20
-10.15240041832621
 30
0.0
 11
10.99984289474568
 21
3.661682703187623
 31
0.0
  0
SPLINE
  5
3D7
330
1F
100
AcDbEntity
  8
외형선
  6
Continuous
370
    15
100
AcDbSpline
210
0.0
220
0.0
230
1.0
 70
     8
 71
     3
 72
     8
 73
     4
 74
     0
 42
0.000000001
 43
0.00000001
 40
0.0
 40
0.0
 40
0.0
 40
0.0
 40
1.0
 40
1.0
 40
1.0
 40
1.0
 10
11.99999999999997
 20
-10.48841693589881
 30
0.0
 10
11.66648869823244
 20
-10.37996378499668
 30
0.0
 10
11.33293107768957
 20
-10.26789541740911
 30
0.0
 10
10.99984289474568
 20
-10.15238968026262
 30
0.0
  0
SPLINE
  5
3D8
330
1F
100
AcDbEntity
  8
외형선
  6
Continuous
370
    15
100
AcDbSpline
210
0.0
220
0.0
230
1.0
 70
     8
 71
     3
 72
     8
 73
     4
 74
     0
 42
0.000000001
 43
0.00000001
 40
0.0
 40
0.0
 40
0.0
 40
0.0
 40
1.0
 40
1.0
 40
1.0
 40
1.0
 10
12.0
 20
-12.3144166605499
 30
0.0
 10
11.66648869823247
 20
-12.2673829419969
 30
0.0
 10
11.33293107768957
 20
-12.21610830064969
 30
0.0
 10
10.99984289474567
 20
-12.16067738662929
 30
0.0
  0
LINE
  5
3D9
330
1F
100
AcDbEntity
  8
외형선
  6
Continuous
370
    15
100
AcDbLine
 10
10.99984289474568
 20
-12.70000000000002
 30
0.0
 11
10.99984289474568
 21
-12.16067760370188
 31
0.0
  0
SPLINE
  5
3DA
330
1F
100
AcDbEntity
  8
외형선
  6
Continuous
370
    15
100
AcDbSpline
210
0.0
220
0.0
230
1.0
 70
     8
 71
     3
 72
     8
 73
     4
 74
     0
 42
0.000000001
 43
0.00000001
 40
0.0
 40
0.0
 40
0.0
 40
0.0
 40
1.0
 40
1.0
 40
1.0
 40
1.0
 10
12.0
 20
12.31441666054985
 30
0.0
 10
11.66648869823247
 20
12.26738294199686
 30
0.0
 10
11.33293107768957
 20
12.21610830064965
 30
0.0
 10
10.99984289474567
 20
12.16067738662926
 30
0.0
  0
LINE
  5
3DB
330
1F
100
AcDbEntity
  8
외형선
  6
Continuous
370
    15
100
AcDbLine
 10
-48.95999999999999
 20
0.0
 30
0.0
 11
-48.95999999999999
 21
12.69999999999999
 31
0.0
  0
LINE
  5
3DC
330
1F
100
AcDbEntity
  8
외형선
  6
Continuous
370
    15
100
AcDbLine
 10
-48.95999999999999
 20
-12.70000000000002
 30
0.0
 11
-48.95999999999999
 21
0.0
 31
0.0
  0
LINE
  5
3DD
330
1F
100
AcDbEntity
  8
외형선
  6
Continuous
370
    15
100
AcDbLine
 10
-51.5
 20
0.0
 30
0.0
 11
-51.5
 21
10.16
 31
0.0
  0
LINE
  5
3DE
330
1F
100
AcDbEntity
  8
외형선
  6
Continuous
370
    15
100
AcDbLine
 10
-51.5
 20
-10.16000000000001
 30
0.0
 11
-51.5
 21
0.0
 31
0.0
  0
SPLINE
  5
3DF
330
1F
100
AcDbEntity
  8
외형선
  6
Continuous
370
    15
100
AcDbSpline
210
0.0
220
0.0
230
1.0
 70
    24
 71
     3
 72
    22
 73
    18
 74
     0
 42
0.000000001
 43
0.00000001
 40
0.0
 40
0.0
 40
0.0
 40
0.0
 40
0.0541610720201114
 40
0.1091781105826515
 40
0.1817180921410753
 40
0.2563617380789008
 40
0.3289017196373249
 40
0.4035453655751506
 40
0.4760853471335746
 40
0.5507289930714
 40
0.6232689746298244
 40
0.6979126205676505
 40
0.7704526021260727
 40
0.8450962480638964
 40
0.9176362296223218
 40
0.9922798755601498
 40
1.0
 40
1.0
 40
1.0
 40
1.0
 10
11.99999999999997
 20
-10.48841693589881
 30
0.0
 10
11.99999999999996
 20
-10.28453196780629
 30
0.0
 10
11.99999999999993
 20
-9.873539814913102
 30
0.0
 10
12.00000000000007
 20
-9.06911026813549
 30
0.0
 10
11.99999999999997
 20
-8.076793597900846
 30
0.0
 10
11.99999999999997
 20
-6.894466267468687
 30
0.0
 10
11.9999999999999
 20
-5.633823396509456
 30
0.0
 10
12.00000000000003
 20
-4.35238180191115
 30
0.0
 10
11.9999999999999
 20
-3.063585484404143
 30
0.0
 10
11.99999999999999
 20
-1.827020167811042
 30
0.0
 10
12.00000000000001
 20
-0.6555532059983875
 30
0.0
 10
11.99999999999993
 20
0.3969720941075536
 30
0.0
 10
11.99999999999999
 20
1.318229745435687
 30
0.0
 10
12.00000000000004
 20
2.071063810282368
 30
0.0
 10
11.99999999999996
 20
2.627142978853712
 30
0.0
 10
11.99999999999996
 20
2.91633604010859
 30
0.0
 10
11.99999999999999
 20
2.978554091925673
 30
0.0
 10
12.0
 20
2.984385917013711
 30
0.0
  0
SPLINE
  5
3E0
330
1F
100
AcDbEntity
  8
외형선
  6
Continuous
370
    15
100
AcDbSpline
210
0.0
220
0.0
230
1.0
 70
    24
 71
     3
 72
    12
 73
     8
 74
     0
 42
0.000000001
 43
0.00000001
 40
0.0
 40
0.0
 40
0.0
 40
0.0
 40
0.1671731364822281
 40
0.3997634305632466
 40
0.6390988589294015
 40
0.8180453838925899
 40
1.0
 40
1.0
 40
1.0
 40
1.0
 10
12.0
 20
7.234788643676268
 30
0.0
 10
12.00000000000001
 20
7.476009444522248
 30
0.0
 10
12.00000000000001
 20
8.05284407775683
 30
0.0
 10
11.99999999999999
 20
9.111731298508843
 30
0.0
 10
11.99999999999997
 20
10.24633500167393
 30
0.0
 10
12.00000000000003
 20
11.32878002450738
 30
0.0
 10
12.00000000000001
 20
11.98405056723476
 30
0.0
 10
12.0
 20
12.31441666054985
 30
0.0
  0
LINE
  5
3E1
330
1F
100
AcDbEntity
  8
중심선
 62
     1
100
AcDbLine
 10
-54.5
 20
-0.0000000000000142
 30
0.0
 11
53.10000000000001
 21
0.0
 31
0.0
  0
CIRCLE
  5
3E2
330
1F
100
AcDbEntity
  8
해칭선
100
AcDbCircle
 10
0.0
 20
0.0
 30
0.0
 40
3.000000000000001
  0
INSERT
  5
3E3
330
1F
100
AcDbEntity
  8
0
  6
Continuous
 62
     7
100
AcDbBlockReference
 66
     1
  2
블럭10
 10
-14.6402729321252
 20
-52.04717430164394
 30
0.0
  0
ATTRIB
  5
3E4
330
3E3
100
AcDbEntity
  8
FORMAT
 62
     2
100
AcDbText
 10
-23.82156822086648
 20
-49.97180738881175
 30
0.0
 40
4.233333333333333
  1
E5216931 [ 4 FLUTE ]
 41
0.75
  7
SLDTEXTSTYLE0
 11
-23.82156822086648
 21
-52.08847405547842
 31
0.0
100
AcDbAttribute
  2
AUTOATTR0
 70
     0
 74
     1
  0
SEQEND
  5
3E5
330
3E3
100
AcDbEntity
  8
0
  6
Continuous
 62
     7
  0
HATCH
  5
3E6
330
1F
100
AcDbEntity
  8
중심선
100
AcDbHatch
 10
0.0
 20
0.0
 30
0.0
210
0.0
220
0.0
230
1.0
  2
SOLID
 70
     1
 71
     0
 91
        1
 92
        0
 93
        4
 72
     1
 10
-8.92536362774436
 20
-35.80000000000001
 11
-12.37163887158164
 21
-35.80000000000001
 72
     1
 10
-12.37163887158164
 20
-35.80000000000001
 11
-14.49986873078566
 21
-38.33632558057261
 72
     1
 10
-14.49986873078566
 20
-38.33632558057261
 11
-11.05356040183523
 21
-38.33628615127012
 72
     1
 10
-11.05356040183523
 20
-38.33628615127012
 11
-8.925363627744353
 21
-35.8
 97
        0
 75
     0
 76
     1
 98
        1
 10
-26.575
 20
-0.0010749287239094
  0
HATCH
  5
3E7
330
1F
100
AcDbEntity
  8
중심선
100
AcDbHatch
 10
0.0
 20
0.0
 30
0.0
210
0.0
220
0.0
230
1.0
  2
SOLID
 70
     1
 71
     0
 91
        1
 92
        0
 93
        4
 72
     1
 10
-3.91259963670835
 20
-35.80000000000001
 11
-7.358874880545628
 21
-35.79999999999999
 72
     1
 10
-7.358874880545628
 20
-35.79999999999998
 11
-11.89001288890307
 21
-41.20000000000002
 72
     1
 10
-11.89001288890307
 20
-41.20000000000002
 11
-8.443737645065795
 21
-41.20000000000002
 72
     1
 10
-8.443737645065795
 20
-41.20000000000002
 11
-3.91259963670835
 21
-35.8
 97
        0
 75
     0
 76
     1
 98
        1
 10
-26.575
 20
-0.0010749287239094
  0
HATCH
  5
3E8
330
1F
100
AcDbEntity
  8
중심선
100
AcDbHatch
 10
0.0
 20
0.0
 30
0.0
210
0.0
220
0.0
230
1.0
  2
SOLID
 70
     1
 71
     0
 91
        1
 92
        0
 93
        4
 72
     1
 10
1.100164354327489
 20
-35.80000000000001
 11
-2.346110889509575
 21
-35.79999999999999
 72
     1
 10
-2.346110889509575
 20
-35.79999999999998
 11
-9.394547791398878
 21
-44.20000000000002
 72
     1
 10
-9.394547791398878
 20
-44.20000000000002
 11
-5.948272547561601
 21
-44.20000000000002
 72
     1
 10
-5.948272547561587
 20
-44.20000000000002
 11
1.100164354327504
 21
-35.8
 97
        0
 75
     0
 76
     1
 98
        1
 10
-26.575
 20
-0.0010749287239094
  0
HATCH
  5
3E9
330
1F
100
AcDbEntity
  8
중심선
100
AcDbHatch
 10
0.0
 20
0.0
 30
0.0
210
0.0
220
0.0
230
1.0
  2
SOLID
 70
     1
 71
     0
 91
        1
 92
        0
 93
        6
 72
     3
 10
5.900054785339691
 20
-40.00000000005127
 11
3.960054785062283
 21
1.540740868222201E-10
 40
0.3939339440162628
 50
17.09539180608447
 51
320.0019657685078
 73
     0
 72
     1
 10
7.583054441040289
 20
-38.58789400463831
 11
9.888356314741358
 21
-36.6535672945904
 72
     3
 10
5.900054785286841
 20
-40.00000000000016
 11
6.600054785286829
 21
-1.278976924368180E-13
 40
0.636358354079598
 50
39.99873849337385
 51
368.4976242363724
 73
     1
 72
     1
 10
12.32538727718746
 20
-39.03999999993003
 11
4.580122092122778
 21
-39.03999999993
 72
     1
 10
4.580122092122764
 20
-39.03999999993
 11
4.58009704767683
 21
-40.95999999992992
 72
     1
 10
4.58009704767683
 20
-40.95999999992992
 11
9.021476817148866
 21
-40.95999999992989
 97
        0
 75
     0
 76
     1
 98
        1
 10
-26.575
 20
-0.0010749287239094
  0
DIMENSION
  5
3EA
330
1F
100
AcDbEntity
  8
치수문자_일반주서
100
AcDbDimension
  2
*D22
 10
-65.52888583383674
 20
-12.70000000000005
 30
0.0
 11
-65.52888583383688
 21
31.07499999999993
 31
0.0
 70
   160
  1
%%c<>
 71
     2
 42
25.39999999999998
 52
-270.0
  3
SLDDIMSTYLE2
100
AcDbAlignedDimension
 13
-48.95999999999998
 23
12.69999999999999
 33
0.0
 14
-48.95999999999998
 24
-12.69999999999999
 34
0.0
 50
90.0000000000002
100
AcDbRotatedDimension
1001
ACAD
1000
DSTYLE
1002
{
1070
   171
1070
     6
1070
   273
1070
     5
1070
    41
1040
4.0
1070
   140
1040
4.0
1002
}
  0
DIMENSION
  5
3EB
330
1F
100
AcDbEntity
  8
치수문자_일반주서
100
AcDbDimension
  2
*D23
 10
12.0
 20
23.27652346475534
 30
0.0
 11
30.47422263844656
 21
23.27652346475534
 31
0.0
 70
   160
  1
<>
 71
     2
 42
38.10000000000001
  3
SLDDIMSTYLE2
100
AcDbAlignedDimension
 13
50.10000000000001
 23
12.70000000000009
 33
0.0
 14
12.0
 24
12.31441666054985
 34
0.0
100
AcDbRotatedDimension
1001
ACAD
1000
DSTYLE
1002
{
1070
   171
1070
     6
1070
   273
1070
     5
1070
    41
1040
4.0
1070
   140
1040
4.0
1002
}
  0
DIMENSION
  5
3EC
330
1F
100
AcDbEntity
  8
치수문자_일반주서
100
AcDbDimension
  2
*D24
 10
-51.5
 20
46.68322874227098
 30
0.0
 11
-0.7000000000000028
 21
46.68322874227098
 31
0.0
 70
   160
  1
<>
 71
     2
 42
101.6
  3
SLDDIMSTYLE2
100
AcDbAlignedDimension
 13
50.10000000000001
 23
12.70000000000009
 33
0.0
 14
-51.5
 24
10.16
 34
0.0
100
AcDbRotatedDimension
1001
ACAD
1000
DSTYLE
1002
{
1070
   171
1070
     6
1070
   273
1070
     5
1070
    41
1040
4.0
1070
   140
1040
4.0
1002
}
  0
DIMENSION
  5
3ED
330
1F
100
AcDbEntity
  8
치수문자_일반주서
100
AcDbDimension
  2
*D25
 10
65.16007910769575
 20
-12.69999999999995
 30
0.0
 11
65.16007910769561
 21
31.07500000000013
 31
0.0
 70
   160
  1
%%c<>
 71
     2
 42
25.40000000000009
 52
-270.0
  3
SLDDIMSTYLE2
100
AcDbAlignedDimension
 13
50.10000000000001
 23
12.70000000000009
 33
0.0
 14
50.10000000000001
 24
-12.7
 34
0.0
 50
90.0000000000002
100
AcDbRotatedDimension
1001
ACAD
1000
DSTYLE
1002
{
1070
   171
1070
     6
1070
   273
1070
     5
1070
    41
1040
4.0
1070
   140
1040
4.0
1002
}
  0
INSERT
  5
3EE
330
1F
100
AcDbEntity
  8
해칭선
100
AcDbBlockReference
  2
SW_DOWELSYMBOL_0
 10
0.0
 20
0.0
 30
0.0
  0
ARC
  5
485
102
{ACAD_REACTORS
102
}
330
1F
100
AcDbEntity
  8
0
  6
Continuous
 62
     1
370
    15
100
AcDbCircle
 10
48.57600000000001
 20
-11.17600000000002
 30
0.0
 40
1.524
100
AcDbArc
 50
270.0
 51
0.0
  0
SPLINE
  5
486
330
1F
100
AcDbEntity
  8
0
  6
Continuous
 62
     1
370
    15
100
AcDbSpline
210
0.0
220
0.0
230
1.0
 70
     8
 71
     3
 72
    38
 73
    34
 74
     0
 42
0.000000001
 43
0.00000001
 40
0.0509382033658679
 40
0.0509382033658679
 40
0.0509382033658679
 40
0.0509382033658679
 40
0.0625
 40
0.0625
 40
0.125
 40
0.125
 40
0.1875
 40
0.1875
 40
0.25
 40
0.25
 40
0.3125
 40
0.3125
 40
0.375
 40
0.375
 40
0.4375
 40
0.4375
 40
0.5
 40
0.5
 40
0.5625
 40
0.5625
 40
0.625
 40
0.625
 40
0.6875
 40
0.6875
 40
0.75
 40
0.75
 40
0.8125
 40
0.8125
 40
0.875
 40
0.875
 40
0.9375
 40
0.9375
 40
1.0
 40
1.0
 40
1.0
 40
1.0
 10
48.57600000000001
 20
-12.70000000000002
 30
0.0
 10
47.65044898213331
 20
-12.5831189143781
 30
0.0
 10
47.50493764202732
 20
-12.57112796925795
 30
0.0
 10
46.56844295703629
 20
-12.34969205969021
 30
0.0
 10
45.79087177606387
 20
-12.20702769597669
 30
0.0
 10
44.2169051944134
 20
-11.92363414259341
 30
0.0
 10
43.43030307024124
 20
-11.75880538399679
 30
0.0
 10
41.86256713641505
 20
-11.38528029609694
 30
0.0
 10
41.07399261684718
 20
-11.17596659454622
 30
0.0
 10
39.50097218875653
 20
-10.71568817776537
 30
0.0
 10
38.71875468336721
 20
-10.46503471456992
 30
0.0
 10
37.14524227057747
 20
-9.923687431744014
 30
0.0
 10
36.35687641722571
 20
-9.633245837486243
 30
0.0
 10
34.79045526434359
 20
-9.017983500551367
 30
0.0
 10
34.00235404223058
 20
-8.691853377594327
 30
0.0
 10
32.42872416566449
 20
-8.007879969215452
 30
0.0
 10
31.64646672823919
 20
-7.65058086163269
 30
0.0
 10
30.07360775511856
 20
-6.906829954387007
 30
0.0
 10
29.28498516970988
 20
-6.52063145458483
 30
0.0
 10
27.71689825199816
 20
-5.726301374598464
 30
0.0
 10
26.93068137335328
 20
-5.317049823748789
 30
0.0
 10
25.35664136873304
 20
-4.479459473494899
 30
0.0
 10
24.57398243734721
 20
-4.052064158859196
 30
0.0
 10
23.00197589879438
 20
-3.182208397262471
 30
0.0
 10
22.21319700341613
 20
-2.739826609490279
 30
0.0
 10
20.64364130505975
 20
-1.847774856324236
 30
0.0
 10
19.85894887703056
 20
-1.397376447354276
 30
0.0
 10
18.28469823803789
 20
-0.4920208121044993
 30
0.0
 10
17.50127642014245
 20
-0.0382452699996918
 30
0.0
 10
15.9303209513334
 20
0.8685070390836529
 30
0.0
 10
15.14148623462974
 20
1.321729550526527
 30
0.0
 10
13.57065935789096
 20
2.220078770227929
 30
0.0
 10
12.78713084533915
 20
2.665508371568052
 30
0.0
 10
11.99999999999996
 20
3.105662942170511
 30
0.0
  0
ARC
  5
488
330
1F
100
AcDbEntity
  8
0
  6
Continuous
 62
     1
370
    15
100
AcDbCircle
 10
48.57600000000001
 20
11.17600000000002
 30
0.0
 40
1.524
100
AcDbArc
 50
0.0
 51
90.0
  0
DIMENSION
  5
489
102
{ACAD_REACTORS
102
}
102
{ACAD_XDICTIONARY
360
48A
102
}
330
1F
100
AcDbEntity
  8
치수문자_일반주서
100
AcDbDimension
  2
*D29
 10
48.57600000000001
 20
-11.17600000000002
 30
0.0
 11
66.74097514431216
 21
-35.55084110730822
 31
0.0
 70
   164
  1
<>
 71
     5
 42
1.524000000000001
  3
SLDDIMSTYLE2
100
AcDbRadialDimension
 15
49.48666884173598
 25
-12.39798946832259
 35
0.0
 40
0.0
1001
ACAD
1000
DSTYLE
1002
{
1070
   171
1070
     2
1070
   273
1070
     2
1070
    41
1040
4.0
1070
   140
1040
4.0
1002
}
1001
ACAD_DSTYLE_DIMRADIAL_EXTENSION
1070
   387
1070
     1
1070
   388
1040
4.71238898038469
1070
   390
1040
0.0
  0
ENDSEC
  0
SECTION
  2
OBJECTS
  0
DICTIONARY
  5
C
330
0
100
AcDbDictionary
281
     1
  3
ACAD_GROUP
350
D
  3
ACAD_IMAGE_VARS
350
14C
  3
ACAD_LAYOUT
350
1A
  3
ACAD_MLINESTYLE
350
17
  3
ACAD_PLOTSETTINGS
350
19
  3
ACAD_PLOTSTYLENAME
350
E
  3
ACAD_SCALELIST
350
47
  3
APPDATA
350
14A
  3
DWGPROPS
350
496
  0
DICTIONARY
  5
206
330
2
100
AcDbDictionary
280
     1
281
     1
  3
ACAD_LAYERSTATES
360
207
  0
DICTIONARY
  5
48A
330
489
100
AcDbDictionary
280
     1
281
     1
  0
DICTIONARY
  5
D
102
{ACAD_REACTORS
330
C
102
}
330
C
100
AcDbDictionary
281
     1
  0
RASTERVARIABLES
  5
14C
102
{ACAD_REACTORS
330
C
102
}
330
C
100
AcDbRasterVariables
 90
        0
 70
     1
 71
     1
 72
     1
  0
DICTIONARY
  5
1A
102
{ACAD_REACTORS
330
C
102
}
330
C
100
AcDbDictionary
281
     1
  3
Layout1
350
1E
  3
Layout2
350
26
  3
Model
350
22
  0
DICTIONARY
  5
17
102
{ACAD_REACTORS
330
C
102
}
330
C
100
AcDbDictionary
281
     1
  3
Standard
350
18
  0
DICTIONARY
  5
19
102
{ACAD_REACTORS
330
C
102
}
330
C
100
AcDbDictionary
281
     1
  0
ACDBDICTIONARYWDFLT
  5
E
102
{ACAD_REACTORS
330
C
102
}
330
C
100
AcDbDictionary
281
     1
  3
Normal
350
F
100
AcDbDictionaryWithDefault
340
F
  0
DICTIONARY
  5
47
102
{ACAD_REACTORS
330
C
102
}
330
C
100
AcDbDictionary
281
     1
  3
A0
350
48
  3
A1
350
49
  3
A2
350
4A
  3
A3
350
4B
  3
A4
350
4C
  3
A5
350
4D
  3
A6
350
4E
  3
A7
350
4F
  3
A8
350
50
  3
A9
350
51
  3
B0
350
52
  3
B1
350
53
  3
B2
350
54
  3
B3
350
55
  3
B4
350
56
  3
B5
350
57
  3
B6
350
58
  3
B7
350
59
  3
B8
350
5A
  3
B9
350
5B
  3
C0
350
5C
  3
C1
350
5D
  3
C2
350
5E
  3
C3
350
5F
  3
C4
350
60
  3
C5
350
61
  3
C6
350
62
  3
C7
350
63
  3
C8
350
64
  3
C9
350
65
  3
D0
350
66
  3
D1
350
67
  3
D2
350
68
  0
DICTIONARY
  5
14A
102
{ACAD_REACTORS
330
C
102
}
330
C
100
AcDbDictionary
281
     1
  0
XRECORD
  5
496
102
{ACAD_REACTORS
330
C
102
}
330
C
100
AcDbXrecord
280
     1
  1
DWGPROPS COOKIE
  2

  3

  4

  6

  7

  8
12014074
  9

300
=
301
=
302
=
303
=
304
=
305
=
306
=
307
=
308
=
309
=
 40
0.0
 41
2458323.369972431
 42
2458324.100345822
  1

 90
        0
  0
DICTIONARY
  5
207
102
{ACAD_REACTORS
330
206
102
}
330
206
100
AcDbDictionary
281
     1
  0
LAYOUT
  5
1E
102
{ACAD_REACTORS
330
1A
102
}
330
1A
100
AcDbPlotSettings
  1

  2
none_device
  4

  6

 40
0.0
 41
0.0
 42
0.0
 43
0.0
 44
0.0
 45
0.0
 46
0.0
 47
0.0
 48
0.0
 49
0.0
140
0.0
141
0.0
142
1.0
143
1.0
 70
   688
 72
     1
 73
     0
 74
     5
  7

 75
    16
147
1.0
148
0.0
149
0.0
100
AcDbLayout
  1
Layout1
 70
     1
 71
     1
 10
0.0
 20
0.0
 11
420.0
 21
297.0
 12
0.0
 22
0.0
 32
0.0
 14
1.000000000000000E+20
 24
1.000000000000000E+20
 34
1.000000000000000E+20
 15
-1.000000000000000E+20
 25
-1.000000000000000E+20
 35
-1.000000000000000E+20
146
0.0
 13
0.0
 23
0.0
 33
0.0
 16
1.0
 26
0.0
 36
0.0
 17
0.0
 27
1.0
 37
0.0
 76
     0
330
1B
  0
LAYOUT
  5
26
102
{ACAD_REACTORS
330
1A
102
}
330
1A
100
AcDbPlotSettings
  1

  2
none_device
  4

  6

 40
0.0
 41
0.0
 42
0.0
 43
0.0
 44
0.0
 45
0.0
 46
0.0
 47
0.0
 48
0.0
 49
0.0
140
0.0
141
0.0
142
1.0
143
1.0
 70
   688
 72
     1
 73
     0
 74
     5
  7

 75
    16
147
1.0
148
0.0
149
0.0
100
AcDbLayout
  1
Layout2
 70
     1
 71
     2
 10
0.0
 20
0.0
 11
0.0
 21
0.0
 12
0.0
 22
0.0
 32
0.0
 14
0.0
 24
0.0
 34
0.0
 15
0.0
 25
0.0
 35
0.0
146
0.0
 13
0.0
 23
0.0
 33
0.0
 16
1.0
 26
0.0
 36
0.0
 17
0.0
 27
1.0
 37
0.0
 76
     0
330
23
  0
LAYOUT
  5
22
102
{ACAD_REACTORS
330
1A
102
}
330
1A
100
AcDbPlotSettings
  1

  2
none_device
  4
ANSI_A_(11.00_x_8.50_Inches)
  6

 40
6.35
 41
19.05
 42
6.35000508
 43
19.05000254
 44
279.4
 45
215.9
 46
86.3414925486773
 47
81.78891014557202
 48
0.0
 49
0.0
140
0.0
141
0.0
142
0.0760062900238194
143
1.0
 70
  1696
 72
     0
 73
     0
 74
     0
  7

 75
     0
147
0.0235690232323232
148
0.0
149
0.0
100
AcDbLayout
  1
Model
 70
     1
 71
     0
 10
0.0
 20
0.0
 11
420.0
 21
297.0
 12
0.0
 22
0.0
 32
0.0
 14
-70.40388583383692
 24
-49.97180738881175
 34
0.0
 15
95.9884838153456
 25
51.55822874227098
 35
0.0
146
0.0
 13
0.0
 23
0.0
 33
0.0
 16
1.0
 26
0.0
 36
0.0
 17
0.0
 27
1.0
 37
0.0
 76
     0
330
1F
331
29
  0
MLINESTYLE
  5
18
102
{ACAD_REACTORS
330
17
102
}
330
17
100
AcDbMlineStyle
  2
Standard
 70
     0
  3

 62
   256
 51
90.0
 52
90.0
 71
     2
 49
0.5
 62
   256
  6
BYLAYER
 49
-0.5
 62
   256
  6
BYLAYER
  0
ACDBPLACEHOLDER
  5
F
102
{ACAD_REACTORS
330
E
102
}
330
E
  0
SCALE
  5
48
102
{ACAD_REACTORS
330
47
102
}
330
47
100
AcDbScale
 70
     0
300
1:1
140
1.0
141
1.0
290
     1
  0
SCALE
  5
49
102
{ACAD_REACTORS
330
47
102
}
330
47
100
AcDbScale
 70
     0
300
1:2
140
1.0
141
2.0
290
     0
  0
SCALE
  5
4A
102
{ACAD_REACTORS
330
47
102
}
330
47
100
AcDbScale
 70
     0
300
1:4
140
1.0
141
4.0
290
     0
  0
SCALE
  5
4B
102
{ACAD_REACTORS
330
47
102
}
330
47
100
AcDbScale
 70
     0
300
1:5
140
1.0
141
5.0
290
     0
  0
SCALE
  5
4C
102
{ACAD_REACTORS
330
47
102
}
330
47
100
AcDbScale
 70
     0
300
1:8
140
1.0
141
8.0
290
     0
  0
SCALE
  5
4D
102
{ACAD_REACTORS
330
47
102
}
330
47
100
AcDbScale
 70
     0
300
1:10
140
1.0
141
10.0
290
     0
  0
SCALE
  5
4E
102
{ACAD_REACTORS
330
47
102
}
330
47
100
AcDbScale
 70
     0
300
1:16
140
1.0
141
16.0
290
     0
  0
SCALE
  5
4F
102
{ACAD_REACTORS
330
47
102
}
330
47
100
AcDbScale
 70
     0
300
1:20
140
1.0
141
20.0
290
     0
  0
SCALE
  5
50
102
{ACAD_REACTORS
330
47
102
}
330
47
100
AcDbScale
 70
     0
300
1:30
140
1.0
141
30.0
290
     0
  0
SCALE
  5
51
102
{ACAD_REACTORS
330
47
102
}
330
47
100
AcDbScale
 70
     0
300
1:40
140
1.0
141
40.0
290
     0
  0
SCALE
  5
52
102
{ACAD_REACTORS
330
47
102
}
330
47
100
AcDbScale
 70
     0
300
1:50
140
1.0
141
50.0
290
     0
  0
SCALE
  5
53
102
{ACAD_REACTORS
330
47
102
}
330
47
100
AcDbScale
 70
     0
300
1:100
140
1.0
141
100.0
290
     0
  0
SCALE
  5
54
102
{ACAD_REACTORS
330
47
102
}
330
47
100
AcDbScale
 70
     0
300
2:1
140
2.0
141
1.0
290
     0
  0
SCALE
  5
55
102
{ACAD_REACTORS
330
47
102
}
330
47
100
AcDbScale
 70
     0
300
4:1
140
4.0
141
1.0
290
     0
  0
SCALE
  5
56
102
{ACAD_REACTORS
330
47
102
}
330
47
100
AcDbScale
 70
     0
300
8:1
140
8.0
141
1.0
290
     0
  0
SCALE
  5
57
102
{ACAD_REACTORS
330
47
102
}
330
47
100
AcDbScale
 70
     0
300
10:1
140
10.0
141
1.0
290
     0
  0
SCALE
  5
58
102
{ACAD_REACTORS
330
47
102
}
330
47
100
AcDbScale
 70
     0
300
100:1
140
100.0
141
1.0
290
     0
  0
SCALE
  5
59
102
{ACAD_REACTORS
330
47
102
}
330
47
100
AcDbScale
 70
     0
300
1/128" = 1'-0"
140
0.0078125
141
12.0
290
     0
  0
SCALE
  5
5A
102
{ACAD_REACTORS
330
47
102
}
330
47
100
AcDbScale
 70
     0
300
1/64" = 1'-0"
140
0.015625
141
12.0
290
     0
  0
SCALE
  5
5B
102
{ACAD_REACTORS
330
47
102
}
330
47
100
AcDbScale
 70
     0
300
1/32" = 1'-0"
140
0.03125
141
12.0
290
     0
  0
SCALE
  5
5C
102
{ACAD_REACTORS
330
47
102
}
330
47
100
AcDbScale
 70
     0
300
1/16" = 1'-0"
140
0.0625
141
12.0
290
     0
  0
SCALE
  5
5D
102
{ACAD_REACTORS
330
47
102
}
330
47
100
AcDbScale
 70
     0
300
3/32" = 1'-0"
140
0.09375
141
12.0
290
     0
  0
SCALE
  5
5E
102
{ACAD_REACTORS
330
47
102
}
330
47
100
AcDbScale
 70
     0
300
1/8" = 1'-0"
140
0.125
141
12.0
290
     0
  0
SCALE
  5
5F
102
{ACAD_REACTORS
330
47
102
}
330
47
100
AcDbScale
 70
     0
300
3/16" = 1'-0"
140
0.1875
141
12.0
290
     0
  0
SCALE
  5
60
102
{ACAD_REACTORS
330
47
102
}
330
47
100
AcDbScale
 70
     0
300
1/4" = 1'-0"
140
0.25
141
12.0
290
     0
  0
SCALE
  5
61
102
{ACAD_REACTORS
330
47
102
}
330
47
100
AcDbScale
 70
     0
300
3/8" = 1'-0"
140
0.375
141
12.0
290
     0
  0
SCALE
  5
62
102
{ACAD_REACTORS
330
47
102
}
330
47
100
AcDbScale
 70
     0
300
1/2" = 1'-0"
140
0.5
141
12.0
290
     0
  0
SCALE
  5
63
102
{ACAD_REACTORS
330
47
102
}
330
47
100
AcDbScale
 70
     0
300
3/4" = 1'-0"
140
0.75
141
12.0
290
     0
  0
SCALE
  5
64
102
{ACAD_REACTORS
330
47
102
}
330
47
100
AcDbScale
 70
     0
300
1" = 1'-0"
140
1.0
141
12.0
290
     0
  0
SCALE
  5
65
102
{ACAD_REACTORS
330
47
102
}
330
47
100
AcDbScale
 70
     0
300
1-1/2" = 1'-0"
140
1.5
141
12.0
290
     0
  0
SCALE
  5
66
102
{ACAD_REACTORS
330
47
102
}
330
47
100
AcDbScale
 70
     0
300
3" = 1'-0"
140
3.0
141
12.0
290
     0
  0
SCALE
  5
67
102
{ACAD_REACTORS
330
47
102
}
330
47
100
AcDbScale
 70
     0
300
6" = 1'-0"
140
6.0
141
12.0
290
     0
  0
SCALE
  5
68
102
{ACAD_REACTORS
330
47
102
}
330
47
100
AcDbScale
 70
     0
300
1'-0" = 1'-0"
140
12.0
141
12.0
290
     0
  0
ENDSEC
  0
EOF
