  0
SECTION
  2
HEADER
  9
$ACADVER
  1
AC1015
  9
$ACADMAINTVER
 70
     6
  9
$DWGCODEPAGE
  3
ANSI_949
  9
$INSBASE
 10
0.0
 20
0.0
 30
0.0
  9
$EXTMIN
 10
1.000000000000000E+20
 20
1.000000000000000E+20
 30
1.000000000000000E+20
  9
$EXTMAX
 10
-1.000000000000000E+20
 20
-1.000000000000000E+20
 30
-1.000000000000000E+20
  9
$LIMMIN
 10
0.0
 20
0.0
  9
$LIMMAX
 10
420.0
 20
297.0
  9
$ORTHOMODE
 70
     1
  9
$REGENMODE
 70
     1
  9
$FILLMODE
 70
     1
  9
$QTEXTMODE
 70
     0
  9
$MIRRTEXT
 70
     1
  9
$LTSCALE
 40
1.0
  9
$ATTMODE
 70
     1
  9
$TEXTSIZE
 40
3.5
  9
$TRACEWID
 40
1.0
  9
$TEXTSTYLE
  7
Standard
  9
$CLAYER
  8
0
  9
$CELTYPE
  6
ByLayer
  9
$CECOLOR
 62
   256
  9
$CELTSCALE
 40
1.0
  9
$DISPSILH
 70
     0
  9
$DIMSCALE
 40
1.0
  9
$DIMASZ
 40
3.302
  9
$DIMEXO
 40
1.0
  9
$DIMDLI
 40
3.75
  9
$DIMRND
 40
0.0
  9
$DIMDLE
 40
0.0
  9
$DIMEXE
 40
1.0
  9
$DIMTP
 40
0.0
  9
$DIMTM
 40
0.0
  9
$DIMTXT
 40
3.5
  9
$DIMCEN
 40
2.5
  9
$DIMTSZ
 40
0.0
  9
$DIMTOL
 70
     0
  9
$DIMLIM
 70
     0
  9
$DIMTIH
 70
     1
  9
$DIMTOH
 70
     1
  9
$DIMSE1
 70
     0
  9
$DIMSE2
 70
     0
  9
$DIMTAD
 70
     1
  9
$DIMZIN
 70
     0
  9
$DIMBLK
  1

  9
$DIMASO
 70
     1
  9
$DIMSHO
 70
     1
  9
$DIMPOST
  1

  9
$DIMAPOST
  1

  9
$DIMALT
 70
     0
  9
$DIMALTD
 70
     3
  9
$DIMALTF
 40
0.0393700787401575
  9
$DIMLFAC
 40
1.0
  9
$DIMTOFL
 70
     1
  9
$DIMTVP
 40
0.0
  9
$DIMTIX
 70
     0
  9
$DIMSOXD
 70
     0
  9
$DIMSAH
 70
     0
  9
$DIMBLK1
  1

  9
$DIMBLK2
  1

  9
$DIMSTYLE
  2
ISO-25
  9
$DIMCLRD
 70
     0
  9
$DIMCLRE
 70
     0
  9
$DIMCLRT
 70
     0
  9
$DIMTFAC
 40
1.0
  9
$DIMGAP
 40
1.524
  9
$DIMJUST
 70
     0
  9
$DIMSD1
 70
     0
  9
$DIMSD2
 70
     0
  9
$DIMTOLJ
 70
     0
  9
$DIMTZIN
 70
     0
  9
$DIMALTZ
 70
     0
  9
$DIMALTTZ
 70
     0
  9
$DIMUPT
 70
     0
  9
$DIMDEC
 70
     2
  9
$DIMTDEC
 70
     2
  9
$DIMALTU
 70
     2
  9
$DIMALTTD
 70
     3
  9
$DIMTXSTY
  7
Standard
  9
$DIMAUNIT
 70
     0
  9
$DIMADEC
 70
     2
  9
$DIMALTRND
 40
0.0
  9
$DIMAZIN
 70
     0
  9
$DIMDSEP
 70
    44
  9
$DIMATFIT
 70
     3
  9
$DIMFRAC
 70
     0
  9
$DIMLDRBLK
  1

  9
$DIMLUNIT
 70
     2
  9
$DIMLWD
 70
    -2
  9
$DIMLWE
 70
    -2
  9
$DIMTMOVE
 70
     0
  9
$LUNITS
 70
     2
  9
$LUPREC
 70
     2
  9
$SKETCHINC
 40
1.0
  9
$FILLETRAD
 40
10.0
  9
$AUNITS
 70
     0
  9
$AUPREC
 70
     2
  9
$MENU
  1
.
  9
$ELEVATION
 40
0.0
  9
$PELEVATION
 40
0.0
  9
$THICKNESS
 40
0.0
  9
$LIMCHECK
 70
     0
  9
$CHAMFERA
 40
0.0
  9
$CHAMFERB
 40
0.0
  9
$CHAMFERC
 40
0.0
  9
$CHAMFERD
 40
0.0
  9
$SKPOLY
 70
     0
  9
$TDCREATE
 40
2458311.49757228
  9
$TDUCREATE
 40
2458311.12257228
  9
$TDUPDATE
 40
2458324.583640197
  9
$TDUUPDATE
 40
2458324.208640197
  9
$TDINDWG
 40
0.001083287
  9
$TDUSRTIMER
 40
2458324.207557083
  9
$USRTIMER
 70
     1
  9
$ANGBASE
 50
0.0
  9
$ANGDIR
 70
     0
  9
$PDMODE
 70
     0
  9
$PDSIZE
 40
-1.0
  9
$PLINEWID
 40
0.0
  9
$SPLFRAME
 70
     0
  9
$SPLINETYPE
 70
     6
  9
$SPLINESEGS
 70
     8
  9
$HANDSEED
  5
2CC
  9
$SURFTAB1
 70
     6
  9
$SURFTAB2
 70
     6
  9
$SURFTYPE
 70
     6
  9
$SURFU
 70
     6
  9
$SURFV
 70
     6
  9
$UCSBASE
  2

  9
$UCSNAME
  2

  9
$UCSORG
 10
0.0
 20
0.0
 30
0.0
  9
$UCSXDIR
 10
1.0
 20
0.0
 30
0.0
  9
$UCSYDIR
 10
0.0
 20
1.0
 30
0.0
  9
$UCSORTHOREF
  2

  9
$UCSORTHOVIEW
 70
     0
  9
$UCSORGTOP
 10
0.0
 20
0.0
 30
0.0
  9
$UCSORGBOTTOM
 10
0.0
 20
0.0
 30
0.0
  9
$UCSORGLEFT
 10
0.0
 20
0.0
 30
0.0
  9
$UCSORGRIGHT
 10
0.0
 20
0.0
 30
0.0
  9
$UCSORGFRONT
 10
0.0
 20
0.0
 30
0.0
  9
$UCSORGBACK
 10
0.0
 20
0.0
 30
0.0
  9
$PUCSBASE
  2

  9
$PUCSNAME
  2

  9
$PUCSORG
 10
0.0
 20
0.0
 30
0.0
  9
$PUCSXDIR
 10
1.0
 20
0.0
 30
0.0
  9
$PUCSYDIR
 10
0.0
 20
1.0
 30
0.0
  9
$PUCSORTHOREF
  2

  9
$PUCSORTHOVIEW
 70
     0
  9
$PUCSORGTOP
 10
0.0
 20
0.0
 30
0.0
  9
$PUCSORGBOTTOM
 10
0.0
 20
0.0
 30
0.0
  9
$PUCSORGLEFT
 10
0.0
 20
0.0
 30
0.0
  9
$PUCSORGRIGHT
 10
0.0
 20
0.0
 30
0.0
  9
$PUCSORGFRONT
 10
0.0
 20
0.0
 30
0.0
  9
$PUCSORGBACK
 10
0.0
 20
0.0
 30
0.0
  9
$USERI1
 70
     0
  9
$USERI2
 70
     0
  9
$USERI3
 70
     0
  9
$USERI4
 70
     0
  9
$USERI5
 70
     0
  9
$USERR1
 40
0.0
  9
$USERR2
 40
0.0
  9
$USERR3
 40
0.0
  9
$USERR4
 40
0.0
  9
$USERR5
 40
0.0
  9
$WORLDVIEW
 70
     1
  9
$SHADEDGE
 70
     3
  9
$SHADEDIF
 70
    70
  9
$TILEMODE
 70
     1
  9
$MAXACTVP
 70
    64
  9
$PINSBASE
 10
0.0
 20
0.0
 30
0.0
  9
$PLIMCHECK
 70
     0
  9
$PEXTMIN
 10
1.000000000000000E+20
 20
1.000000000000000E+20
 30
1.000000000000000E+20
  9
$PEXTMAX
 10
-1.000000000000000E+20
 20
-1.000000000000000E+20
 30
-1.000000000000000E+20
  9
$PLIMMIN
 10
0.0
 20
0.0
  9
$PLIMMAX
 10
0.0
 20
0.0
  9
$UNITMODE
 70
     0
  9
$VISRETAIN
 70
     1
  9
$PLINEGEN
 70
     0
  9
$PSLTSCALE
 70
     1
  9
$TREEDEPTH
 70
  3020
  9
$CMLSTYLE
  2
Standard
  9
$CMLJUST
 70
     0
  9
$CMLSCALE
 40
20.0
  9
$PROXYGRAPHICS
 70
     1
  9
$MEASUREMENT
 70
     1
  9
$CELWEIGHT
370
    -1
  9
$ENDCAPS
280
     0
  9
$JOINSTYLE
280
     0
  9
$LWDISPLAY
290
     1
  9
$INSUNITS
 70
     4
  9
$HYPERLINKBASE
  1

  9
$STYLESHEET
  1

  9
$XEDIT
290
     1
  9
$CEPSNTYPE
380
     0
  9
$PSTYLEMODE
290
     1
  9
$FINGERPRINTGUID
  2
{F95E0A09-1C5A-4801-A4E3-C5DA77DAB7E0}
  9
$VERSIONGUID
  2
{FAEB1C32-E019-11D5-929B-00C0DF256EC4}
  9
$EXTNAMES
290
     1
  9
$PSVPSCALE
 40
0.0
  9
$OLESTARTUP
290
     0
  0
ENDSEC
  0
SECTION
  2
CLASSES
  0
CLASS
  1
ACDBDICTIONARYWDFLT
  2
AcDbDictionaryWithDefault
  3
ObjectDBX Classes
 90
        0
280
     0
281
     0
  0
CLASS
  1
VISUALSTYLE
  2
AcDbVisualStyle
  3
ObjectDBX Classes
 90
     4095
280
     0
281
     0
  0
CLASS
  1
MATERIAL
  2
AcDbMaterial
  3
ObjectDBX Classes
 90
     1153
280
     0
281
     0
  0
CLASS
  1
SCALE
  2
AcDbScale
  3
ObjectDBX Classes
 90
     1153
280
     0
281
     0
  0
CLASS
  1
SUN
  2
AcDbSun
  3
SCENEOE
 90
     1153
280
     0
281
     0
  0
CLASS
  1
ACDBPLACEHOLDER
  2
AcDbPlaceHolder
  3
ObjectDBX Classes
 90
        0
280
     0
281
     0
  0
CLASS
  1
LAYOUT
  2
AcDbLayout
  3
ObjectDBX Classes
 90
        0
280
     0
281
     0
  0
CLASS
  1
TABLESTYLE
  2
AcDbTableStyle
  3
ObjectDBX Classes
 90
     4095
280
     0
281
     0
  0
CLASS
  1
MLEADERSTYLE
  2
AcDbMLeaderStyle
  3
ACDB_MLEADERSTYLE_CLASS
 90
     4095
280
     0
281
     0
  0
CLASS
  1
RASTERVARIABLES
  2
AcDbRasterVariables
  3
ISM
 90
        0
280
     0
281
     0
  0
ENDSEC
  0
SECTION
  2
TABLES
  0
TABLE
  2
VPORT
  5
8
330
0
100
AcDbSymbolTable
 70
     1
  0
VPORT
  5
29
330
8
100
AcDbSymbolTableRecord
100
AcDbViewportTableRecord
  2
*Active
 70
     0
 10
0.0
 20
0.0
 11
1.0
 21
1.0
 12
23.36046536981318
 22
11.61523344038351
 13
0.0
 23
0.0
 14
10.0
 24
10.0
 15
10.0
 25
10.0
 16
0.0
 26
0.0
 36
1.0
 17
0.0
 27
0.0
 37
0.0
 40
98.34816804865042
 41
1.970186335403727
 42
50.0
 43
0.0
 44
0.0
 50
0.0
 51
0.0
 71
    16
 72
  2000
 73
     1
 74
     3
 75
     0
 76
     0
 77
     0
 78
     0
281
     0
 65
     1
110
0.0
120
0.0
130
0.0
111
1.0
121
0.0
131
0.0
112
0.0
122
1.0
132
0.0
 79
     0
146
0.0
  0
ENDTAB
  0
TABLE
  2
LTYPE
  5
5
330
0
100
AcDbSymbolTable
 70
     6
  0
LTYPE
  5
14
330
5
100
AcDbSymbolTableRecord
100
AcDbLinetypeTableRecord
  2
ByBlock
 70
     0
  3

 72
    65
 73
     0
 40
0.0
  0
LTYPE
  5
15
330
5
100
AcDbSymbolTableRecord
100
AcDbLinetypeTableRecord
  2
ByLayer
 70
     0
  3

 72
    65
 73
     0
 40
0.0
  0
LTYPE
  5
16
330
5
100
AcDbSymbolTableRecord
100
AcDbLinetypeTableRecord
  2
Continuous
 70
     0
  3
Solid line
 72
    65
 73
     0
 40
0.0
  0
LTYPE
  5
6A
330
5
100
AcDbSymbolTableRecord
100
AcDbLinetypeTableRecord
  2
HIDDEN
 70
     0
  3
Hidden __ __ __ __ __ __ __ __ __ __ __ __ __ __
 72
    65
 73
     2
 40
1.905
 49
1.27
 74
     0
 49
-0.635
 74
     0
  0
LTYPE
  5
6B
330
5
100
AcDbSymbolTableRecord
100
AcDbLinetypeTableRecord
  2
PHANTOM
 70
     0
  3
Phantom ______  __  __  ______  __  __  ______
 72
    65
 73
     6
 40
12.7
 49
6.35
 74
     0
 49
-1.27
 74
     0
 49
1.27
 74
     0
 49
-1.27
 74
     0
 49
1.27
 74
     0
 49
-1.27
 74
     0
  0
LTYPE
  5
6C
330
5
100
AcDbSymbolTableRecord
100
AcDbLinetypeTableRecord
  2
CENTER
 70
     0
  3
Center ____ _ ____ _ ____ _ ____ _ ____ _ ____
 72
    65
 73
     4
 40
10.16
 49
6.35
 74
     0
 49
-1.27
 74
     0
 49
1.27
 74
     0
 49
-1.27
 74
     0
  0
LTYPE
  5
6D
330
5
100
AcDbSymbolTableRecord
100
AcDbLinetypeTableRecord
  2
CENTERX2
 70
     0
  3
Center (2x) ________  __  ________  __  _____
 72
    65
 73
     4
 40
20.32
 49
12.7
 74
     0
 49
-2.54
 74
     0
 49
2.54
 74
     0
 49
-2.54
 74
     0
  0
LTYPE
  5
6E
330
5
100
AcDbSymbolTableRecord
100
AcDbLinetypeTableRecord
  2
DOT2
 70
     0
  3
Dot (.5x) ........................................
 72
    65
 73
     2
 40
0.635
 49
0.0
 74
     0
 49
-0.635
 74
     0
  0
ENDTAB
  0
TABLE
  2
LAYER
  5
2
102
{ACAD_XDICTIONARY
360
20F
102
}
330
0
100
AcDbSymbolTable
 70
    18
  0
LAYER
  5
10
330
2
100
AcDbSymbolTableRecord
100
AcDbLayerTableRecord
  2
0
 70
     0
 62
     7
  6
Continuous
370
    -3
390
F
  0
LAYER
  5
6F
330
2
100
AcDbSymbolTableRecord
100
AcDbLayerTableRecord
  2
FORMAT
 70
     0
 62
     2
  6
Continuous
370
    -3
390
F
  0
LAYER
  5
70
330
2
100
AcDbSymbolTableRecord
100
AcDbLayerTableRecord
  2
외형선
 70
     0
 62
     4
  6
Continuous
370
    30
390
F
  0
LAYER
  5
71
330
2
100
AcDbSymbolTableRecord
100
AcDbLayerTableRecord
  2
숨은선
 70
     0
 62
     2
  6
HIDDEN
370
    15
390
F
  0
LAYER
  5
72
330
2
100
AcDbSymbolTableRecord
100
AcDbLayerTableRecord
  2
중심선
 70
     0
 62
     1
  6
CENTERX2
370
    -3
390
F
  0
LAYER
  5
73
330
2
100
AcDbSymbolTableRecord
100
AcDbLayerTableRecord
  2
파단선
 70
     0
 62
     4
  6
Continuous
370
    -3
390
F
  0
LAYER
  5
74
330
2
100
AcDbSymbolTableRecord
100
AcDbLayerTableRecord
  2
해칭선
 70
     0
 62
   100
  6
Continuous
370
    -3
390
F
  0
LAYER
  5
75
330
2
100
AcDbSymbolTableRecord
100
AcDbLayerTableRecord
  2
가는실선
 70
     0
 62
     4
  6
Continuous
370
    -3
390
F
  0
LAYER
  5
76
330
2
100
AcDbSymbolTableRecord
100
AcDbLayerTableRecord
  2
치수_보조선
 70
     0
 62
     4
  6
Continuous
370
    -3
390
F
  0
LAYER
  5
77
330
2
100
AcDbSymbolTableRecord
100
AcDbLayerTableRecord
  2
치수문자_일반주서
 70
     0
 62
     7
  6
Continuous
370
    15
390
F
  0
LAYER
  5
78
330
2
100
AcDbSymbolTableRecord
100
AcDbLayerTableRecord
  2
개별주서
 70
     0
 62
   100
  6
Continuous
370
    30
390
F
  0
LAYER
  5
79
330
2
100
AcDbSymbolTableRecord
100
AcDbLayerTableRecord
  2
중간선
 70
     0
 62
     2
  6
Continuous
370
    15
390
F
  0
LAYER
  5
7A
330
2
100
AcDbSymbolTableRecord
100
AcDbLayerTableRecord
  2
윤곽선
 70
     0
 62
     3
  6
Continuous
370
    40
390
F
  0
LAYER
  5
7B
330
2
100
AcDbSymbolTableRecord
100
AcDbLayerTableRecord
  2
중심마크
 70
     0
 62
   100
  6
Continuous
370
    30
390
F
  0
LAYER
  5
7C
330
2
100
AcDbSymbolTableRecord
100
AcDbLayerTableRecord
  2
가상선
 70
     0
 62
     4
  6
PHANTOM
370
    -3
390
F
  0
LAYER
  5
7D
330
2
100
AcDbSymbolTableRecord
100
AcDbLayerTableRecord
  2
특수지정선
 70
     0
 62
     5
  6
CENTERX2
370
    60
390
F
  0
LAYER
  5
7E
330
2
100
AcDbSymbolTableRecord
100
AcDbLayerTableRecord
  2
참조1
 70
     0
 62
    -4
  6
Continuous
370
    -3
390
F
  0
LAYER
  5
157
330
2
100
AcDbSymbolTableRecord
100
AcDbLayerTableRecord
  2
Defpoints
 70
     0
 62
     7
  6
Continuous
290
     0
370
    -3
390
F
  0
ENDTAB
  0
TABLE
  2
STYLE
  5
3
330
0
100
AcDbSymbolTable
 70
     2
  0
STYLE
  5
11
330
3
100
AcDbSymbolTableRecord
100
AcDbTextStyleTableRecord
  2
Standard
 70
     0
 40
0.0
 41
1.0
 50
0.0
 71
     0
 42
3.5
  3
txt
  4

  0
STYLE
  5
94
330
3
100
AcDbSymbolTableRecord
100
AcDbTextStyleTableRecord
  2
SLDTEXTSTYLE0
 70
     0
 40
0.0
 41
0.75
 50
0.0
 71
     0
 42
3.5
  3
TXT
  4

  0
ENDTAB
  0
TABLE
  2
VIEW
  5
6
330
0
100
AcDbSymbolTable
 70
     0
  0
ENDTAB
  0
TABLE
  2
UCS
  5
7
330
0
100
AcDbSymbolTable
 70
     0
  0
ENDTAB
  0
TABLE
  2
APPID
  5
9
330
0
100
AcDbSymbolTable
 70
     3
  0
APPID
  5
12
330
9
100
AcDbSymbolTableRecord
100
AcDbRegAppTableRecord
  2
ACAD
 70
     0
  0
APPID
  5
163
330
9
100
AcDbSymbolTableRecord
100
AcDbRegAppTableRecord
  2
PE_URL
 70
     0
  0
APPID
  5
164
330
9
100
AcDbSymbolTableRecord
100
AcDbRegAppTableRecord
  2
ACAD_DSTYLE_DIMRADIAL_EXTENSION
 70
     0
  0
ENDTAB
  0
TABLE
  2
DIMSTYLE
  5
A
330
0
100
AcDbSymbolTable
 70
     4
100
AcDbDimStyleTable
  0
DIMSTYLE
105
27
330
A
100
AcDbSymbolTableRecord
100
AcDbDimStyleTableRecord
  2
ISO-25
 70
     0
 41
2.5
 42
0.625
 43
3.75
 44
1.25
 73
     0
 74
     0
 77
     1
 78
     8
140
2.5
141
2.5
143
0.03937007874016
147
0.625
171
     3
172
     1
178
     0
271
     2
272
     2
274
     3
278
    44
283
     0
284
     8
340
11
  0
DIMSTYLE
105
D4
102
{ACAD_REACTORS
330
D3
330
110
330
1C3
330
1D0
330
E8
330
FD
102
}
330
A
100
AcDbSymbolTableRecord
100
AcDbDimStyleTableRecord
  2
SLDDIMSTYLE0
 70
     0
 41
3.302
 44
0.0
 45
0.000000001
 73
     0
 74
     0
 77
     1
 78
    12
 79
     3
140
3.5
143
0.0393700787401575
147
0.875
148
0.000000001
170
     1
172
     1
173
     1
178
     0
271
     2
272
     2
276
     2
284
    12
289
     0
340
94
  0
DIMSTYLE
105
E9
102
{ACAD_REACTORS
330
206
102
}
330
A
100
AcDbSymbolTableRecord
100
AcDbDimStyleTableRecord
  2
SLDDIMSTYLE1
 70
     0
 41
3.302
 44
0.0
 45
0.000000001
 73
     0
 74
     0
 77
     1
 78
     4
 79
     1
140
3.5
143
0.0393700787401575
147
0.875
148
0.000000001
170
     1
173
     1
178
     0
271
     2
272
     2
276
     2
284
    12
340
94
  0
DIMSTYLE
105
162
102
{ACAD_REACTORS
330
1DD
330
1EC
102
}
330
A
100
AcDbSymbolTableRecord
100
AcDbDimStyleTableRecord
  2
SLDDIMSTYLE2
 70
     0
 41
3.302
 44
0.0
 45
0.000000001
 73
     0
 74
     0
 77
     1
 78
    12
 79
     3
140
3.5
147
0.875
172
     1
173
     1
178
     0
271
     2
272
     2
276
     2
284
    12
289
     0
340
94
  0
ENDTAB
  0
TABLE
  2
BLOCK_RECORD
  5
1
330
0
100
AcDbSymbolTable
 70
    18
  0
BLOCK_RECORD
  5
1F
330
1
100
AcDbSymbolTableRecord
100
AcDbBlockTableRecord
  2
*Model_Space
340
22
  0
BLOCK_RECORD
  5
1B
330
1
100
AcDbSymbolTableRecord
100
AcDbBlockTableRecord
  2
*Paper_Space
340
1E
  0
BLOCK_RECORD
  5
23
330
1
100
AcDbSymbolTableRecord
100
AcDbBlockTableRecord
  2
*Paper_Space0
340
26
  0
BLOCK_RECORD
  5
7F
330
1
100
AcDbSymbolTableRecord
100
AcDbBlockTableRecord
  2
블럭10
340
0
102
{BLKREFS
331
CC
102
}
  0
BLOCK_RECORD
  5
D5
330
1
100
AcDbSymbolTableRecord
100
AcDbBlockTableRecord
  2
_D
340
0
  0
BLOCK_RECORD
  5
EA
330
1
100
AcDbSymbolTableRecord
100
AcDbBlockTableRecord
  2
_D_1
340
0
  0
BLOCK_RECORD
  5
FE
330
1
100
AcDbSymbolTableRecord
100
AcDbBlockTableRecord
  2
_D_2
340
0
  0
BLOCK_RECORD
  5
111
330
1
100
AcDbSymbolTableRecord
100
AcDbBlockTableRecord
  2
_D_3
340
0
  0
BLOCK_RECORD
  5
12B
330
1
100
AcDbSymbolTableRecord
100
AcDbBlockTableRecord
  2
SW_DOWELSYMBOL_0
340
0
102
{BLKREFS
331
131
331
1FB
331
0
102
}
  0
BLOCK_RECORD
  5
1ED
330
1
100
AcDbSymbolTableRecord
100
AcDbBlockTableRecord
  2
_D_4
340
0
  0
BLOCK_RECORD
  5
207
330
1
100
AcDbSymbolTableRecord
100
AcDbBlockTableRecord
  2
*D9
340
0
  0
BLOCK_RECORD
  5
213
330
1
100
AcDbSymbolTableRecord
100
AcDbBlockTableRecord
  2
*D10
340
0
  0
BLOCK_RECORD
  5
21F
330
1
100
AcDbSymbolTableRecord
100
AcDbBlockTableRecord
  2
*D11
340
0
  0
BLOCK_RECORD
  5
22B
330
1
100
AcDbSymbolTableRecord
100
AcDbBlockTableRecord
  2
*D12
340
0
  0
BLOCK_RECORD
  5
286
330
1
100
AcDbSymbolTableRecord
100
AcDbBlockTableRecord
  2
*D13
340
0
  0
BLOCK_RECORD
  5
292
330
1
100
AcDbSymbolTableRecord
100
AcDbBlockTableRecord
  2
*D14
340
0
  0
BLOCK_RECORD
  5
29E
330
1
100
AcDbSymbolTableRecord
100
AcDbBlockTableRecord
  2
*D15
340
0
  0
BLOCK_RECORD
  5
2AC
330
1
100
AcDbSymbolTableRecord
100
AcDbBlockTableRecord
  2
*D16
340
0
  0
BLOCK_RECORD
  5
2BA
330
1
100
AcDbSymbolTableRecord
100
AcDbBlockTableRecord
  2
*D17
340
0
  0
ENDTAB
  0
ENDSEC
  0
SECTION
  2
BLOCKS
  0
BLOCK
  5
20
330
1F
100
AcDbEntity
  8
0
100
AcDbBlockBegin
  2
*Model_Space
 70
     0
 10
0.0
 20
0.0
 30
0.0
  3
*Model_Space
  1
*Model_Space
  0
ENDBLK
  5
21
330
1F
100
AcDbEntity
  8
0
100
AcDbBlockEnd
  0
BLOCK
  5
1C
330
1B
100
AcDbEntity
 67
     1
  8
0
100
AcDbBlockBegin
  2
*Paper_Space
 70
     0
 10
0.0
 20
0.0
 30
0.0
  3
*Paper_Space
  1
*Paper_Space
  0
ENDBLK
  5
1D
330
1B
100
AcDbEntity
 67
     1
  8
0
100
AcDbBlockEnd
  0
BLOCK
  5
24
330
23
100
AcDbEntity
  8
0
100
AcDbBlockBegin
  2
*Paper_Space0
 70
     0
 10
0.0
 20
0.0
 30
0.0
  3
*Paper_Space0
  1
*Paper_Space0
  0
ENDBLK
  5
25
330
23
100
AcDbEntity
  8
0
100
AcDbBlockEnd
  0
BLOCK
  5
80
330
7F
100
AcDbEntity
  8
0
100
AcDbBlockBegin
  2
블럭10
 70
     2
 10
0.0
 20
0.0
 30
0.0
  3
블럭10
  1
블럭10
  0
ELLIPSE
  5
82
330
7F
100
AcDbEntity
  8
중심선
100
AcDbEllipse
 10
20.54032771741204
 20
12.0471743016438
 30
0.0
 11
6.600054785286829
 21
-1.261213355974178E-13
 31
0.0
210
0.0
220
0.0
230
1.0
 40
0.636358354079598
 41
0.9219305317359503
 42
6.513795318482858
  0
ELLIPSE
  5
83
330
7F
100
AcDbEntity
  8
중심선
100
AcDbEllipse
 10
20.54032771746488
 20
12.04717430159265
 30
0.0
 11
3.960054785062283
 21
1.540847449632565E-10
 31
0.0
210
0.0
220
0.0
230
1.0
 40
0.3939339440162632
 41
1.131841032648279
 42
5.62031148352944
  0
LINE
  5
84
330
7F
100
AcDbEntity
  8
중심선
100
AcDbLine
 10
2.268634060543552
 20
16.24717430164393
 30
0.0
 11
5.714909304380834
 21
16.24717430164393
 31
0.0
  0
LINE
  5
85
330
7F
100
AcDbEntity
  8
중심선
100
AcDbLine
 10
5.245725140726316
 20
7.84717430164391
 30
0.0
 11
8.692000384563599
 21
7.84717430164391
 31
0.0
  0
LINE
  5
86
330
7F
100
AcDbEntity
  8
중심선
100
AcDbLine
 10
15.74043728645272
 20
16.24717430164393
 30
0.0
 11
8.692000384563599
 21
7.84717430164391
 31
0.0
  0
LINE
  5
87
330
7F
100
AcDbEntity
  8
중심선
100
AcDbLine
 10
0.1404042013395286
 20
13.71084872107135
 30
0.0
 11
3.58671253028996
 21
13.71088815037384
 31
0.0
  0
LINE
  5
88
330
7F
100
AcDbEntity
  8
중심선
100
AcDbLine
 10
2.750260043222114
 20
10.84717430164391
 30
0.0
 11
6.196535287059397
 21
10.84717430164391
 31
0.0
  0
LINE
  5
89
330
7F
100
AcDbEntity
  8
중심선
100
AcDbLine
 10
12.29416204261559
 20
16.24717430164393
 30
0.0
 11
5.245725140726316
 21
7.84717430164391
 31
0.0
  0
LINE
  5
8A
330
7F
100
AcDbEntity
  8
중심선
100
AcDbLine
 10
10.72767329541681
 20
16.24717430164393
 30
0.0
 11
6.196535287059397
 21
10.84717430164391
 31
0.0
  0
LINE
  5
8B
330
7F
100
AcDbEntity
  8
중심선
100
AcDbLine
 10
7.28139805157953
 20
16.24717430164393
 30
0.0
 11
2.750260043222114
 21
10.84717430164391
 31
0.0
  0
LINE
  5
8C
330
7F
100
AcDbEntity
  8
중심선
100
AcDbLine
 10
5.714909304380834
 20
16.24717430164393
 30
0.0
 11
3.58671253028996
 21
13.71088815037384
 31
0.0
  0
LINE
  5
8D
330
7F
100
AcDbEntity
  8
중심선
100
AcDbLine
 10
2.268634060543552
 20
16.24717430164393
 30
0.0
 11
0.1404042013395286
 21
13.71084872107135
 31
0.0
  0
LINE
  5
8E
330
7F
100
AcDbEntity
  8
중심선
100
AcDbLine
 10
7.28139805157953
 20
16.24717430164393
 30
0.0
 11
10.72767329541681
 21
16.24717430164393
 31
0.0
  0
LINE
  5
8F
330
7F
100
AcDbEntity
  8
중심선
100
AcDbLine
 10
12.29416204261559
 20
16.24717430164393
 30
0.0
 11
15.74043728645272
 21
16.24717430164393
 31
0.0
  0
LINE
  5
90
330
7F
100
AcDbEntity
  8
중심선
100
AcDbLine
 10
19.22036997980202
 20
11.08717430171403
 30
0.0
 11
23.66174974927406
 21
11.08717430171406
 31
0.0
  0
LINE
  5
91
330
7F
100
AcDbEntity
  8
중심선
100
AcDbLine
 10
19.22039502424796
 20
13.00717430171391
 30
0.0
 11
19.22036997980202
 21
11.08717430171403
 31
0.0
  0
LINE
  5
92
330
7F
100
AcDbEntity
  8
중심선
100
AcDbLine
 10
19.22039502424796
 20
13.00717430171391
 30
0.0
 11
26.96566020931264
 21
13.00717430171391
 31
0.0
  0
LINE
  5
93
330
7F
100
AcDbEntity
  8
중심선
100
AcDbLine
 10
22.22332737316547
 20
13.45928029700563
 30
0.0
 11
24.52862924686651
 21
15.39360700705356
 31
0.0
  0
ATTDEF
  5
95
330
7F
100
AcDbEntity
  8
FORMAT
 62
     2
100
AcDbText
 10
4.408487351596664
 20
2.075366912832191
 30
0.0
 40
4.233333333333333
  1
E5244016
 41
0.75
  7
SLDTEXTSTYLE0
 11
4.408487351596664
 21
-0.0412997538344756
 31
0.0
100
AcDbAttributeDefinition
  3

  2
AUTOATTR0
 70
     0
 74
     1
  0
ENDBLK
  5
81
330
7F
100
AcDbEntity
  8
0
100
AcDbBlockEnd
  0
BLOCK
  5
D6
330
D5
100
AcDbEntity
  8
0
100
AcDbBlockBegin
  2
_D
 70
     0
 10
0.0
 20
0.0
 30
0.0
  3
_D
  1
_D
  0
LINE
  5
D8
330
D5
100
AcDbEntity
  8
치수문자_일반주서
 62
     0
370
    -2
100
AcDbLine
 10
-27.35249999999999
 20
3.175000000000012
 30
0.0
 11
-35.62412255235466
 21
3.174999999999979
 31
0.0
  0
LINE
  5
D9
330
D5
100
AcDbEntity
  8
치수문자_일반주서
 62
     0
370
    -2
100
AcDbLine
 10
-27.35249999999999
 20
-3.17500000000001
 30
0.0
 11
-35.62412255235464
 21
-3.175000000000043
 31
0.0
  0
LINE
  5
DA
330
D5
100
AcDbEntity
  8
치수문자_일반주서
 62
     0
370
    -2
100
AcDbLine
 10
-35.62412255235466
 20
3.174999999999979
 30
0.0
 11
-35.62412255235477
 21
35.81024999999998
 31
0.0
  0
LINE
  5
DB
330
D5
100
AcDbEntity
  8
치수문자_일반주서
 62
     0
370
    -2
100
AcDbLine
 10
-35.62412255235466
 20
3.174999999999979
 30
0.0
 11
-35.62412255235464
 21
-3.175000000000043
 31
0.0
  0
LINE
  5
DC
330
D5
100
AcDbEntity
  8
치수문자_일반주서
 62
     0
370
    -2
100
AcDbLine
 10
-35.62412255235468
 20
6.476999999999979
 30
0.0
 11
-35.62412255235469
 21
9.778999999999979
 31
0.0
  0
LINE
  5
DD
330
D5
100
AcDbEntity
  8
치수문자_일반주서
 62
     0
370
    -2
100
AcDbLine
 10
-35.62412255235463
 20
-6.477000000000043
 30
0.0
 11
-35.62412255235461
 21
-9.779000000000043
 31
0.0
  0
SOLID
  5
DE
330
D5
100
AcDbEntity
  8
치수문자_일반주서
 62
     0
100
AcDbTrace
 10
-36.17445588568801
 20
6.476999999999977
 30
0.0
 11
-35.07378921902134
 21
6.476999999999981
 31
0.0
 12
-35.62412255235466
 22
3.174999999999979
 32
0.0
 13
-35.62412255235466
 23
3.174999999999979
 33
0.0
  0
SOLID
  5
DF
330
D5
100
AcDbEntity
  8
치수문자_일반주서
 62
     0
100
AcDbTrace
 10
-35.07378921902129
 20
-6.477000000000041
 30
0.0
 11
-36.17445588568796
 21
-6.477000000000045
 31
0.0
 12
-35.62412255235464
 22
-3.175000000000043
 32
0.0
 13
-35.62412255235464
 23
-3.175000000000043
 33
0.0
  0
MTEXT
  5
E0
330
D5
100
AcDbEntity
  8
치수문자_일반주서
 62
     0
100
AcDbMText
 10
-39.99912255235473
 20
23.12274999999997
 30
0.0
 40
3.5
 41
0.0
 71
     2
 72
     1
  1
\A1;%%c6.35 [1/4]
  7
SLDTEXTSTYLE0
 11
-3.356894814614635E-15
 21
1.0
 31
0.0
 73
     1
 44
1.0
  0
POINT
  5
2C4
330
D5
100
AcDbEntity
  8
Defpoints
 62
     0
100
AcDbPoint
 10
-27.28999999999999
 20
3.175000000000012
 30
0.0
  0
POINT
  5
2C5
330
D5
100
AcDbEntity
  8
Defpoints
 62
     0
100
AcDbPoint
 10
-27.28999999999999
 20
-3.17500000000001
 30
0.0
  0
POINT
  5
2C6
330
D5
100
AcDbEntity
  8
Defpoints
 62
     0
100
AcDbPoint
 10
-35.62412255235464
 20
-3.175000000000041
 30
0.0
  0
ENDBLK
  5
D7
330
D5
100
AcDbEntity
  8
0
100
AcDbBlockEnd
  0
BLOCK
  5
EB
330
EA
100
AcDbEntity
  8
0
100
AcDbBlockBegin
  2
_D_1
 70
     0
 10
0.0
 20
0.0
 30
0.0
  3
_D_1
  1
_D_1
  0
LINE
  5
ED
330
EA
100
AcDbEntity
  8
치수문자_일반주서
 62
     0
370
    -2
100
AcDbLine
 10
22.69999999999992
 20
3.237500000000001
 30
0.0
 11
22.69999999999992
 21
18.24323461301928
 31
0.0
  0
LINE
  5
EE
330
EA
100
AcDbEntity
  8
치수문자_일반주서
 62
     0
370
    -2
100
AcDbLine
 10
9.999999999999996
 20
2.831294427342308
 30
0.0
 11
9.999999999999996
 21
18.24323461301928
 31
0.0
  0
LINE
  5
EF
330
EA
100
AcDbEntity
  8
치수문자_일반주서
 62
     0
370
    -2
100
AcDbLine
 10
9.999999999999996
 20
18.24323461301928
 30
0.0
 11
-18.9165
 21
18.24323461301928
 31
0.0
  0
LINE
  5
F0
330
EA
100
AcDbEntity
  8
치수문자_일반주서
 62
     0
370
    -2
100
AcDbLine
 10
22.69999999999992
 20
18.24323461301928
 30
0.0
 11
9.999999999999996
 21
18.24323461301928
 31
0.0
  0
LINE
  5
F1
330
EA
100
AcDbEntity
  8
치수문자_일반주서
 62
     0
370
    -2
100
AcDbLine
 10
26.00199999999992
 20
18.24323461301928
 30
0.0
 11
29.30399999999992
 21
18.24323461301928
 31
0.0
  0
LINE
  5
F2
330
EA
100
AcDbEntity
  8
치수문자_일반주서
 62
     0
370
    -2
100
AcDbLine
 10
6.697999999999997
 20
18.24323461301928
 30
0.0
 11
3.395999999999997
 21
18.24323461301928
 31
0.0
  0
SOLID
  5
F3
330
EA
100
AcDbEntity
  8
치수문자_일반주서
 62
     0
100
AcDbTrace
 10
26.00199999999992
 20
18.79356794635261
 30
0.0
 11
26.00199999999992
 21
17.69290127968594
 31
0.0
 12
22.69999999999992
 22
18.24323461301928
 32
0.0
 13
22.69999999999992
 23
18.24323461301928
 33
0.0
  0
SOLID
  5
F4
330
EA
100
AcDbEntity
  8
치수문자_일반주서
 62
     0
100
AcDbTrace
 10
6.697999999999997
 20
17.69290127968594
 30
0.0
 11
6.697999999999997
 21
18.79356794635261
 31
0.0
 12
9.999999999999996
 22
18.24323461301928
 32
0.0
 13
9.999999999999996
 23
18.24323461301928
 33
0.0
  0
MTEXT
  5
F5
330
EA
100
AcDbEntity
  8
치수문자_일반주서
 62
     0
100
AcDbMText
 10
-7.979000000000003
 20
22.61823461301928
 30
0.0
 40
3.5
 41
0.0
 71
     2
 72
     1
  1
\A1;12.7 [1/2]
  7
SLDTEXTSTYLE0
 73
     1
 44
1.0
  0
POINT
  5
F6
330
EA
100
AcDbEntity
  8
Defpoints
 62
     0
100
AcDbPoint
 10
22.69999999999992
 20
3.175000000000001
 30
0.0
  0
POINT
  5
F7
330
EA
100
AcDbEntity
  8
Defpoints
 62
     0
100
AcDbPoint
 10
9.999999999999996
 20
2.768794427342308
 30
0.0
  0
POINT
  5
F8
330
EA
100
AcDbEntity
  8
Defpoints
 62
     0
100
AcDbPoint
 10
9.999999999999996
 20
18.24323461301928
 30
0.0
  0
ENDBLK
  5
EC
330
EA
100
AcDbEntity
  8
0
100
AcDbBlockEnd
  0
BLOCK
  5
FF
330
FE
100
AcDbEntity
  8
0
100
AcDbBlockBegin
  2
_D_2
 70
     0
 10
0.0
 20
0.0
 30
0.0
  3
_D_2
  1
_D_2
  0
LINE
  5
101
330
FE
100
AcDbEntity
  8
치수문자_일반주서
 62
     0
370
    -2
100
AcDbLine
 10
22.69999999999992
 20
3.237500000000001
 30
0.0
 11
22.69999999999992
 21
33.53841682519538
 31
0.0
  0
LINE
  5
102
330
FE
100
AcDbEntity
  8
치수문자_일반주서
 62
     0
370
    -2
100
AcDbLine
 10
-28.10000000000001
 20
2.427499999999996
 30
0.0
 11
-28.10000000000001
 21
33.53841682519538
 31
0.0
  0
LINE
  5
103
330
FE
100
AcDbEntity
  8
치수문자_일반주서
 62
     0
370
    -2
100
AcDbLine
 10
19.39799999999993
 20
33.53841682519538
 30
0.0
 11
-24.79800000000001
 21
33.53841682519538
 31
0.0
  0
SOLID
  5
104
330
FE
100
AcDbEntity
  8
치수문자_일반주서
 62
     0
100
AcDbTrace
 10
19.39799999999993
 20
32.98808349186205
 30
0.0
 11
19.39799999999993
 21
34.08875015852872
 31
0.0
 12
22.69999999999992
 22
33.53841682519538
 32
0.0
 13
22.69999999999992
 23
33.53841682519538
 33
0.0
  0
SOLID
  5
105
330
FE
100
AcDbEntity
  8
치수문자_일반주서
 62
     0
100
AcDbTrace
 10
-24.79800000000001
 20
34.08875015852872
 30
0.0
 11
-24.79800000000001
 21
32.98808349186205
 31
0.0
 12
-28.10000000000001
 22
33.53841682519538
 32
0.0
 13
-28.10000000000001
 23
33.53841682519538
 33
0.0
  0
MTEXT
  5
106
330
FE
100
AcDbEntity
  8
치수문자_일반주서
 62
     0
100
AcDbMText
 10
-2.700000000000044
 20
37.91341682519538
 30
0.0
 40
3.5
 41
0.0
 71
     2
 72
     1
  1
\A1;50.8 [2]
  7
SLDTEXTSTYLE0
 73
     1
 44
1.0
  0
POINT
  5
107
330
FE
100
AcDbEntity
  8
Defpoints
 62
     0
100
AcDbPoint
 10
22.69999999999992
 20
3.175000000000001
 30
0.0
  0
POINT
  5
108
330
FE
100
AcDbEntity
  8
Defpoints
 62
     0
100
AcDbPoint
 10
-28.10000000000001
 20
2.364999999999996
 30
0.0
  0
POINT
  5
109
330
FE
100
AcDbEntity
  8
Defpoints
 62
     0
100
AcDbPoint
 10
-28.10000000000001
 20
33.53841682519538
 30
0.0
  0
ENDBLK
  5
100
330
FE
100
AcDbEntity
  8
0
100
AcDbBlockEnd
  0
BLOCK
  5
112
330
111
100
AcDbEntity
  8
0
100
AcDbBlockBegin
  2
_D_3
 70
     0
 10
0.0
 20
0.0
 30
0.0
  3
_D_3
  1
_D_3
  0
LINE
  5
114
330
111
100
AcDbEntity
  8
치수문자_일반주서
 62
     0
370
    -2
100
AcDbLine
 10
22.7625
 20
-3.174999999999998
 30
0.0
 11
35.90278761402303
 21
-3.174999999999951
 31
0.0
  0
LINE
  5
115
330
111
100
AcDbEntity
  8
치수문자_일반주서
 62
     0
370
    -2
100
AcDbLine
 10
22.76249999999992
 20
3.175000000000002
 30
0.0
 11
35.902787614023
 21
3.17500000000005
 31
0.0
  0
LINE
  5
116
330
111
100
AcDbEntity
  8
치수문자_일반주서
 62
     0
370
    -2
100
AcDbLine
 10
35.902787614023
 20
3.17500000000005
 30
0.0
 11
35.9027876140229
 21
35.81025000000005
 31
0.0
  0
LINE
  5
117
330
111
100
AcDbEntity
  8
치수문자_일반주서
 62
     0
370
    -2
100
AcDbLine
 10
35.90278761402303
 20
-3.174999999999951
 30
0.0
 11
35.902787614023
 21
3.17500000000005
 31
0.0
  0
LINE
  5
118
330
111
100
AcDbEntity
  8
치수문자_일반주서
 62
     0
370
    -2
100
AcDbLine
 10
35.90278761402304
 20
-6.476999999999951
 30
0.0
 11
35.90278761402305
 21
-9.77899999999995
 31
0.0
  0
LINE
  5
119
330
111
100
AcDbEntity
  8
치수문자_일반주서
 62
     0
370
    -2
100
AcDbLine
 10
35.90278761402299
 20
6.47700000000005
 30
0.0
 11
35.90278761402298
 21
9.77900000000005
 31
0.0
  0
SOLID
  5
11A
330
111
100
AcDbEntity
  8
치수문자_일반주서
 62
     0
100
AcDbTrace
 10
36.45312094735637
 20
-6.476999999999949
 30
0.0
 11
35.35245428068971
 21
-6.476999999999952
 31
0.0
 12
35.90278761402303
 22
-3.174999999999951
 32
0.0
 13
35.90278761402303
 23
-3.174999999999951
 33
0.0
  0
SOLID
  5
11B
330
111
100
AcDbEntity
  8
치수문자_일반주서
 62
     0
100
AcDbTrace
 10
35.35245428068966
 20
6.477000000000048
 30
0.0
 11
36.45312094735633
 21
6.477000000000052
 31
0.0
 12
35.902787614023
 22
3.17500000000005
 32
0.0
 13
35.902787614023
 23
3.17500000000005
 33
0.0
  0
MTEXT
  5
11C
330
111
100
AcDbEntity
  8
치수문자_일반주서
 62
     0
100
AcDbMText
 10
31.52778761402294
 20
23.12275000000004
 30
0.0
 40
3.5
 41
0.0
 71
     2
 72
     1
  1
\A1;%%c6.35 [1/4]
  7
SLDTEXTSTYLE0
 11
-3.356894814614647E-15
 21
1.0
 31
0.0
 73
     1
 44
1.0
  0
POINT
  5
11D
330
111
100
AcDbEntity
  8
Defpoints
 62
     0
100
AcDbPoint
 10
22.7
 20
-3.174999999999999
 30
0.0
  0
POINT
  5
11E
330
111
100
AcDbEntity
  8
Defpoints
 62
     0
100
AcDbPoint
 10
22.69999999999992
 20
3.175000000000001
 30
0.0
  0
POINT
  5
11F
330
111
100
AcDbEntity
  8
Defpoints
 62
     0
100
AcDbPoint
 10
35.902787614023
 20
3.17500000000005
 30
0.0
  0
ENDBLK
  5
113
330
111
100
AcDbEntity
  8
0
100
AcDbBlockEnd
  0
BLOCK
  5
12C
330
12B
100
AcDbEntity
  8
0
100
AcDbBlockBegin
  2
SW_DOWELSYMBOL_0
 70
     0
 10
0.0
 20
0.0
 30
0.0
  3
SW_DOWELSYMBOL_0
  1
SW_DOWELSYMBOL_0
  0
CIRCLE
  5
12E
330
12B
100
AcDbEntity
  8
해칭선
 62
     0
100
AcDbCircle
 10
0.0
 20
0.0
 30
0.0
 40
2.999999999999996
  0
HATCH
  5
12F
330
12B
100
AcDbEntity
  8
0
  6
Continuous
 62
     0
370
     0
100
AcDbHatch
 10
0.0
 20
0.0
 30
0.0
210
0.0
220
0.0
230
1.0
  2
SOLID
 70
     1
 71
     0
 91
        1
 92
        0
 93
        3
 72
     2
 10
0.0
 20
0.0
 40
2.999999999999996
 50
0.0
 51
90.0
 73
     1
 72
     1
 10
0.0
 20
2.999999999999996
 11
0.0
 21
0.0
 72
     1
 10
0.0
 20
0.0
 11
2.999999999999996
 21
0.0
 97
        0
 75
     0
 76
     1
 98
        1
 10
0.0
 20
0.0
  0
HATCH
  5
130
330
12B
100
AcDbEntity
  8
0
  6
Continuous
 62
     0
370
     0
100
AcDbHatch
 10
0.0
 20
0.0
 30
0.0
210
0.0
220
0.0
230
1.0
  2
SOLID
 70
     1
 71
     0
 91
        1
 92
        0
 93
        3
 72
     2
 10
0.0
 20
0.0
 40
2.999999999999996
 50
180.0
 51
270.0000000000008
 73
     1
 72
     1
 10
0.0
 20
-2.999999999999996
 11
0.0
 21
0.0
 72
     1
 10
0.0
 20
0.0
 11
-2.999999999999996
 21
0.0
 97
        0
 75
     0
 76
     1
 98
        1
 10
0.0
 20
0.0
  0
ENDBLK
  5
12D
330
12B
100
AcDbEntity
  8
0
100
AcDbBlockEnd
  0
BLOCK
  5
1EE
330
1ED
100
AcDbEntity
  8
0
100
AcDbBlockBegin
  2
_D_4
 70
     0
 10
0.0
 20
0.0
 30
0.0
  3
_D_4
  1
_D_4
  0
LINE
  5
1EF
330
1ED
100
AcDbEntity
  8
치수문자_일반주서
 62
     0
370
    -2
100
AcDbLine
 10
102.4375000000001
 20
36.22143424691529
 30
0.0
 11
117.3750000000001
 21
36.22143424691535
 31
0.0
  0
LINE
  5
1F0
330
1ED
100
AcDbEntity
  8
치수문자_일반주서
 62
     0
370
    -2
100
AcDbLine
 10
102.4375000000001
 20
22.22143424691529
 30
0.0
 11
117.3750000000001
 21
22.22143424691535
 31
0.0
  0
LINE
  5
1F1
330
1ED
100
AcDbEntity
  8
치수문자_일반주서
 62
     0
370
    -2
100
AcDbLine
 10
117.3750000000001
 20
36.22143424691535
 30
0.0
 11
117.3750000000001
 21
22.22143424691535
 31
0.0
  0
LINE
  5
1F2
330
1ED
100
AcDbEntity
  8
치수문자_일반주서
 62
     0
370
    -2
100
AcDbLine
 10
117.3750000000001
 20
39.52343424691535
 30
0.0
 11
117.375
 21
42.82543424691535
 31
0.0
  0
LINE
  5
1F3
330
1ED
100
AcDbEntity
  8
치수문자_일반주서
 62
     0
370
    -2
100
AcDbLine
 10
117.3750000000001
 20
18.91943424691535
 30
0.0
 11
117.3750000000001
 21
15.61743424691535
 31
0.0
  0
SOLID
  5
1F4
330
1ED
100
AcDbEntity
  8
치수문자_일반주서
 62
     0
100
AcDbTrace
 10
116.8246666666667
 20
39.52343424691535
 30
0.0
 11
117.9253333333334
 21
39.52343424691535
 31
0.0
 12
117.3750000000001
 22
36.22143424691535
 32
0.0
 13
117.3750000000001
 23
36.22143424691535
 33
0.0
  0
SOLID
  5
1F5
330
1ED
100
AcDbEntity
  8
치수문자_일반주서
 62
     0
100
AcDbTrace
 10
117.9253333333335
 20
18.91943424691535
 30
0.0
 11
116.8246666666668
 21
18.91943424691535
 31
0.0
 12
117.3750000000001
 22
22.22143424691535
 32
0.0
 13
117.3750000000001
 23
22.22143424691535
 33
0.0
  0
MTEXT
  5
1F6
330
1ED
100
AcDbEntity
  8
치수문자_일반주서
 62
     0
100
AcDbMText
 10
113.0000000000001
 20
29.28713862862833
 30
0.0
 40
3.5
 41
0.0
 71
     2
 72
     1
  1
\A1;%%c14
  7
SLDTEXTSTYLE0
 11
-3.045183153257572E-15
 21
1.0
 31
0.0
 73
     1
 44
1.0
  0
POINT
  5
1F7
330
1ED
100
AcDbEntity
  8
Defpoints
 62
     0
100
AcDbPoint
 10
102.3750000000001
 20
36.22143424691529
 30
0.0
  0
POINT
  5
1F8
330
1ED
100
AcDbEntity
  8
Defpoints
 62
     0
100
AcDbPoint
 10
102.3750000000001
 20
22.22143424691529
 30
0.0
  0
POINT
  5
1F9
330
1ED
100
AcDbEntity
  8
Defpoints
 62
     0
100
AcDbPoint
 10
117.3750000000001
 20
22.22143424691535
 30
0.0
  0
ENDBLK
  5
1FA
330
1ED
100
AcDbEntity
  8
0
100
AcDbBlockEnd
  0
BLOCK
  5
208
330
207
100
AcDbEntity
  8
0
100
AcDbBlockBegin
  2
*D9
 70
     1
 10
0.0
 20
0.0
 30
0.0
  3
*D9
  1
*D8
  0
LINE
  5
209
330
207
100
AcDbEntity
  8
치수문자_일반주서
 62
     0
370
    -2
100
AcDbLine
 10
103.8657751816695
 20
19.48229575403651
 30
0.0
 11
120.1921280501954
 21
-7.081888143622854
 31
0.0
  0
MTEXT
  5
20A
330
207
100
AcDbEntity
  8
치수문자_일반주서
 62
     0
100
AcDbMText
 10
115.6706384014277
 20
5.288158154535728
 30
0.0
 40
3.5
 41
0.0
 71
     5
 72
     1
  1
\A1;R.50 [R0.02]
  7
SLDTEXTSTYLE0
 11
0.5236126201129557
 21
-0.8519564684057781
 31
0.0
 73
     1
 44
1.0
  0
SOLID
  5
20B
330
207
100
AcDbEntity
  8
치수문자_일반주서
 62
     0
100
AcDbTrace
 10
104.3346352247821
 20
19.77045723263868
 30
0.0
 11
103.3969151385569
 21
19.19413427543435
 31
0.0
 12
102.1368063100565
 22
22.29545601271239
 32
0.0
 13
102.1368063100565
 23
22.29545601271239
 33
0.0
  0
LINE
  5
20C
330
207
100
AcDbEntity
  8
치수문자_일반주서
 62
     0
100
AcDbLine
 10
101.785
 20
22.72143424691529
 30
0.0
 11
101.965
 21
22.72143424691529
 31
0.0
  0
LINE
  5
20D
330
207
100
AcDbEntity
  8
치수문자_일반주서
 62
     0
100
AcDbLine
 10
101.875
 20
22.63143424691529
 30
0.0
 11
101.875
 21
22.81143424691529
 31
0.0
  0
POINT
  5
239
330
207
100
AcDbEntity
  8
Defpoints
 62
     0
100
AcDbPoint
 10
102.1368063100565
 20
22.29545601271239
 30
0.0
  0
POINT
  5
23A
330
207
100
AcDbEntity
  8
Defpoints
 62
     0
100
AcDbPoint
 10
101.875
 20
22.72143424691529
 30
0.0
  0
ENDBLK
  5
20E
330
207
100
AcDbEntity
  8
0
100
AcDbBlockEnd
  0
BLOCK
  5
214
330
213
100
AcDbEntity
  8
0
100
AcDbBlockBegin
  2
*D10
 70
     1
 10
0.0
 20
0.0
 30
0.0
  3
*D10
  1
*D10
  0
LINE
  5
216
330
213
100
AcDbEntity
  8
치수문자_일반주서
 62
     0
370
    -2
100
AcDbLine
 10
19.37500000000004
 20
35.78393424691529
 30
0.0
 11
19.37500000000004
 21
70.88391841499404
 31
0.0
  0
LINE
  5
217
330
213
100
AcDbEntity
  8
치수문자_일반주서
 62
     0
370
    -2
100
AcDbLine
 10
102.3750000000001
 20
36.34643424691529
 30
0.0
 11
102.3750000000001
 21
70.88391841499404
 31
0.0
  0
LINE
  5
218
330
213
100
AcDbEntity
  8
치수문자_일반주서
 62
     0
370
    -2
100
AcDbLine
 10
22.67700000000004
 20
70.88391841499404
 30
0.0
 11
99.07300000000006
 21
70.88391841499404
 31
0.0
  0
SOLID
  5
219
330
213
100
AcDbEntity
  8
치수문자_일반주서
 62
     0
100
AcDbTrace
 10
22.67700000000004
 20
71.43425174832737
 30
0.0
 11
22.67700000000004
 21
70.33358508166071
 31
0.0
 12
19.37500000000004
 22
70.88391841499404
 32
0.0
 13
19.37500000000004
 23
70.88391841499404
 33
0.0
  0
SOLID
  5
21A
330
213
100
AcDbEntity
  8
치수문자_일반주서
 62
     0
100
AcDbTrace
 10
99.07300000000006
 20
70.33358508166071
 30
0.0
 11
99.07300000000006
 21
71.43425174832737
 31
0.0
 12
102.3750000000001
 22
70.88391841499404
 32
0.0
 13
102.3750000000001
 23
70.88391841499404
 33
0.0
  0
MTEXT
  5
21B
330
213
100
AcDbEntity
  8
치수문자_일반주서
 62
     0
100
AcDbMText
 10
60.87500000000005
 20
75.25891841499404
 30
0.0
 40
3.5
 41
0.0
 71
     2
 72
     1
  1
\A1;83 [3.27]
  7
SLDTEXTSTYLE0
 73
     1
 44
1.0
  0
POINT
  5
21C
330
213
100
AcDbEntity
  8
Defpoints
 62
     0
100
AcDbPoint
 10
19.37500000000004
 20
35.72143424691529
 30
0.0
  0
POINT
  5
21D
330
213
100
AcDbEntity
  8
Defpoints
 62
     0
100
AcDbPoint
 10
102.3750000000001
 20
36.28393424691529
 30
0.0
  0
POINT
  5
21E
330
213
100
AcDbEntity
  8
Defpoints
 62
     0
100
AcDbPoint
 10
102.3750000000001
 20
70.88391841499404
 30
0.0
  0
ENDBLK
  5
215
330
213
100
AcDbEntity
  8
0
100
AcDbBlockEnd
  0
BLOCK
  5
220
330
21F
100
AcDbEntity
  8
0
100
AcDbBlockBegin
  2
*D11
 70
     1
 10
0.0
 20
0.0
 30
0.0
  3
*D11
  1
*D11
  0
LINE
  5
222
330
21F
100
AcDbEntity
  8
치수문자_일반주서
 62
     0
370
    -2
100
AcDbLine
 10
76.37504186422882
 20
28.62038676313042
 30
0.0
 11
76.37504186422882
 21
61.90091383617725
 31
0.0
  0
LINE
  5
223
330
21F
100
AcDbEntity
  8
치수문자_일반주서
 62
     0
370
    -2
100
AcDbLine
 10
102.3750000000001
 20
36.28393424691529
 30
0.0
 11
102.3750000000001
 21
61.90091383617725
 31
0.0
  0
LINE
  5
224
330
21F
100
AcDbEntity
  8
치수문자_일반주서
 62
     0
370
    -2
100
AcDbLine
 10
79.67704186422881
 20
61.90091383617725
 30
0.0
 11
99.07300000000006
 21
61.90091383617725
 31
0.0
  0
SOLID
  5
225
330
21F
100
AcDbEntity
  8
치수문자_일반주서
 62
     0
100
AcDbTrace
 10
79.67704186422881
 20
62.45124716951059
 30
0.0
 11
79.67704186422881
 21
61.35058050284392
 31
0.0
 12
76.37504186422882
 22
61.90091383617725
 32
0.0
 13
76.37504186422882
 23
61.90091383617725
 33
0.0
  0
SOLID
  5
226
330
21F
100
AcDbEntity
  8
치수문자_일반주서
 62
     0
100
AcDbTrace
 10
99.07300000000006
 20
61.35058050284392
 30
0.0
 11
99.07300000000006
 21
62.45124716951059
 31
0.0
 12
102.3750000000001
 22
61.90091383617725
 32
0.0
 13
102.3750000000001
 23
61.90091383617725
 33
0.0
  0
MTEXT
  5
227
330
21F
100
AcDbEntity
  8
치수문자_일반주서
 62
     0
100
AcDbMText
 10
89.42159572693208
 20
66.27591383617725
 30
0.0
 40
3.5
 41
0.0
 71
     2
 72
     1
  1
\A1;26 [1.02]
  7
SLDTEXTSTYLE0
 73
     1
 44
1.0
  0
POINT
  5
228
330
21F
100
AcDbEntity
  8
Defpoints
 62
     0
100
AcDbPoint
 10
76.37504186422882
 20
28.55788676313042
 30
0.0
  0
POINT
  5
229
330
21F
100
AcDbEntity
  8
Defpoints
 62
     0
100
AcDbPoint
 10
102.3750000000001
 20
36.22143424691529
 30
0.0
  0
POINT
  5
22A
330
21F
100
AcDbEntity
  8
Defpoints
 62
     0
100
AcDbPoint
 10
102.3750000000001
 20
61.90091383617725
 30
0.0
  0
ENDBLK
  5
221
330
21F
100
AcDbEntity
  8
0
100
AcDbBlockEnd
  0
BLOCK
  5
22C
330
22B
100
AcDbEntity
  8
0
100
AcDbBlockBegin
  2
*D12
 70
     1
 10
0.0
 20
0.0
 30
0.0
  3
*D12
  1
*D12
  0
LINE
  5
22E
330
22B
100
AcDbEntity
  8
치수문자_일반주서
 62
     0
370
    -2
100
AcDbLine
 10
19.81250000000005
 20
36.22143424691529
 30
0.0
 11
4.374999999999983
 21
36.22143424691524
 31
0.0
  0
LINE
  5
22F
330
22B
100
AcDbEntity
  8
치수문자_일반주서
 62
     0
370
    -2
100
AcDbLine
 10
19.81250000000005
 20
22.22143424691529
 30
0.0
 11
4.375000000000032
 21
22.22143424691524
 31
0.0
  0
LINE
  5
230
330
22B
100
AcDbEntity
  8
치수문자_일반주서
 62
     0
370
    -2
100
AcDbLine
 10
4.374999999999983
 20
36.22143424691524
 30
0.0
 11
4.375000000000032
 21
22.22143424691524
 31
0.0
  0
LINE
  5
231
330
22B
100
AcDbEntity
  8
치수문자_일반주서
 62
     0
370
    -2
100
AcDbLine
 10
4.374999999999972
 20
39.52343424691524
 30
0.0
 11
4.37499999999996
 21
42.82543424691524
 31
0.0
  0
LINE
  5
232
330
22B
100
AcDbEntity
  8
치수문자_일반주서
 62
     0
370
    -2
100
AcDbLine
 10
4.375000000000044
 20
18.91943424691524
 30
0.0
 11
4.375000000000055
 21
15.61743424691524
 31
0.0
  0
SOLID
  5
233
330
22B
100
AcDbEntity
  8
치수문자_일반주서
 62
     0
100
AcDbTrace
 10
3.824666666666638
 20
39.52343424691524
 30
0.0
 11
4.925333333333305
 21
39.52343424691524
 31
0.0
 12
4.374999999999983
 22
36.22143424691524
 32
0.0
 13
4.374999999999983
 23
36.22143424691524
 33
0.0
  0
SOLID
  5
234
330
22B
100
AcDbEntity
  8
치수문자_일반주서
 62
     0
100
AcDbTrace
 10
4.925333333333377
 20
18.91943424691524
 30
0.0
 11
3.82466666666671
 21
18.91943424691523
 31
0.0
 12
4.375000000000032
 22
22.22143424691524
 32
0.0
 13
4.375000000000032
 23
22.22143424691524
 33
0.0
  0
MTEXT
  5
235
330
22B
100
AcDbEntity
  8
치수문자_일반주서
 62
     0
100
AcDbMText
 10
0.0000000000000071
 20
29.22143424691528
 30
0.0
 40
3.5
 41
0.0
 71
     2
 72
     1
  1
\A1;%%c14
  7
SLDTEXTSTYLE0
 11
-3.489272363107635E-15
 21
1.0
 31
0.0
 73
     1
 44
1.0
  0
POINT
  5
236
330
22B
100
AcDbEntity
  8
Defpoints
 62
     0
100
AcDbPoint
 10
19.87500000000005
 20
36.22143424691529
 30
0.0
  0
POINT
  5
237
330
22B
100
AcDbEntity
  8
Defpoints
 62
     0
100
AcDbPoint
 10
19.87500000000005
 20
22.22143424691529
 30
0.0
  0
POINT
  5
238
330
22B
100
AcDbEntity
  8
Defpoints
 62
     0
100
AcDbPoint
 10
4.375000000000043
 20
22.22143424691524
 30
0.0
  0
ENDBLK
  5
22D
330
22B
100
AcDbEntity
  8
0
100
AcDbBlockEnd
  0
BLOCK
  5
287
330
286
100
AcDbEntity
  8
0
100
AcDbBlockBegin
  2
*D13
 70
     1
 10
0.0
 20
0.0
 30
0.0
  3
*D13
  1
*D13
  0
LINE
  5
289
330
286
100
AcDbEntity
  8
치수문자_일반주서
 62
     0
370
    -2
100
AcDbLine
 10
-29.76621187543081
 20
98.87938585599704
 30
0.0
 11
-29.76621187543081
 21
133.9793700240758
 31
0.0
  0
LINE
  5
28A
330
286
100
AcDbEntity
  8
치수문자_일반주서
 62
     0
370
    -2
100
AcDbLine
 10
53.2337881245692
 20
99.44188585599704
 30
0.0
 11
53.2337881245692
 21
133.9793700240758
 31
0.0
  0
LINE
  5
28B
330
286
100
AcDbEntity
  8
치수문자_일반주서
 62
     0
370
    -2
100
AcDbLine
 10
-26.46421187543081
 20
133.9793700240758
 30
0.0
 11
49.9317881245692
 21
133.9793700240758
 31
0.0
  0
SOLID
  5
28C
330
286
100
AcDbEntity
  8
치수문자_일반주서
 62
     0
100
AcDbTrace
 10
-26.46421187543081
 20
134.5297033574091
 30
0.0
 11
-26.46421187543081
 21
133.4290366907425
 31
0.0
 12
-29.76621187543081
 22
133.9793700240758
 32
0.0
 13
-29.76621187543081
 23
133.9793700240758
 33
0.0
  0
SOLID
  5
28D
330
286
100
AcDbEntity
  8
치수문자_일반주서
 62
     0
100
AcDbTrace
 10
49.9317881245692
 20
133.4290366907425
 30
0.0
 11
49.9317881245692
 21
134.5297033574091
 31
0.0
 12
53.2337881245692
 22
133.9793700240758
 32
0.0
 13
53.2337881245692
 23
133.9793700240758
 33
0.0
  0
MTEXT
  5
28E
330
286
100
AcDbEntity
  8
치수문자_일반주서
 62
     0
100
AcDbMText
 10
11.73378812456919
 20
138.3543700240758
 30
0.0
 40
3.5
 41
0.0
 71
     2
 72
     1
  1
\A1;83 [3.27]
  7
SLDTEXTSTYLE0
 73
     1
 44
1.0
  0
POINT
  5
28F
330
286
100
AcDbEntity
  8
Defpoints
 62
     0
100
AcDbPoint
 10
-29.76621187543081
 20
98.81688585599704
 30
0.0
  0
POINT
  5
290
330
286
100
AcDbEntity
  8
Defpoints
 62
     0
100
AcDbPoint
 10
53.2337881245692
 20
99.37938585599704
 30
0.0
  0
POINT
  5
291
330
286
100
AcDbEntity
  8
Defpoints
 62
     0
100
AcDbPoint
 10
53.2337881245692
 20
133.9793700240758
 30
0.0
  0
ENDBLK
  5
288
330
286
100
AcDbEntity
  8
0
100
AcDbBlockEnd
  0
BLOCK
  5
293
330
292
100
AcDbEntity
  8
0
100
AcDbBlockBegin
  2
*D14
 70
     1
 10
0.0
 20
0.0
 30
0.0
  3
*D14
  1
*D14
  0
LINE
  5
295
330
292
100
AcDbEntity
  8
치수문자_일반주서
 62
     0
370
    -2
100
AcDbLine
 10
27.23382998879796
 20
91.71583837221218
 30
0.0
 11
27.23382998879796
 21
124.996365445259
 31
0.0
  0
LINE
  5
296
330
292
100
AcDbEntity
  8
치수문자_일반주서
 62
     0
370
    -2
100
AcDbLine
 10
53.2337881245692
 20
99.37938585599704
 30
0.0
 11
53.2337881245692
 21
124.996365445259
 31
0.0
  0
LINE
  5
297
330
292
100
AcDbEntity
  8
치수문자_일반주서
 62
     0
370
    -2
100
AcDbLine
 10
30.53582998879796
 20
124.996365445259
 30
0.0
 11
49.9317881245692
 21
124.996365445259
 31
0.0
  0
SOLID
  5
298
330
292
100
AcDbEntity
  8
치수문자_일반주서
 62
     0
100
AcDbTrace
 10
30.53582998879796
 20
125.5466987785923
 30
0.0
 11
30.53582998879796
 21
124.4460321119257
 31
0.0
 12
27.23382998879796
 22
124.996365445259
 32
0.0
 13
27.23382998879796
 23
124.996365445259
 33
0.0
  0
SOLID
  5
299
330
292
100
AcDbEntity
  8
치수문자_일반주서
 62
     0
100
AcDbTrace
 10
49.9317881245692
 20
124.4460321119257
 30
0.0
 11
49.9317881245692
 21
125.5466987785923
 31
0.0
 12
53.2337881245692
 22
124.996365445259
 32
0.0
 13
53.2337881245692
 23
124.996365445259
 33
0.0
  0
MTEXT
  5
29A
330
292
100
AcDbEntity
  8
치수문자_일반주서
 62
     0
100
AcDbMText
 10
40.28038385150123
 20
129.371365445259
 30
0.0
 40
3.5
 41
0.0
 71
     2
 72
     1
  1
\A1;26 [1.02]
  7
SLDTEXTSTYLE0
 73
     1
 44
1.0
  0
POINT
  5
29B
330
292
100
AcDbEntity
  8
Defpoints
 62
     0
100
AcDbPoint
 10
27.23382998879796
 20
91.65333837221218
 30
0.0
  0
POINT
  5
29C
330
292
100
AcDbEntity
  8
Defpoints
 62
     0
100
AcDbPoint
 10
53.2337881245692
 20
99.31688585599704
 30
0.0
  0
POINT
  5
29D
330
292
100
AcDbEntity
  8
Defpoints
 62
     0
100
AcDbPoint
 10
53.2337881245692
 20
124.996365445259
 30
0.0
  0
ENDBLK
  5
294
330
292
100
AcDbEntity
  8
0
100
AcDbBlockEnd
  0
BLOCK
  5
29F
330
29E
100
AcDbEntity
  8
0
100
AcDbBlockBegin
  2
*D15
 70
     1
 10
0.0
 20
0.0
 30
0.0
  3
*D15
  1
*D15
  0
LINE
  5
2A1
330
29E
100
AcDbEntity
  8
치수문자_일반주서
 62
     0
370
    -2
100
AcDbLine
 10
-29.32871187543081
 20
99.31688585599704
 30
0.0
 11
-44.76621187543087
 21
99.31688585599699
 31
0.0
  0
LINE
  5
2A2
330
29E
100
AcDbEntity
  8
치수문자_일반주서
 62
     0
370
    -2
100
AcDbLine
 10
-29.32871187543081
 20
85.31688585599704
 30
0.0
 11
-44.76621187543082
 21
85.31688585599699
 31
0.0
  0
LINE
  5
2A3
330
29E
100
AcDbEntity
  8
치수문자_일반주서
 62
     0
370
    -2
100
AcDbLine
 10
-44.76621187543087
 20
99.31688585599699
 30
0.0
 11
-44.76621187543082
 21
85.31688585599699
 31
0.0
  0
LINE
  5
2A4
330
29E
100
AcDbEntity
  8
치수문자_일반주서
 62
     0
370
    -2
100
AcDbLine
 10
-44.76621187543088
 20
102.618885855997
 30
0.0
 11
-44.7662118754309
 21
105.920885855997
 31
0.0
  0
LINE
  5
2A5
330
29E
100
AcDbEntity
  8
치수문자_일반주서
 62
     0
370
    -2
100
AcDbLine
 10
-44.76621187543081
 20
82.01488585599698
 30
0.0
 11
-44.76621187543079
 21
78.71288585599697
 31
0.0
  0
SOLID
  5
2A6
330
29E
100
AcDbEntity
  8
치수문자_일반주서
 62
     0
100
AcDbTrace
 10
-45.31654520876422
 20
102.618885855997
 30
0.0
 11
-44.21587854209755
 21
102.618885855997
 31
0.0
 12
-44.76621187543087
 22
99.31688585599699
 32
0.0
 13
-44.76621187543087
 23
99.31688585599699
 33
0.0
  0
SOLID
  5
2A7
330
29E
100
AcDbEntity
  8
치수문자_일반주서
 62
     0
100
AcDbTrace
 10
-44.21587854209747
 20
82.01488585599698
 30
0.0
 11
-45.31654520876414
 21
82.01488585599698
 31
0.0
 12
-44.76621187543082
 22
85.31688585599699
 32
0.0
 13
-44.76621187543082
 23
85.31688585599699
 33
0.0
  0
MTEXT
  5
2A8
330
29E
100
AcDbEntity
  8
치수문자_일반주서
 62
     0
100
AcDbMText
 10
-49.14121187543085
 20
92.31688585599703
 30
0.0
 40
3.5
 41
0.0
 71
     2
 72
     1
  1
\A1;%%c14
  7
SLDTEXTSTYLE0
 11
-3.552713678800501E-15
 21
1.0
 31
0.0
 73
     1
 44
1.0
  0
POINT
  5
2A9
330
29E
100
AcDbEntity
  8
Defpoints
 62
     0
100
AcDbPoint
 10
-29.26621187543081
 20
99.31688585599704
 30
0.0
  0
POINT
  5
2AA
330
29E
100
AcDbEntity
  8
Defpoints
 62
     0
100
AcDbPoint
 10
-29.26621187543081
 20
85.31688585599704
 30
0.0
  0
POINT
  5
2AB
330
29E
100
AcDbEntity
  8
Defpoints
 62
     0
100
AcDbPoint
 10
-44.76621187543083
 20
85.31688585599699
 30
0.0
  0
ENDBLK
  5
2A0
330
29E
100
AcDbEntity
  8
0
100
AcDbBlockEnd
  0
BLOCK
  5
2AD
330
2AC
100
AcDbEntity
  8
0
100
AcDbBlockBegin
  2
*D16
 70
     1
 10
0.0
 20
0.0
 30
0.0
  3
*D16
  1
*D16
  0
LINE
  5
2AF
330
2AC
100
AcDbEntity
  8
치수문자_일반주서
 62
     0
370
    -2
100
AcDbLine
 10
53.29628812456922
 20
99.31688585599704
 30
0.0
 11
68.23378812456922
 21
99.3168858559971
 31
0.0
  0
LINE
  5
2B0
330
2AC
100
AcDbEntity
  8
치수문자_일반주서
 62
     0
370
    -2
100
AcDbLine
 10
53.2962881245692
 20
85.31688585599704
 30
0.0
 11
68.23378812456926
 21
85.3168858559971
 31
0.0
  0
LINE
  5
2B1
330
2AC
100
AcDbEntity
  8
치수문자_일반주서
 62
     0
370
    -2
100
AcDbLine
 10
68.23378812456922
 20
99.3168858559971
 30
0.0
 11
68.23378812456926
 21
85.3168858559971
 31
0.0
  0
LINE
  5
2B2
330
2AC
100
AcDbEntity
  8
치수문자_일반주서
 62
     0
370
    -2
100
AcDbLine
 10
68.2337881245692
 20
102.6188858559971
 30
0.0
 11
68.23378812456919
 21
105.9208858559971
 31
0.0
  0
LINE
  5
2B3
330
2AC
100
AcDbEntity
  8
치수문자_일반주서
 62
     0
370
    -2
100
AcDbLine
 10
68.23378812456927
 20
82.0148858559971
 30
0.0
 11
68.23378812456929
 21
78.71288585599709
 31
0.0
  0
SOLID
  5
2B4
330
2AC
100
AcDbEntity
  8
치수문자_일반주서
 62
     0
100
AcDbTrace
 10
67.68345479123587
 20
102.6188858559971
 30
0.0
 11
68.78412145790253
 21
102.6188858559971
 31
0.0
 12
68.23378812456922
 22
99.3168858559971
 32
0.0
 13
68.23378812456922
 23
99.3168858559971
 33
0.0
  0
SOLID
  5
2B5
330
2AC
100
AcDbEntity
  8
치수문자_일반주서
 62
     0
100
AcDbTrace
 10
68.7841214579026
 20
82.0148858559971
 30
0.0
 11
67.68345479123595
 21
82.0148858559971
 31
0.0
 12
68.23378812456926
 22
85.3168858559971
 32
0.0
 13
68.23378812456926
 23
85.3168858559971
 33
0.0
  0
MTEXT
  5
2B6
330
2AC
100
AcDbEntity
  8
치수문자_일반주서
 62
     0
100
AcDbMText
 10
63.85878812456923
 20
92.38259023771009
 30
0.0
 40
3.5
 41
0.0
 71
     2
 72
     1
  1
\A1;%%c14
  7
SLDTEXTSTYLE0
 11
-3.045183153257572E-15
 21
1.0
 31
0.0
 73
     1
 44
1.0
  0
POINT
  5
2B7
330
2AC
100
AcDbEntity
  8
Defpoints
 62
     0
100
AcDbPoint
 10
53.23378812456922
 20
99.31688585599704
 30
0.0
  0
POINT
  5
2B8
330
2AC
100
AcDbEntity
  8
Defpoints
 62
     0
100
AcDbPoint
 10
53.2337881245692
 20
85.31688585599704
 30
0.0
  0
POINT
  5
2B9
330
2AC
100
AcDbEntity
  8
Defpoints
 62
     0
100
AcDbPoint
 10
68.23378812456926
 20
85.3168858559971
 30
0.0
  0
ENDBLK
  5
2AE
330
2AC
100
AcDbEntity
  8
0
100
AcDbBlockEnd
  0
BLOCK
  5
2BB
330
2BA
100
AcDbEntity
  8
0
100
AcDbBlockBegin
  2
*D17
 70
     1
 10
0.0
 20
0.0
 30
0.0
  3
*D17
  1
*D17
  0
LINE
  5
2BD
330
2BA
100
AcDbEntity
  8
치수문자_일반주서
 62
     0
370
    -2
100
AcDbLine
 10
54.72456330623869
 20
82.5777473631183
 30
0.0
 11
71.05091617476492
 21
56.01356346545917
 31
0.0
  0
MTEXT
  5
2BE
330
2BA
100
AcDbEntity
  8
치수문자_일반주서
 62
     0
100
AcDbMText
 10
66.52942652599707
 20
68.38360976361768
 30
0.0
 40
3.5
 41
0.0
 71
     5
 72
     1
  1
\A1;R.50 [R0.02]
  7
SLDTEXTSTYLE0
 11
0.5236126201129684
 21
-0.8519564684057703
 31
0.0
 73
     1
 44
1.0
  0
SOLID
  5
2BF
330
2BA
100
AcDbEntity
  8
치수문자_일반주서
 62
     0
100
AcDbTrace
 10
55.19342334935133
 20
82.86590884172048
 30
0.0
 11
54.25570326312605
 21
82.28958588451613
 31
0.0
 12
52.99559443462567
 22
85.39090762179416
 32
0.0
 13
52.99559443462567
 23
85.39090762179416
 33
0.0
  0
LINE
  5
2C0
330
2BA
100
AcDbEntity
  8
치수문자_일반주서
 62
     0
100
AcDbLine
 10
52.64378812456918
 20
85.81688585599704
 30
0.0
 11
52.82378812456919
 21
85.81688585599704
 31
0.0
  0
LINE
  5
2C1
330
2BA
100
AcDbEntity
  8
치수문자_일반주서
 62
     0
100
AcDbLine
 10
52.73378812456919
 20
85.72688585599704
 30
0.0
 11
52.73378812456919
 21
85.90688585599705
 31
0.0
  0
POINT
  5
2C2
330
2BA
100
AcDbEntity
  8
Defpoints
 62
     0
100
AcDbPoint
 10
52.99559443462567
 20
85.39090762179416
 30
0.0
  0
POINT
  5
2C3
330
2BA
100
AcDbEntity
  8
Defpoints
 62
     0
100
AcDbPoint
 10
52.73378812456919
 20
85.81688585599704
 30
0.0
  0
ENDBLK
  5
2BC
330
2BA
100
AcDbEntity
  8
0
100
AcDbBlockEnd
  0
ENDSEC
  0
SECTION
  2
ENTITIES
  0
LINE
  5
96
330
1F
100
AcDbEntity
  8
외형선
  6
Continuous
370
    15
100
AcDbLine
 10
8.479905643885374
 20
3.175000000000001
 30
0.0
 11
-27.29
 21
3.174999999999999
 31
0.0
  0
LINE
  5
97
330
1F
100
AcDbEntity
  8
외형선
  6
Continuous
370
    15
100
AcDbLine
 10
-27.29
 20
-3.175000000000001
 30
0.0
 11
8.479905643885374
 21
-3.174999999999999
 31
0.0
  0
LINE
  5
98
330
1F
100
AcDbEntity
  8
외형선
  6
Continuous
370
    15
100
AcDbLine
 10
-27.29
 20
3.174999999999995
 30
0.0
 11
-28.10000000000001
 21
2.364999999999995
 31
0.0
  0
LINE
  5
99
330
1F
100
AcDbEntity
  8
외형선
  6
Continuous
370
    15
100
AcDbLine
 10
-28.10000000000001
 20
-2.364999999999998
 30
0.0
 11
-27.29
 21
-3.174999999999997
 31
0.0
  0
SPLINE
  5
9A
330
1F
100
AcDbEntity
  8
외형선
  6
Continuous
370
    15
100
AcDbSpline
210
0.0
220
0.0
230
1.0
 70
     8
 71
     3
 72
     9
 73
     5
 74
     0
 42
0.000000001
 43
0.00000001
 40
0.0
 40
0.0
 40
0.0
 40
0.0
 40
0.5248284408705094
 40
1.0
 40
1.0
 40
1.0
 40
1.0
 10
8.743079612787175
 20
-2.632216849089484
 30
0.0
 10
8.963109766843296
 20
-2.612014311248607
 30
0.0
 10
9.38235182181114
 20
-2.57352070787725
 30
0.0
 10
9.801047650351473
 20
-2.546535336418976
 30
0.0
 10
10.0
 20
-2.53371265538946
 30
0.0
  0
SPLINE
  5
9B
330
1F
100
AcDbEntity
  8
0
  6
Continuous
 62
     1
370
    15
100
AcDbSpline
210
0.0
220
0.0
230
1.0
 70
     8
 71
     3
 72
     9
 73
     5
 74
     0
 42
0.000000001
 43
0.00000001
 40
0.0
 40
0.0
 40
0.0
 40
0.0
 40
0.4613030016246415
 40
1.0
 40
1.0
 40
1.0
 40
1.0
 10
14.47351462687763
 20
0.8136126602081445
 30
0.0
 10
14.33849287016833
 20
0.8780076909629865
 30
0.0
 10
14.04579640768321
 20
1.017601473201672
 30
0.0
 10
13.75234205848463
 20
1.171313419035188
 30
0.0
 10
13.59425908141116
 20
1.254117582870138
 30
0.0
  0
SPLINE
  5
9C
330
1F
100
AcDbEntity
  8
0
  6
Continuous
 62
     1
370
    15
100
AcDbSpline
210
0.0
220
0.0
230
1.0
 70
     8
 71
     3
 72
    17
 73
    13
 74
     0
 42
0.000000001
 43
0.00000001
 40
0.0
 40
0.0
 40
0.0
 40
0.0
 40
0.1354724848006675
 40
0.2380122899864716
 40
0.320475875266465
 40
0.4199103417000635
 40
0.5328645333167277
 40
0.6416023501359018
 40
0.7552096196622609
 40
0.8571008460862536
 40
0.9525995203453375
 40
1.0
 40
1.0
 40
1.0
 40
1.0
 10
13.42497926504478
 20
2.522977002531424
 30
0.0
 10
13.30861131664451
 20
2.517129348249553
 30
0.0
 10
13.10416388275761
 20
2.506855575027449
 30
0.0
 10
12.82569928495685
 20
2.496468860435292
 30
0.0
 10
12.57527656461441
 20
2.48903080806694
 30
0.0
 10
12.31825885980746
 20
2.483422955924297
 30
0.0
 10
12.03860076436873
 20
2.479923277911368
 30
0.0
 10
11.74303947357005
 20
2.479067442892378
 30
0.0
 10
11.45422053544983
 20
2.480120023745628
 30
0.0
 10
11.18925547593627
 20
2.485348611467836
 30
0.0
 10
10.98946710456028
 20
2.49048743311742
 30
0.0
 10
10.86538973039834
 20
2.494426330291822
 30
0.0
 10
10.82423254444945
 20
2.495732885371146
 30
0.0
  0
SPLINE
  5
9D
330
1F
100
AcDbEntity
  8
0
  6
Continuous
 62
     1
370
    15
100
AcDbSpline
210
0.0
220
0.0
230
1.0
 70
     8
 71
     3
 72
    27
 73
    23
 74
     0
 42
0.000000001
 43
0.00000001
 40
0.0
 40
0.0
 40
0.0
 40
0.0
 40
0.0657610180922967
 40
0.1157027259429744
 40
0.1496655524993024
 40
0.1804788910949207
 40
0.2193737827605843
 40
0.2651596991281368
 40
0.3075316213517063
 40
0.371284971263866
 40
0.4254862050991485
 40
0.4793649904402668
 40
0.5329368343560047
 40
0.5926250716490324
 40
0.6564827048144871
 40
0.7103885412244383
 40
0.7403320335590079
 40
0.7679065073515047
 40
0.7957471555364583
 40
0.8417349721623497
 40
0.9097924999449383
 40
0.9999999999999999
 40
0.9999999999999999
 40
0.9999999999999999
 40
0.9999999999999999
 10
21.5194288983915
 20
2.171549554746611
 30
0.0
 10
21.39835977223012
 20
2.161638614309144
 30
0.0
 10
21.1853456138309
 20
2.144200885111217
 30
0.0
 10
20.90967000383993
 20
2.126807284935655
 30
0.0
 10
20.69668686067637
 20
2.115460938073765
 30
0.0
 10
20.50343260178638
 20
2.106796861865273
 30
0.0
 10
20.28934291037241
 20
2.099073639155869
 30
0.0
 10
20.05438629525304
 20
2.093122870516209
 30
0.0
 10
19.77384806969729
 20
2.089166473661255
 30
0.0
 10
19.47763792166621
 20
2.089073403230144
 30
0.0
 10
19.15985446761323
 20
2.09377482081695
 30
0.0
 10
18.86077760539615
 20
2.102321563751322
 30
0.0
 10
18.55192659138313
 20
2.11536655381064
 30
0.0
 10
18.2233200182405
 20
2.13410726145699
 30
0.0
 10
17.89216701310923
 20
2.157955900791786
 30
0.0
 10
17.61914027183358
 20
2.181571147767682
 30
0.0
 10
17.41636639380004
 20
2.201145086277378
 30
0.0
 10
17.26047641576011
 20
2.217224540624401
 30
0.0
 10
17.07500227124281
 20
2.237544516467328
 30
0.0
 10
16.81309949911658
 20
2.268723799616975
 30
0.0
 10
16.43496797999905
 20
2.317932428475344
 30
0.0
 10
16.14079111210018
 20
2.362577626669973
 30
0.0
 10
15.97311692539098
 20
2.388024383756014
 30
0.0
  0
SPLINE
  5
9E
330
1F
100
AcDbEntity
  8
0
  6
Continuous
 62
     1
370
    15
100
AcDbSpline
210
0.0
220
0.0
230
1.0
 70
     8
 71
     3
 72
    17
 73
    13
 74
     0
 42
0.000000001
 43
0.00000001
 40
0.0
 40
0.0
 40
0.0
 40
0.0
 40
0.1491101000970944
 40
0.2648470059104396
 40
0.346918712295642
 40
0.4221198773205199
 40
0.5146669247250877
 40
0.6224478782362968
 40
0.7211396428020939
 40
0.8643980689099059
 40
0.9876552943433381
 40
1.0
 40
1.0
 40
1.0
 40
1.0
 10
15.97311692539098
 20
-2.388024383756012
 30
0.0
 10
16.08978604183937
 20
-2.370130518117118
 30
0.0
 10
16.29701188471288
 20
-2.338347716445475
 30
0.0
 10
16.56888280620233
 20
-2.300756965739679
 30
0.0
 10
16.78482247614219
 20
-2.272685066400947
 30
0.0
 10
16.98317284459385
 20
-2.248312449042031
 30
0.0
 10
17.20055723039421
 20
-2.223429222679171
 30
0.0
 10
17.43593010146157
 20
-2.198966440852247
 30
0.0
 10
17.71102777016939
 20
-2.173173048622992
 30
0.0
 10
17.99867782773694
 20
-2.150201763965983
 30
0.0
 10
18.21700225273607
 20
-2.134553254156202
 30
0.0
 10
18.3234229873011
 20
-2.128837530611277
 30
0.0
 10
18.33311114316592
 20
-2.128317191968533
 30
0.0
  0
SPLINE
  5
9F
330
1F
100
AcDbEntity
  8
0
  6
Continuous
 62
     1
370
    15
100
AcDbSpline
210
0.0
220
0.0
230
1.0
 70
     8
 71
     3
 72
    19
 73
    15
 74
     0
 42
0.000000001
 43
0.00000001
 40
0.0
 40
0.0
 40
0.0
 40
0.0
 40
0.1257740491457453
 40
0.2129493236147273
 40
0.2685181245638985
 40
0.3223897213143282
 40
0.4117393808190157
 40
0.51241386961018
 40
0.5950492454292805
 40
0.6808888580647611
 40
0.7564541466044069
 40
0.8191224027855548
 40
0.8970475955640448
 40
1.0
 40
1.0
 40
1.0
 40
1.0
 10
9.999999999999996
 20
-2.53371265538946
 30
0.0
 10
10.14400812276224
 20
-2.525716414406997
 30
0.0
 10
10.38782974213072
 20
-2.512177897358039
 30
0.0
 10
10.69479153715267
 20
-2.499902118651689
 30
0.0
 10
10.92052413589919
 20
-2.492500276395052
 30
0.0
 10
11.14008218942962
 20
-2.48664889675284
 30
0.0
 10
11.40488949849506
 20
-2.480490001702179
 30
0.0
 10
11.72677837787251
 20
-2.478990061782565
 30
0.0
 10
12.038505478604
 20
-2.479930792172714
 30
0.0
 10
12.31828151140639
 20
-2.483421169613038
 30
0.0
 10
12.57527195218534
 20
-2.48903117180435
 30
0.0
 10
12.82570071948578
 20
-2.496468747307948
 30
0.0
 10
13.104163344386
 20
-2.50685561748358
 30
0.0
 10
13.30861112136335
 20
-2.517129363649478
 30
0.0
 10
13.42497926504478
 20
-2.522977002531421
 30
0.0
  0
LINE
  5
A0
330
1F
100
AcDbEntity
  8
외형선
  6
Continuous
370
    15
100
AcDbLine
 10
9.999999999999996
 20
2.768794427342308
 30
0.0
 11
9.999999999999996
 21
2.231964840261909
 31
0.0
  0
SPLINE
  5
A1
330
1F
100
AcDbEntity
  8
외형선
  6
Continuous
370
    15
100
AcDbSpline
210
0.0
220
0.0
230
1.0
 70
     8
 71
     3
 72
    10
 73
     6
 74
     0
 42
0.000000001
 43
0.00000001
 40
0.0
 40
0.0
 40
0.0
 40
0.0
 40
0.5
 40
0.5
 40
1.0
 40
1.0
 40
1.0
 40
1.0
 10
8.479905643885374
 20
2.763525463981341
 30
0.0
 10
8.732518764775975
 20
2.691574597900429
 30
0.0
 10
8.98772685264575
 20
2.6105540540224
 30
0.0
 10
9.496052776757454
 20
2.432584238305428
 30
0.0
 10
9.746878990632325
 20
2.335970339612148
 30
0.0
 10
9.999999999999996
 20
2.231964840261909
 30
0.0
  0
SPLINE
  5
A2
330
1F
100
AcDbEntity
  8
외형선
  6
Continuous
370
    15
100
AcDbSpline
210
0.0
220
0.0
230
1.0
 70
     8
 71
     3
 72
    10
 73
     6
 74
     0
 42
0.000000001
 43
0.00000001
 40
0.0
 40
0.0
 40
0.0
 40
0.0
 40
0.5
 40
0.5
 40
1.0
 40
1.0
 40
1.0
 40
1.0
 10
9.999999999999996
 20
-2.768794427342306
 30
0.0
 10
9.746862510356168
 20
-2.84036734017047
 30
0.0
 10
9.496019817025504
 20
-2.902942505606852
 30
0.0
 10
8.987660523655542
 20
-3.009755028704174
 30
0.0
 10
8.732435855308056
 20
-3.053753747452024
 30
0.0
 10
8.479806960766481
 20
-3.087775441330505
 30
0.0
  0
LINE
  5
A3
330
1F
100
AcDbEntity
  8
외형선
  6
Continuous
370
    15
100
AcDbLine
 10
8.479905643885374
 20
3.110419293498838
 30
0.0
 11
8.479905643885374
 21
3.175000000000001
 31
0.0
  0
SPLINE
  5
A4
330
1F
100
AcDbEntity
  8
외형선
  6
Continuous
370
    15
100
AcDbSpline
210
0.0
220
0.0
230
1.0
 70
     8
 71
     3
 72
     9
 73
     5
 74
     0
 42
0.000000001
 43
0.00000001
 40
0.0
 40
0.0
 40
0.0
 40
0.0
 40
0.5988233580552559
 40
0.9999999999999999
 40
0.9999999999999999
 40
0.9999999999999999
 40
0.9999999999999999
 10
8.488217403182215
 20
3.086639262389959
 30
0.0
 10
8.485826862982588
 20
3.091631831948089
 30
0.0
 10
8.481834800603142
 20
3.09996913123839
 30
0.0
 10
8.480457988672358
 20
3.107427264601086
 30
0.0
 10
8.479905643885374
 20
3.110419293498707
 30
0.0
  0
SPLINE
  5
A5
330
1F
100
AcDbEntity
  8
외형선
  6
Continuous
370
    15
100
AcDbSpline
210
0.0
220
0.0
230
1.0
 70
     8
 71
     3
 72
    10
 73
     6
 74
     0
 42
0.000000001
 43
0.00000001
 40
0.0
 40
0.0
 40
0.0
 40
0.0
 40
0.5
 40
0.5
 40
1.0
 40
1.0
 40
1.0
 40
1.0
 10
9.999999999999996
 20
2.768794427342308
 30
0.0
 10
9.748266914013033
 20
2.839970254536693
 30
0.0
 10
9.498828411729983
 20
2.902245777344367
 30
0.0
 10
8.993312847292225
 20
3.008672244755339
 30
0.0
 10
8.739501364027817
 20
3.052587215085105
 30
0.0
 10
8.488217403182594
 20
3.086639262389909
 30
0.0
  0
LINE
  5
A6
330
1F
100
AcDbEntity
  8
외형선
  6
Continuous
370
    15
100
AcDbLine
 10
-27.29
 20
3.174999999999995
 30
0.0
 11
-27.29
 21
-3.175000000000001
 31
0.0
  0
LINE
  5
A7
330
1F
100
AcDbEntity
  8
외형선
  6
Continuous
370
    15
100
AcDbLine
 10
8.479905643885374
 20
-3.174999999999999
 30
0.0
 11
8.479905643885374
 21
2.763523084465381
 31
0.0
  0
LINE
  5
A8
330
1F
100
AcDbEntity
  8
외형선
  6
Continuous
370
    15
100
AcDbLine
 10
-28.10000000000001
 20
2.364999999999996
 30
0.0
 11
-28.10000000000001
 21
-2.364999999999998
 31
0.0
  0
SPLINE
  5
A9
330
1F
100
AcDbEntity
  8
외형선
  6
Continuous
370
    15
100
AcDbSpline
210
0.0
220
0.0
230
1.0
 70
    24
 71
     3
 72
    14
 73
    10
 74
     0
 42
0.000000001
 43
0.00000001
 40
0.0
 40
0.0
 40
0.0
 40
0.0
 40
0.25
 40
0.25
 40
0.5
 40
0.5
 40
0.75
 40
0.75
 40
1.0
 40
1.0
 40
1.0
 40
1.0
 10
9.999999999999941
 20
1.496081162151949
 30
0.0
 10
9.999999999999941
 20
1.25255243700043
 30
0.0
 10
9.999999999999941
 20
0.9839561750914669
 30
0.0
 10
9.999999999999941
 20
0.4162076291787943
 30
0.0
 10
9.999999999999941
 20
0.1172719318615406
 30
0.0
 10
9.999999999999941
 20
-0.4824599364965097
 30
0.0
 10
9.999999999999941
 20
-0.7829365453241227
 30
0.0
 10
9.999999999999941
 20
-1.356556461969732
 30
0.0
 10
9.999999999999941
 20
-1.629474936444272
 30
0.0
 10
9.999999999999941
 20
-1.878339659794346
 30
0.0
  0
SPLINE
  5
AA
330
1F
100
AcDbEntity
  8
외형선
  6
Continuous
370
    15
100
AcDbSpline
210
0.0
220
0.0
230
1.0
 70
     8
 71
     3
 72
    10
 73
     6
 74
     0
 42
0.000000001
 43
0.00000001
 40
0.0
 40
0.0
 40
0.0
 40
0.0
 40
0.5
 40
0.5
 40
1.0
 40
1.0
 40
1.0
 40
1.0
 10
9.999999999999996
 20
-1.878339659794364
 30
0.0
 10
9.746872969691964
 20
-1.799585587481913
 30
0.0
 10
9.496040735181051
 20
-1.715110904793586
 30
0.0
 10
8.987702619868054
 20
-1.535035371571129
 30
0.0
 10
8.732488474442182
 20
-1.439665811615322
 30
0.0
 10
8.479869590747017
 20
-1.340354765861657
 30
0.0
  0
SPLINE
  5
AB
330
1F
100
AcDbEntity
  8
외형선
  6
Continuous
370
    15
100
AcDbSpline
210
0.0
220
0.0
230
1.0
 70
     8
 71
     3
 72
    10
 73
     6
 74
     0
 42
0.000000001
 43
0.00000001
 40
0.0
 40
0.0
 40
0.0
 40
0.0
 40
0.5
 40
0.5
 40
1.0
 40
1.0
 40
1.0
 40
1.0
 10
10.0
 20
1.496081162151931
 30
0.0
 10
9.746875017826543
 20
1.571782679748014
 30
0.0
 10
9.496044831347284
 20
1.642511469148491
 30
0.0
 10
8.98771086309721
 20
1.773679569618414
 30
0.0
 10
8.732498778260414
 20
1.833875587523978
 30
0.0
 10
8.479881854887019
 20
1.887859124245316
 30
0.0
  0
SPLINE
  5
AC
330
1F
100
AcDbEntity
  8
외형선
  6
Continuous
370
    15
100
AcDbSpline
210
0.0
220
0.0
230
1.0
 70
    24
 71
     3
 72
    10
 73
     6
 74
     0
 42
0.000000001
 43
0.00000001
 40
0.0
 40
0.0
 40
0.0
 40
0.0
 40
0.4999999999999999
 40
0.4999999999999999
 40
1.0
 40
1.0
 40
1.0
 40
1.0
 10
10.0
 20
2.231964840261909
 30
0.0
 10
10.0
 20
2.155015399527994
 30
0.0
 10
10.0
 20
2.047000276413188
 30
0.0
 10
10.0
 20
1.791218608228983
 30
0.0
 10
10.0
 20
1.644289978200768
 30
0.0
 10
10.0
 20
1.496081162151932
 30
0.0
  0
LINE
  5
AD
330
1F
100
AcDbEntity
  8
외형선
  6
Continuous
370
    15
100
AcDbLine
 10
8.744845494257305
 20
-2.626380507741167
 30
0.0
 11
8.479806960766481
 21
-2.657702478819021
 31
0.0
  0
SPLINE
  5
AE
330
1F
100
AcDbEntity
  8
외형선
  6
Continuous
370
    15
100
AcDbSpline
210
0.0
220
0.0
230
1.0
 70
    24
 71
     3
 72
    12
 73
     8
 74
     0
 42
0.000000001
 43
0.00000001
 40
0.0
 40
0.0
 40
0.0
 40
0.0
 40
0.1818801304250107
 40
0.3661468289314347
 40
0.6328686234816929
 40
0.9073253681429266
 40
1.0
 40
1.0
 40
1.0
 40
1.0
 10
10.0
 20
-1.878339659794365
 30
0.0
 10
10.0
 20
-1.951705085362011
 30
0.0
 10
10.0
 20
-2.099398612203166
 30
0.0
 10
10.0
 20
-2.29862583006746
 30
0.0
 10
10.0
 20
-2.457168185749302
 30
0.0
 10
10.0
 20
-2.53614740708985
 30
0.0
 10
10.0
 20
-2.526803284162079
 30
0.0
 10
10.0
 20
-2.524444555903627
 30
0.0
  0
SPLINE
  5
AF
330
1F
100
AcDbEntity
  8
외형선
  6
Continuous
370
    15
100
AcDbSpline
210
0.0
220
0.0
230
1.0
 70
    24
 71
     3
 72
    10
 73
     6
 74
     0
 42
0.000000001
 43
0.00000001
 40
0.0
 40
0.0
 40
0.0
 40
0.0
 40
0.0968598226817214
 40
0.7720363001066101
 40
1.0
 40
1.0
 40
1.0
 40
1.0
 10
10.0
 20
-2.559698549474563
 30
0.0
 10
10.0
 20
-2.567035301321277
 30
0.0
 10
10.0
 20
-2.625514024425589
 30
0.0
 10
10.0
 20
-2.694114134097158
 30
0.0
 10
10.0
 20
-2.753743293389281
 30
0.0
 10
10.0
 20
-2.768794427327455
 30
0.0
  0
SPLINE
  5
B0
330
1F
100
AcDbEntity
  8
0
  6
Continuous
 62
     1
370
    15
100
AcDbSpline
210
0.0
220
0.0
230
1.0
 70
     8
 71
     3
 72
    38
 73
    34
 74
     0
 42
0.000000001
 43
0.00000001
 40
0.0
 40
0.0
 40
0.0
 40
0.0
 40
0.0625000000000001
 40
0.0625000000000001
 40
0.1250000000000001
 40
0.1250000000000001
 40
0.1875000000000002
 40
0.1875000000000002
 40
0.2500000000000002
 40
0.2500000000000002
 40
0.3125000000000003
 40
0.3125000000000003
 40
0.3750000000000003
 40
0.3750000000000003
 40
0.4375000000000004
 40
0.4375000000000004
 40
0.5000000000000004
 40
0.5000000000000004
 40
0.5625000000000003
 40
0.5625000000000003
 40
0.6250000000000003
 40
0.6250000000000003
 40
0.6875000000000002
 40
0.6875000000000002
 40
0.7500000000000002
 40
0.7500000000000002
 40
0.8125000000000001
 40
0.8125000000000001
 40
0.8750000000000001
 40
0.8750000000000001
 40
0.9375
 40
0.9375
 40
1.0
 40
1.0
 40
1.0
 40
1.0
 10
22.7
 20
-3.01288725981128
 30
0.0
 10
22.43770429339172
 20
-2.964841278716662
 30
0.0
 10
22.17166862598938
 20
-2.906113518316464
 30
0.0
 10
21.64034949754211
 20
-2.768860570882284
 30
0.0
 10
21.37708998991596
 20
-2.690569563635989
 30
0.0
 10
20.85000651384543
 20
-2.515908212722078
 30
0.0
 10
20.58347920649881
 20
-2.419187891501779
 30
0.0
 10
20.05273589485526
 20
-2.209858950346702
 30
0.0
 10
19.79098659669914
 20
-2.097648984644798
 30
0.0
 10
19.26197165053039
 20
-1.858718201417657
 30
0.0
 10
18.99524372376701
 20
-1.732018482701201
 30
0.0
 10
18.46564996734585
 20
-1.46808100072147
 30
0.0
 10
18.20413951153312
 20
-1.331121826130143
 30
0.0
 10
17.67376061175808
 20
-1.047655241216506
 30
0.0
 10
17.40712382058381
 20
-0.9015104209769804
 30
0.0
 10
16.87924921676854
 20
-0.6049774772476881
 30
0.0
 10
16.61670537872029
 20
-0.4543639506543117
 30
0.0
 10
16.0855349498515
 20
-0.1498708356277489
 30
0.0
 10
15.81928071553516
 20
0.0035559240616461
 30
0.0
 10
15.29368868928993
 20
0.3079966871606605
 30
0.0
 10
15.02884295278714
 20
0.4600728081717671
 30
0.0
 10
14.49745627464019
 20
0.7602926704943062
 30
0.0
 10
14.23330268753526
 20
0.9079816221641542
 30
0.0
 10
13.70708934295973
 20
1.195690018594256
 30
0.0
 10
13.4407125330947
 20
1.33648059876313
 30
0.0
 10
12.90968566647133
 20
1.607477963356682
 30
0.0
 10
12.6475183524649
 20
1.737297548017214
 30
0.0
 10
12.11916219633349
 20
1.984687360594382
 30
0.0
 10
11.85247538676457
 20
2.102283423883231
 30
0.0
 10
11.32238309321851
 20
2.321571435903735
 30
0.0
 10
11.0609321853676
 20
2.423064246749425
 30
0.0
 10
10.53099836912848
 20
2.609458448580787
 30
0.0
 10
10.26429316427358
 20
2.694067322976125
 30
0.0
 10
9.999999999995817
 20
2.768794427343491
 30
0.0
  0
SPLINE
  5
B1
330
1F
100
AcDbEntity
  8
0
  6
Continuous
 62
     1
370
    15
100
AcDbSpline
210
0.0
220
0.0
230
1.0
 70
     8
 71
     3
 72
    14
 73
    10
 74
     0
 42
0.000000001
 43
0.00000001
 40
0.0
 40
0.0
 40
0.0
 40
0.0
 40
0.1436467297875632
 40
0.287135490622875
 40
0.4305524933124805
 40
0.5739846832223058
 40
0.7175188500645994
 40
0.8612111695073196
 40
1.0
 40
1.0
 40
1.0
 40
1.0
 10
22.7
 20
-2.504986939369085
 30
0.0
 10
22.30462010514451
 20
-2.421623222827996
 30
0.0
 10
21.51429511647511
 20
-2.254987465198348
 30
0.0
 10
20.32949534498312
 20
-1.86951489856631
 30
0.0
 10
19.14535518033698
 20
-1.406026246241287
 30
0.0
 10
17.96106923195245
 20
-0.8750742113060724
 30
0.0
 10
16.77592776415006
 20
-0.304853320403266
 30
0.0
 10
15.6032293955676
 20
0.2755453298228962
 30
0.0
 10
14.82582795493123
 20
0.6452924232216133
 30
0.0
 10
14.44387455098227
 20
0.8269568163416895
 30
0.0
  0
LINE
  5
B2
330
1F
100
AcDbEntity
  8
0
  6
Continuous
 62
     1
370
    15
100
AcDbLine
 10
22.69999999999992
 20
-3.012887259811281
 30
0.0
 11
22.7
 21
-2.504986939369084
 31
0.0
  0
SPLINE
  5
B3
330
1F
100
AcDbEntity
  8
0
  6
Continuous
 62
     1
370
    15
100
AcDbSpline
210
0.0
220
0.0
230
1.0
 70
     8
 71
     3
 72
    38
 73
    34
 74
     0
 42
0.000000001
 43
0.00000001
 40
0.0
 40
0.0
 40
0.0
 40
0.0
 40
0.0624999999999998
 40
0.0624999999999998
 40
0.1249999999999999
 40
0.1249999999999999
 40
0.1874999999999999
 40
0.1874999999999999
 40
0.2499999999999999
 40
0.2499999999999999
 40
0.3124999999999999
 40
0.3124999999999999
 40
0.375
 40
0.375
 40
0.4375
 40
0.4375
 40
0.5
 40
0.5
 40
0.5625
 40
0.5625
 40
0.625
 40
0.625
 40
0.6875
 40
0.6875
 40
0.7499999999999999
 40
0.7499999999999999
 40
0.8124999999999999
 40
0.8124999999999999
 40
0.875
 40
0.875
 40
0.9375
 40
0.9375
 40
1.0
 40
1.0
 40
1.0
 40
1.0
 10
9.999999999997819
 20
2.231964840262232
 30
0.0
 10
10.26429316427555
 20
2.123368787353759
 30
0.0
 10
10.53099836913042
 20
2.006660697049223
 30
0.0
 10
11.06093218536943
 20
1.76061699267282
 30
0.0
 10
11.3223830932203
 20
1.631620358978263
 30
0.0
 10
11.8524753867663
 20
1.362047612871074
 30
0.0
 10
12.11916219633517
 20
1.221756379067355
 30
0.0
 10
12.64751835246647
 20
0.9345600078193805
 30
0.0
 10
12.90968566647287
 20
0.7875949247689877
 30
0.0
 10
13.44071253309617
 20
0.4879758101013138
 30
0.0
 10
13.70708934296115
 20
0.3357772306713531
 30
0.0
 10
14.23330268753658
 20
0.031359675020386
 30
0.0
 10
14.49745627464148
 20
-0.121687741960823
 30
0.0
 10
15.02884295278835
 20
-0.4264683389511282
 30
0.0
 10
15.29368868929108
 20
-0.5777354086323461
 30
0.0
 10
15.81928071553624
 20
-0.8744654222213404
 30
0.0
 10
16.08553494985255
 20
-1.020956103752629
 30
0.0
 10
16.61670537872125
 20
-1.30556761841647
 30
0.0
 10
16.87924921676945
 20
-1.443287160697218
 30
0.0
 10
17.40712382058465
 20
-1.708286313901751
 30
0.0
 10
17.67376061175889
 20
-1.835744805792691
 30
0.0
 10
18.20413951153383
 20
-2.076555354740421
 30
0.0
 10
18.46564996734653
 20
-2.189629986588006
 30
0.0
 10
18.9952437237676
 20
-2.400770803586611
 30
0.0
 10
19.26197165053094
 20
-2.49858126855381
 30
0.0
 10
19.7909865966996
 20
-2.675655956122652
 30
0.0
 10
20.05273589485568
 20
-2.754938916388856
 30
0.0
 10
20.58347920649915
 20
-2.894559232817379
 30
0.0
 10
20.85000651384572
 20
-2.954591437449462
 30
0.0
 10
21.37708998991617
 20
-3.053371998094644
 30
0.0
 10
21.64034949754228
 20
-3.092348717076537
 30
0.0
 10
22.17166862598946
 20
-3.148758134570776
 30
0.0
 10
22.43770429339175
 20
-3.166055879043247
 30
0.0
 10
22.7
 20
-3.174999999999999
 30
0.0
  0
SPLINE
  5
B4
330
1F
100
AcDbEntity
  8
0
  6
Continuous
 62
     1
370
    15
100
AcDbSpline
210
0.0
220
0.0
230
1.0
 70
     8
 71
     3
 72
    12
 73
     8
 74
     0
 42
0.000000001
 43
0.00000001
 40
0.0
 40
0.0
 40
0.0
 40
0.0
 40
0.0834307298539285
 40
0.329886615234335
 40
0.5762683841167564
 40
0.7878950309839293
 40
1.0
 40
1.0
 40
1.0
 40
1.0
 10
14.80528083832351
 20
-0.2980093545572163
 30
0.0
 10
14.67163370250971
 20
-0.2450427478533248
 30
0.0
 10
14.14319050961701
 20
-0.0356118266976921
 30
0.0
 10
13.22021441590948
 20
0.3421923315073012
 30
0.0
 10
12.09185666316651
 20
0.7838339084678293
 30
0.0
 10
11.01867614450808
 20
1.177407889310239
 30
0.0
 10
10.33981415539735
 20
1.389776828196312
 30
0.0
 10
10.0
 20
1.496081162151931
 30
0.0
  0
SPLINE
  5
B5
330
1F
100
AcDbEntity
  8
외형선
  6
Continuous
370
    15
100
AcDbSpline
210
0.0
220
0.0
230
1.0
 70
    24
 71
     3
 72
    10
 73
     6
 74
     0
 42
0.000000001
 43
0.00000001
 40
0.0
 40
0.0
 40
0.0
 40
0.0
 40
0.4999999999999998
 40
0.4999999999999998
 40
1.0
 40
1.0
 40
1.0
 40
1.0
 10
10.0
 20
2.231964840261909
 30
0.0
 10
10.0
 20
2.155015399527994
 30
0.0
 10
10.0
 20
2.047000276413187
 30
0.0
 10
10.0
 20
1.791218608228983
 30
0.0
 10
10.0
 20
1.644289978200768
 30
0.0
 10
10.0
 20
1.496081162151932
 30
0.0
  0
LINE
  5
B6
330
1F
100
AcDbEntity
  8
0
  6
Continuous
 62
     1
370
    15
100
AcDbLine
 10
22.7
 20
-3.174999999999999
 30
0.0
 11
22.69999999999999
 21
-3.012887259811276
 31
0.0
  0
SPLINE
  5
B7
330
1F
100
AcDbEntity
  8
0
  6
Continuous
 62
     1
370
    15
100
AcDbSpline
210
0.0
220
0.0
230
1.0
 70
     8
 71
     3
 72
     8
 73
     4
 74
     0
 42
0.000000001
 43
0.00000001
 40
0.0
 40
0.0
 40
0.0
 40
0.0
 40
1.0
 40
1.0
 40
1.0
 40
1.0
 10
20.73492473302117
 20
0.8886594965445296
 30
0.0
 10
20.62226898477532
 20
1.022151308112283
 30
0.0
 10
20.52176042916735
 20
1.150592603090891
 30
0.0
 10
20.4362446465457
 20
1.272800256195025
 30
0.0
  0
LINE
  5
B8
330
1F
100
AcDbEntity
  8
0
  6
Continuous
 62
     1
370
    15
100
AcDbLine
 10
20.47637756187666
 20
1.306475770647303
 30
0.0
 11
22.7
 21
0.0000000000000028
 31
0.0
  0
LINE
  5
B9
330
1F
100
AcDbEntity
  8
0
  6
Continuous
 62
     1
370
    15
100
AcDbLine
 10
22.7
 20
0.0000000000000028
 30
0.0
 11
22.7
 21
-0.8484963536441199
 31
0.0
  0
SPLINE
  5
BA
330
1F
100
AcDbEntity
  8
0
  6
Continuous
 62
     1
370
    15
100
AcDbSpline
210
0.0
220
0.0
230
1.0
 70
     8
 71
     3
 72
    10
 73
     6
 74
     0
 42
0.000000001
 43
0.00000001
 40
0.0
 40
0.0
 40
0.0
 40
0.0
 40
0.5
 40
0.5
 40
1.0
 40
1.0
 40
1.0
 40
1.0
 10
22.7
 20
-0.8484963536441196
 30
0.0
 10
22.35983158573034
 20
-0.581065157565612
 30
0.0
 10
22.02534861431048
 20
-0.3026650804819446
 30
0.0
 10
21.3680371575733
 20
0.2766199837640477
 30
0.0
 10
21.04214858914631
 20
0.580557626650599
 30
0.0
 10
20.73492473302118
 20
0.8886594965445257
 30
0.0
  0
SPLINE
  5
BB
330
1F
100
AcDbEntity
  8
0
  6
Continuous
 62
     1
370
    15
100
AcDbSpline
210
0.0
220
0.0
230
1.0
 70
     8
 71
     3
 72
    14
 73
    10
 74
     0
 42
0.000000001
 43
0.00000001
 40
0.0
 40
0.0
 40
0.0
 40
0.0
 40
0.1088646471881326
 40
0.2174244842097695
 40
0.3793779924044357
 40
0.5414482713345844
 40
0.7036996167534152
 40
0.8658244862470648
 40
1.0
 40
1.0
 40
1.0
 40
1.0
 10
20.73492473301784
 20
0.8886594965459671
 30
0.0
 10
20.46955517883345
 20
1.001476412187583
 30
0.0
 10
19.93955907877896
 20
1.226794367346393
 30
0.0
 10
19.01540264496067
 20
1.585591781135056
 30
0.0
 10
17.9610508193166
 20
1.942954185762211
 30
0.0
 10
16.77594942568705
 20
2.254980094638591
 30
0.0
 10
15.59008177078959
 20
2.459359276794338
 30
0.0
 10
14.47243133669962
 20
2.55659453911585
 30
0.0
 10
13.7503392790533
 20
2.527670951981125
 30
0.0
 10
13.42334991862787
 20
2.514573307216522
 30
0.0
  0
SPLINE
  5
BC
330
1F
100
AcDbEntity
  8
0
  6
Continuous
 62
     1
370
    15
100
AcDbSpline
210
0.0
220
0.0
230
1.0
 70
    24
 71
     3
 72
    10
 73
     6
 74
     0
 42
0.000000001
 43
0.00000001
 40
0.0
 40
0.0
 40
0.0
 40
0.0
 40
0.5
 40
0.5
 40
1.0
 40
1.0
 40
1.0
 40
1.0
 10
22.7
 20
-2.504986939369084
 30
0.0
 10
22.69999999999999
 20
-2.312960160087079
 30
0.0
 10
22.7
 20
-2.070326961403036
 30
0.0
 10
22.7
 20
-1.506228125303407
 30
0.0
 10
22.7
 20
-1.185251131687907
 30
0.0
 10
22.7
 20
-0.8484963536442214
 30
0.0
  0
SPLINE
  5
BD
330
1F
100
AcDbEntity
  8
0
  6
Continuous
 62
     1
370
    15
100
AcDbSpline
210
0.0
220
0.0
230
1.0
 70
    24
 71
     3
 72
     8
 73
     4
 74
     0
 42
0.000000001
 43
0.00000001
 40
0.0
 40
0.0
 40
0.0
 40
0.0
 40
1.0
 40
1.0
 40
1.0
 40
1.0
 10
20.7676495299706
 20
1.550881971644898
 30
0.0
 10
20.66285635986842
 20
1.462950061262267
 30
0.0
 10
20.55203778886603
 20
1.369962239208864
 30
0.0
 10
20.43624464654575
 20
1.272800256195062
 30
0.0
  0
LINE
  5
BE
330
1F
100
AcDbEntity
  8
0
  6
Continuous
 62
     1
370
    15
100
AcDbLine
 10
22.7
 20
2.222500000000001
 30
0.0
 11
21.51936907903976
 21
2.171310071824945
 31
0.0
  0
SPLINE
  5
BF
330
1F
100
AcDbEntity
  8
0
  6
Continuous
 62
     1
370
    15
100
AcDbSpline
210
0.0
220
0.0
230
1.0
 70
     8
 71
     3
 72
     8
 73
     4
 74
     0
 42
0.000000001
 43
0.00000001
 40
0.0
 40
0.0
 40
0.0
 40
0.0
 40
1.0
 40
1.0
 40
1.0
 40
1.0
 10
22.7
 20
2.222500000000002
 30
0.0
 10
22.04689482157157
 20
2.045248916505811
 30
0.0
 10
21.4000145968584
 20
1.827618470580121
 30
0.0
 10
20.76764952997555
 20
1.550881971648705
 30
0.0
  0
SPLINE
  5
C0
330
1F
100
AcDbEntity
  8
0
  6
Continuous
 62
     1
370
    15
100
AcDbSpline
210
0.0
220
0.0
230
1.0
 70
     8
 71
     3
 72
    13
 73
     9
 74
     0
 42
0.000000001
 43
0.00000001
 40
0.0
 40
0.0
 40
0.0
 40
0.0
 40
0.0651323665740501
 40
0.2633819479105181
 40
0.4614523082319376
 40
0.6594646535287977
 40
0.8295451160141104
 40
0.9999999999999999
 40
0.9999999999999999
 40
0.9999999999999999
 40
0.9999999999999999
 10
15.97932398404935
 20
-2.375028923477223
 30
0.0
 10
15.84948520155622
 20
-2.398855333877651
 30
0.0
 10
15.3244437629269
 20
-2.49520445664207
 30
0.0
 10
14.40466695245899
 20
-2.549857194050427
 30
0.0
 10
13.22019755323085
 20
-2.531386807645976
 30
0.0
 10
12.09184163905366
 20
-2.393442717081479
 30
0.0
 10
11.0187074205064
 20
-2.175968209045725
 30
0.0
 10
10.33981795507647
 20
-1.977621870705027
 30
0.0
 10
9.999999999999996
 20
-1.878339659794364
 30
0.0
  0
SPLINE
  5
C1
330
1F
100
AcDbEntity
  8
외형선
  6
Continuous
370
    15
100
AcDbSpline
210
0.0
220
0.0
230
1.0
 70
    24
 71
     3
 72
    14
 73
    10
 74
     0
 42
0.000000001
 43
0.00000001
 40
0.0
 40
0.0
 40
0.0
 40
0.0
 40
0.25
 40
0.25
 40
0.5
 40
0.5
 40
0.75
 40
0.75
 40
1.0
 40
1.0
 40
1.0
 40
1.0
 10
9.999999999999941
 20
1.496081162151949
 30
0.0
 10
9.999999999999941
 20
1.25255243700043
 30
0.0
 10
9.999999999999941
 20
0.9839561750914669
 30
0.0
 10
9.999999999999941
 20
0.4162076291787943
 30
0.0
 10
9.999999999999941
 20
0.1172719318615406
 30
0.0
 10
9.999999999999941
 20
-0.4824599364965097
 30
0.0
 10
9.999999999999941
 20
-0.7829365453241227
 30
0.0
 10
9.999999999999941
 20
-1.356556461969732
 30
0.0
 10
9.999999999999941
 20
-1.629474936444272
 30
0.0
 10
9.999999999999941
 20
-1.878339659794346
 30
0.0
  0
LINE
  5
C2
330
1F
100
AcDbEntity
  8
0
  6
Continuous
 62
     1
370
    15
100
AcDbLine
 10
22.7
 20
0.0000000000000028
 30
0.0
 11
22.7
 21
2.222500000000002
 31
0.0
  0
SPLINE
  5
C3
330
1F
100
AcDbEntity
  8
외형선
  6
Continuous
370
    15
100
AcDbSpline
210
0.0
220
0.0
230
1.0
 70
    24
 71
     3
 72
    12
 73
     8
 74
     0
 42
0.000000001
 43
0.00000001
 40
0.0
 40
0.0
 40
0.0
 40
0.0
 40
0.1820625006040189
 40
0.3665139622877804
 40
0.6335031972742414
 40
0.9082351381624455
 40
1.0
 40
1.0
 40
1.0
 40
1.0
 10
9.999999999999996
 20
-1.878339659794364
 30
0.0
 10
10.0
 20
-1.951704789208887
 30
0.0
 10
10.0
 20
-2.099397719857776
 30
0.0
 10
10.0
 20
-2.298630130747352
 30
0.0
 10
10.0
 20
-2.457143518987633
 30
0.0
 10
9.999999999999996
 20
-2.536089922012524
 30
0.0
 10
10.0
 20
-2.526807313098397
 30
0.0
 10
10.0
 20
-2.524483098212587
 30
0.0
  0
SPLINE
  5
C4
330
1F
100
AcDbEntity
  8
0
  6
Continuous
 62
     1
370
    15
100
AcDbSpline
210
0.0
220
0.0
230
1.0
 70
    24
 71
     3
 72
    10
 73
     6
 74
     0
 42
0.000000001
 43
0.00000001
 40
0.0
 40
0.0
 40
0.0
 40
0.0
 40
0.5
 40
0.5
 40
1.0
 40
1.0
 40
1.0
 40
1.0
 10
22.7
 20
2.222500000000001
 30
0.0
 10
22.7
 20
2.357222415363222
 30
0.0
 10
22.7
 20
2.513782338653098
 30
0.0
 10
22.69999999999999
 20
2.842244636050716
 30
0.0
 10
22.7
 20
3.013308158669675
 30
0.0
 10
22.69999999999992
 20
3.175000000000001
 30
0.0
  0
SPLINE
  5
C5
330
1F
100
AcDbEntity
  8
0
  6
Continuous
 62
     1
370
    15
100
AcDbSpline
210
0.0
220
0.0
230
1.0
 70
     8
 71
     3
 72
    14
 73
    10
 74
     0
 42
0.000000001
 43
0.00000001
 40
0.0
 40
0.0
 40
0.0
 40
0.0
 40
0.0194073964443358
 40
0.1242352252873914
 40
0.2294251215009224
 40
0.4195699586117679
 40
0.6102604658093688
 40
0.8048386946240075
 40
1.0
 40
1.0
 40
1.0
 40
1.0
 10
18.33154513825318
 20
2.128757769889224
 30
0.0
 10
18.35978764830816
 20
2.1412161841811
 30
0.0
 10
18.54058029658663
 20
2.22096793814327
 30
0.0
 10
18.87444413162806
 20
2.353908633520224
 30
0.0
 10
19.45777230287766
 20
2.569897028668823
 30
0.0
 10
20.16454983569353
 20
2.794400424735705
 30
0.0
 10
21.00352506342909
 20
2.993309301193905
 30
0.0
 10
21.84799437797239
 20
3.130197368665683
 30
0.0
 10
22.41571500990512
 20
3.158262819190643
 30
0.0
 10
22.69999999999992
 20
3.175000000000001
 30
0.0
  0
LINE
  5
C6
330
1F
100
AcDbEntity
  8
0
  6
Continuous
 62
     1
370
    15
100
AcDbLine
 10
10.8238661810126
 20
-2.495854258599683
 30
0.0
 11
9.999999999995817
 21
-2.768794427343489
 31
0.0
  0
SPLINE
  5
C7
330
1F
100
AcDbEntity
  8
외형선
  6
Continuous
370
    15
100
AcDbSpline
210
0.0
220
0.0
230
1.0
 70
    24
 71
     3
 72
    11
 73
     7
 74
     0
 42
0.000000001
 43
0.00000001
 40
0.0
 40
0.0
 40
0.0
 40
0.0
 40
0.0984033168501248
 40
0.4352293260426685
 40
0.7724508497268502
 40
1.0
 40
1.0
 40
1.0
 40
1.0
 10
10.0
 20
-2.559698549474563
 30
0.0
 10
10.0
 20
-2.567033036921381
 30
0.0
 10
10.0
 20
-2.599472838043216
 30
0.0
 10
10.0
 20
-2.654268335297806
 30
0.0
 10
10.0
 20
-2.716548627451391
 30
0.0
 10
10.0
 20
-2.75378977011256
 30
0.0
 10
10.0
 20
-2.768794427327447
 30
0.0
  0
LINE
  5
C8
330
1F
100
AcDbEntity
  8
중심선
 62
     1
100
AcDbLine
 10
-31.10000000000001
 20
-0.0000000000000037
 30
0.0
 11
25.69999999999999
 21
0.0000000000000033
 31
0.0
  0
LINE
  5
C9
330
1F
100
AcDbEntity
  8
참조1
100
AcDbLine
 10
2.149261314031158
 20
0.0010749287238892
 30
0.0
 11
2.149261314031162
 21
-39.99892507127611
 31
0.0
  0
LINE
  5
CA
330
1F
100
AcDbEntity
  8
참조1
100
AcDbLine
 10
2.149261314031162
 20
-39.99892507127611
 30
0.0
 11
-20.15080122126847
 21
-39.9989250712761
 31
0.0
  0
CIRCLE
  5
CB
330
1F
100
AcDbEntity
  8
해칭선
100
AcDbCircle
 10
0.0
 20
0.0
 30
0.0
 40
2.999999999999995
  0
INSERT
  5
CC
330
1F
100
AcDbEntity
  8
0
  6
Continuous
 62
     7
100
AcDbBlockReference
 66
     1
  2
블럭10
 10
-16.64027293212521
 20
-28.18552638611345
 30
0.0
  0
ATTRIB
  5
CD
330
CC
100
AcDbEntity
  8
FORMAT
 62
     2
100
AcDbText
 10
-25.8215682208665
 20
-26.11015947328126
 30
0.0
 40
4.233333333333333
  1
E5244016 [ 2 FLUTE ]
 41
0.75
  7
SLDTEXTSTYLE0
 11
-25.8215682208665
 21
-28.22682613994793
 31
0.0
100
AcDbAttribute
  2
AUTOATTR0
 70
     0
 74
     1
  0
SEQEND
  5
CE
330
CC
100
AcDbEntity
  8
0
  6
Continuous
 62
     7
  0
HATCH
  5
CF
330
1F
100
AcDbEntity
  8
중심선
100
AcDbHatch
 10
0.0
 20
0.0
 30
0.0
210
0.0
220
0.0
230
1.0
  2
SOLID
 70
     1
 71
     0
 91
        1
 92
        0
 93
        4
 72
     1
 10
-10.92536362774436
 20
-11.93835208446951
 11
-14.37163887158164
 21
-11.93835208446951
 72
     1
 10
-14.37163887158164
 20
-11.93835208446951
 11
-16.49986873078567
 21
-14.47467766504212
 72
     1
 10
-16.49986873078567
 20
-14.47467766504212
 11
-13.05356040183523
 21
-14.47463823573963
 72
     1
 10
-13.05356040183523
 20
-14.47463823573963
 11
-10.92536362774436
 21
-11.93835208446951
 97
        0
 75
     0
 76
     1
 98
        1
 10
-4.849261314031168
 20
23.86057298680659
  0
HATCH
  5
D0
330
1F
100
AcDbEntity
  8
중심선
100
AcDbHatch
 10
0.0
 20
0.0
 30
0.0
210
0.0
220
0.0
230
1.0
  2
SOLID
 70
     1
 71
     0
 91
        1
 92
        0
 93
        4
 72
     1
 10
-5.912599636708411
 20
-11.93835208446951
 11
-9.358874880545693
 21
-11.93835208446951
 72
     1
 10
-9.358874880545693
 20
-11.93835208446951
 11
-13.89001288890308
 21
-17.33835208446953
 72
     1
 10
-13.89001288890308
 20
-17.33835208446953
 11
-10.4437376450658
 21
-17.33835208446953
 72
     1
 10
-10.4437376450658
 20
-17.33835208446953
 11
-5.912599636708411
 21
-11.93835208446951
 97
        0
 75
     0
 76
     1
 98
        1
 10
-4.849261314031168
 20
23.86057298680659
  0
HATCH
  5
D1
330
1F
100
AcDbEntity
  8
중심선
100
AcDbHatch
 10
0.0
 20
0.0
 30
0.0
210
0.0
220
0.0
230
1.0
  2
SOLID
 70
     1
 71
     0
 91
        1
 92
        0
 93
        4
 72
     1
 10
-0.899835645672515
 20
-11.93835208446951
 11
-4.346110889509631
 21
-11.93835208446954
 72
     1
 10
-4.346110889509631
 20
-11.93835208446954
 11
-11.39454779139888
 21
-20.33835208446953
 72
     1
 10
-11.39454779139888
 20
-20.33835208446953
 11
-7.948272547561597
 21
-20.33835208446953
 72
     1
 10
-7.948272547561597
 20
-20.33835208446953
 11
-0.899835645672515
 21
-11.93835208446951
 97
        0
 75
     0
 76
     1
 98
        1
 10
-4.849261314031168
 20
23.86057298680659
  0
HATCH
  5
D2
330
1F
100
AcDbEntity
  8
중심선
100
AcDbHatch
 10
0.0
 20
0.0
 30
0.0
210
0.0
220
0.0
230
1.0
  2
SOLID
 70
     1
 71
     0
 91
        1
 92
        0
 93
        6
 72
     3
 10
3.900054785339684
 20
-16.13835208452079
 11
3.960054785062283
 21
1.540882976769353E-10
 40
0.3939339440162628
 50
17.09539180608439
 51
320.0019657685075
 73
     0
 72
     1
 10
5.58305444104028
 20
-14.72624608910779
 11
7.888356314741346
 21
-12.79191937905987
 72
     3
 10
3.900054785286837
 20
-16.13835208446967
 11
6.600054785286829
 21
-1.278976924368180E-13
 40
0.636358354079598
 50
39.99873849337413
 51
368.4976242363725
 73
     1
 72
     1
 10
10.32538727718745
 20
-15.17835208439954
 11
2.580122092122788
 21
-15.17835208439954
 72
     1
 10
2.580122092122788
 20
-15.17835208439954
 11
2.580097047676826
 21
-17.09835208439943
 72
     1
 10
2.580097047676826
 20
-17.09835208439943
 11
7.021476817148864
 21
-17.0983520843994
 97
        0
 75
     0
 76
     1
 98
        1
 10
-4.849261314031168
 20
23.86057298680659
  0
DIMENSION
  5
D3
330
1F
100
AcDbEntity
  8
치수문자_일반주서
100
AcDbDimension
  2
_D
 10
-35.62412255235464
 20
-3.175000000000043
 30
0.0
 11
-35.62412255235473
 21
23.12274999999999
 31
0.0
 70
   160
  1
%%c<>
 71
     2
 42
6.350000000000023
 52
-270.0
  3
SLDDIMSTYLE0
100
AcDbAlignedDimension
 13
-27.28999999999999
 23
3.175000000000012
 33
0.0
 14
-27.28999999999999
 24
-3.17500000000001
 34
0.0
 50
90.0000000000002
100
AcDbRotatedDimension
1001
ACAD
1000
DSTYLE
1002
{
1070
   171
1070
     6
1070
   273
1070
     5
1002
}
  0
DIMENSION
  5
E8
330
1F
100
AcDbEntity
  8
치수문자_일반주서
100
AcDbDimension
  2
_D_1
 10
9.999999999999996
 20
18.24323461301928
 30
0.0
 11
-7.979000000000003
 21
18.24323461301928
 31
0.0
 70
   160
  1
<>
 71
     2
 42
12.69999999999993
  3
SLDDIMSTYLE0
100
AcDbAlignedDimension
 13
22.69999999999992
 23
3.175000000000001
 33
0.0
 14
9.999999999999996
 24
2.768794427342308
 34
0.0
 50
0.000000000000016
100
AcDbRotatedDimension
1001
ACAD
1000
DSTYLE
1002
{
1070
   171
1070
     6
1070
   273
1070
     5
1002
}
  0
DIMENSION
  5
FD
330
1F
100
AcDbEntity
  8
치수문자_일반주서
100
AcDbDimension
  2
_D_2
 10
-28.10000000000001
 20
33.53841682519538
 30
0.0
 11
-2.700000000000044
 21
33.53841682519538
 31
0.0
 70
   160
  1
<>
 71
     2
 42
50.79999999999993
  3
SLDDIMSTYLE0
100
AcDbAlignedDimension
 13
22.69999999999992
 23
3.175000000000001
 33
0.0
 14
-28.10000000000001
 24
2.364999999999996
 34
0.0
100
AcDbRotatedDimension
1001
ACAD
1000
DSTYLE
1002
{
1070
   171
1070
     6
1070
   273
1070
     5
1002
}
  0
DIMENSION
  5
110
330
1F
100
AcDbEntity
  8
치수문자_일반주서
100
AcDbDimension
  2
_D_3
 10
35.902787614023
 20
3.17500000000005
 30
0.0
 11
35.90278761402294
 21
23.12275000000005
 31
0.0
 70
   160
  1
%%c<>
 71
     2
 42
6.35
 52
-270.0
  3
SLDDIMSTYLE0
100
AcDbAlignedDimension
 13
22.7
 23
-3.174999999999999
 33
0.0
 14
22.69999999999992
 24
3.175000000000001
 34
0.0
 50
90.0000000000002
100
AcDbRotatedDimension
1001
ACAD
1000
DSTYLE
1002
{
1070
   171
1070
     6
1070
   273
1070
     5
1002
}
  0
LINE
  5
124
330
1F
100
AcDbEntity
  8
참조1
100
AcDbLine
 10
77.82153940838579
 20
7.441074928723896
 30
0.0
 11
77.82153940838579
 21
-7.438925071276109
 31
0.0
  0
LINE
  5
125
330
1F
100
AcDbEntity
  8
참조1
100
AcDbLine
 10
90.52153940838579
 20
5.441074928723896
 30
0.0
 11
77.82153940838579
 21
5.441074928723896
 31
0.0
  0
SOLID
  5
126
330
1F
100
AcDbEntity
  8
참조1
100
AcDbTrace
 10
77.82153940838579
 20
5.441074928723896
 30
0.0
 11
84.17153940838578
 21
4.425074928723896
 31
0.0
 12
84.17153940838578
 22
6.457074928723896
 32
0.0
 13
84.17153940838578
 23
6.457074928723896
 33
0.0
  0
LINE
  5
127
330
1F
100
AcDbEntity
  8
참조1
100
AcDbLine
 10
90.52153940838579
 20
-5.438925071276109
 30
0.0
 11
77.82153940838579
 21
-5.438925071276109
 31
0.0
  0
SOLID
  5
128
330
1F
100
AcDbEntity
  8
참조1
100
AcDbTrace
 10
77.82153940838579
 20
-5.438925071276109
 30
0.0
 11
84.17153940838578
 21
-6.454925071276109
 31
0.0
 12
84.17153940838578
 22
-4.422925071276109
 32
0.0
 13
84.17153940838578
 23
-4.422925071276109
 33
0.0
  0
MTEXT
  5
129
330
1F
100
AcDbEntity
  8
참조1
100
AcDbMText
 10
87.20588954101179
 20
11.01136670591222
 30
0.0
 40
3.5
 41
0.0
 71
     1
 72
     1
  1
A
  7
SLDTEXTSTYLE0
 73
     1
 44
1.0
  0
MTEXT
  5
12A
330
1F
100
AcDbEntity
  8
참조1
100
AcDbMText
 10
87.20588954101179
 20
0.1313667059122192
 30
0.0
 40
3.5
 41
0.0
 71
     1
 72
     1
  1
A
  7
SLDTEXTSTYLE0
 73
     1
 44
1.0
  0
INSERT
  5
131
330
1F
100
AcDbEntity
  8
해칭선
100
AcDbBlockReference
  2
SW_DOWELSYMBOL_0
 10
0.0
 20
0.0
 30
0.0
  0
ENDSEC
  0
SECTION
  2
OBJECTS
  0
DICTIONARY
  5
C
330
0
100
AcDbDictionary
281
     1
  3
ACAD_GROUP
350
D
  3
ACAD_IMAGE_VARS
350
155
  3
ACAD_LAYOUT
350
1A
  3
ACAD_MLINESTYLE
350
17
  3
ACAD_PLOTSETTINGS
350
19
  3
ACAD_PLOTSTYLENAME
350
E
  3
ACAD_SCALELIST
350
47
  3
APPDATA
350
153
  3
DWGPROPS
350
2CB
  0
DICTIONARY
  5
20F
330
2
100
AcDbDictionary
280
     1
281
     1
  3
ACAD_LAYERSTATES
360
210
  0
DICTIONARY
  5
D
102
{ACAD_REACTORS
330
C
102
}
330
C
100
AcDbDictionary
281
     1
  0
RASTERVARIABLES
  5
155
102
{ACAD_REACTORS
330
C
102
}
330
C
100
AcDbRasterVariables
 90
        0
 70
     1
 71
     1
 72
     1
  0
DICTIONARY
  5
1A
102
{ACAD_REACTORS
330
C
102
}
330
C
100
AcDbDictionary
281
     1
  3
Layout1
350
1E
  3
Layout2
350
26
  3
Model
350
22
  0
DICTIONARY
  5
17
102
{ACAD_REACTORS
330
C
102
}
330
C
100
AcDbDictionary
281
     1
  3
Standard
350
18
  0
DICTIONARY
  5
19
102
{ACAD_REACTORS
330
C
102
}
330
C
100
AcDbDictionary
281
     1
  0
ACDBDICTIONARYWDFLT
  5
E
102
{ACAD_REACTORS
330
C
102
}
330
C
100
AcDbDictionary
281
     1
  3
Normal
350
F
100
AcDbDictionaryWithDefault
340
F
  0
DICTIONARY
  5
47
102
{ACAD_REACTORS
330
C
102
}
330
C
100
AcDbDictionary
281
     1
  3
A0
350
48
  3
A1
350
49
  3
A2
350
4A
  3
A3
350
4B
  3
A4
350
4C
  3
A5
350
4D
  3
A6
350
4E
  3
A7
350
4F
  3
A8
350
50
  3
A9
350
51
  3
B0
350
52
  3
B1
350
53
  3
B2
350
54
  3
B3
350
55
  3
B4
350
56
  3
B5
350
57
  3
B6
350
58
  3
B7
350
59
  3
B8
350
5A
  3
B9
350
5B
  3
C0
350
5C
  3
C1
350
5D
  3
C2
350
5E
  3
C3
350
5F
  3
C4
350
60
  3
C5
350
61
  3
C6
350
62
  3
C7
350
63
  3
C8
350
64
  3
C9
350
65
  3
D0
350
66
  3
D1
350
67
  3
D2
350
68
  0
DICTIONARY
  5
153
102
{ACAD_REACTORS
330
C
102
}
330
C
100
AcDbDictionary
281
     1
  0
XRECORD
  5
2CB
102
{ACAD_REACTORS
330
C
102
}
330
C
100
AcDbXrecord
280
     1
  1
DWGPROPS COOKIE
  2

  3

  4

  6

  7

  8
12014074
  9

300
=
301
=
302
=
303
=
304
=
305
=
306
=
307
=
308
=
309
=
 40
0.0
 41
2458311.12257228
 42
2458324.208640197
  1

 90
        0
  0
DICTIONARY
  5
210
102
{ACAD_REACTORS
330
20F
102
}
330
20F
100
AcDbDictionary
281
     1
  0
LAYOUT
  5
1E
102
{ACAD_REACTORS
330
1A
102
}
330
1A
100
AcDbPlotSettings
  1

  2
none_device
  4

  6

 40
0.0
 41
0.0
 42
0.0
 43
0.0
 44
0.0
 45
0.0
 46
0.0
 47
0.0
 48
0.0
 49
0.0
140
0.0
141
0.0
142
1.0
143
1.0
 70
   688
 72
     1
 73
     0
 74
     5
  7

 75
    16
147
1.0
148
0.0
149
0.0
100
AcDbLayout
  1
Layout1
 70
     1
 71
     1
 10
0.0
 20
0.0
 11
420.0
 21
297.0
 12
0.0
 22
0.0
 32
0.0
 14
1.000000000000000E+20
 24
1.000000000000000E+20
 34
1.000000000000000E+20
 15
-1.000000000000000E+20
 25
-1.000000000000000E+20
 35
-1.000000000000000E+20
146
0.0
 13
0.0
 23
0.0
 33
0.0
 16
1.0
 26
0.0
 36
0.0
 17
0.0
 27
1.0
 37
0.0
 76
     0
330
1B
  0
LAYOUT
  5
26
102
{ACAD_REACTORS
330
1A
102
}
330
1A
100
AcDbPlotSettings
  1

  2
none_device
  4

  6

 40
0.0
 41
0.0
 42
0.0
 43
0.0
 44
0.0
 45
0.0
 46
0.0
 47
0.0
 48
0.0
 49
0.0
140
0.0
141
0.0
142
1.0
143
1.0
 70
   688
 72
     1
 73
     0
 74
     5
  7

 75
    16
147
1.0
148
0.0
149
0.0
100
AcDbLayout
  1
Layout2
 70
     1
 71
     2
 10
0.0
 20
0.0
 11
0.0
 21
0.0
 12
0.0
 22
0.0
 32
0.0
 14
0.0
 24
0.0
 34
0.0
 15
0.0
 25
0.0
 35
0.0
146
0.0
 13
0.0
 23
0.0
 33
0.0
 16
1.0
 26
0.0
 36
0.0
 17
0.0
 27
1.0
 37
0.0
 76
     0
330
23
  0
LAYOUT
  5
22
102
{ACAD_REACTORS
330
1A
102
}
330
1A
100
AcDbPlotSettings
  1

  2
none_device
  4
ANSI_A_(11.00_x_8.50_Inches)
  6

 40
6.35
 41
19.05
 42
6.35000508
 43
19.05000254
 44
279.4
 45
215.9
 46
89.22779053747516
 47
95.33104771989528
 48
0.0
 49
0.0
140
0.0
141
0.0
142
0.0793412795194244
143
1.0
 70
  1696
 72
     0
 73
     0
 74
     0
  7

 75
     0
147
0.0235690232323232
148
0.0
149
0.0
100
AcDbLayout
  1
Model
 70
     1
 71
     0
 10
0.0
 20
0.0
 11
420.0
 21
297.0
 12
0.0
 22
0.0
 32
0.0
 14
1.000000000000000E+20
 24
1.000000000000000E+20
 34
1.000000000000000E+20
 15
-1.000000000000000E+20
 25
-1.000000000000000E+20
 35
-1.000000000000000E+20
146
0.0
 13
0.0
 23
0.0
 33
0.0
 16
1.0
 26
0.0
 36
0.0
 17
0.0
 27
1.0
 37
0.0
 76
     0
330
1F
331
29
  0
MLINESTYLE
  5
18
102
{ACAD_REACTORS
330
17
102
}
330
17
100
AcDbMlineStyle
  2
Standard
 70
     0
  3

 62
   256
 51
90.0
 52
90.0
 71
     2
 49
0.5
 62
   256
  6
BYLAYER
 49
-0.5
 62
   256
  6
BYLAYER
  0
ACDBPLACEHOLDER
  5
F
102
{ACAD_REACTORS
330
E
102
}
330
E
  0
SCALE
  5
48
102
{ACAD_REACTORS
330
47
102
}
330
47
100
AcDbScale
 70
     0
300
1:1
140
1.0
141
1.0
290
     1
  0
SCALE
  5
49
102
{ACAD_REACTORS
330
47
102
}
330
47
100
AcDbScale
 70
     0
300
1:2
140
1.0
141
2.0
290
     0
  0
SCALE
  5
4A
102
{ACAD_REACTORS
330
47
102
}
330
47
100
AcDbScale
 70
     0
300
1:4
140
1.0
141
4.0
290
     0
  0
SCALE
  5
4B
102
{ACAD_REACTORS
330
47
102
}
330
47
100
AcDbScale
 70
     0
300
1:5
140
1.0
141
5.0
290
     0
  0
SCALE
  5
4C
102
{ACAD_REACTORS
330
47
102
}
330
47
100
AcDbScale
 70
     0
300
1:8
140
1.0
141
8.0
290
     0
  0
SCALE
  5
4D
102
{ACAD_REACTORS
330
47
102
}
330
47
100
AcDbScale
 70
     0
300
1:10
140
1.0
141
10.0
290
     0
  0
SCALE
  5
4E
102
{ACAD_REACTORS
330
47
102
}
330
47
100
AcDbScale
 70
     0
300
1:16
140
1.0
141
16.0
290
     0
  0
SCALE
  5
4F
102
{ACAD_REACTORS
330
47
102
}
330
47
100
AcDbScale
 70
     0
300
1:20
140
1.0
141
20.0
290
     0
  0
SCALE
  5
50
102
{ACAD_REACTORS
330
47
102
}
330
47
100
AcDbScale
 70
     0
300
1:30
140
1.0
141
30.0
290
     0
  0
SCALE
  5
51
102
{ACAD_REACTORS
330
47
102
}
330
47
100
AcDbScale
 70
     0
300
1:40
140
1.0
141
40.0
290
     0
  0
SCALE
  5
52
102
{ACAD_REACTORS
330
47
102
}
330
47
100
AcDbScale
 70
     0
300
1:50
140
1.0
141
50.0
290
     0
  0
SCALE
  5
53
102
{ACAD_REACTORS
330
47
102
}
330
47
100
AcDbScale
 70
     0
300
1:100
140
1.0
141
100.0
290
     0
  0
SCALE
  5
54
102
{ACAD_REACTORS
330
47
102
}
330
47
100
AcDbScale
 70
     0
300
2:1
140
2.0
141
1.0
290
     0
  0
SCALE
  5
55
102
{ACAD_REACTORS
330
47
102
}
330
47
100
AcDbScale
 70
     0
300
4:1
140
4.0
141
1.0
290
     0
  0
SCALE
  5
56
102
{ACAD_REACTORS
330
47
102
}
330
47
100
AcDbScale
 70
     0
300
8:1
140
8.0
141
1.0
290
     0
  0
SCALE
  5
57
102
{ACAD_REACTORS
330
47
102
}
330
47
100
AcDbScale
 70
     0
300
10:1
140
10.0
141
1.0
290
     0
  0
SCALE
  5
58
102
{ACAD_REACTORS
330
47
102
}
330
47
100
AcDbScale
 70
     0
300
100:1
140
100.0
141
1.0
290
     0
  0
SCALE
  5
59
102
{ACAD_REACTORS
330
47
102
}
330
47
100
AcDbScale
 70
     0
300
1/128" = 1'-0"
140
0.0078125
141
12.0
290
     0
  0
SCALE
  5
5A
102
{ACAD_REACTORS
330
47
102
}
330
47
100
AcDbScale
 70
     0
300
1/64" = 1'-0"
140
0.015625
141
12.0
290
     0
  0
SCALE
  5
5B
102
{ACAD_REACTORS
330
47
102
}
330
47
100
AcDbScale
 70
     0
300
1/32" = 1'-0"
140
0.03125
141
12.0
290
     0
  0
SCALE
  5
5C
102
{ACAD_REACTORS
330
47
102
}
330
47
100
AcDbScale
 70
     0
300
1/16" = 1'-0"
140
0.0625
141
12.0
290
     0
  0
SCALE
  5
5D
102
{ACAD_REACTORS
330
47
102
}
330
47
100
AcDbScale
 70
     0
300
3/32" = 1'-0"
140
0.09375
141
12.0
290
     0
  0
SCALE
  5
5E
102
{ACAD_REACTORS
330
47
102
}
330
47
100
AcDbScale
 70
     0
300
1/8" = 1'-0"
140
0.125
141
12.0
290
     0
  0
SCALE
  5
5F
102
{ACAD_REACTORS
330
47
102
}
330
47
100
AcDbScale
 70
     0
300
3/16" = 1'-0"
140
0.1875
141
12.0
290
     0
  0
SCALE
  5
60
102
{ACAD_REACTORS
330
47
102
}
330
47
100
AcDbScale
 70
     0
300
1/4" = 1'-0"
140
0.25
141
12.0
290
     0
  0
SCALE
  5
61
102
{ACAD_REACTORS
330
47
102
}
330
47
100
AcDbScale
 70
     0
300
3/8" = 1'-0"
140
0.375
141
12.0
290
     0
  0
SCALE
  5
62
102
{ACAD_REACTORS
330
47
102
}
330
47
100
AcDbScale
 70
     0
300
1/2" = 1'-0"
140
0.5
141
12.0
290
     0
  0
SCALE
  5
63
102
{ACAD_REACTORS
330
47
102
}
330
47
100
AcDbScale
 70
     0
300
3/4" = 1'-0"
140
0.75
141
12.0
290
     0
  0
SCALE
  5
64
102
{ACAD_REACTORS
330
47
102
}
330
47
100
AcDbScale
 70
     0
300
1" = 1'-0"
140
1.0
141
12.0
290
     0
  0
SCALE
  5
65
102
{ACAD_REACTORS
330
47
102
}
330
47
100
AcDbScale
 70
     0
300
1-1/2" = 1'-0"
140
1.5
141
12.0
290
     0
  0
SCALE
  5
66
102
{ACAD_REACTORS
330
47
102
}
330
47
100
AcDbScale
 70
     0
300
3" = 1'-0"
140
3.0
141
12.0
290
     0
  0
SCALE
  5
67
102
{ACAD_REACTORS
330
47
102
}
330
47
100
AcDbScale
 70
     0
300
6" = 1'-0"
140
6.0
141
12.0
290
     0
  0
SCALE
  5
68
102
{ACAD_REACTORS
330
47
102
}
330
47
100
AcDbScale
 70
     0
300
1'-0" = 1'-0"
140
12.0
141
12.0
290
     0
  0
ENDSEC
  0
EOF
