  0
SECTION
  2
HEADER
  9
$ACADVER
  1
AC1015
  9
$ACADMAINTVER
 70
     6
  9
$DWGCODEPAGE
  3
ANSI_949
  9
$INSBASE
 10
0.0
 20
0.0
 30
0.0
  9
$EXTMIN
 10
1.000000000000000E+20
 20
1.000000000000000E+20
 30
1.000000000000000E+20
  9
$EXTMAX
 10
-1.000000000000000E+20
 20
-1.000000000000000E+20
 30
-1.000000000000000E+20
  9
$LIMMIN
 10
0.0
 20
0.0
  9
$LIMMAX
 10
420.0
 20
297.0
  9
$ORTHOMODE
 70
     1
  9
$REGENMODE
 70
     1
  9
$FILLMODE
 70
     1
  9
$QTEXTMODE
 70
     0
  9
$MIRRTEXT
 70
     1
  9
$LTSCALE
 40
1.0
  9
$ATTMODE
 70
     1
  9
$TEXTSIZE
 40
3.5
  9
$TRACEWID
 40
1.0
  9
$TEXTSTYLE
  7
Standard
  9
$CLAYER
  8
0
  9
$CELTYPE
  6
ByLayer
  9
$CECOLOR
 62
   256
  9
$CELTSCALE
 40
1.0
  9
$DISPSILH
 70
     0
  9
$DIMSCALE
 40
1.0
  9
$DIMASZ
 40
3.302
  9
$DIMEXO
 40
1.0
  9
$DIMDLI
 40
3.75
  9
$DIMRND
 40
0.0
  9
$DIMDLE
 40
0.0
  9
$DIMEXE
 40
1.0
  9
$DIMTP
 40
0.0
  9
$DIMTM
 40
0.0
  9
$DIMTXT
 40
3.5
  9
$DIMCEN
 40
2.5
  9
$DIMTSZ
 40
0.0
  9
$DIMTOL
 70
     0
  9
$DIMLIM
 70
     0
  9
$DIMTIH
 70
     1
  9
$DIMTOH
 70
     1
  9
$DIMSE1
 70
     0
  9
$DIMSE2
 70
     0
  9
$DIMTAD
 70
     1
  9
$DIMZIN
 70
     0
  9
$DIMBLK
  1

  9
$DIMASO
 70
     1
  9
$DIMSHO
 70
     1
  9
$DIMPOST
  1

  9
$DIMAPOST
  1

  9
$DIMALT
 70
     0
  9
$DIMALTD
 70
     3
  9
$DIMALTF
 40
0.0393700787401575
  9
$DIMLFAC
 40
1.0
  9
$DIMTOFL
 70
     1
  9
$DIMTVP
 40
0.0
  9
$DIMTIX
 70
     0
  9
$DIMSOXD
 70
     0
  9
$DIMSAH
 70
     0
  9
$DIMBLK1
  1

  9
$DIMBLK2
  1

  9
$DIMSTYLE
  2
ISO-25
  9
$DIMCLRD
 70
     0
  9
$DIMCLRE
 70
     0
  9
$DIMCLRT
 70
     0
  9
$DIMTFAC
 40
1.0
  9
$DIMGAP
 40
1.524
  9
$DIMJUST
 70
     0
  9
$DIMSD1
 70
     0
  9
$DIMSD2
 70
     0
  9
$DIMTOLJ
 70
     0
  9
$DIMTZIN
 70
     0
  9
$DIMALTZ
 70
     0
  9
$DIMALTTZ
 70
     0
  9
$DIMUPT
 70
     0
  9
$DIMDEC
 70
     2
  9
$DIMTDEC
 70
     2
  9
$DIMALTU
 70
     2
  9
$DIMALTTD
 70
     3
  9
$DIMTXSTY
  7
Standard
  9
$DIMAUNIT
 70
     0
  9
$DIMADEC
 70
     2
  9
$DIMALTRND
 40
0.0
  9
$DIMAZIN
 70
     0
  9
$DIMDSEP
 70
    44
  9
$DIMATFIT
 70
     3
  9
$DIMFRAC
 70
     0
  9
$DIMLDRBLK
  1

  9
$DIMLUNIT
 70
     2
  9
$DIMLWD
 70
    -2
  9
$DIMLWE
 70
    -2
  9
$DIMTMOVE
 70
     0
  9
$LUNITS
 70
     2
  9
$LUPREC
 70
     2
  9
$SKETCHINC
 40
1.0
  9
$FILLETRAD
 40
10.0
  9
$AUNITS
 70
     0
  9
$AUPREC
 70
     2
  9
$MENU
  1
.
  9
$ELEVATION
 40
0.0
  9
$PELEVATION
 40
0.0
  9
$THICKNESS
 40
0.0
  9
$LIMCHECK
 70
     0
  9
$CHAMFERA
 40
0.0
  9
$CHAMFERB
 40
0.0
  9
$CHAMFERC
 40
0.0
  9
$CHAMFERD
 40
0.0
  9
$SKPOLY
 70
     0
  9
$TDCREATE
 40
2458311.498842847
  9
$TDUCREATE
 40
2458311.123842847
  9
$TDUPDATE
 40
2458324.58971934
  9
$TDUUPDATE
 40
2458324.21471934
  9
$TDINDWG
 40
0.0009642708
  9
$TDUSRTIMER
 40
2458324.213755266
  9
$USRTIMER
 70
     1
  9
$ANGBASE
 50
0.0
  9
$ANGDIR
 70
     0
  9
$PDMODE
 70
     0
  9
$PDSIZE
 40
-1.0
  9
$PLINEWID
 40
0.0
  9
$SPLFRAME
 70
     0
  9
$SPLINETYPE
 70
     6
  9
$SPLINESEGS
 70
     8
  9
$HANDSEED
  5
2CA
  9
$SURFTAB1
 70
     6
  9
$SURFTAB2
 70
     6
  9
$SURFTYPE
 70
     6
  9
$SURFU
 70
     6
  9
$SURFV
 70
     6
  9
$UCSBASE
  2

  9
$UCSNAME
  2

  9
$UCSORG
 10
0.0
 20
0.0
 30
0.0
  9
$UCSXDIR
 10
1.0
 20
0.0
 30
0.0
  9
$UCSYDIR
 10
0.0
 20
1.0
 30
0.0
  9
$UCSORTHOREF
  2

  9
$UCSORTHOVIEW
 70
     0
  9
$UCSORGTOP
 10
0.0
 20
0.0
 30
0.0
  9
$UCSORGBOTTOM
 10
0.0
 20
0.0
 30
0.0
  9
$UCSORGLEFT
 10
0.0
 20
0.0
 30
0.0
  9
$UCSORGRIGHT
 10
0.0
 20
0.0
 30
0.0
  9
$UCSORGFRONT
 10
0.0
 20
0.0
 30
0.0
  9
$UCSORGBACK
 10
0.0
 20
0.0
 30
0.0
  9
$PUCSBASE
  2

  9
$PUCSNAME
  2

  9
$PUCSORG
 10
0.0
 20
0.0
 30
0.0
  9
$PUCSXDIR
 10
1.0
 20
0.0
 30
0.0
  9
$PUCSYDIR
 10
0.0
 20
1.0
 30
0.0
  9
$PUCSORTHOREF
  2

  9
$PUCSORTHOVIEW
 70
     0
  9
$PUCSORGTOP
 10
0.0
 20
0.0
 30
0.0
  9
$PUCSORGBOTTOM
 10
0.0
 20
0.0
 30
0.0
  9
$PUCSORGLEFT
 10
0.0
 20
0.0
 30
0.0
  9
$PUCSORGRIGHT
 10
0.0
 20
0.0
 30
0.0
  9
$PUCSORGFRONT
 10
0.0
 20
0.0
 30
0.0
  9
$PUCSORGBACK
 10
0.0
 20
0.0
 30
0.0
  9
$USERI1
 70
     0
  9
$USERI2
 70
     0
  9
$USERI3
 70
     0
  9
$USERI4
 70
     0
  9
$USERI5
 70
     0
  9
$USERR1
 40
0.0
  9
$USERR2
 40
0.0
  9
$USERR3
 40
0.0
  9
$USERR4
 40
0.0
  9
$USERR5
 40
0.0
  9
$WORLDVIEW
 70
     1
  9
$SHADEDGE
 70
     3
  9
$SHADEDIF
 70
    70
  9
$TILEMODE
 70
     1
  9
$MAXACTVP
 70
    64
  9
$PINSBASE
 10
0.0
 20
0.0
 30
0.0
  9
$PLIMCHECK
 70
     0
  9
$PEXTMIN
 10
1.000000000000000E+20
 20
1.000000000000000E+20
 30
1.000000000000000E+20
  9
$PEXTMAX
 10
-1.000000000000000E+20
 20
-1.000000000000000E+20
 30
-1.000000000000000E+20
  9
$PLIMMIN
 10
0.0
 20
0.0
  9
$PLIMMAX
 10
0.0
 20
0.0
  9
$UNITMODE
 70
     0
  9
$VISRETAIN
 70
     1
  9
$PLINEGEN
 70
     0
  9
$PSLTSCALE
 70
     1
  9
$TREEDEPTH
 70
  3020
  9
$CMLSTYLE
  2
Standard
  9
$CMLJUST
 70
     0
  9
$CMLSCALE
 40
20.0
  9
$PROXYGRAPHICS
 70
     1
  9
$MEASUREMENT
 70
     1
  9
$CELWEIGHT
370
    -1
  9
$ENDCAPS
280
     0
  9
$JOINSTYLE
280
     0
  9
$LWDISPLAY
290
     1
  9
$INSUNITS
 70
     4
  9
$HYPERLINKBASE
  1

  9
$STYLESHEET
  1

  9
$XEDIT
290
     1
  9
$CEPSNTYPE
380
     0
  9
$PSTYLEMODE
290
     1
  9
$FINGERPRINTGUID
  2
{FEB3E5A4-A6A9-40E3-B1F9-9E66716EF8EB}
  9
$VERSIONGUID
  2
{FAEB1C32-E019-11D5-929B-00C0DF256EC4}
  9
$EXTNAMES
290
     1
  9
$PSVPSCALE
 40
0.0
  9
$OLESTARTUP
290
     0
  0
ENDSEC
  0
SECTION
  2
CLASSES
  0
CLASS
  1
ACDBDICTIONARYWDFLT
  2
AcDbDictionaryWithDefault
  3
ObjectDBX Classes
 90
        0
280
     0
281
     0
  0
CLASS
  1
VISUALSTYLE
  2
AcDbVisualStyle
  3
ObjectDBX Classes
 90
     4095
280
     0
281
     0
  0
CLASS
  1
MATERIAL
  2
AcDbMaterial
  3
ObjectDBX Classes
 90
     1153
280
     0
281
     0
  0
CLASS
  1
SCALE
  2
AcDbScale
  3
ObjectDBX Classes
 90
     1153
280
     0
281
     0
  0
CLASS
  1
SUN
  2
AcDbSun
  3
SCENEOE
 90
     1153
280
     0
281
     0
  0
CLASS
  1
ACDBPLACEHOLDER
  2
AcDbPlaceHolder
  3
ObjectDBX Classes
 90
        0
280
     0
281
     0
  0
CLASS
  1
LAYOUT
  2
AcDbLayout
  3
ObjectDBX Classes
 90
        0
280
     0
281
     0
  0
CLASS
  1
TABLESTYLE
  2
AcDbTableStyle
  3
ObjectDBX Classes
 90
     4095
280
     0
281
     0
  0
CLASS
  1
MLEADERSTYLE
  2
AcDbMLeaderStyle
  3
ACDB_MLEADERSTYLE_CLASS
 90
     4095
280
     0
281
     0
  0
CLASS
  1
RASTERVARIABLES
  2
AcDbRasterVariables
  3
ISM
 90
        0
280
     0
281
     0
  0
ENDSEC
  0
SECTION
  2
TABLES
  0
TABLE
  2
VPORT
  5
8
330
0
100
AcDbSymbolTable
 70
     1
  0
VPORT
  5
29
330
8
100
AcDbSymbolTableRecord
100
AcDbViewportTableRecord
  2
*Active
 70
     0
 10
0.0
 20
0.0
 11
1.0
 21
1.0
 12
-0.3730546493076616
 22
8.139118373410575
 13
0.0
 23
0.0
 14
10.0
 24
10.0
 15
10.0
 25
10.0
 16
0.0
 26
0.0
 36
1.0
 17
0.0
 27
0.0
 37
0.0
 40
121.683097486612
 41
1.970186335403727
 42
50.0
 43
0.0
 44
0.0
 50
0.0
 51
0.0
 71
    16
 72
  2000
 73
     1
 74
     3
 75
     0
 76
     0
 77
     0
 78
     0
281
     0
 65
     1
110
0.0
120
0.0
130
0.0
111
1.0
121
0.0
131
0.0
112
0.0
122
1.0
132
0.0
 79
     0
146
0.0
  0
ENDTAB
  0
TABLE
  2
LTYPE
  5
5
330
0
100
AcDbSymbolTable
 70
     6
  0
LTYPE
  5
14
330
5
100
AcDbSymbolTableRecord
100
AcDbLinetypeTableRecord
  2
ByBlock
 70
     0
  3

 72
    65
 73
     0
 40
0.0
  0
LTYPE
  5
15
330
5
100
AcDbSymbolTableRecord
100
AcDbLinetypeTableRecord
  2
ByLayer
 70
     0
  3

 72
    65
 73
     0
 40
0.0
  0
LTYPE
  5
16
330
5
100
AcDbSymbolTableRecord
100
AcDbLinetypeTableRecord
  2
Continuous
 70
     0
  3
Solid line
 72
    65
 73
     0
 40
0.0
  0
LTYPE
  5
6A
330
5
100
AcDbSymbolTableRecord
100
AcDbLinetypeTableRecord
  2
HIDDEN
 70
     0
  3
Hidden __ __ __ __ __ __ __ __ __ __ __ __ __ __
 72
    65
 73
     2
 40
1.905
 49
1.27
 74
     0
 49
-0.635
 74
     0
  0
LTYPE
  5
6B
330
5
100
AcDbSymbolTableRecord
100
AcDbLinetypeTableRecord
  2
PHANTOM
 70
     0
  3
Phantom ______  __  __  ______  __  __  ______
 72
    65
 73
     6
 40
12.7
 49
6.35
 74
     0
 49
-1.27
 74
     0
 49
1.27
 74
     0
 49
-1.27
 74
     0
 49
1.27
 74
     0
 49
-1.27
 74
     0
  0
LTYPE
  5
6C
330
5
100
AcDbSymbolTableRecord
100
AcDbLinetypeTableRecord
  2
CENTER
 70
     0
  3
Center ____ _ ____ _ ____ _ ____ _ ____ _ ____
 72
    65
 73
     4
 40
10.16
 49
6.35
 74
     0
 49
-1.27
 74
     0
 49
1.27
 74
     0
 49
-1.27
 74
     0
  0
LTYPE
  5
6D
330
5
100
AcDbSymbolTableRecord
100
AcDbLinetypeTableRecord
  2
CENTERX2
 70
     0
  3
Center (2x) ________  __  ________  __  _____
 72
    65
 73
     4
 40
20.32
 49
12.7
 74
     0
 49
-2.54
 74
     0
 49
2.54
 74
     0
 49
-2.54
 74
     0
  0
LTYPE
  5
6E
330
5
100
AcDbSymbolTableRecord
100
AcDbLinetypeTableRecord
  2
DOT2
 70
     0
  3
Dot (.5x) ........................................
 72
    65
 73
     2
 40
0.635
 49
0.0
 74
     0
 49
-0.635
 74
     0
  0
ENDTAB
  0
TABLE
  2
LAYER
  5
2
102
{ACAD_XDICTIONARY
360
20F
102
}
330
0
100
AcDbSymbolTable
 70
    18
  0
LAYER
  5
10
330
2
100
AcDbSymbolTableRecord
100
AcDbLayerTableRecord
  2
0
 70
     0
 62
     7
  6
Continuous
370
    -3
390
F
  0
LAYER
  5
6F
330
2
100
AcDbSymbolTableRecord
100
AcDbLayerTableRecord
  2
FORMAT
 70
     0
 62
     2
  6
Continuous
370
    -3
390
F
  0
LAYER
  5
70
330
2
100
AcDbSymbolTableRecord
100
AcDbLayerTableRecord
  2
외형선
 70
     0
 62
     4
  6
Continuous
370
    30
390
F
  0
LAYER
  5
71
330
2
100
AcDbSymbolTableRecord
100
AcDbLayerTableRecord
  2
숨은선
 70
     0
 62
     2
  6
HIDDEN
370
    15
390
F
  0
LAYER
  5
72
330
2
100
AcDbSymbolTableRecord
100
AcDbLayerTableRecord
  2
중심선
 70
     0
 62
     1
  6
CENTERX2
370
    -3
390
F
  0
LAYER
  5
73
330
2
100
AcDbSymbolTableRecord
100
AcDbLayerTableRecord
  2
파단선
 70
     0
 62
     4
  6
Continuous
370
    -3
390
F
  0
LAYER
  5
74
330
2
100
AcDbSymbolTableRecord
100
AcDbLayerTableRecord
  2
해칭선
 70
     0
 62
   100
  6
Continuous
370
    -3
390
F
  0
LAYER
  5
75
330
2
100
AcDbSymbolTableRecord
100
AcDbLayerTableRecord
  2
가는실선
 70
     0
 62
     4
  6
Continuous
370
    -3
390
F
  0
LAYER
  5
76
330
2
100
AcDbSymbolTableRecord
100
AcDbLayerTableRecord
  2
치수_보조선
 70
     0
 62
     4
  6
Continuous
370
    -3
390
F
  0
LAYER
  5
77
330
2
100
AcDbSymbolTableRecord
100
AcDbLayerTableRecord
  2
치수문자_일반주서
 70
     0
 62
     7
  6
Continuous
370
    15
390
F
  0
LAYER
  5
78
330
2
100
AcDbSymbolTableRecord
100
AcDbLayerTableRecord
  2
개별주서
 70
     0
 62
   100
  6
Continuous
370
    30
390
F
  0
LAYER
  5
79
330
2
100
AcDbSymbolTableRecord
100
AcDbLayerTableRecord
  2
중간선
 70
     0
 62
     2
  6
Continuous
370
    15
390
F
  0
LAYER
  5
7A
330
2
100
AcDbSymbolTableRecord
100
AcDbLayerTableRecord
  2
윤곽선
 70
     0
 62
     3
  6
Continuous
370
    40
390
F
  0
LAYER
  5
7B
330
2
100
AcDbSymbolTableRecord
100
AcDbLayerTableRecord
  2
중심마크
 70
     0
 62
   100
  6
Continuous
370
    30
390
F
  0
LAYER
  5
7C
330
2
100
AcDbSymbolTableRecord
100
AcDbLayerTableRecord
  2
가상선
 70
     0
 62
     4
  6
PHANTOM
370
    -3
390
F
  0
LAYER
  5
7D
330
2
100
AcDbSymbolTableRecord
100
AcDbLayerTableRecord
  2
특수지정선
 70
     0
 62
     5
  6
CENTERX2
370
    60
390
F
  0
LAYER
  5
7E
330
2
100
AcDbSymbolTableRecord
100
AcDbLayerTableRecord
  2
참조1
 70
     0
 62
    -4
  6
Continuous
370
    -3
390
F
  0
LAYER
  5
157
330
2
100
AcDbSymbolTableRecord
100
AcDbLayerTableRecord
  2
Defpoints
 70
     0
 62
     7
  6
Continuous
290
     0
370
    -3
390
F
  0
ENDTAB
  0
TABLE
  2
STYLE
  5
3
330
0
100
AcDbSymbolTable
 70
     2
  0
STYLE
  5
11
330
3
100
AcDbSymbolTableRecord
100
AcDbTextStyleTableRecord
  2
Standard
 70
     0
 40
0.0
 41
1.0
 50
0.0
 71
     0
 42
3.5
  3
txt
  4

  0
STYLE
  5
94
330
3
100
AcDbSymbolTableRecord
100
AcDbTextStyleTableRecord
  2
SLDTEXTSTYLE0
 70
     0
 40
0.0
 41
0.75
 50
0.0
 71
     0
 42
3.5
  3
TXT
  4

  0
ENDTAB
  0
TABLE
  2
VIEW
  5
6
330
0
100
AcDbSymbolTable
 70
     0
  0
ENDTAB
  0
TABLE
  2
UCS
  5
7
330
0
100
AcDbSymbolTable
 70
     0
  0
ENDTAB
  0
TABLE
  2
APPID
  5
9
330
0
100
AcDbSymbolTable
 70
     3
  0
APPID
  5
12
330
9
100
AcDbSymbolTableRecord
100
AcDbRegAppTableRecord
  2
ACAD
 70
     0
  0
APPID
  5
161
330
9
100
AcDbSymbolTableRecord
100
AcDbRegAppTableRecord
  2
PE_URL
 70
     0
  0
APPID
  5
162
330
9
100
AcDbSymbolTableRecord
100
AcDbRegAppTableRecord
  2
ACAD_DSTYLE_DIMRADIAL_EXTENSION
 70
     0
  0
ENDTAB
  0
TABLE
  2
DIMSTYLE
  5
A
330
0
100
AcDbSymbolTable
 70
     4
100
AcDbDimStyleTable
  0
DIMSTYLE
105
27
330
A
100
AcDbSymbolTableRecord
100
AcDbDimStyleTableRecord
  2
ISO-25
 70
     0
 41
2.5
 42
0.625
 43
3.75
 44
1.25
 73
     0
 74
     0
 77
     1
 78
     8
140
2.5
141
2.5
143
0.03937007874016
147
0.625
171
     3
172
     1
178
     0
271
     2
272
     2
274
     3
278
    44
283
     0
284
     8
340
11
  0
DIMSTYLE
105
D4
330
A
100
AcDbSymbolTableRecord
100
AcDbDimStyleTableRecord
  2
SLDDIMSTYLE0
 70
     0
 41
3.302
 44
0.0
 45
0.000000001
 73
     0
 74
     0
 77
     1
 78
    12
 79
     3
140
3.5
143
0.0393700787401575
147
0.875
148
0.000000001
170
     1
172
     1
173
     1
178
     0
271
     2
272
     2
276
     2
284
    12
289
     0
340
94
  0
DIMSTYLE
105
E9
330
A
100
AcDbSymbolTableRecord
100
AcDbDimStyleTableRecord
  2
SLDDIMSTYLE1
 70
     0
 41
3.302
 44
0.0
 45
0.000000001
 73
     0
 74
     0
 77
     1
 78
     4
 79
     1
140
3.5
143
0.0393700787401575
147
0.875
148
0.000000001
170
     1
173
     1
178
     0
271
     2
272
     2
276
     2
284
    12
340
94
  0
DIMSTYLE
105
111
102
{ACAD_REACTORS
330
110
330
1C1
330
1CE
330
1DB
330
1F5
330
200
330
D3
330
E8
330
FD
102
}
330
A
100
AcDbSymbolTableRecord
100
AcDbDimStyleTableRecord
  2
SLDDIMSTYLE2
 70
     0
 41
3.302
 44
0.0
 45
0.000000001
 73
     0
 74
     0
 77
     1
 78
    12
 79
     3
140
3.5
143
0.0393700787401575
147
0.875
148
0.000000001
170
     1
173
     1
178
     0
271
     2
272
     2
276
     2
284
    12
340
94
  0
ENDTAB
  0
TABLE
  2
BLOCK_RECORD
  5
1
330
0
100
AcDbSymbolTable
 70
    18
  0
BLOCK_RECORD
  5
1F
330
1
100
AcDbSymbolTableRecord
100
AcDbBlockTableRecord
  2
*Model_Space
340
22
  0
BLOCK_RECORD
  5
1B
330
1
100
AcDbSymbolTableRecord
100
AcDbBlockTableRecord
  2
*Paper_Space
340
1E
  0
BLOCK_RECORD
  5
23
330
1
100
AcDbSymbolTableRecord
100
AcDbBlockTableRecord
  2
*Paper_Space0
340
26
  0
BLOCK_RECORD
  5
7F
330
1
100
AcDbSymbolTableRecord
100
AcDbBlockTableRecord
  2
블럭10
340
0
102
{BLKREFS
331
CC
102
}
  0
BLOCK_RECORD
  5
D5
330
1
100
AcDbSymbolTableRecord
100
AcDbBlockTableRecord
  2
_D
340
0
  0
BLOCK_RECORD
  5
EA
330
1
100
AcDbSymbolTableRecord
100
AcDbBlockTableRecord
  2
_D_1
340
0
  0
BLOCK_RECORD
  5
FE
330
1
100
AcDbSymbolTableRecord
100
AcDbBlockTableRecord
  2
_D_2
340
0
  0
BLOCK_RECORD
  5
112
330
1
100
AcDbSymbolTableRecord
100
AcDbBlockTableRecord
  2
_D_3
340
0
  0
BLOCK_RECORD
  5
12B
330
1
100
AcDbSymbolTableRecord
100
AcDbBlockTableRecord
  2
SW_DOWELSYMBOL_0
340
0
102
{BLKREFS
331
131
331
1EA
331
0
102
}
  0
BLOCK_RECORD
  5
1F6
330
1
100
AcDbSymbolTableRecord
100
AcDbBlockTableRecord
  2
*D8
340
0
  0
BLOCK_RECORD
  5
201
330
1
100
AcDbSymbolTableRecord
100
AcDbBlockTableRecord
  2
*D9
340
0
  0
BLOCK_RECORD
  5
213
330
1
100
AcDbSymbolTableRecord
100
AcDbBlockTableRecord
  2
*D10
340
0
  0
BLOCK_RECORD
  5
21F
330
1
100
AcDbSymbolTableRecord
100
AcDbBlockTableRecord
  2
*D11
340
0
  0
BLOCK_RECORD
  5
22B
330
1
100
AcDbSymbolTableRecord
100
AcDbBlockTableRecord
  2
*D12
340
0
  0
BLOCK_RECORD
  5
286
330
1
100
AcDbSymbolTableRecord
100
AcDbBlockTableRecord
  2
*D13
340
0
  0
BLOCK_RECORD
  5
292
330
1
100
AcDbSymbolTableRecord
100
AcDbBlockTableRecord
  2
*D14
340
0
  0
BLOCK_RECORD
  5
29E
330
1
100
AcDbSymbolTableRecord
100
AcDbBlockTableRecord
  2
*D15
340
0
  0
BLOCK_RECORD
  5
2AC
330
1
100
AcDbSymbolTableRecord
100
AcDbBlockTableRecord
  2
*D16
340
0
  0
BLOCK_RECORD
  5
2B6
330
1
100
AcDbSymbolTableRecord
100
AcDbBlockTableRecord
  2
*D17
340
0
  0
ENDTAB
  0
ENDSEC
  0
SECTION
  2
BLOCKS
  0
BLOCK
  5
20
330
1F
100
AcDbEntity
  8
0
100
AcDbBlockBegin
  2
*Model_Space
 70
     0
 10
0.0
 20
0.0
 30
0.0
  3
*Model_Space
  1
*Model_Space
  0
ENDBLK
  5
21
330
1F
100
AcDbEntity
  8
0
100
AcDbBlockEnd
  0
BLOCK
  5
1C
330
1B
100
AcDbEntity
 67
     1
  8
0
100
AcDbBlockBegin
  2
*Paper_Space
 70
     0
 10
0.0
 20
0.0
 30
0.0
  3
*Paper_Space
  1
*Paper_Space
  0
ENDBLK
  5
1D
330
1B
100
AcDbEntity
 67
     1
  8
0
100
AcDbBlockEnd
  0
BLOCK
  5
24
330
23
100
AcDbEntity
  8
0
100
AcDbBlockBegin
  2
*Paper_Space0
 70
     0
 10
0.0
 20
0.0
 30
0.0
  3
*Paper_Space0
  1
*Paper_Space0
  0
ENDBLK
  5
25
330
23
100
AcDbEntity
  8
0
100
AcDbBlockEnd
  0
BLOCK
  5
80
330
7F
100
AcDbEntity
  8
0
100
AcDbBlockBegin
  2
블럭10
 70
     2
 10
0.0
 20
0.0
 30
0.0
  3
블럭10
  1
블럭10
  0
ELLIPSE
  5
82
330
7F
100
AcDbEntity
  8
중심선
100
AcDbEllipse
 10
20.54032771741204
 20
12.0471743016438
 30
0.0
 11
6.600054785286829
 21
-1.261213355974178E-13
 31
0.0
210
0.0
220
0.0
230
1.0
 40
0.636358354079598
 41
0.9219305317359503
 42
6.513795318482858
  0
ELLIPSE
  5
83
330
7F
100
AcDbEntity
  8
중심선
100
AcDbEllipse
 10
20.54032771746488
 20
12.04717430159265
 30
0.0
 11
3.960054785062283
 21
1.540847449632565E-10
 31
0.0
210
0.0
220
0.0
230
1.0
 40
0.3939339440162632
 41
1.131841032648279
 42
5.62031148352944
  0
LINE
  5
84
330
7F
100
AcDbEntity
  8
중심선
100
AcDbLine
 10
2.268634060543552
 20
16.24717430164393
 30
0.0
 11
5.714909304380834
 21
16.24717430164393
 31
0.0
  0
LINE
  5
85
330
7F
100
AcDbEntity
  8
중심선
100
AcDbLine
 10
5.245725140726316
 20
7.84717430164391
 30
0.0
 11
8.692000384563599
 21
7.84717430164391
 31
0.0
  0
LINE
  5
86
330
7F
100
AcDbEntity
  8
중심선
100
AcDbLine
 10
15.74043728645272
 20
16.24717430164393
 30
0.0
 11
8.692000384563599
 21
7.84717430164391
 31
0.0
  0
LINE
  5
87
330
7F
100
AcDbEntity
  8
중심선
100
AcDbLine
 10
0.1404042013395286
 20
13.71084872107135
 30
0.0
 11
3.58671253028996
 21
13.71088815037384
 31
0.0
  0
LINE
  5
88
330
7F
100
AcDbEntity
  8
중심선
100
AcDbLine
 10
2.750260043222114
 20
10.84717430164391
 30
0.0
 11
6.196535287059397
 21
10.84717430164391
 31
0.0
  0
LINE
  5
89
330
7F
100
AcDbEntity
  8
중심선
100
AcDbLine
 10
12.29416204261559
 20
16.24717430164393
 30
0.0
 11
5.245725140726316
 21
7.84717430164391
 31
0.0
  0
LINE
  5
8A
330
7F
100
AcDbEntity
  8
중심선
100
AcDbLine
 10
10.72767329541681
 20
16.24717430164393
 30
0.0
 11
6.196535287059397
 21
10.84717430164391
 31
0.0
  0
LINE
  5
8B
330
7F
100
AcDbEntity
  8
중심선
100
AcDbLine
 10
7.28139805157953
 20
16.24717430164393
 30
0.0
 11
2.750260043222114
 21
10.84717430164391
 31
0.0
  0
LINE
  5
8C
330
7F
100
AcDbEntity
  8
중심선
100
AcDbLine
 10
5.714909304380834
 20
16.24717430164393
 30
0.0
 11
3.58671253028996
 21
13.71088815037384
 31
0.0
  0
LINE
  5
8D
330
7F
100
AcDbEntity
  8
중심선
100
AcDbLine
 10
2.268634060543552
 20
16.24717430164393
 30
0.0
 11
0.1404042013395286
 21
13.71084872107135
 31
0.0
  0
LINE
  5
8E
330
7F
100
AcDbEntity
  8
중심선
100
AcDbLine
 10
7.28139805157953
 20
16.24717430164393
 30
0.0
 11
10.72767329541681
 21
16.24717430164393
 31
0.0
  0
LINE
  5
8F
330
7F
100
AcDbEntity
  8
중심선
100
AcDbLine
 10
12.29416204261559
 20
16.24717430164393
 30
0.0
 11
15.74043728645272
 21
16.24717430164393
 31
0.0
  0
LINE
  5
90
330
7F
100
AcDbEntity
  8
중심선
100
AcDbLine
 10
19.22036997980202
 20
11.08717430171403
 30
0.0
 11
23.66174974927406
 21
11.08717430171406
 31
0.0
  0
LINE
  5
91
330
7F
100
AcDbEntity
  8
중심선
100
AcDbLine
 10
19.22039502424796
 20
13.00717430171391
 30
0.0
 11
19.22036997980202
 21
11.08717430171403
 31
0.0
  0
LINE
  5
92
330
7F
100
AcDbEntity
  8
중심선
100
AcDbLine
 10
19.22039502424796
 20
13.00717430171391
 30
0.0
 11
26.96566020931264
 21
13.00717430171391
 31
0.0
  0
LINE
  5
93
330
7F
100
AcDbEntity
  8
중심선
100
AcDbLine
 10
22.22332737316547
 20
13.45928029700563
 30
0.0
 11
24.52862924686651
 21
15.39360700705356
 31
0.0
  0
ATTDEF
  5
95
330
7F
100
AcDbEntity
  8
FORMAT
 62
     2
100
AcDbText
 10
4.408487351596664
 20
2.075366912832191
 30
0.0
 40
4.233333333333333
  1
E5244048
 41
0.75
  7
SLDTEXTSTYLE0
 11
4.408487351596664
 21
-0.0412997538344756
 31
0.0
100
AcDbAttributeDefinition
  3

  2
AUTOATTR0
 70
     0
 74
     1
  0
ENDBLK
  5
81
330
7F
100
AcDbEntity
  8
0
100
AcDbBlockEnd
  0
BLOCK
  5
D6
330
D5
100
AcDbEntity
  8
0
100
AcDbBlockBegin
  2
_D
 70
     0
 10
0.0
 20
0.0
 30
0.0
  3
_D
  1
_D
  0
LINE
  5
D8
330
D5
100
AcDbEntity
  8
치수문자_일반주서
 62
     0
370
    -2
100
AcDbLine
 10
-37.8625
 20
9.525000000000002
 30
0.0
 11
-52.92909427134461
 21
9.524999999999945
 31
0.0
  0
LINE
  5
D9
330
D5
100
AcDbEntity
  8
치수문자_일반주서
 62
     0
370
    -2
100
AcDbLine
 10
-37.8625
 20
-9.52500000000001
 30
0.0
 11
-52.92909427134455
 21
-9.525000000000066
 31
0.0
  0
LINE
  5
DA
330
D5
100
AcDbEntity
  8
치수문자_일반주서
 62
     0
370
    -2
100
AcDbLine
 10
-52.92909427134461
 20
9.524999999999945
 30
0.0
 11
-52.92909427134472
 21
45.02499999999995
 31
0.0
  0
LINE
  5
DB
330
D5
100
AcDbEntity
  8
치수문자_일반주서
 62
     0
370
    -2
100
AcDbLine
 10
-52.9290942713446
 20
5.524999999999945
 30
0.0
 11
-52.92909427134456
 21
-5.525000000000066
 31
0.0
  0
SOLID
  5
DC
330
D5
100
AcDbEntity
  8
치수문자_일반주서
 62
     0
100
AcDbTrace
 10
-52.26242760467793
 20
5.524999999999948
 30
0.0
 11
-53.59576093801126
 21
5.524999999999943
 31
0.0
 12
-52.92909427134461
 22
9.524999999999945
 32
0.0
 13
-52.92909427134461
 23
9.524999999999945
 33
0.0
  0
SOLID
  5
DD
330
D5
100
AcDbEntity
  8
치수문자_일반주서
 62
     0
100
AcDbTrace
 10
-53.59576093801122
 20
-5.525000000000069
 30
0.0
 11
-52.2624276046779
 21
-5.525000000000063
 31
0.0
 12
-52.92909427134455
 22
-9.525000000000066
 32
0.0
 13
-52.92909427134455
 23
-9.525000000000066
 33
0.0
  0
MTEXT
  5
DE
330
D5
100
AcDbEntity
  8
치수문자_일반주서
 62
     0
100
AcDbMText
 10
-57.80409427134467
 20
29.39999999999993
 30
0.0
 40
4.0
 41
0.0
 71
     2
 72
     1
  1
\A1;%%c19.05 [3/4]
  7
SLDTEXTSTYLE0
 11
-3.356894814614645E-15
 21
1.0
 31
0.0
 73
     1
 44
1.0
  0
POINT
  5
DF
330
D5
100
AcDbEntity
  8
Defpoints
 62
     0
100
AcDbPoint
 10
-37.8
 20
9.525000000000002
 30
0.0
  0
POINT
  5
E0
330
D5
100
AcDbEntity
  8
Defpoints
 62
     0
100
AcDbPoint
 10
-37.8
 20
-9.52500000000001
 30
0.0
  0
POINT
  5
2C4
330
D5
100
AcDbEntity
  8
Defpoints
 62
     0
100
AcDbPoint
 10
-52.92909427134455
 20
-9.525000000000066
 30
0.0
  0
ENDBLK
  5
D7
330
D5
100
AcDbEntity
  8
0
100
AcDbBlockEnd
  0
BLOCK
  5
EB
330
EA
100
AcDbEntity
  8
0
100
AcDbBlockBegin
  2
_D_1
 70
     0
 10
0.0
 20
0.0
 30
0.0
  3
_D_1
  1
_D_1
  0
LINE
  5
ED
330
EA
100
AcDbEntity
  8
치수문자_일반주서
 62
     0
370
    -2
100
AcDbLine
 10
37.40000000000001
 20
9.587499999999999
 30
0.0
 11
37.40000000000001
 21
22.69329134588529
 31
0.0
  0
LINE
  5
EE
330
EA
100
AcDbEntity
  8
치수문자_일반주서
 62
     0
370
    -2
100
AcDbLine
 10
12.00000000000001
 20
7.678801880031176
 30
0.0
 11
12.00000000000001
 21
22.69329134588529
 31
0.0
  0
LINE
  5
EF
330
EA
100
AcDbEntity
  8
치수문자_일반주서
 62
     0
370
    -2
100
AcDbLine
 10
33.40000000000001
 20
22.69329134588529
 30
0.0
 11
16.00000000000001
 21
22.69329134588529
 31
0.0
  0
SOLID
  5
F0
330
EA
100
AcDbEntity
  8
치수문자_일반주서
 62
     0
100
AcDbTrace
 10
33.40000000000001
 20
22.02662467921862
 30
0.0
 11
33.40000000000001
 21
23.35995801255196
 31
0.0
 12
37.40000000000001
 22
22.69329134588529
 32
0.0
 13
37.40000000000001
 23
22.69329134588529
 33
0.0
  0
SOLID
  5
F1
330
EA
100
AcDbEntity
  8
치수문자_일반주서
 62
     0
100
AcDbTrace
 10
16.00000000000001
 20
23.35995801255196
 30
0.0
 11
16.00000000000001
 21
22.02662467921862
 31
0.0
 12
12.00000000000001
 22
22.69329134588529
 32
0.0
 13
12.00000000000001
 23
22.69329134588529
 33
0.0
  0
MTEXT
  5
F2
330
EA
100
AcDbEntity
  8
치수문자_일반주서
 62
     0
100
AcDbMText
 10
24.70000000000001
 20
27.56829134588529
 30
0.0
 40
4.0
 41
0.0
 71
     2
 72
     1
  1
\A1;25.4 [1]
  7
SLDTEXTSTYLE0
 73
     1
 44
1.0
  0
POINT
  5
F3
330
EA
100
AcDbEntity
  8
Defpoints
 62
     0
100
AcDbPoint
 10
37.40000000000001
 20
9.524999999999999
 30
0.0
  0
POINT
  5
F4
330
EA
100
AcDbEntity
  8
Defpoints
 62
     0
100
AcDbPoint
 10
12.00000000000001
 20
7.616301880031176
 30
0.0
  0
POINT
  5
F5
330
EA
100
AcDbEntity
  8
Defpoints
 62
     0
100
AcDbPoint
 10
12.00000000000001
 20
22.69329134588529
 30
0.0
  0
ENDBLK
  5
EC
330
EA
100
AcDbEntity
  8
0
100
AcDbBlockEnd
  0
BLOCK
  5
FF
330
FE
100
AcDbEntity
  8
0
100
AcDbBlockBegin
  2
_D_2
 70
     0
 10
0.0
 20
0.0
 30
0.0
  3
_D_2
  1
_D_2
  0
LINE
  5
101
330
FE
100
AcDbEntity
  8
치수문자_일반주서
 62
     0
370
    -2
100
AcDbLine
 10
37.40000000000001
 20
9.587499999999999
 30
0.0
 11
37.40000000000001
 21
39.56419134481795
 31
0.0
  0
LINE
  5
102
330
FE
100
AcDbEntity
  8
치수문자_일반주서
 62
     0
370
    -2
100
AcDbLine
 10
-38.8
 20
8.587499999999991
 30
0.0
 11
-38.8
 21
39.56419134481795
 31
0.0
  0
LINE
  5
103
330
FE
100
AcDbEntity
  8
치수문자_일반주서
 62
     0
370
    -2
100
AcDbLine
 10
33.40000000000001
 20
39.56419134481795
 30
0.0
 11
-34.8
 21
39.56419134481795
 31
0.0
  0
SOLID
  5
104
330
FE
100
AcDbEntity
  8
치수문자_일반주서
 62
     0
100
AcDbTrace
 10
33.40000000000001
 20
38.89752467815129
 30
0.0
 11
33.40000000000001
 21
40.23085801148461
 31
0.0
 12
37.40000000000001
 22
39.56419134481795
 32
0.0
 13
37.40000000000001
 23
39.56419134481795
 33
0.0
  0
SOLID
  5
105
330
FE
100
AcDbEntity
  8
치수문자_일반주서
 62
     0
100
AcDbTrace
 10
-34.8
 20
40.23085801148461
 30
0.0
 11
-34.8
 21
38.89752467815129
 31
0.0
 12
-38.8
 22
39.56419134481795
 32
0.0
 13
-38.8
 23
39.56419134481795
 33
0.0
  0
MTEXT
  5
106
330
FE
100
AcDbEntity
  8
치수문자_일반주서
 62
     0
100
AcDbMText
 10
-0.7000000000000006
 20
44.43919134481795
 30
0.0
 40
4.0
 41
0.0
 71
     2
 72
     1
  1
\A1;76.2 [3]
  7
SLDTEXTSTYLE0
 73
     1
 44
1.0
  0
POINT
  5
107
330
FE
100
AcDbEntity
  8
Defpoints
 62
     0
100
AcDbPoint
 10
37.40000000000001
 20
9.524999999999999
 30
0.0
  0
POINT
  5
108
330
FE
100
AcDbEntity
  8
Defpoints
 62
     0
100
AcDbPoint
 10
-38.8
 20
8.524999999999991
 30
0.0
  0
POINT
  5
109
330
FE
100
AcDbEntity
  8
Defpoints
 62
     0
100
AcDbPoint
 10
-38.8
 20
39.56419134481795
 30
0.0
  0
ENDBLK
  5
100
330
FE
100
AcDbEntity
  8
0
100
AcDbBlockEnd
  0
BLOCK
  5
113
330
112
100
AcDbEntity
  8
0
100
AcDbBlockBegin
  2
_D_3
 70
     0
 10
0.0
 20
0.0
 30
0.0
  3
_D_3
  1
_D_3
  0
LINE
  5
115
330
112
100
AcDbEntity
  8
치수문자_일반주서
 62
     0
370
    -2
100
AcDbLine
 10
37.46250000000003
 20
-9.525000000000002
 30
0.0
 11
55.90547739370002
 21
-9.524999999999928
 31
0.0
  0
LINE
  5
116
330
112
100
AcDbEntity
  8
치수문자_일반주서
 62
     0
370
    -2
100
AcDbLine
 10
37.46250000000001
 20
9.524999999999999
 30
0.0
 11
55.90547739369996
 21
9.525000000000066
 31
0.0
  0
LINE
  5
117
330
112
100
AcDbEntity
  8
치수문자_일반주서
 62
     0
370
    -2
100
AcDbLine
 10
55.90547739369996
 20
9.525000000000066
 30
0.0
 11
55.90547739369985
 21
45.02500000000007
 31
0.0
  0
LINE
  5
118
330
112
100
AcDbEntity
  8
치수문자_일반주서
 62
     0
370
    -2
100
AcDbLine
 10
55.90547739370001
 20
-5.524999999999928
 30
0.0
 11
55.90547739369998
 21
5.525000000000066
 31
0.0
  0
SOLID
  5
119
330
112
100
AcDbEntity
  8
치수문자_일반주서
 62
     0
100
AcDbTrace
 10
55.23881072703335
 20
-5.52499999999993
 30
0.0
 11
56.57214406036667
 21
-5.524999999999925
 31
0.0
 12
55.90547739370002
 22
-9.524999999999928
 32
0.0
 13
55.90547739370002
 23
-9.524999999999928
 33
0.0
  0
SOLID
  5
11A
330
112
100
AcDbEntity
  8
치수문자_일반주서
 62
     0
100
AcDbTrace
 10
56.57214406036664
 20
5.525000000000069
 30
0.0
 11
55.23881072703331
 21
5.525000000000063
 31
0.0
 12
55.90547739369996
 22
9.525000000000066
 32
0.0
 13
55.90547739369996
 23
9.525000000000066
 33
0.0
  0
MTEXT
  5
11B
330
112
100
AcDbEntity
  8
치수문자_일반주서
 62
     0
100
AcDbMText
 10
51.0304773936999
 20
29.40000000000005
 30
0.0
 40
4.0
 41
0.0
 71
     2
 72
     1
  1
\A1;%%c19.05 [3/4]
  7
SLDTEXTSTYLE0
 11
-3.356894814614647E-15
 21
1.0
 31
0.0
 73
     1
 44
1.0
  0
POINT
  5
11C
330
112
100
AcDbEntity
  8
Defpoints
 62
     0
100
AcDbPoint
 10
37.40000000000003
 20
-9.525000000000002
 30
0.0
  0
POINT
  5
11D
330
112
100
AcDbEntity
  8
Defpoints
 62
     0
100
AcDbPoint
 10
37.40000000000001
 20
9.524999999999999
 30
0.0
  0
POINT
  5
11E
330
112
100
AcDbEntity
  8
Defpoints
 62
     0
100
AcDbPoint
 10
55.90547739369996
 20
9.525000000000068
 30
0.0
  0
ENDBLK
  5
114
330
112
100
AcDbEntity
  8
0
100
AcDbBlockEnd
  0
BLOCK
  5
12C
330
12B
100
AcDbEntity
  8
0
100
AcDbBlockBegin
  2
SW_DOWELSYMBOL_0
 70
     0
 10
0.0
 20
0.0
 30
0.0
  3
SW_DOWELSYMBOL_0
  1
SW_DOWELSYMBOL_0
  0
CIRCLE
  5
12E
330
12B
100
AcDbEntity
  8
해칭선
 62
     0
100
AcDbCircle
 10
0.0
 20
0.0
 30
0.0
 40
2.999999999999996
  0
HATCH
  5
12F
330
12B
100
AcDbEntity
  8
0
  6
Continuous
 62
     0
370
     0
100
AcDbHatch
 10
0.0
 20
0.0
 30
0.0
210
0.0
220
0.0
230
1.0
  2
SOLID
 70
     1
 71
     0
 91
        1
 92
        0
 93
        3
 72
     2
 10
0.0
 20
0.0
 40
2.999999999999996
 50
0.0
 51
90.0
 73
     1
 72
     1
 10
0.0
 20
2.999999999999996
 11
0.0
 21
0.0
 72
     1
 10
0.0
 20
0.0
 11
2.999999999999996
 21
0.0
 97
        0
 75
     0
 76
     1
 98
        1
 10
0.0
 20
0.0
  0
HATCH
  5
130
330
12B
100
AcDbEntity
  8
0
  6
Continuous
 62
     0
370
     0
100
AcDbHatch
 10
0.0
 20
0.0
 30
0.0
210
0.0
220
0.0
230
1.0
  2
SOLID
 70
     1
 71
     0
 91
        1
 92
        0
 93
        3
 72
     2
 10
0.0
 20
0.0
 40
2.999999999999996
 50
180.0
 51
270.0000000000008
 73
     1
 72
     1
 10
0.0
 20
-2.999999999999996
 11
0.0
 21
0.0
 72
     1
 10
0.0
 20
0.0
 11
-2.999999999999996
 21
0.0
 97
        0
 75
     0
 76
     1
 98
        1
 10
0.0
 20
0.0
  0
ENDBLK
  5
12D
330
12B
100
AcDbEntity
  8
0
100
AcDbBlockEnd
  0
BLOCK
  5
1F7
330
1F6
100
AcDbEntity
  8
0
100
AcDbBlockBegin
  2
*D8
 70
     1
 10
0.0
 20
0.0
 30
0.0
  3
*D8
  1
*D19
  0
LINE
  5
1F8
330
1F6
100
AcDbEntity
  8
치수문자_일반주서
 62
     0
370
    -2
100
AcDbLine
 10
122.2075719207232
 20
21.09418497419865
 30
0.0
 11
145.7061677555407
 21
-7.320944101907674
 31
0.0
  0
MTEXT
  5
1F9
330
1F6
100
AcDbEntity
  8
치수문자_일반주서
 62
     0
100
AcDbMText
 10
140.03527720752
 20
4.047751970745924
 30
0.0
 40
4.0
 41
0.0
 71
     5
 72
     1
  1
\A1;R1 [R0.04]
  7
SLDTEXTSTYLE0
 11
0.6372880340174896
 21
-0.7706256949376417
 31
0.0
 73
     1
 44
1.0
  0
SOLID
  5
1FA
330
1F6
100
AcDbEntity
  8
치수문자_일반주서
 62
     0
100
AcDbTrace
 10
122.7213223840149
 20
21.51904366354364
 30
0.0
 11
121.6938214574314
 21
20.66932628485365
 31
0.0
 12
119.6584197846532
 22
24.17668775394921
 32
0.0
 13
119.6584197846532
 23
24.17668775394921
 33
0.0
  0
LINE
  5
1FB
330
1F6
100
AcDbEntity
  8
치수문자_일반주서
 62
     0
100
AcDbLine
 10
118.9311317506357
 20
24.94731344888685
 30
0.0
 11
119.1111317506357
 21
24.94731344888685
 31
0.0
  0
LINE
  5
1FC
330
1F6
100
AcDbEntity
  8
치수문자_일반주서
 62
     0
100
AcDbLine
 10
119.0211317506357
 20
24.85731344888685
 30
0.0
 11
119.0211317506357
 21
25.03731344888685
 31
0.0
  0
POINT
  5
1FD
330
1F6
100
AcDbEntity
  8
Defpoints
 62
     0
100
AcDbPoint
 10
119.6584197846532
 20
24.17668775394921
 30
0.0
  0
POINT
  5
239
330
1F6
100
AcDbEntity
  8
Defpoints
 62
     0
100
AcDbPoint
 10
119.0211317506357
 20
24.94731344888685
 30
0.0
  0
ENDBLK
  5
1FE
330
1F6
100
AcDbEntity
  8
0
100
AcDbBlockEnd
  0
BLOCK
  5
202
330
201
100
AcDbEntity
  8
0
100
AcDbBlockBegin
  2
*D9
 70
     1
 10
0.0
 20
0.0
 30
0.0
  3
*D9
  1
*D20
  0
LINE
  5
203
330
201
100
AcDbEntity
  8
치수문자_일반주서
 62
     0
370
    -2
100
AcDbLine
 10
120.0836317506357
 20
43.94731344888685
 30
0.0
 11
136.2577258430566
 21
43.94731344888685
 31
0.0
  0
LINE
  5
204
330
201
100
AcDbEntity
  8
치수문자_일반주서
 62
     0
370
    -2
100
AcDbLine
 10
120.0836317506357
 20
23.94731344888685
 30
0.0
 11
136.2577258430566
 21
23.94731344888685
 31
0.0
  0
LINE
  5
205
330
201
100
AcDbEntity
  8
치수문자_일반주서
 62
     0
370
    -2
100
AcDbLine
 10
136.2577258430566
 20
43.94731344888685
 30
0.0
 11
136.2577258430566
 21
23.94731344888685
 31
0.0
  0
LINE
  5
206
330
201
100
AcDbEntity
  8
치수문자_일반주서
 62
     0
370
    -2
100
AcDbLine
 10
136.2577258430566
 20
47.94731344888685
 30
0.0
 11
136.2577258430566
 21
51.94731344888685
 31
0.0
  0
LINE
  5
207
330
201
100
AcDbEntity
  8
치수문자_일반주서
 62
     0
370
    -2
100
AcDbLine
 10
136.2577258430566
 20
19.94731344888685
 30
0.0
 11
136.2577258430566
 21
15.94731344888685
 31
0.0
  0
SOLID
  5
208
330
201
100
AcDbEntity
  8
치수문자_일반주서
 62
     0
100
AcDbTrace
 10
135.59105917639
 20
47.94731344888685
 30
0.0
 11
136.9243925097233
 21
47.94731344888685
 31
0.0
 12
136.2577258430566
 22
43.94731344888685
 32
0.0
 13
136.2577258430566
 23
43.94731344888685
 33
0.0
  0
SOLID
  5
209
330
201
100
AcDbEntity
  8
치수문자_일반주서
 62
     0
100
AcDbTrace
 10
136.9243925097233
 20
19.94731344888685
 30
0.0
 11
135.59105917639
 21
19.94731344888685
 31
0.0
 12
136.2577258430566
 22
23.94731344888685
 32
0.0
 13
136.2577258430566
 23
23.94731344888685
 33
0.0
  0
MTEXT
  5
20A
330
201
100
AcDbEntity
  8
치수문자_일반주서
 62
     0
100
AcDbMText
 10
133.3827258430566
 20
33.94731344888685
 30
0.0
 40
4.0
 41
0.0
 71
     5
 72
     1
  1
\A1;{%%c20}
  7
SLDTEXTSTYLE0
 11
0.0
 21
1.0
 31
0.0
 73
     1
 44
1.0
  0
POINT
  5
20B
330
201
100
AcDbEntity
  8
Defpoints
 62
     0
100
AcDbPoint
 10
120.0211317506357
 20
43.94731344888685
 30
0.0
  0
POINT
  5
20C
330
201
100
AcDbEntity
  8
Defpoints
 62
     0
100
AcDbPoint
 10
120.0211317506357
 20
23.94731344888685
 30
0.0
  0
POINT
  5
20D
330
201
100
AcDbEntity
  8
Defpoints
 62
     0
100
AcDbPoint
 10
136.2577258430566
 20
23.94731344888685
 30
0.0
  0
ENDBLK
  5
20E
330
201
100
AcDbEntity
  8
0
100
AcDbBlockEnd
  0
BLOCK
  5
214
330
213
100
AcDbEntity
  8
0
100
AcDbBlockBegin
  2
*D10
 70
     1
 10
0.0
 20
0.0
 30
0.0
  3
*D10
  1
*D10
  0
LINE
  5
216
330
213
100
AcDbEntity
  8
치수문자_일반주서
 62
     0
370
    -2
100
AcDbLine
 10
16.02113175063572
 20
43.50981344888685
 30
0.0
 11
16.02113175063573
 21
78.60979761696561
 31
0.0
  0
LINE
  5
217
330
213
100
AcDbEntity
  8
치수문자_일반주서
 62
     0
370
    -2
100
AcDbLine
 10
120.0211317506357
 20
44.00981344888685
 30
0.0
 11
120.0211317506357
 21
78.60979761696561
 31
0.0
  0
LINE
  5
218
330
213
100
AcDbEntity
  8
치수문자_일반주서
 62
     0
370
    -2
100
AcDbLine
 10
20.02113175063573
 20
78.60979761696561
 30
0.0
 11
116.0211317506357
 21
78.60979761696561
 31
0.0
  0
SOLID
  5
219
330
213
100
AcDbEntity
  8
치수문자_일반주서
 62
     0
100
AcDbTrace
 10
20.02113175063573
 20
79.27646428363228
 30
0.0
 11
20.02113175063573
 21
77.94313095029894
 31
0.0
 12
16.02113175063573
 22
78.60979761696561
 32
0.0
 13
16.02113175063573
 23
78.60979761696561
 33
0.0
  0
SOLID
  5
21A
330
213
100
AcDbEntity
  8
치수문자_일반주서
 62
     0
100
AcDbTrace
 10
116.0211317506357
 20
77.94313095029894
 30
0.0
 11
116.0211317506357
 21
79.27646428363228
 31
0.0
 12
120.0211317506357
 22
78.60979761696561
 32
0.0
 13
120.0211317506357
 23
78.60979761696561
 33
0.0
  0
MTEXT
  5
21B
330
213
100
AcDbEntity
  8
치수문자_일반주서
 62
     0
100
AcDbMText
 10
68.02113175063575
 20
83.48479761696561
 30
0.0
 40
4.0
 41
0.0
 71
     2
 72
     1
  1
\A1;104 [4.09]
  7
SLDTEXTSTYLE0
 73
     1
 44
1.0
  0
POINT
  5
21C
330
213
100
AcDbEntity
  8
Defpoints
 62
     0
100
AcDbPoint
 10
16.02113175063572
 20
43.44731344888685
 30
0.0
  0
POINT
  5
21D
330
213
100
AcDbEntity
  8
Defpoints
 62
     0
100
AcDbPoint
 10
120.0211317506357
 20
43.94731344888685
 30
0.0
  0
POINT
  5
21E
330
213
100
AcDbEntity
  8
Defpoints
 62
     0
100
AcDbPoint
 10
120.0211317506357
 20
78.60979761696561
 30
0.0
  0
ENDBLK
  5
215
330
213
100
AcDbEntity
  8
0
100
AcDbBlockEnd
  0
BLOCK
  5
220
330
21F
100
AcDbEntity
  8
0
100
AcDbBlockBegin
  2
*D11
 70
     1
 10
0.0
 20
0.0
 30
0.0
  3
*D11
  1
*D11
  0
LINE
  5
222
330
21F
100
AcDbEntity
  8
치수문자_일반주서
 62
     0
370
    -2
100
AcDbLine
 10
82.02101279996386
 20
33.65694216895067
 30
0.0
 11
82.02101279996386
 21
65.23491305159995
 31
0.0
  0
LINE
  5
223
330
21F
100
AcDbEntity
  8
치수문자_일반주서
 62
     0
370
    -2
100
AcDbLine
 10
120.0211317506357
 20
44.07231344888685
 30
0.0
 11
120.0211317506357
 21
65.23491305159995
 31
0.0
  0
LINE
  5
224
330
21F
100
AcDbEntity
  8
치수문자_일반주서
 62
     0
370
    -2
100
AcDbLine
 10
86.02101279996386
 20
65.23491305159995
 30
0.0
 11
116.0211317506357
 21
65.23491305159995
 31
0.0
  0
SOLID
  5
225
330
21F
100
AcDbEntity
  8
치수문자_일반주서
 62
     0
100
AcDbTrace
 10
86.02101279996386
 20
65.90157971826662
 30
0.0
 11
86.02101279996386
 21
64.56824638493327
 31
0.0
 12
82.02101279996386
 22
65.23491305159995
 32
0.0
 13
82.02101279996386
 23
65.23491305159995
 33
0.0
  0
SOLID
  5
226
330
21F
100
AcDbEntity
  8
치수문자_일반주서
 62
     0
100
AcDbTrace
 10
116.0211317506357
 20
64.56824638493327
 30
0.0
 11
116.0211317506357
 21
65.90157971826662
 31
0.0
 12
120.0211317506357
 22
65.23491305159995
 32
0.0
 13
120.0211317506357
 23
65.23491305159995
 33
0.0
  0
MTEXT
  5
227
330
21F
100
AcDbEntity
  8
치수문자_일반주서
 62
     0
100
AcDbMText
 10
101.0891571575877
 20
70.10991305159995
 30
0.0
 40
4.0
 41
0.0
 71
     2
 72
     1
  1
\A1;38 [1.50]
  7
SLDTEXTSTYLE0
 73
     1
 44
1.0
  0
POINT
  5
228
330
21F
100
AcDbEntity
  8
Defpoints
 62
     0
100
AcDbPoint
 10
82.02101279996386
 20
33.59444216895067
 30
0.0
  0
POINT
  5
229
330
21F
100
AcDbEntity
  8
Defpoints
 62
     0
100
AcDbPoint
 10
120.0211317506357
 20
44.00981344888685
 30
0.0
  0
POINT
  5
22A
330
21F
100
AcDbEntity
  8
Defpoints
 62
     0
100
AcDbPoint
 10
120.0211317506357
 20
65.23491305159995
 30
0.0
  0
ENDBLK
  5
221
330
21F
100
AcDbEntity
  8
0
100
AcDbBlockEnd
  0
BLOCK
  5
22C
330
22B
100
AcDbEntity
  8
0
100
AcDbBlockBegin
  2
*D12
 70
     1
 10
0.0
 20
0.0
 30
0.0
  3
*D12
  1
*D12
  0
LINE
  5
22E
330
22B
100
AcDbEntity
  8
치수문자_일반주서
 62
     0
370
    -2
100
AcDbLine
 10
16.45863175063572
 20
43.94731344888685
 30
0.0
 11
4.87499999999998
 21
43.94731344888681
 31
0.0
  0
LINE
  5
22F
330
22B
100
AcDbEntity
  8
치수문자_일반주서
 62
     0
370
    -2
100
AcDbLine
 10
16.45863175063572
 20
23.94731344888685
 30
0.0
 11
4.87500000000005
 21
23.94731344888681
 31
0.0
  0
LINE
  5
230
330
22B
100
AcDbEntity
  8
치수문자_일반주서
 62
     0
370
    -2
100
AcDbLine
 10
4.87499999999998
 20
43.94731344888681
 30
0.0
 11
4.87500000000005
 21
23.94731344888681
 31
0.0
  0
LINE
  5
231
330
22B
100
AcDbEntity
  8
치수문자_일반주서
 62
     0
370
    -2
100
AcDbLine
 10
4.874999999999965
 20
47.94731344888681
 30
0.0
 11
4.874999999999951
 21
51.94731344888681
 31
0.0
  0
LINE
  5
232
330
22B
100
AcDbEntity
  8
치수문자_일반주서
 62
     0
370
    -2
100
AcDbLine
 10
4.875000000000064
 20
19.94731344888681
 30
0.0
 11
4.875000000000078
 21
15.94731344888681
 31
0.0
  0
SOLID
  5
233
330
22B
100
AcDbEntity
  8
치수문자_일반주서
 62
     0
100
AcDbTrace
 10
4.208333333333298
 20
47.94731344888681
 30
0.0
 11
5.541666666666632
 21
47.94731344888681
 31
0.0
 12
4.87499999999998
 22
43.94731344888681
 32
0.0
 13
4.87499999999998
 23
43.94731344888681
 33
0.0
  0
SOLID
  5
234
330
22B
100
AcDbEntity
  8
치수문자_일반주서
 62
     0
100
AcDbTrace
 10
5.541666666666731
 20
19.94731344888681
 30
0.0
 11
4.208333333333397
 21
19.94731344888681
 31
0.0
 12
4.87500000000005
 22
23.94731344888681
 32
0.0
 13
4.87500000000005
 23
23.94731344888681
 33
0.0
  0
MTEXT
  5
235
330
22B
100
AcDbEntity
  8
치수문자_일반주서
 62
     0
100
AcDbMText
 10
0.0000000000000142
 20
33.94731344888684
 30
0.0
 40
4.0
 41
0.0
 71
     2
 72
     1
  1
\A1;%%c20 [0.79]
  7
SLDTEXTSTYLE0
 11
-3.508304757815495E-15
 21
1.0
 31
0.0
 73
     1
 44
1.0
  0
POINT
  5
236
330
22B
100
AcDbEntity
  8
Defpoints
 62
     0
100
AcDbPoint
 10
16.52113175063572
 20
43.94731344888685
 30
0.0
  0
POINT
  5
237
330
22B
100
AcDbEntity
  8
Defpoints
 62
     0
100
AcDbPoint
 10
16.52113175063572
 20
23.94731344888685
 30
0.0
  0
POINT
  5
238
330
22B
100
AcDbEntity
  8
Defpoints
 62
     0
100
AcDbPoint
 10
4.875000000000057
 20
23.94731344888681
 30
0.0
  0
ENDBLK
  5
22D
330
22B
100
AcDbEntity
  8
0
100
AcDbBlockEnd
  0
BLOCK
  5
287
330
286
100
AcDbEntity
  8
0
100
AcDbBlockBegin
  2
*D13
 70
     1
 10
0.0
 20
0.0
 30
0.0
  3
*D13
  1
*D13
  0
LINE
  5
289
330
286
100
AcDbEntity
  8
치수문자_일반주서
 62
     0
370
    -2
100
AcDbLine
 10
-78.68607168434738
 20
101.222107376023
 30
0.0
 11
-78.68607168434738
 21
136.3220915441018
 31
0.0
  0
LINE
  5
28A
330
286
100
AcDbEntity
  8
치수문자_일반주서
 62
     0
370
    -2
100
AcDbLine
 10
25.31392831565262
 20
101.722107376023
 30
0.0
 11
25.31392831565262
 21
136.3220915441018
 31
0.0
  0
LINE
  5
28B
330
286
100
AcDbEntity
  8
치수문자_일반주서
 62
     0
370
    -2
100
AcDbLine
 10
-74.68607168434738
 20
136.3220915441018
 30
0.0
 11
21.31392831565262
 21
136.3220915441018
 31
0.0
  0
SOLID
  5
28C
330
286
100
AcDbEntity
  8
치수문자_일반주서
 62
     0
100
AcDbTrace
 10
-74.68607168434738
 20
136.9887582107685
 30
0.0
 11
-74.68607168434738
 21
135.6554248774351
 31
0.0
 12
-78.68607168434738
 22
136.3220915441018
 32
0.0
 13
-78.68607168434738
 23
136.3220915441018
 33
0.0
  0
SOLID
  5
28D
330
286
100
AcDbEntity
  8
치수문자_일반주서
 62
     0
100
AcDbTrace
 10
21.31392831565262
 20
135.6554248774351
 30
0.0
 11
21.31392831565262
 21
136.9887582107685
 31
0.0
 12
25.31392831565262
 22
136.3220915441018
 32
0.0
 13
25.31392831565262
 23
136.3220915441018
 33
0.0
  0
MTEXT
  5
28E
330
286
100
AcDbEntity
  8
치수문자_일반주서
 62
     0
100
AcDbMText
 10
-26.68607168434737
 20
141.1970915441018
 30
0.0
 40
4.0
 41
0.0
 71
     2
 72
     1
  1
\A1;104 [4.09]
  7
SLDTEXTSTYLE0
 73
     1
 44
1.0
  0
POINT
  5
28F
330
286
100
AcDbEntity
  8
Defpoints
 62
     0
100
AcDbPoint
 10
-78.68607168434738
 20
101.159607376023
 30
0.0
  0
POINT
  5
290
330
286
100
AcDbEntity
  8
Defpoints
 62
     0
100
AcDbPoint
 10
25.31392831565262
 20
101.659607376023
 30
0.0
  0
POINT
  5
291
330
286
100
AcDbEntity
  8
Defpoints
 62
     0
100
AcDbPoint
 10
25.31392831565262
 20
136.3220915441018
 30
0.0
  0
ENDBLK
  5
288
330
286
100
AcDbEntity
  8
0
100
AcDbBlockEnd
  0
BLOCK
  5
293
330
292
100
AcDbEntity
  8
0
100
AcDbBlockBegin
  2
*D14
 70
     1
 10
0.0
 20
0.0
 30
0.0
  3
*D14
  1
*D14
  0
LINE
  5
295
330
292
100
AcDbEntity
  8
치수문자_일반주서
 62
     0
370
    -2
100
AcDbLine
 10
-12.68619063501926
 20
91.36923609608685
 30
0.0
 11
-12.68619063501926
 21
122.9472069787361
 31
0.0
  0
LINE
  5
296
330
292
100
AcDbEntity
  8
치수문자_일반주서
 62
     0
370
    -2
100
AcDbLine
 10
25.31392831565262
 20
101.784607376023
 30
0.0
 11
25.31392831565262
 21
122.9472069787361
 31
0.0
  0
LINE
  5
297
330
292
100
AcDbEntity
  8
치수문자_일반주서
 62
     0
370
    -2
100
AcDbLine
 10
-8.686190635019258
 20
122.9472069787361
 30
0.0
 11
21.31392831565262
 21
122.9472069787361
 31
0.0
  0
SOLID
  5
298
330
292
100
AcDbEntity
  8
치수문자_일반주서
 62
     0
100
AcDbTrace
 10
-8.686190635019258
 20
123.6138736454028
 30
0.0
 11
-8.686190635019258
 21
122.2805403120694
 31
0.0
 12
-12.68619063501926
 22
122.9472069787361
 32
0.0
 13
-12.68619063501926
 23
122.9472069787361
 33
0.0
  0
SOLID
  5
299
330
292
100
AcDbEntity
  8
치수문자_일반주서
 62
     0
100
AcDbTrace
 10
21.31392831565262
 20
122.2805403120694
 30
0.0
 11
21.31392831565262
 21
123.6138736454028
 31
0.0
 12
25.31392831565262
 22
122.9472069787361
 32
0.0
 13
25.31392831565262
 23
122.9472069787361
 33
0.0
  0
MTEXT
  5
29A
330
292
100
AcDbEntity
  8
치수문자_일반주서
 62
     0
100
AcDbMText
 10
6.381953722604607
 20
127.8222069787361
 30
0.0
 40
4.0
 41
0.0
 71
     2
 72
     1
  1
\A1;38 [1.50]
  7
SLDTEXTSTYLE0
 73
     1
 44
1.0
  0
POINT
  5
29B
330
292
100
AcDbEntity
  8
Defpoints
 62
     0
100
AcDbPoint
 10
-12.68619063501926
 20
91.30673609608685
 30
0.0
  0
POINT
  5
29C
330
292
100
AcDbEntity
  8
Defpoints
 62
     0
100
AcDbPoint
 10
25.31392831565262
 20
101.722107376023
 30
0.0
  0
POINT
  5
29D
330
292
100
AcDbEntity
  8
Defpoints
 62
     0
100
AcDbPoint
 10
25.31392831565262
 20
122.9472069787361
 30
0.0
  0
ENDBLK
  5
294
330
292
100
AcDbEntity
  8
0
100
AcDbBlockEnd
  0
BLOCK
  5
29F
330
29E
100
AcDbEntity
  8
0
100
AcDbBlockBegin
  2
*D15
 70
     1
 10
0.0
 20
0.0
 30
0.0
  3
*D15
  1
*D15
  0
LINE
  5
2A1
330
29E
100
AcDbEntity
  8
치수문자_일반주서
 62
     0
370
    -2
100
AcDbLine
 10
-78.24857168434738
 20
101.659607376023
 30
0.0
 11
-89.83220343498313
 21
101.659607376023
 31
0.0
  0
LINE
  5
2A2
330
29E
100
AcDbEntity
  8
치수문자_일반주서
 62
     0
370
    -2
100
AcDbLine
 10
-78.24857168434738
 20
81.65960737602303
 30
0.0
 11
-89.83220343498306
 21
81.65960737602299
 31
0.0
  0
LINE
  5
2A3
330
29E
100
AcDbEntity
  8
치수문자_일반주서
 62
     0
370
    -2
100
AcDbLine
 10
-89.83220343498313
 20
101.659607376023
 30
0.0
 11
-89.83220343498306
 21
81.65960737602299
 31
0.0
  0
LINE
  5
2A4
330
29E
100
AcDbEntity
  8
치수문자_일반주서
 62
     0
370
    -2
100
AcDbLine
 10
-89.83220343498314
 20
105.659607376023
 30
0.0
 11
-89.83220343498316
 21
109.659607376023
 31
0.0
  0
LINE
  5
2A5
330
29E
100
AcDbEntity
  8
치수문자_일반주서
 62
     0
370
    -2
100
AcDbLine
 10
-89.83220343498304
 20
77.65960737602299
 30
0.0
 11
-89.83220343498303
 21
73.65960737602299
 31
0.0
  0
SOLID
  5
2A6
330
29E
100
AcDbEntity
  8
치수문자_일반주서
 62
     0
100
AcDbTrace
 10
-90.49887010164981
 20
105.659607376023
 30
0.0
 11
-89.16553676831647
 21
105.659607376023
 31
0.0
 12
-89.83220343498313
 22
101.659607376023
 32
0.0
 13
-89.83220343498313
 23
101.659607376023
 33
0.0
  0
SOLID
  5
2A7
330
29E
100
AcDbEntity
  8
치수문자_일반주서
 62
     0
100
AcDbTrace
 10
-89.16553676831637
 20
77.65960737602299
 30
0.0
 11
-90.49887010164971
 21
77.65960737602299
 31
0.0
 12
-89.83220343498306
 22
81.65960737602299
 32
0.0
 13
-89.83220343498306
 23
81.65960737602299
 33
0.0
  0
MTEXT
  5
2A8
330
29E
100
AcDbEntity
  8
치수문자_일반주서
 62
     0
100
AcDbMText
 10
-94.7072034349831
 20
91.65960737602302
 30
0.0
 40
4.0
 41
0.0
 71
     2
 72
     1
  1
\A1;%%c20 [0.79]
  7
SLDTEXTSTYLE0
 11
-3.552713678800501E-15
 21
1.0
 31
0.0
 73
     1
 44
1.0
  0
POINT
  5
2A9
330
29E
100
AcDbEntity
  8
Defpoints
 62
     0
100
AcDbPoint
 10
-78.18607168434738
 20
101.659607376023
 30
0.0
  0
POINT
  5
2AA
330
29E
100
AcDbEntity
  8
Defpoints
 62
     0
100
AcDbPoint
 10
-78.18607168434738
 20
81.65960737602303
 30
0.0
  0
POINT
  5
2AB
330
29E
100
AcDbEntity
  8
Defpoints
 62
     0
100
AcDbPoint
 10
-89.83220343498306
 20
81.65960737602299
 30
0.0
  0
ENDBLK
  5
2A0
330
29E
100
AcDbEntity
  8
0
100
AcDbBlockEnd
  0
BLOCK
  5
2AD
330
2AC
100
AcDbEntity
  8
0
100
AcDbBlockBegin
  2
*D16
 70
     1
 10
0.0
 20
0.0
 30
0.0
  3
*D16
  1
*D16
  0
LINE
  5
2AF
330
2AC
100
AcDbEntity
  8
치수문자_일반주서
 62
     0
370
    -2
100
AcDbLine
 10
27.50036848574007
 20
78.80647890133484
 30
0.0
 11
50.99896432055763
 21
50.39134982522856
 31
0.0
  0
MTEXT
  5
2B0
330
2AC
100
AcDbEntity
  8
치수문자_일반주서
 62
     0
100
AcDbMText
 10
45.3280737725369
 20
61.76004589788214
 30
0.0
 40
4.0
 41
0.0
 71
     5
 72
     1
  1
\A1;R1 [R0.04]
  7
SLDTEXTSTYLE0
 11
0.6372880340174913
 21
-0.7706256949376402
 31
0.0
 73
     1
 44
1.0
  0
SOLID
  5
2B1
330
2AC
100
AcDbEntity
  8
치수문자_일반주서
 62
     0
100
AcDbTrace
 10
28.01411894903183
 20
79.23133759067984
 30
0.0
 11
26.98661802244831
 21
78.38162021198984
 31
0.0
 12
24.9512163496701
 22
81.8889816810854
 32
0.0
 13
24.9512163496701
 23
81.8889816810854
 33
0.0
  0
LINE
  5
2B2
330
2AC
100
AcDbEntity
  8
치수문자_일반주서
 62
     0
100
AcDbLine
 10
24.22392831565262
 20
82.65960737602303
 30
0.0
 11
24.40392831565262
 21
82.65960737602303
 31
0.0
  0
LINE
  5
2B3
330
2AC
100
AcDbEntity
  8
치수문자_일반주서
 62
     0
100
AcDbLine
 10
24.31392831565262
 20
82.56960737602303
 30
0.0
 11
24.31392831565262
 21
82.74960737602304
 31
0.0
  0
POINT
  5
2B4
330
2AC
100
AcDbEntity
  8
Defpoints
 62
     0
100
AcDbPoint
 10
24.9512163496701
 20
81.8889816810854
 30
0.0
  0
POINT
  5
2B5
330
2AC
100
AcDbEntity
  8
Defpoints
 62
     0
100
AcDbPoint
 10
24.31392831565262
 20
82.65960737602303
 30
0.0
  0
ENDBLK
  5
2AE
330
2AC
100
AcDbEntity
  8
0
100
AcDbBlockEnd
  0
BLOCK
  5
2B7
330
2B6
100
AcDbEntity
  8
0
100
AcDbBlockBegin
  2
*D17
 70
     1
 10
0.0
 20
0.0
 30
0.0
  3
*D17
  1
*D17
  0
LINE
  5
2B9
330
2B6
100
AcDbEntity
  8
치수문자_일반주서
 62
     0
370
    -2
100
AcDbLine
 10
25.37642831565262
 20
101.659607376023
 30
0.0
 11
41.5505224080735
 21
101.659607376023
 31
0.0
  0
LINE
  5
2BA
330
2B6
100
AcDbEntity
  8
치수문자_일반주서
 62
     0
370
    -2
100
AcDbLine
 10
25.37642831565262
 20
81.65960737602303
 30
0.0
 11
41.5505224080735
 21
81.65960737602303
 31
0.0
  0
LINE
  5
2BB
330
2B6
100
AcDbEntity
  8
치수문자_일반주서
 62
     0
370
    -2
100
AcDbLine
 10
41.5505224080735
 20
101.659607376023
 30
0.0
 11
41.5505224080735
 21
81.65960737602303
 31
0.0
  0
LINE
  5
2BC
330
2B6
100
AcDbEntity
  8
치수문자_일반주서
 62
     0
370
    -2
100
AcDbLine
 10
41.5505224080735
 20
105.659607376023
 30
0.0
 11
41.5505224080735
 21
109.659607376023
 31
0.0
  0
LINE
  5
2BD
330
2B6
100
AcDbEntity
  8
치수문자_일반주서
 62
     0
370
    -2
100
AcDbLine
 10
41.5505224080735
 20
77.65960737602303
 30
0.0
 11
41.5505224080735
 21
73.65960737602303
 31
0.0
  0
SOLID
  5
2BE
330
2B6
100
AcDbEntity
  8
치수문자_일반주서
 62
     0
100
AcDbTrace
 10
40.88385574140684
 20
105.659607376023
 30
0.0
 11
42.21718907474017
 21
105.659607376023
 31
0.0
 12
41.5505224080735
 22
101.659607376023
 32
0.0
 13
41.5505224080735
 23
101.659607376023
 33
0.0
  0
SOLID
  5
2BF
330
2B6
100
AcDbEntity
  8
치수문자_일반주서
 62
     0
100
AcDbTrace
 10
42.21718907474017
 20
77.65960737602303
 30
0.0
 11
40.88385574140684
 21
77.65960737602303
 31
0.0
 12
41.5505224080735
 22
81.65960737602303
 32
0.0
 13
41.5505224080735
 23
81.65960737602303
 33
0.0
  0
MTEXT
  5
2C0
330
2B6
100
AcDbEntity
  8
치수문자_일반주서
 62
     0
100
AcDbMText
 10
38.6755224080735
 20
91.65960737602303
 30
0.0
 40
4.0
 41
0.0
 71
     5
 72
     1
  1
\A1;{%%c20}
  7
SLDTEXTSTYLE0
 11
0.0
 21
1.0
 31
0.0
 73
     1
 44
1.0
  0
POINT
  5
2C1
330
2B6
100
AcDbEntity
  8
Defpoints
 62
     0
100
AcDbPoint
 10
25.31392831565262
 20
101.659607376023
 30
0.0
  0
POINT
  5
2C2
330
2B6
100
AcDbEntity
  8
Defpoints
 62
     0
100
AcDbPoint
 10
25.31392831565262
 20
81.65960737602303
 30
0.0
  0
POINT
  5
2C3
330
2B6
100
AcDbEntity
  8
Defpoints
 62
     0
100
AcDbPoint
 10
41.5505224080735
 20
81.65960737602303
 30
0.0
  0
ENDBLK
  5
2B8
330
2B6
100
AcDbEntity
  8
0
100
AcDbBlockEnd
  0
ENDSEC
  0
SECTION
  2
ENTITIES
  0
LINE
  5
96
330
1F
100
AcDbEntity
  8
외형선
  6
Continuous
370
    15
100
AcDbLine
 10
8.95009087985628
 20
9.524999999999999
 30
0.0
 11
-37.79999999999999
 21
9.524999999999995
 31
0.0
  0
LINE
  5
97
330
1F
100
AcDbEntity
  8
외형선
  6
Continuous
370
    15
100
AcDbLine
 10
-37.79999999999999
 20
-9.525000000000006
 30
0.0
 11
8.95009087985628
 21
-9.525000000000002
 31
0.0
  0
LINE
  5
98
330
1F
100
AcDbEntity
  8
외형선
  6
Continuous
370
    15
100
AcDbLine
 10
-37.79999999999999
 20
9.524999999999991
 30
0.0
 11
-38.8
 21
8.524999999999991
 31
0.0
  0
LINE
  5
99
330
1F
100
AcDbEntity
  8
외형선
  6
Continuous
370
    15
100
AcDbLine
 10
-38.8
 20
-8.525000000000006
 30
0.0
 11
-37.79999999999999
 21
-9.525000000000006
 31
0.0
  0
SPLINE
  5
9A
330
1F
100
AcDbEntity
  8
외형선
  6
Continuous
370
    15
100
AcDbSpline
210
0.0
220
0.0
230
1.0
 70
     8
 71
     3
 72
    10
 73
     6
 74
     0
 42
0.000000001
 43
0.00000001
 40
0.0
 40
0.0
 40
0.0
 40
0.0
 40
0.41933644044046
 40
0.6353452183355774
 40
1.0
 40
1.0
 40
1.0
 40
1.0
 10
12.00000000000002
 20
2.786000447078441
 30
0.0
 10
11.73338949130758
 20
2.916974444411352
 30
0.0
 10
11.32944245613497
 20
3.115415826811498
 30
0.0
 10
10.68799524535287
 20
3.442432757946525
 30
0.0
 10
10.31486557911507
 20
3.638956365136403
 30
0.0
 10
10.08054139132262
 20
3.762372535984269
 30
0.0
  0
LINE
  5
9B
330
1F
100
AcDbEntity
  8
외형선
  6
Continuous
370
    15
100
AcDbLine
 10
9.79113939150124
 20
7.579836572585268
 30
0.0
 11
9.468792405950348
 21
7.522244613447378
 31
0.0
  0
LINE
  5
9C
330
1F
100
AcDbEntity
  8
외형선
  6
Continuous
370
    15
100
AcDbLine
 10
9.444690068322018
 20
-7.554686861620572
 30
0.0
 11
9.575063870790585
 21
-7.568936878828382
 31
0.0
  0
LINE
  5
9D
330
1F
100
AcDbEntity
  8
0
  6
Continuous
 62
     1
370
    15
100
AcDbLine
 10
12.7234551795653
 20
2.440766329014869
 30
0.0
 11
11.99999999999598
 21
2.786000447080403
 31
0.0
  0
SPLINE
  5
9E
330
1F
100
AcDbEntity
  8
0
  6
Continuous
 62
     1
370
    15
100
AcDbSpline
210
0.0
220
0.0
230
1.0
 70
     8
 71
     3
 72
    37
 73
    33
 74
     0
 42
0.000000001
 43
0.00000001
 40
0.0
 40
0.0
 40
0.0
 40
0.0
 40
0.0376145199869716
 40
0.0714824600884898
 40
0.1030081145253671
 40
0.1320821792918241
 40
0.1581895115132227
 40
0.1818716788825226
 40
0.2148129979466687
 40
0.2495070291340001
 40
0.2869662819606831
 40
0.3356618980456653
 40
0.3827808433280229
 40
0.4314392973944388
 40
0.4828188178868891
 40
0.5246824963034744
 40
0.5673192101165848
 40
0.6045433621515631
 40
0.6526819725509662
 40
0.6896727455590241
 40
0.7194551682364521
 40
0.7454848928856692
 40
0.7715186136918437
 40
0.7971826509816718
 40
0.819553273956988
 40
0.8385402137828827
 40
0.859600042476312
 40
0.8748128061427557
 40
0.8942686367320289
 40
0.9215434540153796
 40
0.9567968276913974
 40
1.0
 40
1.0
 40
1.0
 40
1.0
 10
33.86141106785797
 20
6.514648111996824
 30
0.0
 10
33.67573603266554
 20
6.498635823155423
 30
0.0
 10
33.32288005318825
 20
6.468206143382097
 30
0.0
 10
32.75514695678574
 20
6.425040979223236
 30
0.0
 10
32.21111729550807
 20
6.39174648310601
 30
0.0
 10
31.71398176497144
 20
6.363538741784677
 30
0.0
 10
31.26679947678352
 20
6.340775786636191
 30
0.0
 10
30.81375643504778
 20
6.320786943512409
 30
0.0
 10
30.30545475828276
 20
6.301931708670844
 30
0.0
 10
29.72119394564729
 20
6.285379428221467
 30
0.0
 10
29.04881918111639
 20
6.272523767026549
 30
0.0
 10
28.30755571430567
 20
6.266549918632485
 30
0.0
 10
27.50333569553517
 20
6.27006032331137
 30
0.0
 10
26.68464244099718
 20
6.283730536668164
 30
0.0
 10
25.89585736126399
 20
6.306989067665805
 30
0.0
 10
25.14057377729769
 20
6.338359528510688
 30
0.0
 10
24.46371636724935
 20
6.373729941165603
 30
0.0
 10
23.75122310806704
 20
6.41800939060043
 30
0.0
 10
23.07103110703445
 20
6.467484536716953
 30
0.0
 10
22.4320229188353
 20
6.520699772992199
 30
0.0
 10
21.91579069331522
 20
6.56802562824128
 30
0.0
 10
21.46030456270222
 20
6.612722386658495
 30
0.0
 10
21.02807161750817
 20
6.657752857994852
 30
0.0
 10
20.61620691783862
 20
6.703104616933817
 30
0.0
 10
20.24564111706193
 20
6.746006188344824
 30
0.0
 10
19.90991929410674
 20
6.786227440197386
 30
0.0
 10
19.59722222461016
 20
6.825388850413622
 30
0.0
 10
19.28016402433417
 20
6.866446024489792
 30
0.0
 10
18.92848413730539
 20
6.913154036663063
 30
0.0
 10
18.47160738491391
 20
6.976399414879921
 30
0.0
 10
17.88761969691222
 20
7.060838078979451
 30
0.0
 10
17.45753329254583
 20
7.127416709713708
 30
0.0
 10
17.22070031956393
 20
7.164079145200569
 30
0.0
  0
SPLINE
  5
9F
330
1F
100
AcDbEntity
  8
0
  6
Continuous
 62
     1
370
    15
100
AcDbSpline
210
0.0
220
0.0
230
1.0
 70
     8
 71
     3
 72
    22
 73
    18
 74
     0
 42
0.000000001
 43
0.00000001
 40
0.0
 40
0.0
 40
0.0
 40
0.0
 40
0.0542171662367935
 40
0.1030191471910504
 40
0.1478117215788226
 40
0.1906018698626245
 40
0.2658801779427644
 40
0.3358085142843586
 40
0.4013182323385449
 40
0.4563989680452811
 40
0.5016593364291366
 40
0.5748205072228008
 40
0.6641742894795889
 40
0.7461693151214384
 40
0.8412015382263092
 40
0.93901615758019
 40
1.0
 40
1.0
 40
1.0
 40
1.0
 10
17.22070031956393
 20
-7.164079145200573
 30
0.0
 10
17.31949790755198
 20
-7.148186521208455
 30
0.0
 10
17.50722522650867
 20
-7.117988621097898
 30
0.0
 10
17.81930582677317
 20
-7.066891897791503
 30
0.0
 10
18.13527906771151
 20
-7.018362821108715
 30
0.0
 10
18.53812815903147
 20
-6.961988688209004
 30
0.0
 10
18.99029104106127
 20
-6.904767898976702
 30
0.0
 10
19.51276053222443
 20
-6.835814521647015
 30
0.0
 10
19.97304832788317
 20
-6.778495088056484
 30
0.0
 10
20.36910413030107
 20
-6.731488709570793
 30
0.0
 10
20.7855783032301
 20
-6.684142014837724
 30
0.0
 10
21.28499450095381
 20
-6.630307398314752
 30
0.0
 10
21.873255314577
 20
-6.571693162399603
 30
0.0
 10
22.51276483702066
 20
-6.51341808958558
 30
0.0
 10
23.17078377128511
 20
-6.460039187538114
 30
0.0
 10
23.78013891756013
 20
-6.415944510153893
 30
0.0
 10
24.16152390160494
 20
-6.393327596658951
 30
0.0
 10
24.3079883037691
 20
-6.384641956551405
 30
0.0
  0
SPLINE
  5
A0
330
1F
100
AcDbEntity
  8
외형선
  6
Continuous
370
    15
100
AcDbSpline
210
0.0
220
0.0
230
1.0
 70
    24
 71
     3
 72
     9
 73
     5
 74
     0
 42
0.000000001
 43
0.00000001
 40
0.0
 40
0.0
 40
0.0
 40
0.0
 40
0.4147364428101739
 40
0.9999999999999999
 40
0.9999999999999999
 40
0.9999999999999999
 40
0.9999999999999999
 10
12.0
 20
0.0948743064613332
 30
0.0
 10
12.0
 20
0.0662556545930027
 30
0.0
 10
12.0
 20
-0.0027487754841229
 30
0.0
 10
12.0
 20
-0.132034598643742
 30
0.0
 10
12.0
 20
-0.2077008794003555
 30
0.0
  0
SPLINE
  5
A1
330
1F
100
AcDbEntity
  8
외형선
  6
Continuous
370
    15
100
AcDbSpline
210
0.0
220
0.0
230
1.0
 70
     8
 71
     3
 72
    10
 73
     6
 74
     0
 42
0.000000001
 43
0.00000001
 40
0.0
 40
0.0
 40
0.0
 40
0.0
 40
0.5
 40
0.5
 40
1.0
 40
1.0
 40
1.0
 40
1.0
 10
11.99999999999999
 20
-0.2077008794006966
 30
0.0
 10
11.4909701597887
 20
-0.0022715265246123
 30
0.0
 10
10.98084081463166
 20
0.2036015539517949
 30
0.0
 10
9.964910109383117
 20
0.6136010684390472
 30
0.0
 10
9.459145243898329
 20
0.8177248962542215
 30
0.0
 10
8.950113816238716
 20
1.020830987698592
 30
0.0
  0
SPLINE
  5
A2
330
1F
100
AcDbEntity
  8
외형선
  6
Continuous
370
    15
100
AcDbSpline
210
0.0
220
0.0
230
1.0
 70
     8
 71
     3
 72
    10
 73
     6
 74
     0
 42
0.000000001
 43
0.00000001
 40
0.0
 40
0.0
 40
0.0
 40
0.0
 40
0.5
 40
0.5
 40
1.0
 40
1.0
 40
1.0
 40
1.0
 10
12.0
 20
0.0948743064613362
 30
0.0
 10
11.49096633707035
 20
0.3884749455596596
 30
0.0
 10
10.98083315272666
 20
0.6821502420765532
 30
0.0
 10
9.964894882943288
 20
1.2658949109452
 30
0.0
 10
9.45912616322529
 20
1.555962728268053
 30
0.0
 10
8.950090879856269
 20
1.844023301081752
 30
0.0
  0
SPLINE
  5
A3
330
1F
100
AcDbEntity
  8
외형선
  6
Continuous
370
    15
100
AcDbSpline
210
0.0
220
0.0
230
1.0
 70
     8
 71
     3
 72
    10
 73
     6
 74
     0
 42
0.000000001
 43
0.00000001
 40
0.0
 40
0.0
 40
0.0
 40
0.0
 40
0.5
 40
0.5
 40
1.0
 40
1.0
 40
1.0
 40
1.0
 10
12.0
 20
2.721675621071924
 30
0.0
 10
11.49098220518266
 20
3.0030403892552
 30
0.0
 10
10.98086495731034
 20
3.280719214594399
 30
0.0
 10
9.964958087938784
 20
3.825170178689415
 30
0.0
 10
9.459205367124829
 20
4.091955135678821
 30
0.0
 10
8.950186088820395
 20
4.353105337416972
 30
0.0
  0
LINE
  5
A4
330
1F
100
AcDbEntity
  8
외형선
  6
Continuous
370
    15
100
AcDbLine
 10
12.0
 20
2.721675621071922
 30
0.0
 11
12.0
 21
0.0948743064613345
 31
0.0
  0
LINE
  5
A5
330
1F
100
AcDbEntity
  8
외형선
  6
Continuous
370
    15
100
AcDbLine
 10
8.950090879856273
 20
4.353468422831878
 30
0.0
 11
8.95009087985628
 21
9.524999999999999
 31
0.0
  0
LINE
  5
A6
330
1F
100
AcDbEntity
  8
외형선
  6
Continuous
370
    15
100
AcDbLine
 10
-37.79999999999999
 20
9.524999999999991
 30
0.0
 11
-37.79999999999999
 21
-9.525000000000006
 31
0.0
  0
LINE
  5
A7
330
1F
100
AcDbEntity
  8
외형선
  6
Continuous
370
    15
100
AcDbLine
 10
8.95009087985628
 20
-9.525000000000002
 30
0.0
 11
8.950090879856269
 21
1.844023683974175
 31
0.0
  0
LINE
  5
A8
330
1F
100
AcDbEntity
  8
외형선
  6
Continuous
370
    15
100
AcDbLine
 10
-38.8
 20
8.524999999999991
 30
0.0
 11
-38.8
 21
-8.524999999999991
 31
0.0
  0
SPLINE
  5
A9
330
1F
100
AcDbEntity
  8
외형선
  6
Continuous
370
    15
100
AcDbSpline
210
0.0
220
0.0
230
1.0
 70
    24
 71
     3
 72
    11
 73
     7
 74
     0
 42
0.000000001
 43
0.00000001
 40
0.0
 40
0.0
 40
0.0
 40
0.0
 40
0.2130477701328782
 40
0.5248529935673368
 40
0.8370728220067142
 40
1.0
 40
1.0
 40
1.0
 40
1.0
 10
12.0
 20
2.78087091102696
 30
0.0
 10
12.0
 20
2.782423962899347
 30
0.0
 10
12.0
 20
2.786249977712265
 30
0.0
 10
12.0
 20
2.769616994282969
 30
0.0
 10
12.0
 20
2.747874787264291
 30
0.0
 10
12.0
 20
2.728365370193533
 30
0.0
 10
12.0
 20
2.721675621074628
 30
0.0
  0
LINE
  5
AA
330
1F
100
AcDbEntity
  8
외형선
  6
Continuous
370
    15
100
AcDbLine
 10
9.468989320680349
 20
7.519176941769501
 30
0.0
 11
9.46708013616299
 21
7.508861016520363
 31
0.0
  0
LINE
  5
AB
330
1F
100
AcDbEntity
  8
외형선
  6
Continuous
370
    15
100
AcDbLine
 10
12.00000000000001
 20
7.616301880031175
 30
0.0
 11
9.791167992245848
 21
7.570136946816874
 31
0.0
  0
SPLINE
  5
AC
330
1F
100
AcDbEntity
  8
외형선
  6
Continuous
370
    15
100
AcDbSpline
210
0.0
220
0.0
230
1.0
 70
    24
 71
     3
 72
    14
 73
    10
 74
     0
 42
0.000000001
 43
0.00000001
 40
0.0
 40
0.0
 40
0.0
 40
0.0
 40
0.2499999999999998
 40
0.2499999999999998
 40
0.4999999999999999
 40
0.4999999999999999
 40
0.75
 40
0.75
 40
1.0
 40
1.0
 40
1.0
 40
1.0
 10
12.0
 20
7.616301880031174
 30
0.0
 10
12.0
 20
7.508712757178098
 30
0.0
 10
12.0
 20
7.321296794131041
 30
0.0
 10
12.0
 20
6.782965104705817
 30
0.0
 10
12.0
 20
6.432018193865606
 30
0.0
 10
12.0
 20
5.586204075461578
 30
0.0
 10
12.0
 20
5.091581113339537
 30
0.0
 10
12.0
 20
3.998776009266341
 30
0.0
 10
12.0
 20
3.400999298387175
 30
0.0
 10
12.0
 20
2.776850006830318
 30
0.0
  0
SPLINE
  5
AD
330
1F
100
AcDbEntity
  8
외형선
  6
Continuous
370
    15
100
AcDbSpline
210
0.0
220
0.0
230
1.0
 70
     8
 71
     3
 72
    16
 73
    12
 74
     0
 42
0.000000001
 43
0.00000001
 40
0.0
 40
0.0
 40
0.0
 40
0.0
 40
0.2499999999999977
 40
0.2499999999999977
 40
0.4999999999999978
 40
0.4999999999999978
 40
0.6249999999999978
 40
0.6249999999999978
 40
0.7499999999999979
 40
0.7499999999999979
 40
1.0
 40
1.0
 40
1.0
 40
1.0
 10
9.23697362650347
 20
7.749035941933458
 30
0.0
 10
9.208107490243714
 20
7.774867547916503
 30
0.0
 10
9.177585988562607
 20
7.80285134282344
 30
0.0
 10
9.109052443329997
 20
7.86882418048069
 30
0.0
 10
9.069174085286056
 20
7.908864760801247
 30
0.0
 10
9.016661838017713
 20
7.966892011591066
 30
0.0
 10
9.00123785552379
 20
7.984996960010673
 30
0.0
 10
8.978274103351243
 20
8.013671155250066
 30
0.0
 10
8.970316662055927
 20
8.024620891063556
 30
0.0
 10
8.953208124937069
 20
8.05022058074928
 30
0.0
 10
8.95009087985628
 20
8.058218773887287
 30
0.0
 10
8.95009087985628
 20
8.062707197903396
 30
0.0
  0
SPLINE
  5
AE
330
1F
100
AcDbEntity
  8
외형선
  6
Continuous
370
    15
100
AcDbSpline
210
0.0
220
0.0
230
1.0
 70
     8
 71
     3
 72
    16
 73
    12
 74
     0
 42
0.000000001
 43
0.00000001
 40
0.0
 40
0.0
 40
0.0
 40
0.0
 40
0.2053355551202678
 40
0.3867969512119888
 40
0.5444279379159622
 40
0.6782833625383847
 40
0.7884410838688268
 40
0.8750297853921463
 40
0.9383076420842423
 40
0.978961820613606
 40
1.0
 40
1.0
 40
1.0
 40
1.0
 10
9.236977039145621
 20
7.748957362102161
 30
0.0
 10
9.251948034713166
 20
7.735610124463559
 30
0.0
 10
9.28014936321053
 20
7.710467519118419
 30
0.0
 10
9.320599140791874
 20
7.675578709088952
 30
0.0
 10
9.35641710567568
 20
7.64560590797324
 30
0.0
 10
9.387612382573428
 20
7.62043724568611
 30
0.0
 10
9.414241468668303
 20
7.600095406646319
 30
0.0
 10
9.436096707170192
 20
7.584173374782398
 30
0.0
 10
9.453646894531994
 20
7.573371460099998
 30
0.0
 10
9.465955740565976
 20
7.565695926182518
 30
0.0
 10
9.474382503350164
 20
7.564051121061962
 30
0.0
 10
9.477256177709355
 20
7.563490213579236
 30
0.0
  0
SPLINE
  5
AF
330
1F
100
AcDbEntity
  8
외형선
  6
Continuous
370
    15
100
AcDbSpline
210
0.0
220
0.0
230
1.0
 70
     8
 71
     3
 72
    10
 73
     6
 74
     0
 42
0.000000001
 43
0.00000001
 40
0.0
 40
0.0
 40
0.0
 40
0.0
 40
0.5
 40
0.5
 40
1.0
 40
1.0
 40
1.0
 40
1.0
 10
12.0
 20
-7.61630188003118
 30
0.0
 10
11.49097213110936
 20
-7.623618978441219
 30
0.0
 10
10.98084476576537
 20
-7.620062567872073
 30
0.0
 10
9.96491796143885
 20
-7.591293562009713
 30
0.0
 10
9.459155083524879
 20
-7.566122619943303
 30
0.0
 10
8.950125644199302
 20
-7.53015987406368
 30
0.0
  0
SPLINE
  5
B0
330
1F
100
AcDbEntity
  8
외형선
  6
Continuous
370
    15
100
AcDbSpline
210
0.0
220
0.0
230
1.0
 70
    24
 71
     3
 72
    14
 73
    10
 74
     0
 42
0.000000001
 43
0.00000001
 40
0.0
 40
0.0
 40
0.0
 40
0.0
 40
0.25
 40
0.25
 40
0.5
 40
0.5
 40
0.75
 40
0.75
 40
1.0
 40
1.0
 40
1.0
 40
1.0
 10
12.0
 20
-0.2077008794007023
 30
0.0
 10
12.0
 20
-1.026129425812745
 30
0.0
 10
12.0
 20
-1.845683258598303
 30
0.0
 10
12.0
 20
-3.404412153196309
 30
0.0
 10
12.0
 20
-4.142673155620671
 30
0.0
 10
12.0
 20
-5.459395151623739
 30
0.0
 10
12.0
 20
-6.037154540673167
 30
0.0
 10
12.0
 20
-6.98432042920424
 30
0.0
 10
12.0
 20
-7.353671842538225
 30
0.0
 10
12.0
 20
-7.616301880031181
 30
0.0
  0
SPLINE
  5
B1
330
1F
100
AcDbEntity
  8
0
  6
Continuous
 62
     1
370
    15
100
AcDbSpline
210
0.0
220
0.0
230
1.0
 70
     8
 71
     3
 72
    36
 73
    32
 74
     0
 42
0.000000001
 43
0.00000001
 40
0.0
 40
0.0
 40
0.0
 40
0.0
 40
0.1249999999999998
 40
0.1249999999999998
 40
0.1874999999999996
 40
0.1874999999999996
 40
0.2499999999999996
 40
0.2499999999999996
 40
0.3124999999999995
 40
0.3124999999999995
 40
0.3749999999999993
 40
0.3749999999999993
 40
0.4374999999999992
 40
0.4374999999999992
 40
0.4999999999999993
 40
0.4999999999999993
 40
0.5624999999999994
 40
0.5624999999999994
 40
0.6249999999999996
 40
0.6249999999999996
 40
0.6874999999999997
 40
0.6874999999999997
 40
0.7499999999999997
 40
0.7499999999999997
 40
0.8124999999999998
 40
0.8124999999999998
 40
0.8749999999999999
 40
0.8749999999999999
 40
0.9375
 40
0.9375
 40
1.0
 40
1.0
 40
1.0
 40
1.0
 10
37.40000000000001
 20
-9.038661779433845
 30
0.0
 10
36.34614095842829
 20
-8.84617701131657
 30
0.0
 10
35.28028492649027
 20
-8.596892672376043
 30
0.0
 10
33.69788601025493
 20
-8.147224140128216
 30
0.0
 10
33.16718426409674
 20
-7.984221594583229
 30
0.0
 10
32.10665324778553
 20
-7.634117656654748
 30
0.0
 10
31.57853916276984
 20
-7.447235665247041
 30
0.0
 10
30.52262474305349
 20
-7.051172280040194
 30
0.0
 10
29.9917219416517
 20
-6.84157645890379
 30
0.0
 10
28.93137775008681
 20
-6.402072277465215
 30
0.0
 10
28.40410197340425
 20
-6.172498263450096
 30
0.0
 10
27.34729779170072
 20
-5.694732361945634
 30
0.0
 10
26.81624082052065
 20
-5.44628044580226
 30
0.0
 10
25.75617679751752
 20
-4.933630638200402
 30
0.0
 10
25.22951792643761
 20
-4.669844147788143
 30
0.0
 10
24.17191628961634
 20
-4.127991095768628
 30
0.0
 10
23.6407520796483
 20
-3.849860490967222
 30
0.0
 10
22.58106148680033
 20
-3.2830239085821
 30
0.0
 10
22.0547979381341
 20
-2.994746446035152
 30
0.0
 10
20.99649138628654
 20
-2.408803650121068
 30
0.0
 10
20.46526690019698
 20
-2.111271892769702
 30
0.0
 10
19.40604288954716
 20
-1.511208152122074
 30
0.0
 10
18.87995296443681
 20
-1.209050263842207
 30
0.0
 10
17.82103424399145
 20
-0.6006568291801562
 30
0.0
 10
17.28979646225469
 20
-0.2947205662162178
 30
0.0
 10
16.23113204903449
 20
0.3163875305640291
 30
0.0
 10
15.70499399781412
 20
0.6213109380996676
 30
0.0
 10
14.64555603452493
 20
1.229675913088502
 30
0.0
 10
14.11435194154364
 20
1.532708690471947
 30
0.0
 10
13.0563399769962
 20
2.132277895436919
 30
0.0
 10
12.52993206408367
 20
2.428750277632255
 30
0.0
 10
11.99999999999598
 20
2.721675621074146
 30
0.0
  0
SPLINE
  5
B2
330
1F
100
AcDbEntity
  8
외형선
  6
Continuous
370
    15
100
AcDbSpline
210
0.0
220
0.0
230
1.0
 70
    24
 71
     3
 72
    11
 73
     7
 74
     0
 42
0.000000001
 43
0.00000001
 40
0.0
 40
0.0
 40
0.0
 40
0.0
 40
0.2175315559348465
 40
0.5275602193943967
 40
0.8380011255807454
 40
1.0
 40
1.0
 40
1.0
 40
1.0
 10
12.00000000000001
 20
2.784957339821792
 30
0.0
 10
12.00000000000001
 20
2.784871354475682
 30
0.0
 10
12.00000000000001
 20
2.784662821751022
 30
0.0
 10
12.0
 20
2.770148190841796
 30
0.0
 10
12.00000000000001
 20
2.747812709551753
 30
0.0
 10
12.00000000000001
 20
2.728349519142421
 30
0.0
 10
12.00000000000001
 20
2.721675621074655
 30
0.0
  0
SPLINE
  5
B3
330
1F
100
AcDbEntity
  8
0
  6
Continuous
 62
     1
370
    15
100
AcDbSpline
210
0.0
220
0.0
230
1.0
 70
     8
 71
     3
 72
    18
 73
    14
 74
     0
 42
0.000000001
 43
0.00000001
 40
0.0
 40
0.0
 40
0.0
 40
0.0
 40
0.0960582891411459
 40
0.1920409400807763
 40
0.2880084938447861
 40
0.3840216124071906
 40
0.4801063424903993
 40
0.5761190821964224
 40
0.6720865603416931
 40
0.7680694395062482
 40
0.8641282554871389
 40
0.946432427267015
 40
1.0
 40
1.0
 40
1.0
 40
1.0
 10
37.40000000000001
 20
-7.514960818107257
 30
0.0
 10
36.60926058466062
 20
-7.355692870629945
 30
0.0
 10
35.02840439787629
 20
-7.037282386415136
 30
0.0
 10
32.65796839495085
 20
-6.372780869766725
 30
0.0
 10
30.28791776417548
 20
-5.588064226395316
 30
0.0
 10
27.91689278419303
 20
-4.685023510836642
 30
0.0
 10
25.54501485911333
 20
-3.68687789591024
 30
0.0
 10
23.17399613586647
 20
-2.611795370899837
 30
0.0
 10
20.80394564335389
 20
-1.483158613182899
 30
0.0
 10
18.43351009845005
 20
-0.3233015796727241
 30
0.0
 10
16.17510418293456
 20
0.785404583244659
 30
0.0
 10
14.26594932089888
 20
1.714645108421383
 30
0.0
 10
13.14780556950853
 20
2.237936463759405
 30
0.0
 10
12.70697626431869
 20
2.444244610005062
 30
0.0
  0
LINE
  5
B4
330
1F
100
AcDbEntity
  8
0
  6
Continuous
 62
     1
370
    15
100
AcDbLine
 10
37.40000000000001
 20
-9.038661779433848
 30
0.0
 11
37.40000000000001
 21
-7.514960818107257
 31
0.0
  0
SPLINE
  5
B5
330
1F
100
AcDbEntity
  8
0
  6
Continuous
 62
     1
370
    15
100
AcDbSpline
210
0.0
220
0.0
230
1.0
 70
     8
 71
     3
 72
    36
 73
    32
 74
     0
 42
0.000000001
 43
0.00000001
 40
0.0
 40
0.0
 40
0.0
 40
0.0
 40
0.1249999999999998
 40
0.1249999999999998
 40
0.1874999999999998
 40
0.1874999999999998
 40
0.2499999999999999
 40
0.2499999999999999
 40
0.3124999999999999
 40
0.3124999999999999
 40
0.3749999999999999
 40
0.3749999999999999
 40
0.4374999999999999
 40
0.4374999999999999
 40
0.4999999999999999
 40
0.4999999999999999
 40
0.5624999999999999
 40
0.5624999999999999
 40
0.6249999999999999
 40
0.6249999999999999
 40
0.6874999999999999
 40
0.6874999999999999
 40
0.7499999999999999
 40
0.7499999999999999
 40
0.8124999999999999
 40
0.8124999999999999
 40
0.8749999999999999
 40
0.8749999999999999
 40
0.9374999999999999
 40
0.9374999999999999
 40
1.0
 40
1.0
 40
1.0
 40
1.0
 10
37.40000000000003
 20
-9.524999999999999
 30
0.0
 10
36.34614095842849
 20
-9.491867776206572
 30
0.0
 10
35.28028492649067
 20
-9.407645421595095
 30
0.0
 10
33.69788601025561
 20
-9.195735890470733
 30
0.0
 10
33.16718426409751
 20
-9.11065202199746
 30
0.0
 10
32.10665324778648
 20
-8.912619477459994
 30
0.0
 10
31.57853916277089
 20
-8.799811774565594
 30
0.0
 10
30.52262474305475
 20
-8.5474926392241
 30
0.0
 10
29.99172194165304
 20
-8.407702292865384
 30
0.0
 10
28.93137775008836
 20
-8.10268847756539
 30
0.0
 10
28.40410197340587
 20
-7.937715300549763
 30
0.0
 10
27.34729779170254
 20
-7.583609748027506
 30
0.0
 10
26.81624082052259
 20
-7.394267870883675
 30
0.0
 10
25.75617679751963
 20
-6.993560138244644
 30
0.0
 10
25.22951792643982
 20
-6.782534539733702
 30
0.0
 10
24.17191628961875
 20
-6.339676181395183
 30
0.0
 10
23.64075207965081
 20
-6.107773411587874
 30
0.0
 10
22.58106148680303
 20
-5.626198834137842
 30
0.0
 10
22.05479793813688
 20
-5.376909746379903
 30
0.0
 10
20.99649138628953
 20
-4.861624975564722
 30
0.0
 10
20.46526690020007
 20
-4.595728717182181
 30
0.0
 10
19.40604288955043
 20
-4.05110360486582
 30
0.0
 10
18.87995296444018
 20
-3.772732638851774
 30
0.0
 10
17.82103424399502
 20
-3.204036899562059
 30
0.0
 10
17.28979646225836
 20
-2.913973779971824
 30
0.0
 10
16.23113204903834
 20
-2.326442338918588
 30
0.0
 10
15.70499399781806
 20
-2.029230680187441
 30
0.0
 10
14.64555603452908
 20
-1.428124535201647
 30
0.0
 10
14.11435194154788
 20
-1.124616055382945
 30
0.0
 10
13.05633997700061
 20
-0.5159028248766858
 30
0.0
 10
12.52993206408819
 20
-0.2107801207911293
 30
0.0
 10
12.0000000000006
 20
0.0948743064609876
 30
0.0
  0
LINE
  5
B6
330
1F
100
AcDbEntity
  8
0
  6
Continuous
 62
     1
370
    15
100
AcDbLine
 10
13.72935395585057
 20
-0.901170943759583
 30
0.0
 11
12.0
 21
-0.2077008794007023
 31
0.0
  0
SPLINE
  5
B7
330
1F
100
AcDbEntity
  8
외형선
  6
Continuous
370
    15
100
AcDbSpline
210
0.0
220
0.0
230
1.0
 70
    24
 71
     3
 72
     9
 73
     5
 74
     0
 42
0.000000001
 43
0.00000001
 40
0.0
 40
0.0
 40
0.0
 40
0.0
 40
0.4147364428101671
 40
1.0
 40
1.0
 40
1.0
 40
1.0
 10
12.00000000000001
 20
0.0948743064613321
 30
0.0
 10
12.0
 20
0.0662556545930025
 30
0.0
 10
12.0
 20
-0.0027487754841222
 30
0.0
 10
12.00000000000001
 20
-0.1320345986437422
 30
0.0
 10
12.00000000000001
 20
-0.2077008794003572
 30
0.0
  0
LINE
  5
B8
330
1F
100
AcDbEntity
  8
0
  6
Continuous
 62
     1
370
    15
100
AcDbLine
 10
37.40000000000003
 20
-9.525000000000002
 30
0.0
 11
37.40000000000001
 21
-9.038661779433848
 31
0.0
  0
SPLINE
  5
B9
330
1F
100
AcDbEntity
  8
0
  6
Continuous
 62
     1
370
    15
100
AcDbSpline
210
0.0
220
0.0
230
1.0
 70
     8
 71
     3
 72
    12
 73
     8
 74
     0
 42
0.000000001
 43
0.00000001
 40
0.0
 40
0.0
 40
0.0
 40
0.0
 40
0.5
 40
0.5
 40
0.75
 40
0.75
 40
1.0
 40
1.0
 40
1.0
 40
1.0
 10
37.40000000000001
 20
-2.545489060932367
 30
0.0
 10
36.54179496967375
 20
-1.870798261156449
 30
0.0
 10
35.69573740577394
 20
-1.172677160324457
 30
0.0
 10
34.4449240257446
 20
-0.0902502097417951
 30
0.0
 10
34.03107042667416
 20
0.2765076356954189
 30
0.0
 10
33.20998841918658
 20
1.022802140366351
 30
0.0
 10
32.80138535338717
 20
1.403657852354435
 30
0.0
 10
32.40000000000001
 20
1.788486169330861
 30
0.0
  0
LINE
  5
BA
330
1F
100
AcDbEntity
  8
0
  6
Continuous
 62
     1
370
    15
100
AcDbLine
 10
32.40000000000001
 20
2.937719435296589
 30
0.0
 11
37.40000000000001
 21
0.0000000000000012
 31
0.0
  0
LINE
  5
BB
330
1F
100
AcDbEntity
  8
0
  6
Continuous
 62
     1
370
    15
100
AcDbLine
 10
37.40000000000001
 20
0.0000000000000012
 30
0.0
 11
37.40000000000001
 21
-2.545489060932367
 31
0.0
  0
SPLINE
  5
BC
330
1F
100
AcDbEntity
  8
0
  6
Continuous
 62
     1
370
    15
100
AcDbSpline
210
0.0
220
0.0
230
1.0
 70
     8
 71
     3
 72
    32
 73
    28
 74
     0
 42
0.000000001
 43
0.00000001
 40
0.0
 40
0.0
 40
0.0
 40
0.0
 40
0.1249999999999999
 40
0.1249999999999999
 40
0.1874999999999999
 40
0.1874999999999999
 40
0.2499999999999998
 40
0.2499999999999998
 40
0.3124999999999997
 40
0.3124999999999997
 40
0.3749999999999996
 40
0.3749999999999996
 40
0.4999999999999996
 40
0.4999999999999996
 40
0.6249999999999996
 40
0.6249999999999996
 40
0.6874999999999997
 40
0.6874999999999997
 40
0.7499999999999997
 40
0.7499999999999997
 40
0.8124999999999998
 40
0.8124999999999998
 40
0.8749999999999999
 40
0.8749999999999999
 40
0.9374999999999999
 40
0.9374999999999999
 40
1.0
 40
1.0
 40
1.0
 40
1.0
 10
32.40000000000002
 20
2.273962504588729
 30
0.0
 10
31.54853393736369
 20
2.648909334141772
 30
0.0
 10
30.70264765583693
 20
3.013980218087204
 30
0.0
 10
29.4248274365993
 20
3.542710428072127
 30
0.0
 10
28.99878022880891
 20
3.71560663722012
 30
0.0
 10
28.15027966968259
 20
4.053186124824774
 30
0.0
 10
27.72699835078527
 20
4.217989887823824
 30
0.0
 10
26.87587223696381
 20
4.539456834372985
 30
0.0
 10
26.44945382430212
 20
4.695928037120571
 30
0.0
 10
25.59872545192887
 20
4.998948755846548
 30
0.0
 10
25.17592272356148
 20
5.145334773341996
 30
0.0
 10
23.90211161027379
 20
5.569339461635906
 30
0.0
 10
23.04651088603205
 20
5.831545038603153
 30
0.0
 10
21.35299716432888
 20
6.305817171071271
 30
0.0
 10
20.49810871776228
 20
6.51946907151353
 30
0.0
 10
19.22366518321659
 20
6.799113023174913
 30
0.0
 10
18.80103863852954
 20
6.885506940263451
 30
0.0
 10
17.95061808825668
 20
7.044771974330197
 30
0.0
 10
17.52422249482829
 20
7.117531458413178
 30
0.0
 10
16.67287915692452
 20
7.248637452455049
 30
0.0
 10
16.24914224894188
 20
7.306936841755991
 30
0.0
 10
15.40115316639981
 20
7.408937986751754
 30
0.0
 10
14.97523180204143
 20
7.452691045769379
 30
0.0
 10
14.12333981344635
 20
7.525242930136505
 30
0.0
 10
13.6973729886886
 20
7.554041428744389
 30
0.0
 10
12.8492034153019
 20
7.596491472954298
 30
0.0
 10
12.42563623466001
 20
7.610183507332501
 30
0.0
 10
12.0
 20
7.616301880031176
 30
0.0
  0
SPLINE
  5
BD
330
1F
100
AcDbEntity
  8
0
  6
Continuous
 62
     1
370
    15
100
AcDbSpline
210
0.0
220
0.0
230
1.0
 70
    24
 71
     3
 72
     8
 73
     4
 74
     0
 42
0.000000001
 43
0.00000001
 40
0.0
 40
0.0
 40
0.0
 40
0.0
 40
1.0
 40
1.0
 40
1.0
 40
1.0
 10
32.40000000000001
 20
1.788486169330771
 30
0.0
 10
32.40000000000001
 20
1.951691093477688
 30
0.0
 10
32.40000000000001
 20
2.11359576676704
 30
0.0
 10
32.40000000000001
 20
2.273962504588734
 30
0.0
  0
SPLINE
  5
BE
330
1F
100
AcDbEntity
  8
0
  6
Continuous
 62
     1
370
    15
100
AcDbSpline
210
0.0
220
0.0
230
1.0
 70
    24
 71
     3
 72
    10
 73
     6
 74
     0
 42
0.000000001
 43
0.00000001
 40
0.0
 40
0.0
 40
0.0
 40
0.0
 40
0.5
 40
0.5
 40
1.0
 40
1.0
 40
1.0
 40
1.0
 10
37.40000000000001
 20
-7.514960818107257
 30
0.0
 10
37.40000000000001
 20
-6.938880480261242
 30
0.0
 10
37.40000000000001
 20
-6.210980884209116
 30
0.0
 10
37.40000000000001
 20
-4.518684375910228
 30
0.0
 10
37.40000000000001
 20
-3.555753395063726
 30
0.0
 10
37.40000000000001
 20
-2.545489060932671
 30
0.0
  0
SPLINE
  5
BF
330
1F
100
AcDbEntity
  8
외형선
  6
Continuous
370
    15
100
AcDbSpline
210
0.0
220
0.0
230
1.0
 70
    24
 71
     3
 72
    14
 73
    10
 74
     0
 42
0.000000001
 43
0.00000001
 40
0.0
 40
0.0
 40
0.0
 40
0.0
 40
0.25
 40
0.25
 40
0.5
 40
0.5
 40
0.75
 40
0.75
 40
1.0
 40
1.0
 40
1.0
 40
1.0
 10
12.0
 20
7.616301880031176
 30
0.0
 10
12.0
 20
7.508712757178099
 30
0.0
 10
12.0
 20
7.321296794131039
 30
0.0
 10
12.0
 20
6.782965104705814
 30
0.0
 10
12.0
 20
6.432018193865604
 30
0.0
 10
12.0
 20
5.586204075461578
 30
0.0
 10
12.0
 20
5.091581113339535
 30
0.0
 10
12.0
 20
3.99877600926634
 30
0.0
 10
12.0
 20
3.400999298387172
 30
0.0
 10
12.0
 20
2.776850006830316
 30
0.0
  0
SPLINE
  5
C0
330
1F
100
AcDbEntity
  8
0
  6
Continuous
 62
     1
370
    15
100
AcDbSpline
210
0.0
220
0.0
230
1.0
 70
    24
 71
     3
 72
    10
 73
     6
 74
     0
 42
0.000000001
 43
0.00000001
 40
0.0
 40
0.0
 40
0.0
 40
0.0
 40
0.5
 40
0.5
 40
1.0
 40
1.0
 40
1.0
 40
1.0
 10
32.40000000000001
 20
2.273962504588734
 30
0.0
 10
32.40000000000002
 20
2.801767246870172
 30
0.0
 10
32.40000000000002
 20
3.304266617507629
 30
0.0
 10
32.40000000000001
 20
4.221095501631599
 30
0.0
 10
32.40000000000001
 20
4.635160569708958
 30
0.0
 10
32.40000000000001
 20
4.989159483222098
 30
0.0
  0
SPLINE
  5
C1
330
1F
100
AcDbEntity
  8
0
  6
Continuous
 62
     1
370
    15
100
AcDbSpline
210
0.0
220
0.0
230
1.0
 70
     8
 71
     3
 72
     9
 73
     5
 74
     0
 42
0.000000001
 43
0.00000001
 40
0.0
 40
0.0
 40
0.0
 40
0.0
 40
0.803317854085378
 40
0.9999999999999999
 40
0.9999999999999999
 40
0.9999999999999999
 40
0.9999999999999999
 10
37.40000000000001
 20
6.667499999999999
 30
0.0
 10
36.45140000415316
 20
6.660623972567576
 30
0.0
 10
35.27054738022279
 20
6.652064437388005
 30
0.0
 10
34.08971229193058
 20
6.522188128202928
 30
0.0
 10
33.85746311279399
 20
6.496643777008938
 30
0.0
  0
SPLINE
  5
C2
330
1F
100
AcDbEntity
  8
0
  6
Continuous
 62
     1
370
    15
100
AcDbSpline
210
0.0
220
0.0
230
1.0
 70
     8
 71
     3
 72
    10
 73
     6
 74
     0
 42
0.000000001
 43
0.00000001
 40
0.0
 40
0.0
 40
0.0
 40
0.0
 40
0.5
 40
0.5
 40
1.0
 40
1.0
 40
1.0
 40
1.0
 10
37.40000000000001
 20
6.667500000000002
 30
0.0
 10
36.55705417514778
 20
6.438941566832861
 30
0.0
 10
35.71842461786646
 20
6.186028406994864
 30
0.0
 10
34.05034462458524
 20
5.628489846077759
 30
0.0
 10
33.2217415413576
 20
5.324646660889366
 30
0.0
 10
32.40000000000001
 20
4.989159483222098
 30
0.0
  0
SPLINE
  5
C3
330
1F
100
AcDbEntity
  8
0
  6
Continuous
 62
     1
370
    15
100
AcDbSpline
210
0.0
220
0.0
230
1.0
 70
     8
 71
     3
 72
    10
 73
     6
 74
     0
 42
0.000000001
 43
0.00000001
 40
0.0
 40
0.0
 40
0.0
 40
0.0
 40
0.1445875930690657
 40
0.5723864937468299
 40
1.0
 40
1.0
 40
1.0
 40
1.0
 10
17.22350179240354
 20
-7.149050124514915
 30
0.0
 10
16.97170950844321
 20
-7.192575427687173
 30
0.0
 10
15.97492617794183
 20
-7.364881329896471
 30
0.0
 10
14.23384047515161
 20
-7.538710506716799
 30
0.0
 10
12.74450589670418
 20
-7.590441826187356
 30
0.0
 10
12.00000000000001
 20
-7.616301880031179
 30
0.0
  0
SPLINE
  5
C4
330
1F
100
AcDbEntity
  8
외형선
  6
Continuous
370
    15
100
AcDbSpline
210
0.0
220
0.0
230
1.0
 70
    24
 71
     3
 72
    14
 73
    10
 74
     0
 42
0.000000001
 43
0.00000001
 40
0.0
 40
0.0
 40
0.0
 40
0.0
 40
0.25
 40
0.25
 40
0.5
 40
0.5
 40
0.75
 40
0.75
 40
1.0
 40
1.0
 40
1.0
 40
1.0
 10
12.0
 20
-0.2077008794007023
 30
0.0
 10
12.0
 20
-1.026129425812745
 30
0.0
 10
12.0
 20
-1.845683258598303
 30
0.0
 10
12.0
 20
-3.404412153196309
 30
0.0
 10
12.0
 20
-4.142673155620671
 30
0.0
 10
12.0
 20
-5.459395151623739
 30
0.0
 10
12.0
 20
-6.037154540673167
 30
0.0
 10
12.0
 20
-6.98432042920424
 30
0.0
 10
12.0
 20
-7.353671842538225
 30
0.0
 10
12.0
 20
-7.616301880031181
 30
0.0
  0
LINE
  5
C5
330
1F
100
AcDbEntity
  8
0
  6
Continuous
 62
     1
370
    15
100
AcDbLine
 10
37.40000000000001
 20
0.0000000000000012
 30
0.0
 11
37.40000000000001
 21
6.667500000000001
 31
0.0
  0
SPLINE
  5
C6
330
1F
100
AcDbEntity
  8
0
  6
Continuous
 62
     1
370
    15
100
AcDbSpline
210
0.0
220
0.0
230
1.0
 70
     8
 71
     3
 72
    13
 73
     9
 74
     0
 42
0.000000001
 43
0.00000001
 40
0.0
 40
0.0
 40
0.0
 40
0.0
 40
0.1462925553616486
 40
0.3170380142412249
 40
0.4878918272001531
 40
0.6585554038386248
 40
0.8291951041905161
 40
1.0
 40
1.0
 40
1.0
 40
1.0
 10
24.30739654617026
 20
6.384399279685046
 30
0.0
 10
24.94579474111471
 20
6.653676031952745
 30
0.0
 10
26.3292998382813
 20
7.237239335015111
 30
0.0
 10
28.45852200379786
 20
7.973314921520661
 30
0.0
 10
30.69471114183674
 20
8.613989029745916
 30
0.0
 10
32.92954885917887
 20
9.090395800597843
 30
0.0
 10
35.1641371839846
 20
9.4134846237373
 30
0.0
 10
36.65447204668867
 20
9.482450162470979
 30
0.0
 10
37.40000000000001
 20
9.524999999999999
 30
0.0
  0
SPLINE
  5
C7
330
1F
100
AcDbEntity
  8
0
  6
Continuous
 62
     1
370
    15
100
AcDbSpline
210
0.0
220
0.0
230
1.0
 70
    24
 71
     3
 72
    10
 73
     6
 74
     0
 42
0.000000001
 43
0.00000001
 40
0.0
 40
0.0
 40
0.0
 40
0.0
 40
0.5
 40
0.5
 40
1.0
 40
1.0
 40
1.0
 40
1.0
 10
37.40000000000001
 20
6.667499999999998
 30
0.0
 10
37.40000000000001
 20
7.071667246089661
 30
0.0
 10
37.40000000000001
 20
7.541347015959288
 30
0.0
 10
37.40000000000001
 20
8.526733908152142
 30
0.0
 10
37.40000000000002
 20
9.039924476009023
 30
0.0
 10
37.40000000000001
 20
9.524999999999999
 30
0.0
  0
LINE
  5
C8
330
1F
100
AcDbEntity
  8
중심선
 62
     1
100
AcDbLine
 10
-41.80000000000001
 20
-0.0000000000000064
 30
0.0
 11
40.40000000000001
 21
0.0000000000000037
 31
0.0
  0
LINE
  5
C9
330
1F
100
AcDbEntity
  8
참조1
100
AcDbLine
 10
2.149261314031162
 20
0.0010749287238892
 30
0.0
 11
2.149261314031167
 21
-39.99892507127611
 31
0.0
  0
LINE
  5
CA
330
1F
100
AcDbEntity
  8
참조1
100
AcDbLine
 10
2.149261314031167
 20
-39.99892507127611
 30
0.0
 11
-20.15080122126847
 21
-39.9989250712761
 31
0.0
  0
CIRCLE
  5
CB
330
1F
100
AcDbEntity
  8
해칭선
100
AcDbCircle
 10
0.0
 20
0.0
 30
0.0
 40
2.999999999999995
  0
INSERT
  5
CC
330
1F
100
AcDbEntity
  8
0
  6
Continuous
 62
     7
100
AcDbBlockReference
 66
     1
  2
블럭10
 10
-14.6402729321252
 20
-34.80558634255488
 30
0.0
  0
ATTRIB
  5
CD
330
CC
100
AcDbEntity
  8
FORMAT
 62
     2
100
AcDbText
 10
-23.82156822086649
 20
-32.73021942972269
 30
0.0
 40
4.233333333333333
  1
E5244048 [ 2 FLUTE ]
 41
0.75
  7
SLDTEXTSTYLE0
 11
-23.82156822086649
 21
-34.84688609638935
 31
0.0
100
AcDbAttribute
  2
AUTOATTR0
 70
     0
 74
     1
  0
SEQEND
  5
CE
330
CC
100
AcDbEntity
  8
0
  6
Continuous
 62
     7
  0
HATCH
  5
CF
330
1F
100
AcDbEntity
  8
중심선
100
AcDbHatch
 10
0.0
 20
0.0
 30
0.0
210
0.0
220
0.0
230
1.0
  2
SOLID
 70
     1
 71
     0
 91
        1
 92
        0
 93
        4
 72
     1
 10
-8.925363627744355
 20
-18.55841204091094
 11
-12.37163887158164
 21
-18.55841204091094
 72
     1
 10
-12.37163887158164
 20
-18.55841204091094
 11
-14.49986873078566
 21
-21.09473762148354
 72
     1
 10
-14.49986873078566
 20
-21.09473762148354
 11
-11.05356040183523
 21
-21.09469819218105
 72
     1
 10
-11.05356040183523
 20
-21.09469819218105
 11
-8.925363627744355
 21
-18.55841204091094
 97
        0
 75
     0
 76
     1
 98
        1
 10
-2.84926131403116
 20
17.24051303036516
  0
HATCH
  5
D0
330
1F
100
AcDbEntity
  8
중심선
100
AcDbHatch
 10
0.0
 20
0.0
 30
0.0
210
0.0
220
0.0
230
1.0
  2
SOLID
 70
     1
 71
     0
 91
        1
 92
        0
 93
        4
 72
     1
 10
-3.912599636708403
 20
-18.55841204091094
 11
-7.358874880545686
 21
-18.55841204091094
 72
     1
 10
-7.358874880545686
 20
-18.55841204091094
 11
-11.89001288890307
 21
-23.95841204091096
 72
     1
 10
-11.89001288890307
 20
-23.95841204091096
 11
-8.443737645065791
 21
-23.95841204091096
 72
     1
 10
-8.443737645065791
 20
-23.95841204091096
 11
-3.912599636708403
 21
-18.55841204091094
 97
        0
 75
     0
 76
     1
 98
        1
 10
-2.84926131403116
 20
17.24051303036516
  0
HATCH
  5
D1
330
1F
100
AcDbEntity
  8
중심선
100
AcDbHatch
 10
0.0
 20
0.0
 30
0.0
210
0.0
220
0.0
230
1.0
  2
SOLID
 70
     1
 71
     0
 91
        1
 92
        0
 93
        4
 72
     1
 10
1.100164354327492
 20
-18.55841204091094
 11
-2.346110889509624
 21
-18.55841204091097
 72
     1
 10
-2.346110889509624
 20
-18.55841204091097
 11
-9.394547791398873
 21
-26.95841204091096
 72
     1
 10
-9.394547791398873
 20
-26.95841204091096
 11
-5.94827254756159
 21
-26.95841204091096
 72
     1
 10
-5.94827254756159
 20
-26.95841204091096
 11
1.100164354327492
 21
-18.55841204091094
 97
        0
 75
     0
 76
     1
 98
        1
 10
-2.84926131403116
 20
17.24051303036516
  0
HATCH
  5
D2
330
1F
100
AcDbEntity
  8
중심선
100
AcDbHatch
 10
0.0
 20
0.0
 30
0.0
210
0.0
220
0.0
230
1.0
  2
SOLID
 70
     1
 71
     0
 91
        1
 92
        0
 93
        6
 72
     3
 10
5.900054785339691
 20
-22.75841204096221
 11
3.960054785062283
 21
1.540882976769353E-10
 40
0.3939339440162628
 50
17.09539180608439
 51
320.0019657685075
 73
     0
 72
     1
 10
7.583054441040288
 20
-21.34630604554921
 11
9.888356314741353
 21
-19.41197933550129
 72
     3
 10
5.900054785286844
 20
-22.75841204091109
 11
6.600054785286829
 21
-1.278976924368180E-13
 40
0.636358354079598
 50
39.99873849337413
 51
368.4976242363725
 73
     1
 72
     1
 10
12.32538727718745
 20
-21.79841204084097
 11
4.580122092122795
 21
-21.79841204084097
 72
     1
 10
4.580122092122795
 20
-21.79841204084097
 11
4.580097047676833
 21
-23.71841204084085
 72
     1
 10
4.580097047676833
 20
-23.71841204084085
 11
9.021476817148871
 21
-23.71841204084082
 97
        0
 75
     0
 76
     1
 98
        1
 10
-2.84926131403116
 20
17.24051303036516
  0
DIMENSION
  5
D3
330
1F
100
AcDbEntity
  8
치수문자_일반주서
100
AcDbDimension
  2
_D
 10
-52.92909427134455
 20
-9.525000000000066
 30
0.0
 11
-52.92909427134467
 21
29.39999999999995
 31
0.0
 70
   160
  1
%%c<>
 71
     2
 42
19.05000000000001
 52
-270.0
  3
SLDDIMSTYLE2
100
AcDbAlignedDimension
 13
-37.8
 23
9.525000000000002
 33
0.0
 14
-37.8
 24
-9.52500000000001
 34
0.0
 50
90.0000000000002
100
AcDbRotatedDimension
1001
ACAD
1000
DSTYLE
1002
{
1070
   171
1070
     6
1070
   273
1070
     5
1070
    41
1040
4.0
1070
   140
1040
4.0
1002
}
  0
DIMENSION
  5
E8
330
1F
100
AcDbEntity
  8
치수문자_일반주서
100
AcDbDimension
  2
_D_1
 10
12.00000000000001
 20
22.69329134588529
 30
0.0
 11
24.70000000000001
 21
22.69329134588529
 31
0.0
 70
   160
  1
<>
 71
     2
 42
25.40000000000001
  3
SLDDIMSTYLE2
100
AcDbAlignedDimension
 13
37.40000000000001
 23
9.524999999999999
 33
0.0
 14
12.00000000000001
 24
7.616301880031176
 34
0.0
100
AcDbRotatedDimension
1001
ACAD
1000
DSTYLE
1002
{
1070
   171
1070
     6
1070
   273
1070
     5
1070
    41
1040
4.0
1070
   140
1040
4.0
1002
}
  0
DIMENSION
  5
FD
330
1F
100
AcDbEntity
  8
치수문자_일반주서
100
AcDbDimension
  2
_D_2
 10
-38.8
 20
39.56419134481795
 30
0.0
 11
-0.7000000000000006
 21
39.56419134481795
 31
0.0
 70
   160
  1
<>
 71
     2
 42
76.20000000000002
  3
SLDDIMSTYLE2
100
AcDbAlignedDimension
 13
37.40000000000001
 23
9.524999999999999
 33
0.0
 14
-38.8
 24
8.524999999999991
 34
0.0
 50
0.0000000000000053
100
AcDbRotatedDimension
1001
ACAD
1000
DSTYLE
1002
{
1070
   171
1070
     6
1070
   273
1070
     5
1070
    41
1040
4.0
1070
   140
1040
4.0
1002
}
  0
DIMENSION
  5
110
330
1F
100
AcDbEntity
  8
치수문자_일반주서
100
AcDbDimension
  2
_D_3
 10
55.90547739369996
 20
9.525000000000066
 30
0.0
 11
55.9054773936999
 21
29.40000000000007
 31
0.0
 70
   160
  1
%%c<>
 71
     2
 42
19.05
 52
-270.0
  3
SLDDIMSTYLE2
100
AcDbAlignedDimension
 13
37.40000000000003
 23
-9.525000000000002
 33
0.0
 14
37.40000000000001
 24
9.524999999999999
 34
0.0
 50
90.0000000000002
100
AcDbRotatedDimension
1001
ACAD
1000
DSTYLE
1002
{
1070
   171
1070
     6
1070
   273
1070
     5
1070
    41
1040
4.0
1070
   140
1040
4.0
1002
}
  0
LINE
  5
124
330
1F
100
AcDbEntity
  8
참조1
100
AcDbLine
 10
77.82153940838579
 20
7.441074928723896
 30
0.0
 11
77.82153940838579
 21
-7.438925071276109
 31
0.0
  0
LINE
  5
125
330
1F
100
AcDbEntity
  8
참조1
100
AcDbLine
 10
90.52153940838579
 20
5.441074928723896
 30
0.0
 11
77.82153940838579
 21
5.441074928723896
 31
0.0
  0
SOLID
  5
126
330
1F
100
AcDbEntity
  8
참조1
100
AcDbTrace
 10
77.82153940838579
 20
5.441074928723896
 30
0.0
 11
84.17153940838578
 21
4.425074928723896
 31
0.0
 12
84.17153940838578
 22
6.457074928723896
 32
0.0
 13
84.17153940838578
 23
6.457074928723896
 33
0.0
  0
LINE
  5
127
330
1F
100
AcDbEntity
  8
참조1
100
AcDbLine
 10
90.52153940838579
 20
-5.438925071276109
 30
0.0
 11
77.82153940838579
 21
-5.438925071276109
 31
0.0
  0
SOLID
  5
128
330
1F
100
AcDbEntity
  8
참조1
100
AcDbTrace
 10
77.82153940838579
 20
-5.438925071276109
 30
0.0
 11
84.17153940838578
 21
-6.454925071276109
 31
0.0
 12
84.17153940838578
 22
-4.422925071276109
 32
0.0
 13
84.17153940838578
 23
-4.422925071276109
 33
0.0
  0
MTEXT
  5
129
330
1F
100
AcDbEntity
  8
참조1
100
AcDbMText
 10
87.20588954101179
 20
11.01136670591222
 30
0.0
 40
3.5
 41
0.0
 71
     1
 72
     1
  1
A
  7
SLDTEXTSTYLE0
 73
     1
 44
1.0
  0
MTEXT
  5
12A
330
1F
100
AcDbEntity
  8
참조1
100
AcDbMText
 10
87.20588954101179
 20
0.1313667059122192
 30
0.0
 40
3.5
 41
0.0
 71
     1
 72
     1
  1
A
  7
SLDTEXTSTYLE0
 73
     1
 44
1.0
  0
INSERT
  5
131
330
1F
100
AcDbEntity
  8
해칭선
100
AcDbBlockReference
  2
SW_DOWELSYMBOL_0
 10
0.0
 20
0.0
 30
0.0
  0
ENDSEC
  0
SECTION
  2
OBJECTS
  0
DICTIONARY
  5
C
330
0
100
AcDbDictionary
281
     1
  3
ACAD_GROUP
350
D
  3
ACAD_IMAGE_VARS
350
155
  3
ACAD_LAYOUT
350
1A
  3
ACAD_MLINESTYLE
350
17
  3
ACAD_PLOTSETTINGS
350
19
  3
ACAD_PLOTSTYLENAME
350
E
  3
ACAD_SCALELIST
350
47
  3
APPDATA
350
153
  3
DWGPROPS
350
2C9
  0
DICTIONARY
  5
20F
330
2
100
AcDbDictionary
280
     1
281
     1
  3
ACAD_LAYERSTATES
360
210
  0
DICTIONARY
  5
D
102
{ACAD_REACTORS
330
C
102
}
330
C
100
AcDbDictionary
281
     1
  0
RASTERVARIABLES
  5
155
102
{ACAD_REACTORS
330
C
102
}
330
C
100
AcDbRasterVariables
 90
        0
 70
     1
 71
     1
 72
     1
  0
DICTIONARY
  5
1A
102
{ACAD_REACTORS
330
C
102
}
330
C
100
AcDbDictionary
281
     1
  3
Layout1
350
1E
  3
Layout2
350
26
  3
Model
350
22
  0
DICTIONARY
  5
17
102
{ACAD_REACTORS
330
C
102
}
330
C
100
AcDbDictionary
281
     1
  3
Standard
350
18
  0
DICTIONARY
  5
19
102
{ACAD_REACTORS
330
C
102
}
330
C
100
AcDbDictionary
281
     1
  0
ACDBDICTIONARYWDFLT
  5
E
102
{ACAD_REACTORS
330
C
102
}
330
C
100
AcDbDictionary
281
     1
  3
Normal
350
F
100
AcDbDictionaryWithDefault
340
F
  0
DICTIONARY
  5
47
102
{ACAD_REACTORS
330
C
102
}
330
C
100
AcDbDictionary
281
     1
  3
A0
350
48
  3
A1
350
49
  3
A2
350
4A
  3
A3
350
4B
  3
A4
350
4C
  3
A5
350
4D
  3
A6
350
4E
  3
A7
350
4F
  3
A8
350
50
  3
A9
350
51
  3
B0
350
52
  3
B1
350
53
  3
B2
350
54
  3
B3
350
55
  3
B4
350
56
  3
B5
350
57
  3
B6
350
58
  3
B7
350
59
  3
B8
350
5A
  3
B9
350
5B
  3
C0
350
5C
  3
C1
350
5D
  3
C2
350
5E
  3
C3
350
5F
  3
C4
350
60
  3
C5
350
61
  3
C6
350
62
  3
C7
350
63
  3
C8
350
64
  3
C9
350
65
  3
D0
350
66
  3
D1
350
67
  3
D2
350
68
  0
DICTIONARY
  5
153
102
{ACAD_REACTORS
330
C
102
}
330
C
100
AcDbDictionary
281
     1
  0
XRECORD
  5
2C9
102
{ACAD_REACTORS
330
C
102
}
330
C
100
AcDbXrecord
280
     1
  1
DWGPROPS COOKIE
  2

  3

  4

  6

  7

  8
12014074
  9

300
=
301
=
302
=
303
=
304
=
305
=
306
=
307
=
308
=
309
=
 40
0.0
 41
2458311.123842847
 42
2458324.21471934
  1

 90
        0
  0
DICTIONARY
  5
210
102
{ACAD_REACTORS
330
20F
102
}
330
20F
100
AcDbDictionary
281
     1
  0
LAYOUT
  5
1E
102
{ACAD_REACTORS
330
1A
102
}
330
1A
100
AcDbPlotSettings
  1

  2
none_device
  4

  6

 40
0.0
 41
0.0
 42
0.0
 43
0.0
 44
0.0
 45
0.0
 46
0.0
 47
0.0
 48
0.0
 49
0.0
140
0.0
141
0.0
142
1.0
143
1.0
 70
   688
 72
     1
 73
     0
 74
     5
  7

 75
    16
147
1.0
148
0.0
149
0.0
100
AcDbLayout
  1
Layout1
 70
     1
 71
     1
 10
0.0
 20
0.0
 11
420.0
 21
297.0
 12
0.0
 22
0.0
 32
0.0
 14
1.000000000000000E+20
 24
1.000000000000000E+20
 34
1.000000000000000E+20
 15
-1.000000000000000E+20
 25
-1.000000000000000E+20
 35
-1.000000000000000E+20
146
0.0
 13
0.0
 23
0.0
 33
0.0
 16
1.0
 26
0.0
 36
0.0
 17
0.0
 27
1.0
 37
0.0
 76
     0
330
1B
  0
LAYOUT
  5
26
102
{ACAD_REACTORS
330
1A
102
}
330
1A
100
AcDbPlotSettings
  1

  2
none_device
  4

  6

 40
0.0
 41
0.0
 42
0.0
 43
0.0
 44
0.0
 45
0.0
 46
0.0
 47
0.0
 48
0.0
 49
0.0
140
0.0
141
0.0
142
1.0
143
1.0
 70
   688
 72
     1
 73
     0
 74
     5
  7

 75
    16
147
1.0
148
0.0
149
0.0
100
AcDbLayout
  1
Layout2
 70
     1
 71
     2
 10
0.0
 20
0.0
 11
0.0
 21
0.0
 12
0.0
 22
0.0
 32
0.0
 14
0.0
 24
0.0
 34
0.0
 15
0.0
 25
0.0
 35
0.0
146
0.0
 13
0.0
 23
0.0
 33
0.0
 16
1.0
 26
0.0
 36
0.0
 17
0.0
 27
1.0
 37
0.0
 76
     0
330
23
  0
LAYOUT
  5
22
102
{ACAD_REACTORS
330
1A
102
}
330
1A
100
AcDbPlotSettings
  1

  2
none_device
  4
ANSI_A_(11.00_x_8.50_Inches)
  6

 40
6.35
 41
19.05
 42
6.35000508
 43
19.05000254
 44
279.4
 45
215.9
 46
110.7258668152993
 47
55.39601377234878
 48
0.0
 49
0.0
140
0.0
141
0.0
142
0.0569547996289623
143
1.0
 70
  1696
 72
     0
 73
     0
 74
     0
  7

 75
     0
147
0.0235690232323232
148
0.0
149
0.0
100
AcDbLayout
  1
Model
 70
     1
 71
     0
 10
0.0
 20
0.0
 11
420.0
 21
297.0
 12
0.0
 22
0.0
 32
0.0
 14
1.000000000000000E+20
 24
1.000000000000000E+20
 34
1.000000000000000E+20
 15
-1.000000000000000E+20
 25
-1.000000000000000E+20
 35
-1.000000000000000E+20
146
0.0
 13
0.0
 23
0.0
 33
0.0
 16
1.0
 26
0.0
 36
0.0
 17
0.0
 27
1.0
 37
0.0
 76
     0
330
1F
331
29
  0
MLINESTYLE
  5
18
102
{ACAD_REACTORS
330
17
102
}
330
17
100
AcDbMlineStyle
  2
Standard
 70
     0
  3

 62
   256
 51
90.0
 52
90.0
 71
     2
 49
0.5
 62
   256
  6
BYLAYER
 49
-0.5
 62
   256
  6
BYLAYER
  0
ACDBPLACEHOLDER
  5
F
102
{ACAD_REACTORS
330
E
102
}
330
E
  0
SCALE
  5
48
102
{ACAD_REACTORS
330
47
102
}
330
47
100
AcDbScale
 70
     0
300
1:1
140
1.0
141
1.0
290
     1
  0
SCALE
  5
49
102
{ACAD_REACTORS
330
47
102
}
330
47
100
AcDbScale
 70
     0
300
1:2
140
1.0
141
2.0
290
     0
  0
SCALE
  5
4A
102
{ACAD_REACTORS
330
47
102
}
330
47
100
AcDbScale
 70
     0
300
1:4
140
1.0
141
4.0
290
     0
  0
SCALE
  5
4B
102
{ACAD_REACTORS
330
47
102
}
330
47
100
AcDbScale
 70
     0
300
1:5
140
1.0
141
5.0
290
     0
  0
SCALE
  5
4C
102
{ACAD_REACTORS
330
47
102
}
330
47
100
AcDbScale
 70
     0
300
1:8
140
1.0
141
8.0
290
     0
  0
SCALE
  5
4D
102
{ACAD_REACTORS
330
47
102
}
330
47
100
AcDbScale
 70
     0
300
1:10
140
1.0
141
10.0
290
     0
  0
SCALE
  5
4E
102
{ACAD_REACTORS
330
47
102
}
330
47
100
AcDbScale
 70
     0
300
1:16
140
1.0
141
16.0
290
     0
  0
SCALE
  5
4F
102
{ACAD_REACTORS
330
47
102
}
330
47
100
AcDbScale
 70
     0
300
1:20
140
1.0
141
20.0
290
     0
  0
SCALE
  5
50
102
{ACAD_REACTORS
330
47
102
}
330
47
100
AcDbScale
 70
     0
300
1:30
140
1.0
141
30.0
290
     0
  0
SCALE
  5
51
102
{ACAD_REACTORS
330
47
102
}
330
47
100
AcDbScale
 70
     0
300
1:40
140
1.0
141
40.0
290
     0
  0
SCALE
  5
52
102
{ACAD_REACTORS
330
47
102
}
330
47
100
AcDbScale
 70
     0
300
1:50
140
1.0
141
50.0
290
     0
  0
SCALE
  5
53
102
{ACAD_REACTORS
330
47
102
}
330
47
100
AcDbScale
 70
     0
300
1:100
140
1.0
141
100.0
290
     0
  0
SCALE
  5
54
102
{ACAD_REACTORS
330
47
102
}
330
47
100
AcDbScale
 70
     0
300
2:1
140
2.0
141
1.0
290
     0
  0
SCALE
  5
55
102
{ACAD_REACTORS
330
47
102
}
330
47
100
AcDbScale
 70
     0
300
4:1
140
4.0
141
1.0
290
     0
  0
SCALE
  5
56
102
{ACAD_REACTORS
330
47
102
}
330
47
100
AcDbScale
 70
     0
300
8:1
140
8.0
141
1.0
290
     0
  0
SCALE
  5
57
102
{ACAD_REACTORS
330
47
102
}
330
47
100
AcDbScale
 70
     0
300
10:1
140
10.0
141
1.0
290
     0
  0
SCALE
  5
58
102
{ACAD_REACTORS
330
47
102
}
330
47
100
AcDbScale
 70
     0
300
100:1
140
100.0
141
1.0
290
     0
  0
SCALE
  5
59
102
{ACAD_REACTORS
330
47
102
}
330
47
100
AcDbScale
 70
     0
300
1/128" = 1'-0"
140
0.0078125
141
12.0
290
     0
  0
SCALE
  5
5A
102
{ACAD_REACTORS
330
47
102
}
330
47
100
AcDbScale
 70
     0
300
1/64" = 1'-0"
140
0.015625
141
12.0
290
     0
  0
SCALE
  5
5B
102
{ACAD_REACTORS
330
47
102
}
330
47
100
AcDbScale
 70
     0
300
1/32" = 1'-0"
140
0.03125
141
12.0
290
     0
  0
SCALE
  5
5C
102
{ACAD_REACTORS
330
47
102
}
330
47
100
AcDbScale
 70
     0
300
1/16" = 1'-0"
140
0.0625
141
12.0
290
     0
  0
SCALE
  5
5D
102
{ACAD_REACTORS
330
47
102
}
330
47
100
AcDbScale
 70
     0
300
3/32" = 1'-0"
140
0.09375
141
12.0
290
     0
  0
SCALE
  5
5E
102
{ACAD_REACTORS
330
47
102
}
330
47
100
AcDbScale
 70
     0
300
1/8" = 1'-0"
140
0.125
141
12.0
290
     0
  0
SCALE
  5
5F
102
{ACAD_REACTORS
330
47
102
}
330
47
100
AcDbScale
 70
     0
300
3/16" = 1'-0"
140
0.1875
141
12.0
290
     0
  0
SCALE
  5
60
102
{ACAD_REACTORS
330
47
102
}
330
47
100
AcDbScale
 70
     0
300
1/4" = 1'-0"
140
0.25
141
12.0
290
     0
  0
SCALE
  5
61
102
{ACAD_REACTORS
330
47
102
}
330
47
100
AcDbScale
 70
     0
300
3/8" = 1'-0"
140
0.375
141
12.0
290
     0
  0
SCALE
  5
62
102
{ACAD_REACTORS
330
47
102
}
330
47
100
AcDbScale
 70
     0
300
1/2" = 1'-0"
140
0.5
141
12.0
290
     0
  0
SCALE
  5
63
102
{ACAD_REACTORS
330
47
102
}
330
47
100
AcDbScale
 70
     0
300
3/4" = 1'-0"
140
0.75
141
12.0
290
     0
  0
SCALE
  5
64
102
{ACAD_REACTORS
330
47
102
}
330
47
100
AcDbScale
 70
     0
300
1" = 1'-0"
140
1.0
141
12.0
290
     0
  0
SCALE
  5
65
102
{ACAD_REACTORS
330
47
102
}
330
47
100
AcDbScale
 70
     0
300
1-1/2" = 1'-0"
140
1.5
141
12.0
290
     0
  0
SCALE
  5
66
102
{ACAD_REACTORS
330
47
102
}
330
47
100
AcDbScale
 70
     0
300
3" = 1'-0"
140
3.0
141
12.0
290
     0
  0
SCALE
  5
67
102
{ACAD_REACTORS
330
47
102
}
330
47
100
AcDbScale
 70
     0
300
6" = 1'-0"
140
6.0
141
12.0
290
     0
  0
SCALE
  5
68
102
{ACAD_REACTORS
330
47
102
}
330
47
100
AcDbScale
 70
     0
300
1'-0" = 1'-0"
140
12.0
141
12.0
290
     0
  0
ENDSEC
  0
EOF
