  0
SECTION
  2
HEADER
  9
$ACADVER
  1
AC1015
  9
$ACADMAINTVER
 70
     6
  9
$DWGCODEPAGE
  3
ANSI_949
  9
$INSBASE
 10
0.0
 20
0.0
 30
0.0
  9
$EXTMIN
 10
-46.12500000000012
 20
-49.97180738881175
 30
0.0
  9
$EXTMAX
 10
91.54473381534558
 20
38.25712500000014
 30
0.0
  9
$LIMMIN
 10
0.0
 20
0.0
  9
$LIMMAX
 10
420.0
 20
297.0
  9
$ORTHOMODE
 70
     1
  9
$REGENMODE
 70
     1
  9
$FILLMODE
 70
     1
  9
$QTEXTMODE
 70
     0
  9
$MIRRTEXT
 70
     1
  9
$LTSCALE
 40
1.0
  9
$ATTMODE
 70
     1
  9
$TEXTSIZE
 40
3.5
  9
$TRACEWID
 40
1.0
  9
$TEXTSTYLE
  7
Standard
  9
$CLAYER
  8
0
  9
$CELTYPE
  6
ByLayer
  9
$CECOLOR
 62
   256
  9
$CELTSCALE
 40
1.0
  9
$DISPSILH
 70
     0
  9
$DIMSCALE
 40
1.0
  9
$DIMASZ
 40
3.302
  9
$DIMEXO
 40
1.0
  9
$DIMDLI
 40
3.75
  9
$DIMRND
 40
0.0
  9
$DIMDLE
 40
0.0
  9
$DIMEXE
 40
1.0
  9
$DIMTP
 40
0.0
  9
$DIMTM
 40
0.0
  9
$DIMTXT
 40
3.5
  9
$DIMCEN
 40
2.5
  9
$DIMTSZ
 40
0.0
  9
$DIMTOL
 70
     0
  9
$DIMLIM
 70
     0
  9
$DIMTIH
 70
     1
  9
$DIMTOH
 70
     1
  9
$DIMSE1
 70
     0
  9
$DIMSE2
 70
     0
  9
$DIMTAD
 70
     1
  9
$DIMZIN
 70
     0
  9
$DIMBLK
  1

  9
$DIMASO
 70
     1
  9
$DIMSHO
 70
     1
  9
$DIMPOST
  1

  9
$DIMAPOST
  1

  9
$DIMALT
 70
     0
  9
$DIMALTD
 70
     3
  9
$DIMALTF
 40
0.0393700787401575
  9
$DIMLFAC
 40
1.0
  9
$DIMTOFL
 70
     1
  9
$DIMTVP
 40
0.0
  9
$DIMTIX
 70
     0
  9
$DIMSOXD
 70
     0
  9
$DIMSAH
 70
     0
  9
$DIMBLK1
  1

  9
$DIMBLK2
  1

  9
$DIMSTYLE
  2
ISO-25
  9
$DIMCLRD
 70
     0
  9
$DIMCLRE
 70
     0
  9
$DIMCLRT
 70
     0
  9
$DIMTFAC
 40
1.0
  9
$DIMGAP
 40
1.524
  9
$DIMJUST
 70
     0
  9
$DIMSD1
 70
     0
  9
$DIMSD2
 70
     0
  9
$DIMTOLJ
 70
     0
  9
$DIMTZIN
 70
     0
  9
$DIMALTZ
 70
     0
  9
$DIMALTTZ
 70
     0
  9
$DIMUPT
 70
     0
  9
$DIMDEC
 70
     2
  9
$DIMTDEC
 70
     2
  9
$DIMALTU
 70
     2
  9
$DIMALTTD
 70
     3
  9
$DIMTXSTY
  7
Standard
  9
$DIMAUNIT
 70
     0
  9
$DIMADEC
 70
     2
  9
$DIMALTRND
 40
0.0
  9
$DIMAZIN
 70
     0
  9
$DIMDSEP
 70
    44
  9
$DIMATFIT
 70
     3
  9
$DIMFRAC
 70
     0
  9
$DIMLDRBLK
  1

  9
$DIMLUNIT
 70
     2
  9
$DIMLWD
 70
    -2
  9
$DIMLWE
 70
    -2
  9
$DIMTMOVE
 70
     0
  9
$LUNITS
 70
     2
  9
$LUPREC
 70
     2
  9
$SKETCHINC
 40
1.0
  9
$FILLETRAD
 40
10.0
  9
$AUNITS
 70
     0
  9
$AUPREC
 70
     2
  9
$MENU
  1
.
  9
$ELEVATION
 40
0.0
  9
$PELEVATION
 40
0.0
  9
$THICKNESS
 40
0.0
  9
$LIMCHECK
 70
     0
  9
$CHAMFERA
 40
0.0
  9
$CHAMFERB
 40
0.0
  9
$CHAMFERC
 40
0.0
  9
$CHAMFERD
 40
0.0
  9
$SKPOLY
 70
     0
  9
$TDCREATE
 40
2458319.753208079
  9
$TDUCREATE
 40
2458319.378208079
  9
$TDUPDATE
 40
2458324.613883646
  9
$TDUUPDATE
 40
2458324.238883646
  9
$TDINDWG
 40
0.0010612847
  9
$TDUSRTIMER
 40
0.0018039236
  9
$USRTIMER
 70
     1
  9
$ANGBASE
 50
0.0
  9
$ANGDIR
 70
     0
  9
$PDMODE
 70
     0
  9
$PDSIZE
 40
-1.0
  9
$PLINEWID
 40
0.0
  9
$SPLFRAME
 70
     0
  9
$SPLINETYPE
 70
     6
  9
$SPLINESEGS
 70
     8
  9
$HANDSEED
  5
1F0
  9
$SURFTAB1
 70
     6
  9
$SURFTAB2
 70
     6
  9
$SURFTYPE
 70
     6
  9
$SURFU
 70
     6
  9
$SURFV
 70
     6
  9
$UCSBASE
  2

  9
$UCSNAME
  2

  9
$UCSORG
 10
0.0
 20
0.0
 30
0.0
  9
$UCSXDIR
 10
1.0
 20
0.0
 30
0.0
  9
$UCSYDIR
 10
0.0
 20
1.0
 30
0.0
  9
$UCSORTHOREF
  2

  9
$UCSORTHOVIEW
 70
     0
  9
$UCSORGTOP
 10
0.0
 20
0.0
 30
0.0
  9
$UCSORGBOTTOM
 10
0.0
 20
0.0
 30
0.0
  9
$UCSORGLEFT
 10
0.0
 20
0.0
 30
0.0
  9
$UCSORGRIGHT
 10
0.0
 20
0.0
 30
0.0
  9
$UCSORGFRONT
 10
0.0
 20
0.0
 30
0.0
  9
$UCSORGBACK
 10
0.0
 20
0.0
 30
0.0
  9
$PUCSBASE
  2

  9
$PUCSNAME
  2

  9
$PUCSORG
 10
0.0
 20
0.0
 30
0.0
  9
$PUCSXDIR
 10
1.0
 20
0.0
 30
0.0
  9
$PUCSYDIR
 10
0.0
 20
1.0
 30
0.0
  9
$PUCSORTHOREF
  2

  9
$PUCSORTHOVIEW
 70
     0
  9
$PUCSORGTOP
 10
0.0
 20
0.0
 30
0.0
  9
$PUCSORGBOTTOM
 10
0.0
 20
0.0
 30
0.0
  9
$PUCSORGLEFT
 10
0.0
 20
0.0
 30
0.0
  9
$PUCSORGRIGHT
 10
0.0
 20
0.0
 30
0.0
  9
$PUCSORGFRONT
 10
0.0
 20
0.0
 30
0.0
  9
$PUCSORGBACK
 10
0.0
 20
0.0
 30
0.0
  9
$USERI1
 70
     0
  9
$USERI2
 70
     0
  9
$USERI3
 70
     0
  9
$USERI4
 70
     0
  9
$USERI5
 70
     0
  9
$USERR1
 40
0.0
  9
$USERR2
 40
0.0
  9
$USERR3
 40
0.0
  9
$USERR4
 40
0.0
  9
$USERR5
 40
0.0
  9
$WORLDVIEW
 70
     1
  9
$SHADEDGE
 70
     3
  9
$SHADEDIF
 70
    70
  9
$TILEMODE
 70
     1
  9
$MAXACTVP
 70
    64
  9
$PINSBASE
 10
0.0
 20
0.0
 30
0.0
  9
$PLIMCHECK
 70
     0
  9
$PEXTMIN
 10
1.000000000000000E+20
 20
1.000000000000000E+20
 30
1.000000000000000E+20
  9
$PEXTMAX
 10
-1.000000000000000E+20
 20
-1.000000000000000E+20
 30
-1.000000000000000E+20
  9
$PLIMMIN
 10
0.0
 20
0.0
  9
$PLIMMAX
 10
0.0
 20
0.0
  9
$UNITMODE
 70
     0
  9
$VISRETAIN
 70
     1
  9
$PLINEGEN
 70
     0
  9
$PSLTSCALE
 70
     1
  9
$TREEDEPTH
 70
  3020
  9
$CMLSTYLE
  2
Standard
  9
$CMLJUST
 70
     0
  9
$CMLSCALE
 40
20.0
  9
$PROXYGRAPHICS
 70
     1
  9
$MEASUREMENT
 70
     1
  9
$CELWEIGHT
370
    -1
  9
$ENDCAPS
280
     0
  9
$JOINSTYLE
280
     0
  9
$LWDISPLAY
290
     1
  9
$INSUNITS
 70
     4
  9
$HYPERLINKBASE
  1

  9
$STYLESHEET
  1

  9
$XEDIT
290
     1
  9
$CEPSNTYPE
380
     0
  9
$PSTYLEMODE
290
     1
  9
$FINGERPRINTGUID
  2
{895ECCAB-27F8-4393-BA5E-EA219F9CD49A}
  9
$VERSIONGUID
  2
{FAEB1C32-E019-11D5-929B-00C0DF256EC4}
  9
$EXTNAMES
290
     1
  9
$PSVPSCALE
 40
0.0
  9
$OLESTARTUP
290
     0
  0
ENDSEC
  0
SECTION
  2
CLASSES
  0
CLASS
  1
ACDBDICTIONARYWDFLT
  2
AcDbDictionaryWithDefault
  3
ObjectDBX Classes
 90
        0
280
     0
281
     0
  0
CLASS
  1
VISUALSTYLE
  2
AcDbVisualStyle
  3
ObjectDBX Classes
 90
     4095
280
     0
281
     0
  0
CLASS
  1
MATERIAL
  2
AcDbMaterial
  3
ObjectDBX Classes
 90
     1153
280
     0
281
     0
  0
CLASS
  1
SCALE
  2
AcDbScale
  3
ObjectDBX Classes
 90
     1153
280
     0
281
     0
  0
CLASS
  1
SUN
  2
AcDbSun
  3
SCENEOE
 90
     1153
280
     0
281
     0
  0
CLASS
  1
ACDBPLACEHOLDER
  2
AcDbPlaceHolder
  3
ObjectDBX Classes
 90
        0
280
     0
281
     0
  0
CLASS
  1
LAYOUT
  2
AcDbLayout
  3
ObjectDBX Classes
 90
        0
280
     0
281
     0
  0
CLASS
  1
TABLESTYLE
  2
AcDbTableStyle
  3
ObjectDBX Classes
 90
     4095
280
     0
281
     0
  0
CLASS
  1
MLEADERSTYLE
  2
AcDbMLeaderStyle
  3
ACDB_MLEADERSTYLE_CLASS
 90
     4095
280
     0
281
     0
  0
CLASS
  1
DICTIONARYVAR
  2
AcDbDictionaryVar
  3
ObjectDBX Classes
 90
        0
280
     0
281
     0
  0
ENDSEC
  0
SECTION
  2
TABLES
  0
TABLE
  2
VPORT
  5
8
330
0
100
AcDbSymbolTable
 70
     1
  0
VPORT
  5
29
330
8
100
AcDbSymbolTableRecord
100
AcDbViewportTableRecord
  2
*Active
 70
     0
 10
0.0
 20
0.0
 11
1.0
 21
1.0
 12
22.70986690767273
 22
-5.857341194405798
 13
0.0
 23
0.0
 14
10.0
 24
10.0
 15
10.0
 25
10.0
 16
0.0
 26
0.0
 36
1.0
 17
0.0
 27
0.0
 37
0.0
 40
89.99351103658813
 41
1.782762691853601
 42
50.0
 43
0.0
 44
0.0
 50
0.0
 51
0.0
 71
    16
 72
  2000
 73
     1
 74
     3
 75
     0
 76
     0
 77
     0
 78
     0
281
     0
 65
     1
110
0.0
120
0.0
130
0.0
111
1.0
121
0.0
131
0.0
112
0.0
122
1.0
132
0.0
 79
     0
146
0.0
  0
ENDTAB
  0
TABLE
  2
LTYPE
  5
5
330
0
100
AcDbSymbolTable
 70
     6
  0
LTYPE
  5
14
330
5
100
AcDbSymbolTableRecord
100
AcDbLinetypeTableRecord
  2
ByBlock
 70
     0
  3

 72
    65
 73
     0
 40
0.0
  0
LTYPE
  5
15
330
5
100
AcDbSymbolTableRecord
100
AcDbLinetypeTableRecord
  2
ByLayer
 70
     0
  3

 72
    65
 73
     0
 40
0.0
  0
LTYPE
  5
16
330
5
100
AcDbSymbolTableRecord
100
AcDbLinetypeTableRecord
  2
Continuous
 70
     0
  3
Solid line
 72
    65
 73
     0
 40
0.0
  0
LTYPE
  5
6A
330
5
100
AcDbSymbolTableRecord
100
AcDbLinetypeTableRecord
  2
HIDDEN
 70
     0
  3
Hidden __ __ __ __ __ __ __ __ __ __ __ __ __ __
 72
    65
 73
     2
 40
1.905
 49
1.27
 74
     0
 49
-0.635
 74
     0
  0
LTYPE
  5
6B
330
5
100
AcDbSymbolTableRecord
100
AcDbLinetypeTableRecord
  2
PHANTOM
 70
     0
  3
Phantom ______  __  __  ______  __  __  ______
 72
    65
 73
     6
 40
12.7
 49
6.35
 74
     0
 49
-1.27
 74
     0
 49
1.27
 74
     0
 49
-1.27
 74
     0
 49
1.27
 74
     0
 49
-1.27
 74
     0
  0
LTYPE
  5
6C
330
5
100
AcDbSymbolTableRecord
100
AcDbLinetypeTableRecord
  2
CENTER
 70
     0
  3
Center ____ _ ____ _ ____ _ ____ _ ____ _ ____
 72
    65
 73
     4
 40
10.16
 49
6.35
 74
     0
 49
-1.27
 74
     0
 49
1.27
 74
     0
 49
-1.27
 74
     0
  0
LTYPE
  5
6D
330
5
100
AcDbSymbolTableRecord
100
AcDbLinetypeTableRecord
  2
CENTERX2
 70
     0
  3
Center (2x) ________  __  ________  __  _____
 72
    65
 73
     4
 40
20.32
 49
12.7
 74
     0
 49
-2.54
 74
     0
 49
2.54
 74
     0
 49
-2.54
 74
     0
  0
LTYPE
  5
6E
330
5
100
AcDbSymbolTableRecord
100
AcDbLinetypeTableRecord
  2
DOT2
 70
     0
  3
Dot (.5x) ........................................
 72
    65
 73
     2
 40
0.635
 49
0.0
 74
     0
 49
-0.635
 74
     0
  0
ENDTAB
  0
TABLE
  2
LAYER
  5
2
102
{ACAD_XDICTIONARY
360
170
102
}
330
0
100
AcDbSymbolTable
 70
    18
  0
LAYER
  5
10
330
2
100
AcDbSymbolTableRecord
100
AcDbLayerTableRecord
  2
0
 70
     0
 62
     7
  6
Continuous
370
    -3
390
F
  0
LAYER
  5
6F
330
2
100
AcDbSymbolTableRecord
100
AcDbLayerTableRecord
  2
FORMAT
 70
     0
 62
     2
  6
Continuous
370
    -3
390
F
  0
LAYER
  5
70
330
2
100
AcDbSymbolTableRecord
100
AcDbLayerTableRecord
  2
외형선
 70
     0
 62
     4
  6
Continuous
370
    30
390
F
  0
LAYER
  5
71
330
2
100
AcDbSymbolTableRecord
100
AcDbLayerTableRecord
  2
숨은선
 70
     0
 62
     2
  6
HIDDEN
370
    15
390
F
  0
LAYER
  5
72
330
2
100
AcDbSymbolTableRecord
100
AcDbLayerTableRecord
  2
중심선
 70
     0
 62
     1
  6
CENTERX2
370
    -3
390
F
  0
LAYER
  5
73
330
2
100
AcDbSymbolTableRecord
100
AcDbLayerTableRecord
  2
파단선
 70
     0
 62
     4
  6
Continuous
370
    -3
390
F
  0
LAYER
  5
74
330
2
100
AcDbSymbolTableRecord
100
AcDbLayerTableRecord
  2
해칭선
 70
     0
 62
   100
  6
Continuous
370
    -3
390
F
  0
LAYER
  5
75
330
2
100
AcDbSymbolTableRecord
100
AcDbLayerTableRecord
  2
가는실선
 70
     0
 62
     4
  6
Continuous
370
    -3
390
F
  0
LAYER
  5
76
330
2
100
AcDbSymbolTableRecord
100
AcDbLayerTableRecord
  2
치수_보조선
 70
     0
 62
     4
  6
Continuous
370
    -3
390
F
  0
LAYER
  5
77
330
2
100
AcDbSymbolTableRecord
100
AcDbLayerTableRecord
  2
치수문자_일반주서
 70
     0
 62
     7
  6
Continuous
370
    15
390
F
  0
LAYER
  5
78
330
2
100
AcDbSymbolTableRecord
100
AcDbLayerTableRecord
  2
개별주서
 70
     0
 62
   100
  6
Continuous
370
    30
390
F
  0
LAYER
  5
79
330
2
100
AcDbSymbolTableRecord
100
AcDbLayerTableRecord
  2
중간선
 70
     0
 62
     2
  6
Continuous
370
    15
390
F
  0
LAYER
  5
7A
330
2
100
AcDbSymbolTableRecord
100
AcDbLayerTableRecord
  2
윤곽선
 70
     0
 62
     3
  6
Continuous
370
    40
390
F
  0
LAYER
  5
7B
330
2
100
AcDbSymbolTableRecord
100
AcDbLayerTableRecord
  2
중심마크
 70
     0
 62
   100
  6
Continuous
370
    30
390
F
  0
LAYER
  5
7C
330
2
100
AcDbSymbolTableRecord
100
AcDbLayerTableRecord
  2
가상선
 70
     0
 62
     4
  6
PHANTOM
370
    -3
390
F
  0
LAYER
  5
7D
330
2
100
AcDbSymbolTableRecord
100
AcDbLayerTableRecord
  2
특수지정선
 70
     0
 62
     5
  6
CENTERX2
370
    60
390
F
  0
LAYER
  5
7E
330
2
100
AcDbSymbolTableRecord
100
AcDbLayerTableRecord
  2
참조1
 70
     0
 62
    -4
  6
Continuous
370
    -3
390
F
  0
LAYER
  5
176
330
2
100
AcDbSymbolTableRecord
100
AcDbLayerTableRecord
  2
Defpoints
 70
     0
 62
     7
  6
Continuous
290
     0
370
    -3
390
F
  0
ENDTAB
  0
TABLE
  2
STYLE
  5
3
330
0
100
AcDbSymbolTable
 70
     2
  0
STYLE
  5
11
330
3
100
AcDbSymbolTableRecord
100
AcDbTextStyleTableRecord
  2
Standard
 70
     0
 40
0.0
 41
1.0
 50
0.0
 71
     0
 42
3.5
  3
txt
  4

  0
STYLE
  5
94
330
3
100
AcDbSymbolTableRecord
100
AcDbTextStyleTableRecord
  2
SLDTEXTSTYLE0
 70
     0
 40
0.0
 41
0.75
 50
0.0
 71
     0
 42
3.5
  3
TXT
  4

  0
ENDTAB
  0
TABLE
  2
VIEW
  5
6
330
0
100
AcDbSymbolTable
 70
     0
  0
ENDTAB
  0
TABLE
  2
UCS
  5
7
330
0
100
AcDbSymbolTable
 70
     0
  0
ENDTAB
  0
TABLE
  2
APPID
  5
9
330
0
100
AcDbSymbolTable
 70
     2
  0
APPID
  5
12
330
9
100
AcDbSymbolTableRecord
100
AcDbRegAppTableRecord
  2
ACAD
 70
     0
  0
APPID
  5
14F
330
9
100
AcDbSymbolTableRecord
100
AcDbRegAppTableRecord
  2
PE_URL
 70
     0
  0
ENDTAB
  0
TABLE
  2
DIMSTYLE
  5
A
330
0
100
AcDbSymbolTable
 70
     3
100
AcDbDimStyleTable
  0
DIMSTYLE
105
27
330
A
100
AcDbSymbolTableRecord
100
AcDbDimStyleTableRecord
  2
ISO-25
 70
     0
 41
2.5
 42
0.625
 43
3.75
 44
1.25
 73
     0
 74
     0
 77
     1
 78
     8
140
2.5
141
2.5
143
0.03937007874016
147
0.625
171
     3
172
     1
178
     0
271
     2
272
     2
274
     3
278
    44
283
     0
284
     8
340
11
  0
DIMSTYLE
105
CC
330
A
100
AcDbSymbolTableRecord
100
AcDbDimStyleTableRecord
  2
SLDDIMSTYLE0
 70
     0
 41
3.302
 44
0.0
 45
0.000000001
 73
     0
 74
     0
 77
     1
 78
     4
 79
     1
140
3.5
143
0.0393700787401575
147
0.875
148
0.000000001
170
     1
173
     1
178
     0
271
     2
272
     2
276
     2
284
    12
340
94
  0
DIMSTYLE
105
F4
102
{ACAD_REACTORS
330
F3
330
108
330
CB
330
E0
102
}
330
A
100
AcDbSymbolTableRecord
100
AcDbDimStyleTableRecord
  2
SLDDIMSTYLE1
 70
     0
 41
3.302
 44
0.0
 45
0.000000001
 73
     0
 74
     0
 77
     1
 78
    12
 79
     3
140
3.5
143
0.0393700787401575
147
0.875
148
0.000000001
170
     1
172
     1
173
     1
178
     0
271
     2
272
     2
276
     2
284
    12
289
     0
340
94
  0
ENDTAB
  0
TABLE
  2
BLOCK_RECORD
  5
1
330
0
100
AcDbSymbolTable
 70
     8
  0
BLOCK_RECORD
  5
1F
330
1
100
AcDbSymbolTableRecord
100
AcDbBlockTableRecord
  2
*Model_Space
340
22
  0
BLOCK_RECORD
  5
1B
330
1
100
AcDbSymbolTableRecord
100
AcDbBlockTableRecord
  2
*Paper_Space
340
1E
  0
BLOCK_RECORD
  5
23
330
1
100
AcDbSymbolTableRecord
100
AcDbBlockTableRecord
  2
*Paper_Space0
340
26
  0
BLOCK_RECORD
  5
7F
330
1
100
AcDbSymbolTableRecord
100
AcDbBlockTableRecord
  2
블럭10
340
0
102
{BLKREFS
331
C4
102
}
  0
BLOCK_RECORD
  5
CD
330
1
100
AcDbSymbolTableRecord
100
AcDbBlockTableRecord
  2
_D
340
0
  0
BLOCK_RECORD
  5
E1
330
1
100
AcDbSymbolTableRecord
100
AcDbBlockTableRecord
  2
_D_1
340
0
  0
BLOCK_RECORD
  5
F5
330
1
100
AcDbSymbolTableRecord
100
AcDbBlockTableRecord
  2
_D_2
340
0
  0
BLOCK_RECORD
  5
109
330
1
100
AcDbSymbolTableRecord
100
AcDbBlockTableRecord
  2
_D_3
340
0
  0
BLOCK_RECORD
  5
123
330
1
100
AcDbSymbolTableRecord
100
AcDbBlockTableRecord
  2
SW_DOWELSYMBOL_0
340
0
102
{BLKREFS
331
129
102
}
  0
ENDTAB
  0
ENDSEC
  0
SECTION
  2
BLOCKS
  0
BLOCK
  5
20
330
1F
100
AcDbEntity
  8
0
100
AcDbBlockBegin
  2
*Model_Space
 70
     0
 10
0.0
 20
0.0
 30
0.0
  3
*Model_Space
  1

  0
ENDBLK
  5
21
330
1F
100
AcDbEntity
  8
0
100
AcDbBlockEnd
  0
BLOCK
  5
1C
330
1B
100
AcDbEntity
 67
     1
  8
0
100
AcDbBlockBegin
  2
*Paper_Space
 70
     0
 10
0.0
 20
0.0
 30
0.0
  3
*Paper_Space
  1

  0
ENDBLK
  5
1D
330
1B
100
AcDbEntity
 67
     1
  8
0
100
AcDbBlockEnd
  0
BLOCK
  5
24
330
23
100
AcDbEntity
  8
0
100
AcDbBlockBegin
  2
*Paper_Space0
 70
     0
 10
0.0
 20
0.0
 30
0.0
  3
*Paper_Space0
  1

  0
ENDBLK
  5
25
330
23
100
AcDbEntity
  8
0
100
AcDbBlockEnd
  0
BLOCK
  5
80
330
7F
100
AcDbEntity
  8
0
100
AcDbBlockBegin
  2
블럭10
 70
     2
 10
0.0
 20
0.0
 30
0.0
  3
블럭10
  1

  0
ELLIPSE
  5
82
330
7F
100
AcDbEntity
  8
중심선
100
AcDbEllipse
 10
20.54032771741204
 20
12.0471743016438
 30
0.0
 11
6.600054785286829
 21
-1.261213355974178E-13
 31
0.0
210
0.0
220
0.0
230
1.0
 40
0.636358354079598
 41
0.9219305317359503
 42
6.513795318482858
  0
ELLIPSE
  5
83
330
7F
100
AcDbEntity
  8
중심선
100
AcDbEllipse
 10
20.54032771746488
 20
12.04717430159265
 30
0.0
 11
3.960054785062283
 21
1.540847449632565E-10
 31
0.0
210
0.0
220
0.0
230
1.0
 40
0.3939339440162632
 41
1.131841032648279
 42
5.62031148352944
  0
LINE
  5
84
330
7F
100
AcDbEntity
  8
중심선
100
AcDbLine
 10
2.268634060543552
 20
16.24717430164393
 30
0.0
 11
5.714909304380834
 21
16.24717430164393
 31
0.0
  0
LINE
  5
85
330
7F
100
AcDbEntity
  8
중심선
100
AcDbLine
 10
5.245725140726316
 20
7.84717430164391
 30
0.0
 11
8.692000384563599
 21
7.84717430164391
 31
0.0
  0
LINE
  5
86
330
7F
100
AcDbEntity
  8
중심선
100
AcDbLine
 10
15.74043728645272
 20
16.24717430164393
 30
0.0
 11
8.692000384563599
 21
7.84717430164391
 31
0.0
  0
LINE
  5
87
330
7F
100
AcDbEntity
  8
중심선
100
AcDbLine
 10
0.1404042013395286
 20
13.71084872107135
 30
0.0
 11
3.58671253028996
 21
13.71088815037384
 31
0.0
  0
LINE
  5
88
330
7F
100
AcDbEntity
  8
중심선
100
AcDbLine
 10
2.750260043222114
 20
10.84717430164391
 30
0.0
 11
6.196535287059397
 21
10.84717430164391
 31
0.0
  0
LINE
  5
89
330
7F
100
AcDbEntity
  8
중심선
100
AcDbLine
 10
12.29416204261559
 20
16.24717430164393
 30
0.0
 11
5.245725140726316
 21
7.84717430164391
 31
0.0
  0
LINE
  5
8A
330
7F
100
AcDbEntity
  8
중심선
100
AcDbLine
 10
10.72767329541681
 20
16.24717430164393
 30
0.0
 11
6.196535287059397
 21
10.84717430164391
 31
0.0
  0
LINE
  5
8B
330
7F
100
AcDbEntity
  8
중심선
100
AcDbLine
 10
7.28139805157953
 20
16.24717430164393
 30
0.0
 11
2.750260043222114
 21
10.84717430164391
 31
0.0
  0
LINE
  5
8C
330
7F
100
AcDbEntity
  8
중심선
100
AcDbLine
 10
5.714909304380834
 20
16.24717430164393
 30
0.0
 11
3.58671253028996
 21
13.71088815037384
 31
0.0
  0
LINE
  5
8D
330
7F
100
AcDbEntity
  8
중심선
100
AcDbLine
 10
2.268634060543552
 20
16.24717430164393
 30
0.0
 11
0.1404042013395286
 21
13.71084872107135
 31
0.0
  0
LINE
  5
8E
330
7F
100
AcDbEntity
  8
중심선
100
AcDbLine
 10
7.28139805157953
 20
16.24717430164393
 30
0.0
 11
10.72767329541681
 21
16.24717430164393
 31
0.0
  0
LINE
  5
8F
330
7F
100
AcDbEntity
  8
중심선
100
AcDbLine
 10
12.29416204261559
 20
16.24717430164393
 30
0.0
 11
15.74043728645272
 21
16.24717430164393
 31
0.0
  0
LINE
  5
90
330
7F
100
AcDbEntity
  8
중심선
100
AcDbLine
 10
19.22036997980202
 20
11.08717430171403
 30
0.0
 11
23.66174974927406
 21
11.08717430171406
 31
0.0
  0
LINE
  5
91
330
7F
100
AcDbEntity
  8
중심선
100
AcDbLine
 10
19.22039502424796
 20
13.00717430171391
 30
0.0
 11
19.22036997980202
 21
11.08717430171403
 31
0.0
  0
LINE
  5
92
330
7F
100
AcDbEntity
  8
중심선
100
AcDbLine
 10
19.22039502424796
 20
13.00717430171391
 30
0.0
 11
26.96566020931264
 21
13.00717430171391
 31
0.0
  0
LINE
  5
93
330
7F
100
AcDbEntity
  8
중심선
100
AcDbLine
 10
22.22332737316547
 20
13.45928029700563
 30
0.0
 11
24.52862924686651
 21
15.39360700705356
 31
0.0
  0
ATTDEF
  5
95
330
7F
100
AcDbEntity
  8
FORMAT
 62
     2
100
AcDbText
 10
4.408487351596664
 20
2.075366912832191
 30
0.0
 40
4.233333333333333
  1
E5251014
 41
0.75
  7
SLDTEXTSTYLE0
 11
4.408487351596664
 21
-0.0412997538344756
 31
0.0
100
AcDbAttributeDefinition
  3

  2
AUTOATTR0
 70
     0
 74
     1
  0
ENDBLK
  5
81
330
7F
100
AcDbEntity
  8
0
100
AcDbBlockEnd
  0
BLOCK
  5
CE
330
CD
100
AcDbEntity
  8
0
100
AcDbBlockBegin
  2
_D
 70
     0
 10
0.0
 20
0.0
 30
0.0
  3
_D
  1

  0
LINE
  5
D0
330
CD
100
AcDbEntity
  8
치수문자_일반주서
 62
     0
370
    -2
100
AcDbLine
 10
31.74999999999999
 20
2.840625000000003
 30
0.0
 11
31.74999999999999
 21
13.175
 31
0.0
  0
LINE
  5
D1
330
CD
100
AcDbEntity
  8
치수문자_일반주서
 62
     0
370
    -2
100
AcDbLine
 10
19.05
 20
2.840624999999992
 30
0.0
 11
19.05
 21
13.175
 31
0.0
  0
LINE
  5
D2
330
CD
100
AcDbEntity
  8
치수문자_일반주서
 62
     0
370
    -2
100
AcDbLine
 10
31.74999999999999
 20
13.175
 30
0.0
 11
60.22899999999999
 21
13.175
 31
0.0
  0
LINE
  5
D3
330
CD
100
AcDbEntity
  8
치수문자_일반주서
 62
     0
370
    -2
100
AcDbLine
 10
31.74999999999999
 20
13.175
 30
0.0
 11
19.05
 21
13.175
 31
0.0
  0
LINE
  5
D4
330
CD
100
AcDbEntity
  8
치수문자_일반주서
 62
     0
370
    -2
100
AcDbLine
 10
35.05199999999999
 20
13.175
 30
0.0
 11
38.35399999999999
 21
13.175
 31
0.0
  0
LINE
  5
D5
330
CD
100
AcDbEntity
  8
치수문자_일반주서
 62
     0
370
    -2
100
AcDbLine
 10
15.748
 20
13.175
 30
0.0
 11
12.446
 21
13.175
 31
0.0
  0
SOLID
  5
D6
330
CD
100
AcDbEntity
  8
치수문자_일반주서
 62
     0
100
AcDbTrace
 10
35.05199999999999
 20
13.72533333333334
 30
0.0
 11
35.05199999999999
 21
12.62466666666667
 31
0.0
 12
31.74999999999999
 22
13.175
 32
0.0
 13
31.74999999999999
 23
13.175
 33
0.0
  0
SOLID
  5
D7
330
CD
100
AcDbEntity
  8
치수문자_일반주서
 62
     0
100
AcDbTrace
 10
15.748
 20
12.62466666666667
 30
0.0
 11
15.748
 21
13.72533333333334
 31
0.0
 12
19.05
 22
13.175
 32
0.0
 13
19.05
 23
13.175
 33
0.0
  0
MTEXT
  5
D8
330
CD
100
AcDbEntity
  8
치수문자_일반주서
 62
     0
100
AcDbMText
 10
49.29149999999999
 20
17.55
 30
0.0
 40
3.5
 41
0.0
 71
     2
 72
     1
  1
\A1;12.7 [1/2]
  7
SLDTEXTSTYLE0
 73
     1
 44
1.0
  0
POINT
  5
D9
330
CD
100
AcDbEntity
  8
Defpoints
 62
     0
100
AcDbPoint
 10
31.74999999999999
 20
2.778125000000003
 30
0.0
  0
POINT
  5
DA
330
CD
100
AcDbEntity
  8
Defpoints
 62
     0
100
AcDbPoint
 10
19.05
 20
2.778124999999992
 30
0.0
  0
POINT
  5
DB
330
CD
100
AcDbEntity
  8
Defpoints
 62
     0
100
AcDbPoint
 10
19.05
 20
13.175
 30
0.0
  0
ENDBLK
  5
CF
330
CD
100
AcDbEntity
  8
0
100
AcDbBlockEnd
  0
BLOCK
  5
E2
330
E1
100
AcDbEntity
  8
0
100
AcDbBlockBegin
  2
_D_1
 70
     0
 10
0.0
 20
0.0
 30
0.0
  3
_D_1
  1

  0
LINE
  5
E4
330
E1
100
AcDbEntity
  8
치수문자_일반주서
 62
     0
370
    -2
100
AcDbLine
 10
31.74999999999999
 20
2.840625000000003
 30
0.0
 11
31.74999999999999
 21
23.175
 31
0.0
  0
LINE
  5
E5
330
E1
100
AcDbEntity
  8
치수문자_일반주서
 62
     0
370
    -2
100
AcDbLine
 10
-31.75000000000001
 20
2.840625000000008
 30
0.0
 11
-31.75000000000001
 21
23.175
 31
0.0
  0
LINE
  5
E6
330
E1
100
AcDbEntity
  8
치수문자_일반주서
 62
     0
370
    -2
100
AcDbLine
 10
28.44799999999999
 20
23.175
 30
0.0
 11
-28.44800000000001
 21
23.175
 31
0.0
  0
SOLID
  5
E7
330
E1
100
AcDbEntity
  8
치수문자_일반주서
 62
     0
100
AcDbTrace
 10
28.44799999999999
 20
22.62466666666666
 30
0.0
 11
28.44799999999999
 21
23.72533333333333
 31
0.0
 12
31.74999999999999
 22
23.175
 32
0.0
 13
31.74999999999999
 23
23.175
 33
0.0
  0
SOLID
  5
E8
330
E1
100
AcDbEntity
  8
치수문자_일반주서
 62
     0
100
AcDbTrace
 10
-28.44800000000001
 20
23.72533333333333
 30
0.0
 11
-28.44800000000001
 21
22.62466666666666
 31
0.0
 12
-31.75000000000001
 22
23.175
 32
0.0
 13
-31.75000000000001
 23
23.175
 33
0.0
  0
MTEXT
  5
E9
330
E1
100
AcDbEntity
  8
치수문자_일반주서
 62
     0
100
AcDbMText
 10
0.2779156695830167
 20
27.55
 30
0.0
 40
3.5
 41
0.0
 71
     2
 72
     1
  1
\A1;63.5 [2 1/2]
  7
SLDTEXTSTYLE0
 73
     1
 44
1.0
  0
POINT
  5
EA
330
E1
100
AcDbEntity
  8
Defpoints
 62
     0
100
AcDbPoint
 10
31.74999999999999
 20
2.778125000000003
 30
0.0
  0
POINT
  5
EB
330
E1
100
AcDbEntity
  8
Defpoints
 62
     0
100
AcDbPoint
 10
-31.75000000000001
 20
2.778125000000008
 30
0.0
  0
POINT
  5
EC
330
E1
100
AcDbEntity
  8
Defpoints
 62
     0
100
AcDbPoint
 10
-31.75000000000001
 20
23.175
 30
0.0
  0
ENDBLK
  5
E3
330
E1
100
AcDbEntity
  8
0
100
AcDbBlockEnd
  0
BLOCK
  5
F6
330
F5
100
AcDbEntity
  8
0
100
AcDbBlockBegin
  2
_D_2
 70
     0
 10
0.0
 20
0.0
 30
0.0
  3
_D_2
  1

  0
LINE
  5
F8
330
F5
100
AcDbEntity
  8
치수문자_일반주서
 62
     0
370
    -2
100
AcDbLine
 10
-16.6313423357461
 20
3.174999999999998
 30
0.0
 11
-41.75000000000002
 21
3.174999999999901
 31
0.0
  0
LINE
  5
F9
330
F5
100
AcDbEntity
  8
치수문자_일반주서
 62
     0
370
    -2
100
AcDbLine
 10
-16.63134233574609
 20
-3.175000000000001
 30
0.0
 11
-41.75
 21
-3.175000000000097
 31
0.0
  0
LINE
  5
FA
330
F5
100
AcDbEntity
  8
치수문자_일반주서
 62
     0
370
    -2
100
AcDbLine
 10
-41.75000000000002
 20
3.174999999999901
 30
0.0
 11
-41.75000000000013
 21
35.15399999999995
 31
0.0
  0
LINE
  5
FB
330
F5
100
AcDbEntity
  8
치수문자_일반주서
 62
     0
370
    -2
100
AcDbLine
 10
-41.75000000000002
 20
3.174999999999901
 30
0.0
 11
-41.75
 21
-3.175000000000097
 31
0.0
  0
LINE
  5
FC
330
F5
100
AcDbEntity
  8
치수문자_일반주서
 62
     0
370
    -2
100
AcDbLine
 10
-41.75000000000004
 20
6.476999999999901
 30
0.0
 11
-41.75000000000005
 21
9.7789999999999
 31
0.0
  0
LINE
  5
FD
330
F5
100
AcDbEntity
  8
치수문자_일반주서
 62
     0
370
    -2
100
AcDbLine
 10
-41.74999999999999
 20
-6.477000000000096
 30
0.0
 11
-41.74999999999997
 21
-9.779000000000096
 31
0.0
  0
SOLID
  5
FE
330
F5
100
AcDbEntity
  8
치수문자_일반주서
 62
     0
100
AcDbTrace
 10
-42.30033333333337
 20
6.476999999999899
 30
0.0
 11
-41.1996666666667
 21
6.476999999999903
 31
0.0
 12
-41.75000000000002
 22
3.174999999999901
 32
0.0
 13
-41.75000000000002
 23
3.174999999999901
 33
0.0
  0
SOLID
  5
FF
330
F5
100
AcDbEntity
  8
치수문자_일반주서
 62
     0
100
AcDbTrace
 10
-41.19966666666665
 20
-6.477000000000094
 30
0.0
 11
-42.30033333333332
 21
-6.477000000000098
 31
0.0
 12
-41.75
 22
-3.175000000000097
 32
0.0
 13
-41.75
 23
-3.175000000000097
 33
0.0
  0
MTEXT
  5
100
330
F5
100
AcDbEntity
  8
치수문자_일반주서
 62
     0
100
AcDbMText
 10
-46.12500000000009
 20
22.46649999999993
 30
0.0
 40
3.5
 41
0.0
 71
     2
 72
     1
  1
\A1;%%c6.35 [1/4]
  7
SLDTEXTSTYLE0
 11
-3.356894814614647E-15
 21
1.0
 31
0.0
 73
     1
 44
1.0
  0
POINT
  5
17A
330
F5
100
AcDbEntity
  8
Defpoints
 62
     0
100
AcDbPoint
 10
-16.5688423357461
 20
3.174999999999999
 30
0.0
  0
POINT
  5
17B
330
F5
100
AcDbEntity
  8
Defpoints
 62
     0
100
AcDbPoint
 10
-16.56884233574609
 20
-3.175000000000001
 30
0.0
  0
POINT
  5
17C
330
F5
100
AcDbEntity
  8
Defpoints
 62
     0
100
AcDbPoint
 10
-41.75
 20
-3.175000000000095
 30
0.0
  0
ENDBLK
  5
F7
330
F5
100
AcDbEntity
  8
0
100
AcDbBlockEnd
  0
BLOCK
  5
10A
330
109
100
AcDbEntity
  8
0
100
AcDbBlockBegin
  2
_D_3
 70
     0
 10
0.0
 20
0.0
 30
0.0
  3
_D_3
  1

  0
LINE
  5
10C
330
109
100
AcDbEntity
  8
치수문자_일반주서
 62
     0
370
    -2
100
AcDbLine
 10
31.81249999999999
 20
2.778125000000004
 30
0.0
 11
66.43287752290686
 21
2.778125000000131
 31
0.0
  0
LINE
  5
10D
330
109
100
AcDbEntity
  8
치수문자_일반주서
 62
     0
370
    -2
100
AcDbLine
 10
31.81249999999999
 20
-2.778124999999997
 30
0.0
 11
66.43287752290688
 21
-2.778124999999868
 31
0.0
  0
LINE
  5
10E
330
109
100
AcDbEntity
  8
치수문자_일반주서
 62
     0
370
    -2
100
AcDbLine
 10
66.43287752290686
 20
2.778125000000131
 30
0.0
 11
66.43287752290676
 21
38.25712500000014
 31
0.0
  0
LINE
  5
10F
330
109
100
AcDbEntity
  8
치수문자_일반주서
 62
     0
370
    -2
100
AcDbLine
 10
66.43287752290686
 20
2.778125000000131
 30
0.0
 11
66.43287752290688
 21
-2.778124999999868
 31
0.0
  0
LINE
  5
110
330
109
100
AcDbEntity
  8
치수문자_일반주서
 62
     0
370
    -2
100
AcDbLine
 10
66.43287752290685
 20
6.08012500000013
 30
0.0
 11
66.43287752290684
 21
9.38212500000013
 31
0.0
  0
LINE
  5
111
330
109
100
AcDbEntity
  8
치수문자_일반주서
 62
     0
370
    -2
100
AcDbLine
 10
66.43287752290689
 20
-6.080124999999867
 30
0.0
 11
66.4328775229069
 21
-9.382124999999867
 31
0.0
  0
SOLID
  5
112
330
109
100
AcDbEntity
  8
치수문자_일반주서
 62
     0
100
AcDbTrace
 10
65.88254418957352
 20
6.080125000000129
 30
0.0
 11
66.98321085624018
 21
6.080125000000132
 31
0.0
 12
66.43287752290686
 22
2.778125000000131
 32
0.0
 13
66.43287752290686
 23
2.778125000000131
 33
0.0
  0
SOLID
  5
113
330
109
100
AcDbEntity
  8
치수문자_일반주서
 62
     0
100
AcDbTrace
 10
66.98321085624022
 20
-6.080124999999866
 30
0.0
 11
65.88254418957357
 21
-6.080124999999869
 31
0.0
 12
66.43287752290688
 22
-2.778124999999868
 32
0.0
 13
66.43287752290688
 23
-2.778124999999868
 33
0.0
  0
MTEXT
  5
114
330
109
100
AcDbEntity
  8
치수문자_일반주서
 62
     0
100
AcDbMText
 10
62.05787752290681
 20
23.81962500000013
 30
0.0
 40
3.5
 41
0.0
 71
     2
 72
     1
  1
\A1;%%c5.56 [7/32]
  7
SLDTEXTSTYLE0
 11
-2.557634144468302E-15
 21
1.0
 31
0.0
 73
     1
 44
1.0
  0
POINT
  5
115
330
109
100
AcDbEntity
  8
Defpoints
 62
     0
100
AcDbPoint
 10
31.74999999999999
 20
2.778125000000003
 30
0.0
  0
POINT
  5
116
330
109
100
AcDbEntity
  8
Defpoints
 62
     0
100
AcDbPoint
 10
31.74999999999999
 20
-2.778124999999997
 30
0.0
  0
POINT
  5
117
330
109
100
AcDbEntity
  8
Defpoints
 62
     0
100
AcDbPoint
 10
66.43287752290688
 20
-2.778124999999867
 30
0.0
  0
ENDBLK
  5
10B
330
109
100
AcDbEntity
  8
0
100
AcDbBlockEnd
  0
BLOCK
  5
124
330
123
100
AcDbEntity
  8
0
100
AcDbBlockBegin
  2
SW_DOWELSYMBOL_0
 70
     0
 10
0.0
 20
0.0
 30
0.0
  3
SW_DOWELSYMBOL_0
  1

  0
CIRCLE
  5
126
330
123
100
AcDbEntity
  8
해칭선
 62
     0
100
AcDbCircle
 10
0.0
 20
0.0
 30
0.0
 40
3.000000000000001
  0
HATCH
  5
127
330
123
100
AcDbEntity
  8
0
  6
Continuous
 62
     0
370
     0
100
AcDbHatch
 10
0.0
 20
0.0
 30
0.0
210
0.0
220
0.0
230
1.0
  2
SOLID
 70
     1
 71
     0
 91
        1
 92
        0
 93
        3
 72
     2
 10
0.0
 20
0.0
 40
3.000000000000001
 50
0.0
 51
90.0
 73
     1
 72
     1
 10
0.0
 20
3.000000000000001
 11
0.0
 21
0.0
 72
     1
 10
0.0
 20
0.0
 11
3.000000000000001
 21
0.0
 97
        0
 75
     0
 76
     1
 98
        1
 10
0.0
 20
0.0
  0
HATCH
  5
128
330
123
100
AcDbEntity
  8
0
  6
Continuous
 62
     0
370
     0
100
AcDbHatch
 10
0.0
 20
0.0
 30
0.0
210
0.0
220
0.0
230
1.0
  2
SOLID
 70
     1
 71
     0
 91
        1
 92
        0
 93
        3
 72
     2
 10
0.0
 20
0.0
 40
3.000000000000001
 50
180.0
 51
270.0000000000008
 73
     1
 72
     1
 10
0.0
 20
-3.000000000000001
 11
0.0
 21
0.0
 72
     1
 10
0.0
 20
0.0
 11
-3.000000000000001
 21
0.0
 97
        0
 75
     0
 76
     1
 98
        1
 10
0.0
 20
0.0
  0
ENDBLK
  5
125
330
123
100
AcDbEntity
  8
0
100
AcDbBlockEnd
  0
ENDSEC
  0
SECTION
  2
ENTITIES
  0
LINE
  5
96
330
1F
100
AcDbEntity
  8
외형선
  6
Continuous
370
    15
100
AcDbLine
 10
16.5688423357461
 20
3.175000000000002
 30
0.0
 11
-16.5688423357461
 21
3.174999999999999
 31
0.0
  0
LINE
  5
97
330
1F
100
AcDbEntity
  8
외형선
  6
Continuous
370
    15
100
AcDbLine
 10
-16.56884233574609
 20
-3.175000000000001
 30
0.0
 11
16.5688423357461
 21
-3.174999999999997
 31
0.0
  0
LINE
  5
9A
330
1F
100
AcDbEntity
  8
외형선
  6
Continuous
370
    15
100
AcDbLine
 10
16.5688423357461
 20
-3.174999999999996
 30
0.0
 11
18.04999999999999
 21
-2.778124999999997
 31
0.0
  0
LINE
  5
9B
330
1F
100
AcDbEntity
  8
외형선
  6
Continuous
370
    15
100
AcDbLine
 10
18.04999999999999
 20
2.778125000000003
 30
0.0
 11
16.5688423357461
 21
3.175000000000002
 31
0.0
  0
LINE
  5
9C
330
1F
100
AcDbEntity
  8
외형선
  6
Continuous
370
    15
100
AcDbLine
 10
19.04999999999999
 20
2.778125000000003
 30
0.0
 11
18.04999999999999
 21
2.778125000000003
 31
0.0
  0
LINE
  5
9D
330
1F
100
AcDbEntity
  8
외형선
  6
Continuous
370
    15
100
AcDbLine
 10
18.04999999999999
 20
-2.778124999999997
 30
0.0
 11
19.04999999999999
 21
-2.778124999999997
 31
0.0
  0
LINE
  5
9E
330
1F
100
AcDbEntity
  8
0
  6
Continuous
 62
     1
370
    15
100
AcDbLine
 10
28.41581776776331
 20
-2.778124999999997
 30
0.0
 11
28.97187499999999
 21
-2.778124999999997
 31
0.0
1001
PE_URL
1000

  0
LINE
  5
9F
330
1F
100
AcDbEntity
  8
0
  6
Continuous
 62
     1
370
    15
100
AcDbLine
 10
19.33816395871917
 20
2.778125000000003
 30
0.0
 11
19.04999999999999
 21
2.778125000000003
 31
0.0
1001
PE_URL
1000

  0
ARC
  5
A0
330
1F
100
AcDbEntity
  8
0
  6
Continuous
 62
     1
370
    15
100
AcDbCircle
 10
28.97187499999999
 20
0.0000000000000031
 30
0.0
 40
2.778125
100
AcDbArc
 50
270.0000000000008
 51
0.0
1001
PE_URL
1000

  0
ARC
  5
A1
330
1F
100
AcDbEntity
  8
0
  6
Continuous
 62
     1
370
    15
100
AcDbCircle
 10
28.97187499999999
 20
0.0000000000000031
 30
0.0
 40
2.778125
100
AcDbArc
 50
0.0
 51
90.0
1001
PE_URL
1000

  0
LINE
  5
A2
330
1F
100
AcDbEntity
  8
외형선
  6
Continuous
370
    15
100
AcDbLine
 10
19.04999999999999
 20
-2.778124999999997
 30
0.0
 11
19.33816395871916
 21
-2.778124999999997
 31
0.0
  0
LINE
  5
A3
330
1F
100
AcDbEntity
  8
0
  6
Continuous
 62
     1
370
    15
100
AcDbLine
 10
28.97187499999999
 20
2.778125000000003
 30
0.0
 11
28.41581776776331
 21
2.778125000000003
 31
0.0
1001
PE_URL
1000

  0
LINE
  5
A4
330
1F
100
AcDbEntity
  8
외형선
  6
Continuous
370
    15
100
AcDbLine
 10
16.5688423357461
 20
3.175000000000002
 30
0.0
 11
16.5688423357461
 21
-3.174999999999997
 31
0.0
  0
LINE
  5
A7
330
1F
100
AcDbEntity
  8
외형선
  6
Continuous
370
    15
100
AcDbLine
 10
18.04999999999999
 20
2.778125000000003
 30
0.0
 11
18.04999999999999
 21
-2.778124999999995
 31
0.0
  0
LINE
  5
A8
330
1F
100
AcDbEntity
  8
외형선
  6
Continuous
370
    15
100
AcDbLine
 10
19.04999999999999
 20
2.778125000000003
 30
0.0
 11
19.04999999999999
 21
1.019821777524663
 31
0.0
  0
SPLINE
  5
A9
330
1F
100
AcDbEntity
  8
외형선
  6
Continuous
370
    15
100
AcDbSpline
210
0.0
220
0.0
230
1.0
 70
     8
 71
     3
 72
     8
 73
     4
 74
     0
 42
0.000000001
 43
0.00000001
 40
0.0
 40
0.0
 40
0.0
 40
0.0
 40
1.0
 40
1.0
 40
1.0
 40
1.0
 10
18.15990332293287
 20
1.476936653943866
 30
0.0
 10
18.45457532535853
 20
1.332442214364422
 30
0.0
 10
18.75380025387104
 20
1.178785103246557
 30
0.0
 10
19.0499999999985
 20
1.019821777525653
 30
0.0
  0
SPLINE
  5
AA
330
1F
100
AcDbEntity
  8
외형선
  6
Continuous
370
    15
100
AcDbSpline
210
0.0
220
0.0
230
1.0
 70
     8
 71
     3
 72
     8
 73
     4
 74
     0
 42
0.000000001
 43
0.00000001
 40
0.0
 40
0.0
 40
0.0
 40
0.0
 40
1.0
 40
1.0
 40
1.0
 40
1.0
 10
19.04999999999999
 20
-2.773124069897095
 30
0.0
 10
18.75372622009503
 20
-2.762872157126446
 30
0.0
 10
18.4544257561606
 20
-2.736704016083096
 30
0.0
 10
18.15968236800892
 20
-2.695362750457238
 30
0.0
  0
LINE
  5
AB
330
1F
100
AcDbEntity
  8
외형선
  6
Continuous
370
    15
100
AcDbLine
 10
19.04999999999999
 20
-2.773124069897095
 30
0.0
 11
19.04999999999999
 21
-2.778124999999997
 31
0.0
  0
LINE
  5
AC
330
1F
100
AcDbEntity
  8
외형선
  6
Continuous
370
    15
100
AcDbLine
 10
18.15968236800892
 20
-2.695402355550939
 30
0.0
 11
18.15968236800892
 21
1.477055447069233
 31
0.0
  0
SPLINE
  5
AD
330
1F
100
AcDbEntity
  8
외형선
  6
Continuous
370
    15
100
AcDbSpline
210
0.0
220
0.0
230
1.0
 70
     8
 71
     3
 72
     8
 73
     4
 74
     0
 42
0.000000001
 43
0.00000001
 40
0.0
 40
0.0
 40
0.0
 40
0.0
 40
1.0
 40
1.0
 40
1.0
 40
1.0
 10
19.04999999999999
 20
-0.9104857968721476
 30
0.0
 10
18.75372622009503
 20
-0.8084467023404414
 30
0.0
 10
18.4544257561606
 20
-0.7008519451638273
 30
0.0
 10
18.15968236800892
 20
-0.5904506406878605
 30
0.0
  0
SPLINE
  5
AE
330
1F
100
AcDbEntity
  8
외형선
  6
Continuous
370
    15
100
AcDbSpline
210
0.0
220
0.0
230
1.0
 70
    24
 71
     3
 72
    14
 73
    10
 74
     0
 42
0.000000001
 43
0.00000001
 40
0.0
 40
0.0
 40
0.0
 40
0.0
 40
0.25
 40
0.25
 40
0.5
 40
0.5
 40
0.75
 40
0.75
 40
1.0
 40
1.0
 40
1.0
 40
1.0
 10
19.04999999999999
 20
1.019821777528711
 30
0.0
 10
19.04999999999999
 20
0.9297619517247294
 30
0.0
 10
19.04999999999999
 20
0.7998984886167847
 30
0.0
 10
19.04999999999999
 20
0.4877810356780108
 30
0.0
 10
19.04999999999999
 20
0.3065088860677541
 30
0.0
 10
19.04999999999999
 20
-0.0635807603190238
 30
0.0
 10
19.04999999999999
 20
-0.2517239859613789
 30
0.0
 10
19.04999999999999
 20
-0.6027813408742709
 30
0.0
 10
19.04999999999999
 20
-0.7657653512554022
 30
0.0
 10
19.04999999999999
 20
-0.9104857968721493
 30
0.0
  0
SPLINE
  5
AF
330
1F
100
AcDbEntity
  8
외형선
  6
Continuous
370
    15
100
AcDbSpline
210
0.0
220
0.0
230
1.0
 70
    24
 71
     3
 72
    14
 73
    10
 74
     0
 42
0.000000001
 43
0.00000001
 40
0.0
 40
0.0
 40
0.0
 40
0.0
 40
0.2499999999999998
 40
0.2499999999999998
 40
0.4999999999999999
 40
0.4999999999999999
 40
0.75
 40
0.75
 40
1.0
 40
1.0
 40
1.0
 40
1.0
 10
19.04999999999999
 20
-0.9104857968721477
 30
0.0
 10
19.04999999999999
 20
-0.9389342115419749
 30
0.0
 10
19.04999999999999
 20
-0.9924507380982567
 30
0.0
 10
19.04999999999999
 20
-1.171535793333172
 30
0.0
 10
19.04999999999999
 20
-1.297894920307749
 30
0.0
 10
19.04999999999999
 20
-1.628108491420418
 30
0.0
 10
19.04999999999999
 20
-1.832269829326746
 30
0.0
 10
19.04999999999999
 20
-2.285360630012998
 30
0.0
 10
19.04999999999999
 20
-2.533147182833623
 30
0.0
 10
19.04999999999999
 20
-2.773124069895538
 30
0.0
  0
SPLINE
  5
B0
330
1F
100
AcDbEntity
  8
0
  6
Continuous
 62
     1
370
    15
100
AcDbSpline
210
0.0
220
0.0
230
1.0
 70
     8
 71
     3
 72
    16
 73
    12
 74
     0
 42
0.000000001
 43
0.00000001
 40
0.0
 40
0.0
 40
0.0
 40
0.0
 40
0.1154973347014162
 40
0.2308221807801249
 40
0.3460725304058637
 40
0.4613508302134969
 40
0.5767591353718601
 40
0.6902307235328291
 40
0.8035119948474294
 40
0.9166980862885575
 40
1.0
 40
1.0
 40
1.0
 40
1.0
 10
28.97187499999999
 20
-1.161408038105109
 30
0.0
 10
28.60086314430814
 20
-0.961075688807877
 30
0.0
 10
27.85939351777984
 20
-0.5607101750483134
 30
0.0
 10
26.74817539026278
 20
0.0866346797094433
 30
0.0
 10
25.63776958119172
 20
0.7247179615830439
 30
0.0
 10
24.52705264134166
 20
1.325671533238252
 30
0.0
 10
23.42178791934568
 20
1.85242572065957
 30
0.0
 10
22.32252691714808
 20
2.280493563396778
 30
0.0
 10
21.23101391718747
 20
2.584772893346647
 30
0.0
 10
20.23652067889718
 20
2.757808821569197
 30
0.0
 10
19.60563190141776
 20
2.762340592710975
 30
0.0
 10
19.33816395871916
 20
2.764261856089465
 30
0.0
1001
PE_URL
1000

  0
SPLINE
  5
B1
330
1F
100
AcDbEntity
  8
0
  6
Continuous
 62
     1
370
    15
100
AcDbSpline
210
0.0
220
0.0
230
1.0
 70
     8
 71
     3
 72
    14
 73
    10
 74
     0
 42
0.000000001
 43
0.00000001
 40
0.0
 40
0.0
 40
0.0
 40
0.0
 40
0.1739532363664141
 40
0.3479063158066677
 40
0.4962841238416029
 40
0.644789289247708
 40
0.7934991229725782
 40
0.9420780425928627
 40
1.0
 40
1.0
 40
1.0
 40
1.0
 10
31.0062767006733
 20
0.2911723649258861
 30
0.0
 10
30.56405117193457
 20
0.4608422083751216
 30
0.0
 10
29.67960051339623
 20
0.8001817422115531
 30
0.0
 10
28.41783164834036
 20
1.221176518051643
 30
0.0
 10
27.22115282651635
 20
1.543294136491237
 30
0.0
 10
26.08846010433516
 20
1.764194584432816
 30
0.0
 10
24.95503367959714
 20
1.881330799146287
 30
0.0
 10
24.05203176656263
 20
1.911334047935353
 30
0.0
 10
23.52714351419006
 20
1.865651708857786
 30
0.0
 10
23.37991627024284
 20
1.852838153117014
 30
0.0
1001
PE_URL
1000

  0
SPLINE
  5
B2
330
1F
100
AcDbEntity
  8
0
  6
Continuous
 62
     1
370
    15
100
AcDbSpline
210
0.0
220
0.0
230
1.0
 70
     8
 71
     3
 72
    22
 73
    18
 74
     0
 42
0.000000001
 43
0.00000001
 40
0.0
 40
0.0
 40
0.0
 40
0.0
 40
0.1249999999999999
 40
0.1249999999999999
 40
0.2499999999999999
 40
0.2499999999999999
 40
0.3749999999999998
 40
0.3749999999999998
 40
0.4999999999999999
 40
0.4999999999999999
 40
0.6249999999999999
 40
0.6249999999999999
 40
0.75
 40
0.75
 40
0.875
 40
0.875
 40
1.0
 40
1.0
 40
1.0
 40
1.0
 10
28.97187499999999
 20
-1.161408038104281
 30
0.0
 10
29.12594749992652
 20
-1.242698601315784
 30
0.0
 10
29.27771659209519
 20
-1.315314242191097
 30
0.0
 10
29.5807860293179
 20
-1.437332548356401
 30
0.0
 10
29.7336517443336
 20
-1.487290581580063
 30
0.0
 10
30.03538526688596
 20
-1.551534386813302
 30
0.0
 10
30.18322472241118
 20
-1.566267775992377
 30
0.0
 10
30.47937286594221
 20
-1.544887463646048
 30
0.0
 10
30.6238083470733
 20
-1.50817693868912
 30
0.0
 10
30.89620473856974
 20
-1.360868218918004
 30
0.0
 10
31.02287100766488
 20
-1.249181271077835
 30
0.0
 10
31.21547367132998
 20
-0.952603048710045
 30
0.0
 10
31.27345128156486
 20
-0.7768628940712448
 30
0.0
 10
31.30270730461287
 20
-0.4332609218579961
 30
0.0
 10
31.27631634133789
 20
-0.2713420845769439
 30
0.0
 10
31.17426104585015
 20
0.0252244809449193
 30
0.0
 10
31.09867468311661
 20
0.1613967513435371
 30
0.0
 10
31.00627670067215
 20
0.2911723649263335
 30
0.0
1001
PE_URL
1000

  0
SPLINE
  5
B3
330
1F
100
AcDbEntity
  8
0
  6
Continuous
 62
     1
370
    15
100
AcDbSpline
210
0.0
220
0.0
230
1.0
 70
     8
 71
     3
 72
    12
 73
     8
 74
     0
 42
0.000000001
 43
0.00000001
 40
0.0
 40
0.0
 40
0.0
 40
0.0
 40
0.1143939261313742
 40
0.3244497590442053
 40
0.5344238411728709
 40
0.7671934434223663
 40
1.0
 40
1.0
 40
1.0
 40
1.0
 10
24.43799381159502
 20
-1.876406635279542
 30
0.0
 10
24.23252674243788
 20
-1.882595848910196
 30
0.0
 10
23.64977079258968
 20
-1.900150005315607
 30
0.0
 10
22.69001698258903
 20
-1.814292063927204
 30
0.0
 10
21.51774715758453
 20
-1.624053298995553
 30
0.0
 10
20.30435746748109
 20
-1.324640672997863
 30
0.0
 10
19.46814128024698
 20
-1.048544727131874
 30
0.0
 10
19.04999999999999
 20
-0.9104857968721478
 30
0.0
1001
PE_URL
1000

  0
SPLINE
  5
B4
330
1F
100
AcDbEntity
  8
외형선
  6
Continuous
370
    15
100
AcDbSpline
210
0.0
220
0.0
230
1.0
 70
    24
 71
     3
 72
    14
 73
    10
 74
     0
 42
0.000000001
 43
0.00000001
 40
0.0
 40
0.0
 40
0.0
 40
0.0
 40
0.2499999999999998
 40
0.2499999999999998
 40
0.4999999999999999
 40
0.4999999999999999
 40
0.75
 40
0.75
 40
1.0
 40
1.0
 40
1.0
 40
1.0
 10
19.04999999999999
 20
1.019821777528712
 30
0.0
 10
19.04999999999999
 20
0.9297619517247302
 30
0.0
 10
19.04999999999999
 20
0.7998984886167859
 30
0.0
 10
19.04999999999999
 20
0.4877810356780121
 30
0.0
 10
19.04999999999999
 20
0.3065088860677557
 30
0.0
 10
19.04999999999999
 20
-0.0635807603190229
 30
0.0
 10
19.04999999999999
 20
-0.2517239859613782
 30
0.0
 10
19.04999999999999
 20
-0.6027813408742702
 30
0.0
 10
19.04999999999999
 20
-0.7657653512554016
 30
0.0
 10
19.04999999999999
 20
-0.9104857968721493
 30
0.0
  0
SPLINE
  5
B5
330
1F
100
AcDbEntity
  8
0
  6
Continuous
 62
     1
370
    15
100
AcDbSpline
210
0.0
220
0.0
230
1.0
 70
     8
 71
     3
 72
    19
 73
    15
 74
     0
 42
0.000000001
 43
0.00000001
 40
0.0
 40
0.0
 40
0.0
 40
0.0
 40
0.104364333468589
 40
0.2098174342118465
 40
0.295348891860296
 40
0.3814773344347019
 40
0.4669619777538299
 40
0.5530405804377525
 40
0.6385057781568856
 40
0.724563355769484
 40
0.8069028552071689
 40
0.8897726582698398
 40
0.9742779657722395
 40
1.0
 40
1.0
 40
1.0
 40
1.0
 10
19.04999999999999
 20
1.019821777524853
 30
0.0
 10
19.37579775573426
 20
0.840650957931752
 30
0.0
 10
20.03079210972701
 20
0.4804401425771677
 30
0.0
 10
20.95250602442492
 20
-0.0568121874939373
 30
0.0
 10
21.81866481303535
 20
-0.552293289883555
 30
0.0
 10
22.62049161888562
 20
-1.000696049811061
 30
0.0
 10
23.42567031586228
 20
-1.419222978400677
 30
0.0
 10
24.22794465216088
 20
-1.798750921841829
 30
0.0
 10
25.03163253228702
 20
-2.129278965945887
 30
0.0
 10
25.82517287209107
 20
-2.39483984725624
 30
0.0
 10
26.60843425572896
 20
-2.596913869103413
 30
0.0
 10
27.38921507493032
 20
-2.723415183913626
 30
0.0
 10
27.99125187711061
 20
-2.782269340416918
 30
0.0
 10
28.33548861366195
 20
-2.772407806710141
 30
0.0
 10
28.41581776776331
 20
-2.770106574515276
 30
0.0
1001
PE_URL
1000

  0
SPLINE
  5
B6
330
1F
100
AcDbEntity
  8
0
  6
Continuous
 62
     1
370
    15
100
AcDbSpline
210
0.0
220
0.0
230
1.0
 70
     8
 71
     3
 72
    10
 73
     6
 74
     0
 42
0.000000001
 43
0.00000001
 40
0.0
 40
0.0
 40
0.0
 40
0.0
 40
0.5
 40
0.5
 40
1.0
 40
1.0
 40
1.0
 40
1.0
 10
31.00627670067215
 20
0.2911723649263346
 30
0.0
 10
31.07015496160227
 20
0.3297287188952555
 30
0.0
 10
31.12115328136914
 20
0.3883435105136595
 30
0.0
 10
31.18936846390308
 20
0.5369233294949998
 30
0.0
 10
31.20626643961682
 20
0.6264254113014476
 30
0.0
 10
31.20783745257931
 20
0.7195095555905578
 30
0.0
1001
PE_URL
1000

  0
ARC
  5
B7
330
1F
100
AcDbEntity
  8
0
  6
Continuous
 62
     1
370
    15
100
AcDbCircle
 10
30.42084604742453
 20
-0.4829323728461586
 30
0.0
 40
1.43708804985992
100
AcDbArc
 50
23.84128576077697
 51
56.79548103001321
1001
PE_URL
1000

  0
ARC
  5
B8
330
1F
100
AcDbEntity
  8
0
  6
Continuous
 62
     1
370
    15
100
AcDbCircle
 10
29.24893049947105
 20
0.04971562423165
 30
0.0
 40
2.486842650840842
100
AcDbArc
 50
1.111255110872143
 51
71.10334004368491
1001
PE_URL
1000

  0
SPLINE
  5
B9
330
1F
100
AcDbEntity
  8
0
  6
Continuous
 62
     1
370
    15
100
AcDbSpline
210
0.0
220
0.0
230
1.0
 70
     8
 71
     3
 72
    10
 73
     6
 74
     0
 42
0.000000001
 43
0.00000001
 40
0.0
 40
0.0
 40
0.0
 40
0.0
 40
0.5
 40
0.5
 40
1.0
 40
1.0
 40
1.0
 40
1.0
 10
30.05432499513348
 20
2.402528000176176
 30
0.0
 10
29.8823371210975
 20
2.507402271039895
 30
0.0
 10
29.70515166324538
 20
2.589761010684959
 30
0.0
 10
29.3438236828651
 20
2.709596144448851
 30
0.0
 10
29.15792262575204
 20
2.747190118277229
 30
0.0
 10
28.97187499999846
 20
2.759635955160563
 30
0.0
1001
PE_URL
1000

  0
SPLINE
  5
BA
330
1F
100
AcDbEntity
  8
0
  6
Continuous
 62
     1
370
    15
100
AcDbSpline
210
0.0
220
0.0
230
1.0
 70
     8
 71
     3
 72
     8
 73
     4
 74
     0
 42
0.000000001
 43
0.00000001
 40
0.0
 40
0.0
 40
0.0
 40
0.0
 40
1.0
 40
1.0
 40
1.0
 40
1.0
 10
29.49002914373297
 20
1.243636466935269
 30
0.0
 10
30.05480918438631
 20
1.086651875829368
 30
0.0
 10
30.63062186910431
 20
0.9098113492942472
 30
0.0
 10
31.20783745257932
 20
0.7195095555905815
 30
0.0
1001
PE_URL
1000

  0
SPLINE
  5
BB
330
1F
100
AcDbEntity
  8
0
  6
Continuous
 62
     1
370
    15
100
AcDbSpline
210
0.0
220
0.0
230
1.0
 70
     8
 71
     3
 72
    13
 73
     9
 74
     0
 42
0.000000001
 43
0.00000001
 40
0.0
 40
0.0
 40
0.0
 40
0.0
 40
0.1306178729366811
 40
0.3083922629546675
 40
0.4784859919789182
 40
0.6496752015648057
 40
0.8242429724838206
 40
1.0
 40
1.0
 40
1.0
 40
1.0
 10
24.43799381159502
 20
1.876406635279549
 30
0.0
 10
24.63529188408215
 20
1.959676099109006
 30
0.0
 10
25.10111786702703
 20
2.156277512131836
 30
0.0
 10
25.82517608541512
 20
2.393942873520541
 30
0.0
 10
26.60844145715389
 20
2.596538137093505
 30
0.0
 10
27.38918247022173
 20
2.725850504358455
 30
0.0
 10
28.17644699074769
 20
2.790767469990928
 30
0.0
 10
28.70613295073464
 20
2.770036585326315
 30
0.0
 10
28.97187499999918
 20
2.759635955160513
 30
0.0
1001
PE_URL
1000

  0
SPLINE
  5
BC
330
1F
100
AcDbEntity
  8
0
  6
Continuous
 62
     1
370
    15
100
AcDbSpline
210
0.0
220
0.0
230
1.0
 70
     8
 71
     3
 72
    14
 73
    10
 74
     0
 42
0.000000001
 43
0.00000001
 40
0.0
 40
0.0
 40
0.0
 40
0.0
 40
0.25
 40
0.25
 40
0.5
 40
0.5
 40
0.75
 40
0.75
 40
1.0
 40
1.0
 40
1.0
 40
1.0
 10
30.05432499513349
 20
2.402528000176177
 30
0.0
 10
30.07402997971965
 20
2.285878931448392
 30
0.0
 10
30.08286372999891
 20
2.167092465923491
 30
0.0
 10
30.06554453265972
 20
1.926685902512353
 30
0.0
 10
30.03871137052565
 20
1.80823107315545
 30
0.0
 10
29.94060186530525
 20
1.592778036224907
 30
0.0
 10
29.86897305799124
 20
1.496852194204864
 30
0.0
 10
29.69612308024089
 20
1.343654569695181
 30
0.0
 10
29.59490656032352
 20
1.28535466803531
 30
0.0
 10
29.49002914373297
 20
1.243636466935269
 30
0.0
1001
PE_URL
1000

  0
SPLINE
  5
BD
330
1F
100
AcDbEntity
  8
0
  6
Continuous
 62
     1
370
    15
100
AcDbSpline
210
0.0
220
0.0
230
1.0
 70
     8
 71
     3
 72
    11
 73
     7
 74
     0
 42
0.000000001
 43
0.00000001
 40
0.0
 40
0.0
 40
0.0
 40
0.0
 40
0.2442442137582748
 40
0.4962800954797752
 40
0.7481042145413557
 40
1.0
 40
1.0
 40
1.0
 40
1.0
 10
23.37991627024284
 20
-1.852838153117007
 30
0.0
 10
23.02725660599666
 20
-1.996383257107558
 30
0.0
 10
22.31068703347374
 20
-2.288052717021924
 30
0.0
 10
21.23101048756921
 20
-2.584859492320809
 30
0.0
 10
20.1404736063596
 20
-2.769884424047797
 30
0.0
 10
19.41352567745589
 20
-2.772044085525888
 30
0.0
 10
19.04999999999999
 20
-2.773124069897096
 30
0.0
1001
PE_URL
1000

  0
SPLINE
  5
BE
330
1F
100
AcDbEntity
  8
외형선
  6
Continuous
370
    15
100
AcDbSpline
210
0.0
220
0.0
230
1.0
 70
    24
 71
     3
 72
    14
 73
    10
 74
     0
 42
0.000000001
 43
0.00000001
 40
0.0
 40
0.0
 40
0.0
 40
0.0
 40
0.25
 40
0.25
 40
0.4999999999999999
 40
0.4999999999999999
 40
0.7499999999999998
 40
0.7499999999999998
 40
1.0
 40
1.0
 40
1.0
 40
1.0
 10
19.04999999999999
 20
-0.9104857968721483
 30
0.0
 10
19.04999999999999
 20
-0.9389342115419752
 30
0.0
 10
19.04999999999999
 20
-0.9924507380982573
 30
0.0
 10
19.04999999999999
 20
-1.171535793333172
 30
0.0
 10
19.04999999999999
 20
-1.297894920307748
 30
0.0
 10
19.04999999999999
 20
-1.628108491420417
 30
0.0
 10
19.04999999999999
 20
-1.832269829326749
 30
0.0
 10
19.04999999999999
 20
-2.285360630013
 30
0.0
 10
19.04999999999999
 20
-2.533147182833622
 30
0.0
 10
19.04999999999999
 20
-2.773124069895538
 30
0.0
  0
LINE
  5
BF
330
1F
100
AcDbEntity
  8
중심선
 62
     1
100
AcDbLine
 10
-34.75
 20
-0.0000000000000043
 30
0.0
 11
34.75
 21
0.0000000000000043
 31
0.0
  0
LINE
  5
C0
330
1F
100
AcDbEntity
  8
참조1
100
AcDbLine
 10
-0.0000000000000036
 20
-0.0000000000000043
 30
0.0
 11
0.0000000000000036
 21
-40.00000000000001
 31
0.0
  0
LINE
  5
C1
330
1F
100
AcDbEntity
  8
참조1
100
AcDbLine
 10
31.74999999999999
 20
-0.0000000000000043
 30
0.0
 11
31.74999999999999
 21
0.630973477839306
 31
0.0
  0
LINE
  5
C2
330
1F
100
AcDbEntity
  8
참조1
100
AcDbLine
 10
0.0000000000000036
 20
-40.00000000000001
 30
0.0
 11
-19.12760681430868
 21
-40.0
 31
0.0
  0
CIRCLE
  5
C3
330
1F
100
AcDbEntity
  8
해칭선
100
AcDbCircle
 10
0.0
 20
0.0
 30
0.0
 40
3.000000000000001
  0
INSERT
  5
C4
330
1F
100
AcDbEntity
  8
0
  6
Continuous
 62
     7
100
AcDbBlockReference
 66
     1
  2
블럭10
 10
-13.94027293212521
 20
-52.04717430164393
 30
0.0
  0
ATTRIB
  5
C5
330
C4
100
AcDbEntity
  8
FORMAT
 62
     2
100
AcDbText
 10
-23.12156822086649
 20
-49.97180738881175
 30
0.0
 40
4.233333333333333
  1
E5251014 [ 2 FLUTE ]
 41
0.75
  7
SLDTEXTSTYLE0
 11
-23.12156822086649
 21
-52.08847405547841
 31
0.0
100
AcDbAttribute
  2
AUTOATTR0
 70
     0
 74
     1
  0
SEQEND
  5
C6
330
C4
100
AcDbEntity
  8
0
  6
Continuous
 62
     7
  0
HATCH
  5
C7
330
1F
100
AcDbEntity
  8
중심선
100
AcDbHatch
 10
0.0
 20
0.0
 30
0.0
210
0.0
220
0.0
230
1.0
  2
SOLID
 70
     1
 71
     0
 91
        1
 92
        0
 93
        4
 72
     1
 10
-8.225363627744358
 20
-35.8
 11
-11.67163887158164
 21
-35.8
 72
     1
 10
-11.67163887158164
 20
-35.8
 11
-13.79986873078566
 21
-38.3363255805726
 72
     1
 10
-13.79986873078566
 20
-38.3363255805726
 11
-10.35356040183523
 21
-38.33628615127011
 72
     1
 10
-10.35356040183523
 20
-38.33628615127011
 11
-8.225363627744358
 21
-35.8
 97
        0
 75
     0
 76
     1
 98
        1
 10
10.12536934298443
 20
-0.0010749287238935
  0
HATCH
  5
C8
330
1F
100
AcDbEntity
  8
중심선
100
AcDbHatch
 10
0.0
 20
0.0
 30
0.0
210
0.0
220
0.0
230
1.0
  2
SOLID
 70
     1
 71
     0
 91
        1
 92
        0
 93
        4
 72
     1
 10
-3.212599636708404
 20
-35.80000000000003
 11
-6.65887488054566
 21
-35.79999999999998
 72
     1
 10
-6.65887488054566
 20
-35.79999999999998
 11
-11.19001288890308
 21
-41.20000000000002
 72
     1
 10
-11.19001288890308
 20
-41.20000000000002
 11
-7.743737645065792
 21
-41.20000000000002
 72
     1
 10
-7.743737645065792
 20
-41.20000000000002
 11
-3.212599636708404
 21
-35.80000000000003
 97
        0
 75
     0
 76
     1
 98
        1
 10
10.12536934298443
 20
-0.0010749287238935
  0
HATCH
  5
C9
330
1F
100
AcDbEntity
  8
중심선
100
AcDbHatch
 10
0.0
 20
0.0
 30
0.0
210
0.0
220
0.0
230
1.0
  2
SOLID
 70
     1
 71
     0
 91
        1
 92
        0
 93
        4
 72
     1
 10
1.800164354327491
 20
-35.8
 11
-1.646110889509597
 21
-35.8
 72
     1
 10
-1.646110889509597
 20
-35.8
 11
-8.694547791398875
 21
-44.20000000000002
 72
     1
 10
-8.694547791398875
 20
-44.20000000000002
 11
-5.248272547561591
 21
-44.20000000000002
 72
     1
 10
-5.248272547561591
 20
-44.20000000000002
 11
1.800164354327491
 21
-35.8
 97
        0
 75
     0
 76
     1
 98
        1
 10
10.12536934298443
 20
-0.0010749287238935
  0
HATCH
  5
CA
330
1F
100
AcDbEntity
  8
중심선
100
AcDbHatch
 10
0.0
 20
0.0
 30
0.0
210
0.0
220
0.0
230
1.0
  2
SOLID
 70
     1
 71
     0
 91
        1
 92
        0
 93
        6
 72
     3
 10
6.60005478533969
 20
-40.00000000005127
 11
3.960054785062283
 21
1.540882976769353E-10
 40
0.3939339440162628
 50
17.09539180608437
 51
320.0019657685081
 73
     0
 72
     1
 10
8.283054441040285
 20
-38.5878940046383
 11
10.58835631474132
 21
-36.65356729459038
 72
     3
 10
6.600054785286844
 20
-40.00000000000015
 11
6.600054785286829
 21
-1.278976924368180E-13
 40
0.636358354079598
 50
39.99873849337411
 51
368.4976242363725
 73
     1
 72
     1
 10
13.02538727718745
 20
-39.03999999993002
 11
5.280122092122765
 21
-39.03999999993002
 72
     1
 10
5.280122092122766
 20
-39.03999999993002
 11
5.280097047676832
 21
-40.95999999992991
 72
     1
 10
5.280097047676832
 20
-40.95999999992991
 11
9.721476817148869
 21
-40.95999999992988
 97
        0
 75
     0
 76
     1
 98
        1
 10
10.12536934298443
 20
-0.0010749287238935
  0
DIMENSION
  5
CB
330
1F
100
AcDbEntity
  8
치수문자_일반주서
100
AcDbDimension
  2
_D
 10
19.05
 20
13.175
 30
0.0
 11
49.29149999999999
 21
13.175
 31
0.0
 70
   160
  1
<>
 71
     2
 42
12.7
  3
SLDDIMSTYLE1
100
AcDbAlignedDimension
 13
31.74999999999999
 23
2.778125000000003
 33
0.0
 14
19.05
 24
2.778124999999992
 34
0.0
 50
0.000000000000008
100
AcDbRotatedDimension
1001
PE_URL
1000

1001
ACAD
1000
DSTYLE
1002
{
1070
   171
1070
     8
1070
   273
1070
     7
1002
}
  0
DIMENSION
  5
E0
330
1F
100
AcDbEntity
  8
치수문자_일반주서
100
AcDbDimension
  2
_D_1
 10
-31.75000000000001
 20
23.175
 30
0.0
 11
0.2779156695830167
 21
23.175
 31
0.0
 70
   160
  1
<>
 71
     2
 42
63.5
  3
SLDDIMSTYLE1
100
AcDbAlignedDimension
 13
31.74999999999999
 23
2.778125000000003
 33
0.0
 14
-31.75000000000001
 24
2.778125000000008
 34
0.0
 50
0.0000000000000032
100
AcDbRotatedDimension
1001
PE_URL
1000

1001
ACAD
1000
DSTYLE
1002
{
1070
   171
1070
     8
1070
   273
1070
     7
1002
}
  0
DIMENSION
  5
F3
330
1F
100
AcDbEntity
  8
치수문자_일반주서
100
AcDbDimension
  2
_D_2
 10
-41.75
 20
-3.175000000000097
 30
0.0
 11
-41.75000000000009
 21
22.46649999999995
 31
0.0
 70
   160
  1
%%c<>
 71
     2
 42
6.35
 52
-270.0
  3
SLDDIMSTYLE1
100
AcDbAlignedDimension
 13
-16.5688423357461
 23
3.174999999999999
 33
0.0
 14
-16.56884233574609
 24
-3.175000000000001
 34
0.0
 50
90.0000000000002
100
AcDbRotatedDimension
1001
ACAD
1000
DSTYLE
1002
{
1070
   171
1070
     8
1070
   273
1070
     7
1002
}
  0
DIMENSION
  5
108
330
1F
100
AcDbEntity
  8
치수문자_일반주서
100
AcDbDimension
  2
_D_3
 10
66.43287752290688
 20
-2.778124999999868
 30
0.0
 11
66.43287752290681
 21
23.81962500000014
 31
0.0
 70
   160
  1
%%c<>
 71
     2
 42
5.55625
 52
-270.0
  3
SLDDIMSTYLE1
100
AcDbAlignedDimension
 13
31.74999999999999
 23
2.778125000000003
 33
0.0
 14
31.74999999999999
 24
-2.778124999999997
 34
0.0
 50
90.0000000000002
100
AcDbRotatedDimension
1001
PE_URL
1000

1001
ACAD
1000
DSTYLE
1002
{
1070
   171
1070
     8
1070
   273
1070
     7
1002
}
  0
LINE
  5
11C
330
1F
100
AcDbEntity
  8
참조1
100
AcDbLine
 10
78.84473381534558
 20
7.440000000000002
 30
0.0
 11
78.84473381534558
 21
-7.440000000000002
 31
0.0
  0
LINE
  5
11D
330
1F
100
AcDbEntity
  8
참조1
100
AcDbLine
 10
91.54473381534558
 20
5.440000000000002
 30
0.0
 11
78.84473381534558
 21
5.440000000000002
 31
0.0
  0
SOLID
  5
11E
330
1F
100
AcDbEntity
  8
참조1
100
AcDbTrace
 10
78.84473381534558
 20
5.440000000000002
 30
0.0
 11
85.19473381534557
 21
4.424000000000002
 31
0.0
 12
85.19473381534557
 22
6.456000000000002
 32
0.0
 13
85.19473381534557
 23
6.456000000000002
 33
0.0
  0
LINE
  5
11F
330
1F
100
AcDbEntity
  8
참조1
100
AcDbLine
 10
91.54473381534558
 20
-5.440000000000002
 30
0.0
 11
78.84473381534558
 21
-5.440000000000002
 31
0.0
  0
SOLID
  5
120
330
1F
100
AcDbEntity
  8
참조1
100
AcDbTrace
 10
78.84473381534558
 20
-5.440000000000002
 30
0.0
 11
85.19473381534557
 21
-6.456000000000002
 31
0.0
 12
85.19473381534557
 22
-4.424000000000002
 32
0.0
 13
85.19473381534557
 23
-4.424000000000002
 33
0.0
  0
MTEXT
  5
121
330
1F
100
AcDbEntity
  8
참조1
100
AcDbMText
 10
88.24222390781586
 20
10.98821664464994
 30
0.0
 40
3.5
 41
0.0
 71
     1
 72
     1
  1
A
  7
SLDTEXTSTYLE0
 73
     1
 44
1.0
  0
MTEXT
  5
122
330
1F
100
AcDbEntity
  8
참조1
100
AcDbMText
 10
88.24222390781586
 20
0.1082166446499316
 30
0.0
 40
3.5
 41
0.0
 71
     1
 72
     1
  1
A
  7
SLDTEXTSTYLE0
 73
     1
 44
1.0
  0
INSERT
  5
129
330
1F
100
AcDbEntity
  8
해칭선
100
AcDbBlockReference
  2
SW_DOWELSYMBOL_0
 10
0.0
 20
0.0
 30
0.0
  0
LINE
  5
1CA
330
1F
100
AcDbEntity
  8
외형선
  6
Continuous
370
    15
100
AcDbLine
 10
-16.5688423357461
 20
3.174999999999999
 30
0.0
 11
-18.04999999999999
 21
2.778124999999999
 31
0.0
  0
LINE
  5
1CB
330
1F
100
AcDbEntity
  8
외형선
  6
Continuous
370
    15
100
AcDbLine
 10
-18.04999999999999
 20
-2.778125000000003
 30
0.0
 11
-16.56884233574609
 21
-3.175000000000001
 31
0.0
  0
LINE
  5
1CC
330
1F
100
AcDbEntity
  8
외형선
  6
Continuous
370
    15
100
AcDbLine
 10
-19.04999999999999
 20
-2.778125000000003
 30
0.0
 11
-18.04999999999999
 21
-2.778125000000003
 31
0.0
  0
LINE
  5
1CD
330
1F
100
AcDbEntity
  8
외형선
  6
Continuous
370
    15
100
AcDbLine
 10
-18.04999999999999
 20
2.778124999999999
 30
0.0
 11
-19.04999999999999
 21
2.778124999999998
 31
0.0
  0
LINE
  5
1CE
330
1F
100
AcDbEntity
  8
0
  6
Continuous
 62
     1
370
    15
100
AcDbLine
 10
-28.41581776776331
 20
2.778124999999992
 30
0.0
 11
-28.97187499999999
 21
2.77812499999999
 31
0.0
1001
PE_URL
1000

  0
LINE
  5
1CF
330
1F
100
AcDbEntity
  8
0
  6
Continuous
 62
     1
370
    15
100
AcDbLine
 10
-19.33816395871916
 20
-2.778125000000003
 30
0.0
 11
-19.04999999999999
 21
-2.778125000000003
 31
0.0
1001
PE_URL
1000

  0
ARC
  5
1D0
330
1F
100
AcDbEntity
  8
0
  6
Continuous
 62
     1
370
    15
100
AcDbCircle
 10
-28.97187499999999
 20
-0.0000000000000107
 30
0.0
 40
2.778125
100
AcDbArc
 50
90.00000000000088
 51
180.0
1001
PE_URL
1000

  0
ARC
  5
1D1
330
1F
100
AcDbEntity
  8
0
  6
Continuous
 62
     1
370
    15
100
AcDbCircle
 10
-28.97187499999999
 20
-0.0000000000000107
 30
0.0
 40
2.778125
100
AcDbArc
 50
180.0
 51
270.0
1001
PE_URL
1000

  0
LINE
  5
1D2
330
1F
100
AcDbEntity
  8
외형선
  6
Continuous
370
    15
100
AcDbLine
 10
-19.04999999999999
 20
2.778124999999998
 30
0.0
 11
-19.33816395871916
 21
2.778124999999998
 31
0.0
  0
LINE
  5
1D3
330
1F
100
AcDbEntity
  8
0
  6
Continuous
 62
     1
370
    15
100
AcDbLine
 10
-28.97187499999999
 20
-2.77812500000001
 30
0.0
 11
-28.4158177677633
 21
-2.77812500000001
 31
0.0
1001
PE_URL
1000

  0
LINE
  5
1D4
330
1F
100
AcDbEntity
  8
외형선
  6
Continuous
370
    15
100
AcDbLine
 10
-16.56884233574609
 20
-3.174999999999997
 30
0.0
 11
-16.5688423357461
 21
3.174999999999999
 31
0.0
  0
LINE
  5
1D5
330
1F
100
AcDbEntity
  8
외형선
  6
Continuous
370
    15
100
AcDbLine
 10
-18.04999999999999
 20
-2.778125000000003
 30
0.0
 11
-18.04999999999999
 21
2.778124999999998
 31
0.0
  0
LINE
  5
1D6
330
1F
100
AcDbEntity
  8
외형선
  6
Continuous
370
    15
100
AcDbLine
 10
-19.04999999999999
 20
-2.778125000000003
 30
0.0
 11
-19.04999999999999
 21
-1.019821777524662
 31
0.0
  0
SPLINE
  5
1D7
330
1F
100
AcDbEntity
  8
외형선
  6
Continuous
370
    15
100
AcDbSpline
210
0.0
220
0.0
230
1.0
 70
     8
 71
     3
 72
     8
 73
     4
 74
     0
 42
0.000000001
 43
0.00000001
 40
0.0
 40
0.0
 40
0.0
 40
0.0
 40
1.0
 40
1.0
 40
1.0
 40
1.0
 10
-18.15990332293287
 20
-1.476936653943865
 30
0.0
 10
-18.45457532535852
 20
-1.33244221436442
 30
0.0
 10
-18.75380025387104
 20
-1.178785103246556
 30
0.0
 10
-19.04999999999849
 20
-1.019821777525653
 30
0.0
  0
SPLINE
  5
1D8
330
1F
100
AcDbEntity
  8
외형선
  6
Continuous
370
    15
100
AcDbSpline
210
0.0
220
0.0
230
1.0
 70
     8
 71
     3
 72
     8
 73
     4
 74
     0
 42
0.000000001
 43
0.00000001
 40
0.0
 40
0.0
 40
0.0
 40
0.0
 40
1.0
 40
1.0
 40
1.0
 40
1.0
 10
-19.04999999999999
 20
2.773124069897095
 30
0.0
 10
-18.75372622009503
 20
2.762872157126449
 30
0.0
 10
-18.4544257561606
 20
2.736704016083097
 30
0.0
 10
-18.15968236800892
 20
2.695362750457241
 30
0.0
  0
LINE
  5
1D9
330
1F
100
AcDbEntity
  8
외형선
  6
Continuous
370
    15
100
AcDbLine
 10
-19.04999999999999
 20
2.773124069897095
 30
0.0
 11
-19.04999999999999
 21
2.778124999999998
 31
0.0
  0
LINE
  5
1DA
330
1F
100
AcDbEntity
  8
외형선
  6
Continuous
370
    15
100
AcDbLine
 10
-18.15968236800892
 20
2.695402355550941
 30
0.0
 11
-18.15968236800891
 21
-1.477055447069231
 31
0.0
  0
SPLINE
  5
1DB
330
1F
100
AcDbEntity
  8
외형선
  6
Continuous
370
    15
100
AcDbSpline
210
0.0
220
0.0
230
1.0
 70
     8
 71
     3
 72
     8
 73
     4
 74
     0
 42
0.000000001
 43
0.00000001
 40
0.0
 40
0.0
 40
0.0
 40
0.0
 40
1.0
 40
1.0
 40
1.0
 40
1.0
 10
-19.04999999999999
 20
0.9104857968721483
 30
0.0
 10
-18.75372622009502
 20
0.8084467023404436
 30
0.0
 10
-18.4544257561606
 20
0.7008519451638282
 30
0.0
 10
-18.15968236800891
 20
0.5904506406878625
 30
0.0
  0
SPLINE
  5
1DC
330
1F
100
AcDbEntity
  8
외형선
  6
Continuous
370
    15
100
AcDbSpline
210
0.0
220
0.0
230
1.0
 70
    24
 71
     3
 72
    14
 73
    10
 74
     0
 42
0.000000001
 43
0.00000001
 40
0.0
 40
0.0
 40
0.0
 40
0.0
 40
0.25
 40
0.25
 40
0.5
 40
0.5
 40
0.75
 40
0.75
 40
1.0
 40
1.0
 40
1.0
 40
1.0
 10
-19.04999999999998
 20
-1.019821777528712
 30
0.0
 10
-19.04999999999998
 20
-0.9297619517247302
 30
0.0
 10
-19.04999999999998
 20
-0.799898488616785
 30
0.0
 10
-19.04999999999998
 20
-0.4877810356780117
 30
0.0
 10
-19.04999999999998
 20
-0.3065088860677534
 30
0.0
 10
-19.04999999999998
 20
0.0635807603190237
 30
0.0
 10
-19.04999999999998
 20
0.2517239859613785
 30
0.0
 10
-19.04999999999999
 20
0.6027813408742713
 30
0.0
 10
-19.04999999999999
 20
0.7657653512554017
 30
0.0
 10
-19.04999999999999
 20
0.91048579687215
 30
0.0
  0
SPLINE
  5
1DD
330
1F
100
AcDbEntity
  8
외형선
  6
Continuous
370
    15
100
AcDbSpline
210
0.0
220
0.0
230
1.0
 70
    24
 71
     3
 72
    14
 73
    10
 74
     0
 42
0.000000001
 43
0.00000001
 40
0.0
 40
0.0
 40
0.0
 40
0.0
 40
0.2499999999999998
 40
0.2499999999999998
 40
0.4999999999999999
 40
0.4999999999999999
 40
0.75
 40
0.75
 40
1.0
 40
1.0
 40
1.0
 40
1.0
 10
-19.04999999999999
 20
0.9104857968721483
 30
0.0
 10
-19.04999999999999
 20
0.9389342115419748
 30
0.0
 10
-19.04999999999999
 20
0.9924507380982561
 30
0.0
 10
-19.04999999999999
 20
1.171535793333172
 30
0.0
 10
-19.04999999999999
 20
1.297894920307749
 30
0.0
 10
-19.04999999999999
 20
1.628108491420418
 30
0.0
 10
-19.04999999999999
 20
1.832269829326746
 30
0.0
 10
-19.04999999999999
 20
2.285360630012999
 30
0.0
 10
-19.04999999999999
 20
2.533147182833623
 30
0.0
 10
-19.04999999999999
 20
2.773124069895538
 30
0.0
  0
SPLINE
  5
1DE
330
1F
100
AcDbEntity
  8
0
  6
Continuous
 62
     1
370
    15
100
AcDbSpline
210
0.0
220
0.0
230
1.0
 70
     8
 71
     3
 72
    16
 73
    12
 74
     0
 42
0.000000001
 43
0.00000001
 40
0.0
 40
0.0
 40
0.0
 40
0.0
 40
0.1154973347014162
 40
0.2308221807801249
 40
0.3460725304058637
 40
0.4613508302134969
 40
0.5767591353718601
 40
0.6902307235328291
 40
0.8035119948474294
 40
0.9166980862885575
 40
1.0
 40
1.0
 40
1.0
 40
1.0
 10
-28.97187499999999
 20
1.161408038105101
 30
0.0
 10
-28.60086314430814
 20
0.9610756888078722
 30
0.0
 10
-27.85939351777984
 20
0.5607101750483086
 30
0.0
 10
-26.74817539026277
 20
-0.0866346797094479
 30
0.0
 10
-25.63776958119172
 20
-0.7247179615830479
 30
0.0
 10
-24.52705264134166
 20
-1.325671533238257
 30
0.0
 10
-23.42178791934568
 20
-1.852425720659571
 30
0.0
 10
-22.32252691714808
 20
-2.28049356339678
 30
0.0
 10
-21.23101391718746
 20
-2.584772893346646
 30
0.0
 10
-20.23652067889718
 20
-2.757808821569196
 30
0.0
 10
-19.60563190141776
 20
-2.762340592710974
 30
0.0
 10
-19.33816395871916
 20
-2.764261856089465
 30
0.0
1001
PE_URL
1000

  0
SPLINE
  5
1DF
330
1F
100
AcDbEntity
  8
0
  6
Continuous
 62
     1
370
    15
100
AcDbSpline
210
0.0
220
0.0
230
1.0
 70
     8
 71
     3
 72
    14
 73
    10
 74
     0
 42
0.000000001
 43
0.00000001
 40
0.0
 40
0.0
 40
0.0
 40
0.0
 40
0.1739532363664141
 40
0.3479063158066677
 40
0.4962841238416029
 40
0.644789289247708
 40
0.7934991229725782
 40
0.9420780425928627
 40
1.0
 40
1.0
 40
1.0
 40
1.0
 10
-31.00627670067329
 20
-0.2911723649258935
 30
0.0
 10
-30.56405117193456
 20
-0.4608422083751282
 30
0.0
 10
-29.67960051339622
 20
-0.80018174221156
 30
0.0
 10
-28.41783164834035
 20
-1.221176518051648
 30
0.0
 10
-27.22115282651635
 20
-1.543294136491243
 30
0.0
 10
-26.08846010433516
 20
-1.76419458443282
 30
0.0
 10
-24.95503367959714
 20
-1.881330799146291
 30
0.0
 10
-24.05203176656263
 20
-1.911334047935357
 30
0.0
 10
-23.52714351419006
 20
-1.865651708857788
 30
0.0
 10
-23.37991627024284
 20
-1.852838153117016
 30
0.0
1001
PE_URL
1000

  0
SPLINE
  5
1E0
330
1F
100
AcDbEntity
  8
0
  6
Continuous
 62
     1
370
    15
100
AcDbSpline
210
0.0
220
0.0
230
1.0
 70
     8
 71
     3
 72
    22
 73
    18
 74
     0
 42
0.000000001
 43
0.00000001
 40
0.0
 40
0.0
 40
0.0
 40
0.0
 40
0.1249999999999999
 40
0.1249999999999999
 40
0.2499999999999999
 40
0.2499999999999999
 40
0.3749999999999998
 40
0.3749999999999998
 40
0.4999999999999999
 40
0.4999999999999999
 40
0.6249999999999999
 40
0.6249999999999999
 40
0.75
 40
0.75
 40
0.875
 40
0.875
 40
1.0
 40
1.0
 40
1.0
 40
1.0
 10
-28.97187499999999
 20
1.161408038104273
 30
0.0
 10
-29.12594749992652
 20
1.242698601315777
 30
0.0
 10
-29.27771659209519
 20
1.315314242191089
 30
0.0
 10
-29.5807860293179
 20
1.437332548356395
 30
0.0
 10
-29.7336517443336
 20
1.487290581580055
 30
0.0
 10
-30.03538526688596
 20
1.551534386813294
 30
0.0
 10
-30.18322472241118
 20
1.566267775992369
 30
0.0
 10
-30.47937286594221
 20
1.54488746364604
 30
0.0
 10
-30.6238083470733
 20
1.508176938689113
 30
0.0
 10
-30.89620473856974
 20
1.360868218917997
 30
0.0
 10
-31.02287100766488
 20
1.249181271077829
 30
0.0
 10
-31.21547367132998
 20
0.9526030487100385
 30
0.0
 10
-31.27345128156485
 20
0.7768628940712379
 30
0.0
 10
-31.30270730461287
 20
0.4332609218579897
 30
0.0
 10
-31.27631634133789
 20
0.2713420845769363
 30
0.0
 10
-31.17426104585015
 20
-0.0252244809449262
 30
0.0
 10
-31.09867468311661
 20
-0.1613967513435437
 30
0.0
 10
-31.00627670067215
 20
-0.2911723649263411
 30
0.0
1001
PE_URL
1000

  0
SPLINE
  5
1E1
330
1F
100
AcDbEntity
  8
0
  6
Continuous
 62
     1
370
    15
100
AcDbSpline
210
0.0
220
0.0
230
1.0
 70
     8
 71
     3
 72
    12
 73
     8
 74
     0
 42
0.000000001
 43
0.00000001
 40
0.0
 40
0.0
 40
0.0
 40
0.0
 40
0.1143939261313742
 40
0.3244497590442053
 40
0.5344238411728709
 40
0.7671934434223663
 40
1.0
 40
1.0
 40
1.0
 40
1.0
 10
-24.43799381159502
 20
1.876406635279539
 30
0.0
 10
-24.23252674243788
 20
1.882595848910192
 30
0.0
 10
-23.64977079258968
 20
1.900150005315604
 30
0.0
 10
-22.69001698258903
 20
1.814292063927203
 30
0.0
 10
-21.51774715758453
 20
1.624053298995552
 30
0.0
 10
-20.30435746748109
 20
1.324640672997864
 30
0.0
 10
-19.46814128024698
 20
1.048544727131874
 30
0.0
 10
-19.04999999999999
 20
0.9104857968721483
 30
0.0
1001
PE_URL
1000

  0
SPLINE
  5
1E2
330
1F
100
AcDbEntity
  8
외형선
  6
Continuous
370
    15
100
AcDbSpline
210
0.0
220
0.0
230
1.0
 70
    24
 71
     3
 72
    14
 73
    10
 74
     0
 42
0.000000001
 43
0.00000001
 40
0.0
 40
0.0
 40
0.0
 40
0.0
 40
0.2499999999999998
 40
0.2499999999999998
 40
0.4999999999999999
 40
0.4999999999999999
 40
0.75
 40
0.75
 40
1.0
 40
1.0
 40
1.0
 40
1.0
 10
-19.04999999999998
 20
-1.019821777528712
 30
0.0
 10
-19.04999999999998
 20
-0.9297619517247302
 30
0.0
 10
-19.04999999999998
 20
-0.7998984886167868
 30
0.0
 10
-19.04999999999999
 20
-0.4877810356780117
 30
0.0
 10
-19.04999999999999
 20
-0.3065088860677552
 30
0.0
 10
-19.04999999999999
 20
0.0635807603190237
 30
0.0
 10
-19.04999999999998
 20
0.2517239859613785
 30
0.0
 10
-19.04999999999998
 20
0.6027813408742695
 30
0.0
 10
-19.04999999999999
 20
0.7657653512554017
 30
0.0
 10
-19.04999999999999
 20
0.91048579687215
 30
0.0
  0
SPLINE
  5
1E3
330
1F
100
AcDbEntity
  8
0
  6
Continuous
 62
     1
370
    15
100
AcDbSpline
210
0.0
220
0.0
230
1.0
 70
     8
 71
     3
 72
    19
 73
    15
 74
     0
 42
0.000000001
 43
0.00000001
 40
0.0
 40
0.0
 40
0.0
 40
0.0
 40
0.104364333468589
 40
0.2098174342118465
 40
0.295348891860296
 40
0.3814773344347019
 40
0.4669619777538299
 40
0.5530405804377525
 40
0.6385057781568856
 40
0.724563355769484
 40
0.8069028552071689
 40
0.8897726582698398
 40
0.9742779657722395
 40
1.0
 40
1.0
 40
1.0
 40
1.0
 10
-19.04999999999999
 20
-1.019821777524854
 30
0.0
 10
-19.37579775573426
 20
-0.8406509579317518
 30
0.0
 10
-20.03079210972701
 20
-0.4804401425771676
 30
0.0
 10
-20.95250602442492
 20
0.0568121874939376
 30
0.0
 10
-21.81866481303534
 20
0.5522932898835524
 30
0.0
 10
-22.62049161888562
 20
1.00069604981106
 30
0.0
 10
-23.42567031586228
 20
1.419222978400676
 30
0.0
 10
-24.22794465216088
 20
1.798750921841826
 30
0.0
 10
-25.03163253228702
 20
2.129278965945883
 30
0.0
 10
-25.82517287209107
 20
2.394839847256236
 30
0.0
 10
-26.60843425572896
 20
2.596913869103409
 30
0.0
 10
-27.38921507493032
 20
2.723415183913621
 30
0.0
 10
-27.99125187711061
 20
2.782269340416912
 30
0.0
 10
-28.33548861366195
 20
2.772407806710136
 30
0.0
 10
-28.41581776776331
 20
2.770106574515271
 30
0.0
1001
PE_URL
1000

  0
SPLINE
  5
1E4
330
1F
100
AcDbEntity
  8
0
  6
Continuous
 62
     1
370
    15
100
AcDbSpline
210
0.0
220
0.0
230
1.0
 70
     8
 71
     3
 72
    10
 73
     6
 74
     0
 42
0.000000001
 43
0.00000001
 40
0.0
 40
0.0
 40
0.0
 40
0.0
 40
0.5
 40
0.5
 40
1.0
 40
1.0
 40
1.0
 40
1.0
 10
-31.00627670067214
 20
-0.2911723649263411
 30
0.0
 10
-31.07015496160227
 20
-0.3297287188952627
 30
0.0
 10
-31.12115328136913
 20
-0.3883435105136659
 30
0.0
 10
-31.18936846390308
 20
-0.5369233294950071
 30
0.0
 10
-31.20626643961682
 20
-0.6264254113014545
 30
0.0
 10
-31.20783745257931
 20
-0.7195095555905642
 30
0.0
1001
PE_URL
1000

  0
ARC
  5
1E5
330
1F
100
AcDbEntity
  8
0
  6
Continuous
 62
     1
370
    15
100
AcDbCircle
 10
-30.42084604742452
 20
0.4829323728461521
 30
0.0
 40
1.43708804985992
100
AcDbArc
 50
203.841285760777
 51
236.7954810300132
1001
PE_URL
1000

  0
ARC
  5
1E6
330
1F
100
AcDbEntity
  8
0
  6
Continuous
 62
     1
370
    15
100
AcDbCircle
 10
-29.24893049947104
 20
-0.0497156242316574
 30
0.0
 40
2.486842650840842
100
AcDbArc
 50
181.1112551108722
 51
251.1033400436849
1001
PE_URL
1000

  0
SPLINE
  5
1E7
330
1F
100
AcDbEntity
  8
0
  6
Continuous
 62
     1
370
    15
100
AcDbSpline
210
0.0
220
0.0
230
1.0
 70
     8
 71
     3
 72
    10
 73
     6
 74
     0
 42
0.000000001
 43
0.00000001
 40
0.0
 40
0.0
 40
0.0
 40
0.0
 40
0.5
 40
0.5
 40
1.0
 40
1.0
 40
1.0
 40
1.0
 10
-30.05432499513348
 20
-2.402528000176183
 30
0.0
 10
-29.88233712109749
 20
-2.507402271039901
 30
0.0
 10
-29.70515166324538
 20
-2.589761010684967
 30
0.0
 10
-29.34382368286509
 20
-2.709596144448859
 30
0.0
 10
-29.15792262575204
 20
-2.747190118277235
 30
0.0
 10
-28.97187499999845
 20
-2.759635955160569
 30
0.0
1001
PE_URL
1000

  0
SPLINE
  5
1E8
330
1F
100
AcDbEntity
  8
0
  6
Continuous
 62
     1
370
    15
100
AcDbSpline
210
0.0
220
0.0
230
1.0
 70
     8
 71
     3
 72
     8
 73
     4
 74
     0
 42
0.000000001
 43
0.00000001
 40
0.0
 40
0.0
 40
0.0
 40
0.0
 40
1.0
 40
1.0
 40
1.0
 40
1.0
 10
-29.49002914373297
 20
-1.243636466935275
 30
0.0
 10
-30.05480918438631
 20
-1.086651875829375
 30
0.0
 10
-30.63062186910431
 20
-0.9098113492942552
 30
0.0
 10
-31.20783745257932
 20
-0.719509555590589
 30
0.0
1001
PE_URL
1000

  0
SPLINE
  5
1E9
330
1F
100
AcDbEntity
  8
0
  6
Continuous
 62
     1
370
    15
100
AcDbSpline
210
0.0
220
0.0
230
1.0
 70
     8
 71
     3
 72
    13
 73
     9
 74
     0
 42
0.000000001
 43
0.00000001
 40
0.0
 40
0.0
 40
0.0
 40
0.0
 40
0.1306178729366811
 40
0.3083922629546675
 40
0.4784859919789182
 40
0.6496752015648057
 40
0.8242429724838206
 40
1.0
 40
1.0
 40
1.0
 40
1.0
 10
-24.43799381159502
 20
-1.876406635279553
 30
0.0
 10
-24.63529188408215
 20
-1.959676099109009
 30
0.0
 10
-25.10111786702702
 20
-2.15627751213184
 30
0.0
 10
-25.82517608541512
 20
-2.393942873520544
 30
0.0
 10
-26.60844145715388
 20
-2.596538137093507
 30
0.0
 10
-27.38918247022172
 20
-2.725850504358458
 30
0.0
 10
-28.17644699074769
 20
-2.790767469990936
 30
0.0
 10
-28.70613295073463
 20
-2.770036585326324
 30
0.0
 10
-28.97187499999918
 20
-2.759635955160519
 30
0.0
1001
PE_URL
1000

  0
SPLINE
  5
1EA
330
1F
100
AcDbEntity
  8
0
  6
Continuous
 62
     1
370
    15
100
AcDbSpline
210
0.0
220
0.0
230
1.0
 70
     8
 71
     3
 72
    14
 73
    10
 74
     0
 42
0.000000001
 43
0.00000001
 40
0.0
 40
0.0
 40
0.0
 40
0.0
 40
0.25
 40
0.25
 40
0.5
 40
0.5
 40
0.75
 40
0.75
 40
1.0
 40
1.0
 40
1.0
 40
1.0
 10
-30.05432499513349
 20
-2.402528000176183
 30
0.0
 10
-30.07402997971964
 20
-2.285878931448398
 30
0.0
 10
-30.08286372999891
 20
-2.167092465923497
 30
0.0
 10
-30.06554453265972
 20
-1.926685902512361
 30
0.0
 10
-30.03871137052564
 20
-1.808231073155458
 30
0.0
 10
-29.94060186530525
 20
-1.592778036224914
 30
0.0
 10
-29.86897305799124
 20
-1.496852194204871
 30
0.0
 10
-29.69612308024089
 20
-1.343654569695188
 30
0.0
 10
-29.59490656032352
 20
-1.285354668035318
 30
0.0
 10
-29.49002914373297
 20
-1.243636466935275
 30
0.0
1001
PE_URL
1000

  0
SPLINE
  5
1EB
330
1F
100
AcDbEntity
  8
0
  6
Continuous
 62
     1
370
    15
100
AcDbSpline
210
0.0
220
0.0
230
1.0
 70
     8
 71
     3
 72
    11
 73
     7
 74
     0
 42
0.000000001
 43
0.00000001
 40
0.0
 40
0.0
 40
0.0
 40
0.0
 40
0.2442442137582748
 40
0.4962800954797752
 40
0.7481042145413557
 40
1.0
 40
1.0
 40
1.0
 40
1.0
 10
-23.37991627024284
 20
1.852838153117006
 30
0.0
 10
-23.02725660599666
 20
1.996383257107556
 30
0.0
 10
-22.31068703347374
 20
2.288052717021923
 30
0.0
 10
-21.23101048756921
 20
2.58485949232081
 30
0.0
 10
-20.1404736063596
 20
2.769884424047797
 30
0.0
 10
-19.41352567745589
 20
2.772044085525888
 30
0.0
 10
-19.04999999999999
 20
2.773124069897097
 30
0.0
1001
PE_URL
1000

  0
SPLINE
  5
1EC
330
1F
100
AcDbEntity
  8
외형선
  6
Continuous
370
    15
100
AcDbSpline
210
0.0
220
0.0
230
1.0
 70
    24
 71
     3
 72
    14
 73
    10
 74
     0
 42
0.000000001
 43
0.00000001
 40
0.0
 40
0.0
 40
0.0
 40
0.0
 40
0.25
 40
0.25
 40
0.4999999999999999
 40
0.4999999999999999
 40
0.7499999999999998
 40
0.7499999999999998
 40
1.0
 40
1.0
 40
1.0
 40
1.0
 10
-19.04999999999999
 20
0.9104857968721483
 30
0.0
 10
-19.04999999999999
 20
0.9389342115419748
 30
0.0
 10
-19.04999999999999
 20
0.9924507380982579
 30
0.0
 10
-19.04999999999999
 20
1.171535793333172
 30
0.0
 10
-19.04999999999999
 20
1.297894920307748
 30
0.0
 10
-19.04999999999999
 20
1.628108491420416
 30
0.0
 10
-19.04999999999999
 20
1.832269829326748
 30
0.0
 10
-19.04999999999999
 20
2.285360630012999
 30
0.0
 10
-19.04999999999999
 20
2.533147182833622
 30
0.0
 10
-19.04999999999999
 20
2.773124069895538
 30
0.0
  0
ENDSEC
  0
SECTION
  2
OBJECTS
  0
DICTIONARY
  5
C
330
0
100
AcDbDictionary
281
     1
  3
ACAD_DETAILVIEWSTYLE
350
182
  3
ACAD_GROUP
350
D
  3
ACAD_LAYOUT
350
1A
  3
ACAD_MLINESTYLE
350
17
  3
ACAD_PLOTSETTINGS
350
19
  3
ACAD_PLOTSTYLENAME
350
E
  3
ACAD_SCALELIST
350
47
  3
ACAD_SECTIONVIEWSTYLE
350
183
  3
AcDbVariableDictionary
350
17D
  3
APPDATA
350
14B
  3
DWGPROPS
350
1EF
  0
DICTIONARY
  5
170
330
2
100
AcDbDictionary
280
     1
281
     1
  3
ACAD_LAYERSTATES
360
171
  0
DICTIONARY
  5
182
102
{ACAD_REACTORS
330
C
102
}
330
C
100
AcDbDictionary
281
     1
  0
DICTIONARY
  5
D
102
{ACAD_REACTORS
330
C
102
}
330
C
100
AcDbDictionary
281
     1
  0
DICTIONARY
  5
1A
102
{ACAD_REACTORS
330
C
102
}
330
C
100
AcDbDictionary
281
     1
  3
Layout1
350
1E
  3
Layout2
350
26
  3
Model
350
22
  0
DICTIONARY
  5
17
102
{ACAD_REACTORS
330
C
102
}
330
C
100
AcDbDictionary
281
     1
  3
Standard
350
18
  0
DICTIONARY
  5
19
102
{ACAD_REACTORS
330
C
102
}
330
C
100
AcDbDictionary
281
     1
  0
ACDBDICTIONARYWDFLT
  5
E
102
{ACAD_REACTORS
330
C
102
}
330
C
100
AcDbDictionary
281
     1
  3
Normal
350
F
100
AcDbDictionaryWithDefault
340
F
  0
DICTIONARY
  5
47
102
{ACAD_REACTORS
330
C
102
}
330
C
100
AcDbDictionary
281
     1
  3
A0
350
48
  3
A1
350
49
  3
A2
350
4A
  3
A3
350
4B
  3
A4
350
4C
  3
A5
350
4D
  3
A6
350
4E
  3
A7
350
4F
  3
A8
350
50
  3
A9
350
51
  3
B0
350
52
  3
B1
350
53
  3
B2
350
54
  3
B3
350
55
  3
B4
350
56
  3
B5
350
57
  3
B6
350
58
  3
B7
350
59
  3
B8
350
5A
  3
B9
350
5B
  3
C0
350
5C
  3
C1
350
5D
  3
C2
350
5E
  3
C3
350
5F
  3
C4
350
60
  3
C5
350
61
  3
C6
350
62
  3
C7
350
63
  3
C8
350
64
  3
C9
350
65
  3
D0
350
66
  3
D1
350
67
  3
D2
350
68
  0
DICTIONARY
  5
183
102
{ACAD_REACTORS
330
C
102
}
330
C
100
AcDbDictionary
281
     1
  0
DICTIONARY
  5
17D
102
{ACAD_REACTORS
330
C
102
}
330
C
100
AcDbDictionary
281
     1
  0
DICTIONARY
  5
14B
102
{ACAD_REACTORS
330
C
102
}
330
C
100
AcDbDictionary
281
     1
  0
XRECORD
  5
1EF
102
{ACAD_REACTORS
330
C
102
}
330
C
100
AcDbXrecord
280
     1
  1
DWGPROPS COOKIE
  2

  3

  4

  6

  7

  8
120170442
  9

300
=
301
=
302
=
303
=
304
=
305
=
306
=
307
=
308
=
309
=
 40
0.0
 41
2458319.378208079
 42
2458324.238883646
  1

 90
        0
  0
DICTIONARY
  5
171
102
{ACAD_REACTORS
330
170
102
}
330
170
100
AcDbDictionary
281
     1
  0
LAYOUT
  5
1E
102
{ACAD_REACTORS
330
1A
102
}
330
1A
100
AcDbPlotSettings
  1

  2
none_device
  4

  6

 40
0.0
 41
0.0
 42
0.0
 43
0.0
 44
0.0
 45
0.0
 46
0.0
 47
0.0
 48
0.0
 49
0.0
140
0.0
141
0.0
142
1.0
143
1.0
 70
   688
 72
     1
 73
     0
 74
     5
  7

 75
    16
147
1.0
148
0.0
149
0.0
100
AcDbLayout
  1
Layout1
 70
     1
 71
     1
 10
0.0
 20
0.0
 11
420.0
 21
297.0
 12
0.0
 22
0.0
 32
0.0
 14
1.000000000000000E+20
 24
1.000000000000000E+20
 34
1.000000000000000E+20
 15
-1.000000000000000E+20
 25
-1.000000000000000E+20
 35
-1.000000000000000E+20
146
0.0
 13
0.0
 23
0.0
 33
0.0
 16
1.0
 26
0.0
 36
0.0
 17
0.0
 27
1.0
 37
0.0
 76
     0
330
1B
  0
LAYOUT
  5
26
102
{ACAD_REACTORS
330
1A
102
}
330
1A
100
AcDbPlotSettings
  1

  2
none_device
  4

  6

 40
0.0
 41
0.0
 42
0.0
 43
0.0
 44
0.0
 45
0.0
 46
0.0
 47
0.0
 48
0.0
 49
0.0
140
0.0
141
0.0
142
1.0
143
1.0
 70
   688
 72
     1
 73
     0
 74
     5
  7

 75
    16
147
1.0
148
0.0
149
0.0
100
AcDbLayout
  1
Layout2
 70
     1
 71
     2
 10
0.0
 20
0.0
 11
0.0
 21
0.0
 12
0.0
 22
0.0
 32
0.0
 14
0.0
 24
0.0
 34
0.0
 15
0.0
 25
0.0
 35
0.0
146
0.0
 13
0.0
 23
0.0
 33
0.0
 16
1.0
 26
0.0
 36
0.0
 17
0.0
 27
1.0
 37
0.0
 76
     0
330
23
  0
LAYOUT
  5
22
102
{ACAD_REACTORS
330
1A
102
}
330
1A
100
AcDbPlotSettings
  1

  2
none_device
  4
ANSI_A_(11.00_x_8.50_Inches)
  6

 40
6.35
 41
19.05
 42
6.35000508
 43
19.05000254
 44
279.4
 45
215.9
 46
118.1430065323409
 47
95.88465864447383
 48
0.0
 49
0.0
140
0.0
141
0.0
142
0.0742292754234702
143
1.0
 70
  1696
 72
     0
 73
     0
 74
     0
  7

 75
     0
147
0.0235690232323232
148
0.0
149
0.0
100
AcDbLayout
  1
Model
 70
     1
 71
     0
 10
0.0
 20
0.0
 11
420.0
 21
297.0
 12
0.0
 22
0.0
 32
0.0
 14
-46.12500000000012
 24
-49.97180738881175
 34
0.0
 15
91.54473381534558
 25
38.25712500000014
 35
0.0
146
0.0
 13
0.0
 23
0.0
 33
0.0
 16
1.0
 26
0.0
 36
0.0
 17
0.0
 27
1.0
 37
0.0
 76
     0
330
1F
331
29
  0
MLINESTYLE
  5
18
102
{ACAD_REACTORS
330
17
102
}
330
17
100
AcDbMlineStyle
  2
Standard
 70
     0
  3

 62
   256
 51
90.0
 52
90.0
 71
     2
 49
0.5
 62
   256
  6
BYLAYER
 49
-0.5
 62
   256
  6
BYLAYER
  0
ACDBPLACEHOLDER
  5
F
102
{ACAD_REACTORS
330
E
102
}
330
E
  0
SCALE
  5
48
102
{ACAD_REACTORS
330
47
102
}
330
47
100
AcDbScale
 70
     0
300
1:1
140
1.0
141
1.0
290
     1
  0
SCALE
  5
49
102
{ACAD_REACTORS
330
47
102
}
330
47
100
AcDbScale
 70
     0
300
1:2
140
1.0
141
2.0
290
     0
  0
SCALE
  5
4A
102
{ACAD_REACTORS
330
47
102
}
330
47
100
AcDbScale
 70
     0
300
1:4
140
1.0
141
4.0
290
     0
  0
SCALE
  5
4B
102
{ACAD_REACTORS
330
47
102
}
330
47
100
AcDbScale
 70
     0
300
1:5
140
1.0
141
5.0
290
     0
  0
SCALE
  5
4C
102
{ACAD_REACTORS
330
47
102
}
330
47
100
AcDbScale
 70
     0
300
1:8
140
1.0
141
8.0
290
     0
  0
SCALE
  5
4D
102
{ACAD_REACTORS
330
47
102
}
330
47
100
AcDbScale
 70
     0
300
1:10
140
1.0
141
10.0
290
     0
  0
SCALE
  5
4E
102
{ACAD_REACTORS
330
47
102
}
330
47
100
AcDbScale
 70
     0
300
1:16
140
1.0
141
16.0
290
     0
  0
SCALE
  5
4F
102
{ACAD_REACTORS
330
47
102
}
330
47
100
AcDbScale
 70
     0
300
1:20
140
1.0
141
20.0
290
     0
  0
SCALE
  5
50
102
{ACAD_REACTORS
330
47
102
}
330
47
100
AcDbScale
 70
     0
300
1:30
140
1.0
141
30.0
290
     0
  0
SCALE
  5
51
102
{ACAD_REACTORS
330
47
102
}
330
47
100
AcDbScale
 70
     0
300
1:40
140
1.0
141
40.0
290
     0
  0
SCALE
  5
52
102
{ACAD_REACTORS
330
47
102
}
330
47
100
AcDbScale
 70
     0
300
1:50
140
1.0
141
50.0
290
     0
  0
SCALE
  5
53
102
{ACAD_REACTORS
330
47
102
}
330
47
100
AcDbScale
 70
     0
300
1:100
140
1.0
141
100.0
290
     0
  0
SCALE
  5
54
102
{ACAD_REACTORS
330
47
102
}
330
47
100
AcDbScale
 70
     0
300
2:1
140
2.0
141
1.0
290
     0
  0
SCALE
  5
55
102
{ACAD_REACTORS
330
47
102
}
330
47
100
AcDbScale
 70
     0
300
4:1
140
4.0
141
1.0
290
     0
  0
SCALE
  5
56
102
{ACAD_REACTORS
330
47
102
}
330
47
100
AcDbScale
 70
     0
300
8:1
140
8.0
141
1.0
290
     0
  0
SCALE
  5
57
102
{ACAD_REACTORS
330
47
102
}
330
47
100
AcDbScale
 70
     0
300
10:1
140
10.0
141
1.0
290
     0
  0
SCALE
  5
58
102
{ACAD_REACTORS
330
47
102
}
330
47
100
AcDbScale
 70
     0
300
100:1
140
100.0
141
1.0
290
     0
  0
SCALE
  5
59
102
{ACAD_REACTORS
330
47
102
}
330
47
100
AcDbScale
 70
     0
300
1/128" = 1'-0"
140
0.0078125
141
12.0
290
     0
  0
SCALE
  5
5A
102
{ACAD_REACTORS
330
47
102
}
330
47
100
AcDbScale
 70
     0
300
1/64" = 1'-0"
140
0.015625
141
12.0
290
     0
  0
SCALE
  5
5B
102
{ACAD_REACTORS
330
47
102
}
330
47
100
AcDbScale
 70
     0
300
1/32" = 1'-0"
140
0.03125
141
12.0
290
     0
  0
SCALE
  5
5C
102
{ACAD_REACTORS
330
47
102
}
330
47
100
AcDbScale
 70
     0
300
1/16" = 1'-0"
140
0.0625
141
12.0
290
     0
  0
SCALE
  5
5D
102
{ACAD_REACTORS
330
47
102
}
330
47
100
AcDbScale
 70
     0
300
3/32" = 1'-0"
140
0.09375
141
12.0
290
     0
  0
SCALE
  5
5E
102
{ACAD_REACTORS
330
47
102
}
330
47
100
AcDbScale
 70
     0
300
1/8" = 1'-0"
140
0.125
141
12.0
290
     0
  0
SCALE
  5
5F
102
{ACAD_REACTORS
330
47
102
}
330
47
100
AcDbScale
 70
     0
300
3/16" = 1'-0"
140
0.1875
141
12.0
290
     0
  0
SCALE
  5
60
102
{ACAD_REACTORS
330
47
102
}
330
47
100
AcDbScale
 70
     0
300
1/4" = 1'-0"
140
0.25
141
12.0
290
     0
  0
SCALE
  5
61
102
{ACAD_REACTORS
330
47
102
}
330
47
100
AcDbScale
 70
     0
300
3/8" = 1'-0"
140
0.375
141
12.0
290
     0
  0
SCALE
  5
62
102
{ACAD_REACTORS
330
47
102
}
330
47
100
AcDbScale
 70
     0
300
1/2" = 1'-0"
140
0.5
141
12.0
290
     0
  0
SCALE
  5
63
102
{ACAD_REACTORS
330
47
102
}
330
47
100
AcDbScale
 70
     0
300
3/4" = 1'-0"
140
0.75
141
12.0
290
     0
  0
SCALE
  5
64
102
{ACAD_REACTORS
330
47
102
}
330
47
100
AcDbScale
 70
     0
300
1" = 1'-0"
140
1.0
141
12.0
290
     0
  0
SCALE
  5
65
102
{ACAD_REACTORS
330
47
102
}
330
47
100
AcDbScale
 70
     0
300
1-1/2" = 1'-0"
140
1.5
141
12.0
290
     0
  0
SCALE
  5
66
102
{ACAD_REACTORS
330
47
102
}
330
47
100
AcDbScale
 70
     0
300
3" = 1'-0"
140
3.0
141
12.0
290
     0
  0
SCALE
  5
67
102
{ACAD_REACTORS
330
47
102
}
330
47
100
AcDbScale
 70
     0
300
6" = 1'-0"
140
6.0
141
12.0
290
     0
  0
SCALE
  5
68
102
{ACAD_REACTORS
330
47
102
}
330
47
100
AcDbScale
 70
     0
300
1'-0" = 1'-0"
140
12.0
141
12.0
290
     0
  0
ENDSEC
  0
EOF
