  0
SECTION
  2
HEADER
  9
$ACADVER
  1
AC1015
  9
$ACADMAINTVER
 70
     6
  9
$DWGCODEPAGE
  3
ANSI_949
  9
$INSBASE
 10
0.0
 20
0.0
 30
0.0
  9
$EXTMIN
 10
-46.12500000000012
 20
-49.97180738881175
 30
0.0
  9
$EXTMAX
 10
91.54473381534558
 20
35.81025000000015
 30
0.0
  9
$LIMMIN
 10
0.0
 20
0.0
  9
$LIMMAX
 10
420.0
 20
297.0
  9
$ORTHOMODE
 70
     1
  9
$REGENMODE
 70
     1
  9
$FILLMODE
 70
     1
  9
$QTEXTMODE
 70
     0
  9
$MIRRTEXT
 70
     1
  9
$LTSCALE
 40
1.0
  9
$ATTMODE
 70
     1
  9
$TEXTSIZE
 40
3.5
  9
$TRACEWID
 40
1.0
  9
$TEXTSTYLE
  7
Standard
  9
$CLAYER
  8
0
  9
$CELTYPE
  6
ByLayer
  9
$CECOLOR
 62
   256
  9
$CELTSCALE
 40
1.0
  9
$DISPSILH
 70
     0
  9
$DIMSCALE
 40
1.0
  9
$DIMASZ
 40
3.302
  9
$DIMEXO
 40
1.0
  9
$DIMDLI
 40
3.75
  9
$DIMRND
 40
0.0
  9
$DIMDLE
 40
0.0
  9
$DIMEXE
 40
1.0
  9
$DIMTP
 40
0.0
  9
$DIMTM
 40
0.0
  9
$DIMTXT
 40
3.5
  9
$DIMCEN
 40
2.5
  9
$DIMTSZ
 40
0.0
  9
$DIMTOL
 70
     0
  9
$DIMLIM
 70
     0
  9
$DIMTIH
 70
     1
  9
$DIMTOH
 70
     1
  9
$DIMSE1
 70
     0
  9
$DIMSE2
 70
     0
  9
$DIMTAD
 70
     1
  9
$DIMZIN
 70
     0
  9
$DIMBLK
  1

  9
$DIMASO
 70
     1
  9
$DIMSHO
 70
     1
  9
$DIMPOST
  1

  9
$DIMAPOST
  1

  9
$DIMALT
 70
     0
  9
$DIMALTD
 70
     3
  9
$DIMALTF
 40
0.0393700787401575
  9
$DIMLFAC
 40
1.0
  9
$DIMTOFL
 70
     1
  9
$DIMTVP
 40
0.0
  9
$DIMTIX
 70
     0
  9
$DIMSOXD
 70
     0
  9
$DIMSAH
 70
     0
  9
$DIMBLK1
  1

  9
$DIMBLK2
  1

  9
$DIMSTYLE
  2
ISO-25
  9
$DIMCLRD
 70
     0
  9
$DIMCLRE
 70
     0
  9
$DIMCLRT
 70
     0
  9
$DIMTFAC
 40
1.0
  9
$DIMGAP
 40
1.524
  9
$DIMJUST
 70
     0
  9
$DIMSD1
 70
     0
  9
$DIMSD2
 70
     0
  9
$DIMTOLJ
 70
     0
  9
$DIMTZIN
 70
     0
  9
$DIMALTZ
 70
     0
  9
$DIMALTTZ
 70
     0
  9
$DIMUPT
 70
     0
  9
$DIMDEC
 70
     2
  9
$DIMTDEC
 70
     2
  9
$DIMALTU
 70
     2
  9
$DIMALTTD
 70
     3
  9
$DIMTXSTY
  7
Standard
  9
$DIMAUNIT
 70
     0
  9
$DIMADEC
 70
     2
  9
$DIMALTRND
 40
0.0
  9
$DIMAZIN
 70
     0
  9
$DIMDSEP
 70
    44
  9
$DIMATFIT
 70
     3
  9
$DIMFRAC
 70
     0
  9
$DIMLDRBLK
  1

  9
$DIMLUNIT
 70
     2
  9
$DIMLWD
 70
    -2
  9
$DIMLWE
 70
    -2
  9
$DIMTMOVE
 70
     0
  9
$LUNITS
 70
     2
  9
$LUPREC
 70
     2
  9
$SKETCHINC
 40
1.0
  9
$FILLETRAD
 40
10.0
  9
$AUNITS
 70
     0
  9
$AUPREC
 70
     2
  9
$MENU
  1
.
  9
$ELEVATION
 40
0.0
  9
$PELEVATION
 40
0.0
  9
$THICKNESS
 40
0.0
  9
$LIMCHECK
 70
     0
  9
$CHAMFERA
 40
0.0
  9
$CHAMFERB
 40
0.0
  9
$CHAMFERC
 40
0.0
  9
$CHAMFERD
 40
0.0
  9
$SKPOLY
 70
     0
  9
$TDCREATE
 40
2458319.753419873
  9
$TDUCREATE
 40
2458319.378419873
  9
$TDUPDATE
 40
2458324.616108426
  9
$TDUUPDATE
 40
2458324.241108426
  9
$TDINDWG
 40
0.0021565162
  9
$TDUSRTIMER
 40
0.0021565046
  9
$USRTIMER
 70
     1
  9
$ANGBASE
 50
0.0
  9
$ANGDIR
 70
     0
  9
$PDMODE
 70
     0
  9
$PDSIZE
 40
-1.0
  9
$PLINEWID
 40
0.0
  9
$SPLFRAME
 70
     0
  9
$SPLINETYPE
 70
     6
  9
$SPLINESEGS
 70
     8
  9
$HANDSEED
  5
1EB
  9
$SURFTAB1
 70
     6
  9
$SURFTAB2
 70
     6
  9
$SURFTYPE
 70
     6
  9
$SURFU
 70
     6
  9
$SURFV
 70
     6
  9
$UCSBASE
  2

  9
$UCSNAME
  2

  9
$UCSORG
 10
0.0
 20
0.0
 30
0.0
  9
$UCSXDIR
 10
1.0
 20
0.0
 30
0.0
  9
$UCSYDIR
 10
0.0
 20
1.0
 30
0.0
  9
$UCSORTHOREF
  2

  9
$UCSORTHOVIEW
 70
     0
  9
$UCSORGTOP
 10
0.0
 20
0.0
 30
0.0
  9
$UCSORGBOTTOM
 10
0.0
 20
0.0
 30
0.0
  9
$UCSORGLEFT
 10
0.0
 20
0.0
 30
0.0
  9
$UCSORGRIGHT
 10
0.0
 20
0.0
 30
0.0
  9
$UCSORGFRONT
 10
0.0
 20
0.0
 30
0.0
  9
$UCSORGBACK
 10
0.0
 20
0.0
 30
0.0
  9
$PUCSBASE
  2

  9
$PUCSNAME
  2

  9
$PUCSORG
 10
0.0
 20
0.0
 30
0.0
  9
$PUCSXDIR
 10
1.0
 20
0.0
 30
0.0
  9
$PUCSYDIR
 10
0.0
 20
1.0
 30
0.0
  9
$PUCSORTHOREF
  2

  9
$PUCSORTHOVIEW
 70
     0
  9
$PUCSORGTOP
 10
0.0
 20
0.0
 30
0.0
  9
$PUCSORGBOTTOM
 10
0.0
 20
0.0
 30
0.0
  9
$PUCSORGLEFT
 10
0.0
 20
0.0
 30
0.0
  9
$PUCSORGRIGHT
 10
0.0
 20
0.0
 30
0.0
  9
$PUCSORGFRONT
 10
0.0
 20
0.0
 30
0.0
  9
$PUCSORGBACK
 10
0.0
 20
0.0
 30
0.0
  9
$USERI1
 70
     0
  9
$USERI2
 70
     0
  9
$USERI3
 70
     0
  9
$USERI4
 70
     0
  9
$USERI5
 70
     0
  9
$USERR1
 40
0.0
  9
$USERR2
 40
0.0
  9
$USERR3
 40
0.0
  9
$USERR4
 40
0.0
  9
$USERR5
 40
0.0
  9
$WORLDVIEW
 70
     1
  9
$SHADEDGE
 70
     3
  9
$SHADEDIF
 70
    70
  9
$TILEMODE
 70
     1
  9
$MAXACTVP
 70
    64
  9
$PINSBASE
 10
0.0
 20
0.0
 30
0.0
  9
$PLIMCHECK
 70
     0
  9
$PEXTMIN
 10
1.000000000000000E+20
 20
1.000000000000000E+20
 30
1.000000000000000E+20
  9
$PEXTMAX
 10
-1.000000000000000E+20
 20
-1.000000000000000E+20
 30
-1.000000000000000E+20
  9
$PLIMMIN
 10
0.0
 20
0.0
  9
$PLIMMAX
 10
0.0
 20
0.0
  9
$UNITMODE
 70
     0
  9
$VISRETAIN
 70
     1
  9
$PLINEGEN
 70
     0
  9
$PSLTSCALE
 70
     1
  9
$TREEDEPTH
 70
  3020
  9
$CMLSTYLE
  2
Standard
  9
$CMLJUST
 70
     0
  9
$CMLSCALE
 40
20.0
  9
$PROXYGRAPHICS
 70
     1
  9
$MEASUREMENT
 70
     1
  9
$CELWEIGHT
370
    -1
  9
$ENDCAPS
280
     0
  9
$JOINSTYLE
280
     0
  9
$LWDISPLAY
290
     1
  9
$INSUNITS
 70
     4
  9
$HYPERLINKBASE
  1

  9
$STYLESHEET
  1

  9
$XEDIT
290
     1
  9
$CEPSNTYPE
380
     0
  9
$PSTYLEMODE
290
     1
  9
$FINGERPRINTGUID
  2
{E49D01AD-2DDF-46CC-9900-14634A76B68F}
  9
$VERSIONGUID
  2
{FAEB1C32-E019-11D5-929B-00C0DF256EC4}
  9
$EXTNAMES
290
     1
  9
$PSVPSCALE
 40
0.0
  9
$OLESTARTUP
290
     0
  0
ENDSEC
  0
SECTION
  2
CLASSES
  0
CLASS
  1
ACDBDICTIONARYWDFLT
  2
AcDbDictionaryWithDefault
  3
ObjectDBX Classes
 90
        0
280
     0
281
     0
  0
CLASS
  1
VISUALSTYLE
  2
AcDbVisualStyle
  3
ObjectDBX Classes
 90
     4095
280
     0
281
     0
  0
CLASS
  1
MATERIAL
  2
AcDbMaterial
  3
ObjectDBX Classes
 90
     1153
280
     0
281
     0
  0
CLASS
  1
SCALE
  2
AcDbScale
  3
ObjectDBX Classes
 90
     1153
280
     0
281
     0
  0
CLASS
  1
SUN
  2
AcDbSun
  3
SCENEOE
 90
     1153
280
     0
281
     0
  0
CLASS
  1
ACDBPLACEHOLDER
  2
AcDbPlaceHolder
  3
ObjectDBX Classes
 90
        0
280
     0
281
     0
  0
CLASS
  1
LAYOUT
  2
AcDbLayout
  3
ObjectDBX Classes
 90
        0
280
     0
281
     0
  0
CLASS
  1
TABLESTYLE
  2
AcDbTableStyle
  3
ObjectDBX Classes
 90
     4095
280
     0
281
     0
  0
CLASS
  1
MLEADERSTYLE
  2
AcDbMLeaderStyle
  3
ACDB_MLEADERSTYLE_CLASS
 90
     4095
280
     0
281
     0
  0
CLASS
  1
DICTIONARYVAR
  2
AcDbDictionaryVar
  3
ObjectDBX Classes
 90
        0
280
     0
281
     0
  0
ENDSEC
  0
SECTION
  2
TABLES
  0
TABLE
  2
VPORT
  5
8
330
0
100
AcDbSymbolTable
 70
     1
  0
VPORT
  5
29
330
8
100
AcDbSymbolTableRecord
100
AcDbViewportTableRecord
  2
*Active
 70
     0
 10
0.0
 20
0.0
 11
1.0
 21
1.0
 12
22.70986690767273
 22
-7.080778694405801
 13
0.0
 23
0.0
 14
10.0
 24
10.0
 15
10.0
 25
10.0
 16
0.0
 26
0.0
 36
1.0
 17
0.0
 27
0.0
 37
0.0
 40
87.49769853658813
 41
1.782762691853601
 42
50.0
 43
0.0
 44
0.0
 50
0.0
 51
0.0
 71
    16
 72
  2000
 73
     1
 74
     3
 75
     0
 76
     0
 77
     0
 78
     0
281
     0
 65
     1
110
0.0
120
0.0
130
0.0
111
1.0
121
0.0
131
0.0
112
0.0
122
1.0
132
0.0
 79
     0
146
0.0
  0
ENDTAB
  0
TABLE
  2
LTYPE
  5
5
330
0
100
AcDbSymbolTable
 70
     6
  0
LTYPE
  5
14
330
5
100
AcDbSymbolTableRecord
100
AcDbLinetypeTableRecord
  2
ByBlock
 70
     0
  3

 72
    65
 73
     0
 40
0.0
  0
LTYPE
  5
15
330
5
100
AcDbSymbolTableRecord
100
AcDbLinetypeTableRecord
  2
ByLayer
 70
     0
  3

 72
    65
 73
     0
 40
0.0
  0
LTYPE
  5
16
330
5
100
AcDbSymbolTableRecord
100
AcDbLinetypeTableRecord
  2
Continuous
 70
     0
  3
Solid line
 72
    65
 73
     0
 40
0.0
  0
LTYPE
  5
6A
330
5
100
AcDbSymbolTableRecord
100
AcDbLinetypeTableRecord
  2
HIDDEN
 70
     0
  3
Hidden __ __ __ __ __ __ __ __ __ __ __ __ __ __
 72
    65
 73
     2
 40
1.905
 49
1.27
 74
     0
 49
-0.635
 74
     0
  0
LTYPE
  5
6B
330
5
100
AcDbSymbolTableRecord
100
AcDbLinetypeTableRecord
  2
PHANTOM
 70
     0
  3
Phantom ______  __  __  ______  __  __  ______
 72
    65
 73
     6
 40
12.7
 49
6.35
 74
     0
 49
-1.27
 74
     0
 49
1.27
 74
     0
 49
-1.27
 74
     0
 49
1.27
 74
     0
 49
-1.27
 74
     0
  0
LTYPE
  5
6C
330
5
100
AcDbSymbolTableRecord
100
AcDbLinetypeTableRecord
  2
CENTER
 70
     0
  3
Center ____ _ ____ _ ____ _ ____ _ ____ _ ____
 72
    65
 73
     4
 40
10.16
 49
6.35
 74
     0
 49
-1.27
 74
     0
 49
1.27
 74
     0
 49
-1.27
 74
     0
  0
LTYPE
  5
6D
330
5
100
AcDbSymbolTableRecord
100
AcDbLinetypeTableRecord
  2
CENTERX2
 70
     0
  3
Center (2x) ________  __  ________  __  _____
 72
    65
 73
     4
 40
20.32
 49
12.7
 74
     0
 49
-2.54
 74
     0
 49
2.54
 74
     0
 49
-2.54
 74
     0
  0
LTYPE
  5
6E
330
5
100
AcDbSymbolTableRecord
100
AcDbLinetypeTableRecord
  2
DOT2
 70
     0
  3
Dot (.5x) ........................................
 72
    65
 73
     2
 40
0.635
 49
0.0
 74
     0
 49
-0.635
 74
     0
  0
ENDTAB
  0
TABLE
  2
LAYER
  5
2
102
{ACAD_XDICTIONARY
360
183
102
}
330
0
100
AcDbSymbolTable
 70
    18
  0
LAYER
  5
10
330
2
100
AcDbSymbolTableRecord
100
AcDbLayerTableRecord
  2
0
 70
     0
 62
     7
  6
Continuous
370
    -3
390
F
  0
LAYER
  5
6F
330
2
100
AcDbSymbolTableRecord
100
AcDbLayerTableRecord
  2
FORMAT
 70
     0
 62
     2
  6
Continuous
370
    -3
390
F
  0
LAYER
  5
70
330
2
100
AcDbSymbolTableRecord
100
AcDbLayerTableRecord
  2
외형선
 70
     0
 62
     4
  6
Continuous
370
    30
390
F
  0
LAYER
  5
71
330
2
100
AcDbSymbolTableRecord
100
AcDbLayerTableRecord
  2
숨은선
 70
     0
 62
     2
  6
HIDDEN
370
    15
390
F
  0
LAYER
  5
72
330
2
100
AcDbSymbolTableRecord
100
AcDbLayerTableRecord
  2
중심선
 70
     0
 62
     1
  6
CENTERX2
370
    -3
390
F
  0
LAYER
  5
73
330
2
100
AcDbSymbolTableRecord
100
AcDbLayerTableRecord
  2
파단선
 70
     0
 62
     4
  6
Continuous
370
    -3
390
F
  0
LAYER
  5
74
330
2
100
AcDbSymbolTableRecord
100
AcDbLayerTableRecord
  2
해칭선
 70
     0
 62
   100
  6
Continuous
370
    -3
390
F
  0
LAYER
  5
75
330
2
100
AcDbSymbolTableRecord
100
AcDbLayerTableRecord
  2
가는실선
 70
     0
 62
     4
  6
Continuous
370
    -3
390
F
  0
LAYER
  5
76
330
2
100
AcDbSymbolTableRecord
100
AcDbLayerTableRecord
  2
치수_보조선
 70
     0
 62
     4
  6
Continuous
370
    -3
390
F
  0
LAYER
  5
77
330
2
100
AcDbSymbolTableRecord
100
AcDbLayerTableRecord
  2
치수문자_일반주서
 70
     0
 62
     7
  6
Continuous
370
    15
390
F
  0
LAYER
  5
78
330
2
100
AcDbSymbolTableRecord
100
AcDbLayerTableRecord
  2
개별주서
 70
     0
 62
   100
  6
Continuous
370
    30
390
F
  0
LAYER
  5
79
330
2
100
AcDbSymbolTableRecord
100
AcDbLayerTableRecord
  2
중간선
 70
     0
 62
     2
  6
Continuous
370
    15
390
F
  0
LAYER
  5
7A
330
2
100
AcDbSymbolTableRecord
100
AcDbLayerTableRecord
  2
윤곽선
 70
     0
 62
     3
  6
Continuous
370
    40
390
F
  0
LAYER
  5
7B
330
2
100
AcDbSymbolTableRecord
100
AcDbLayerTableRecord
  2
중심마크
 70
     0
 62
   100
  6
Continuous
370
    30
390
F
  0
LAYER
  5
7C
330
2
100
AcDbSymbolTableRecord
100
AcDbLayerTableRecord
  2
가상선
 70
     0
 62
     4
  6
PHANTOM
370
    -3
390
F
  0
LAYER
  5
7D
330
2
100
AcDbSymbolTableRecord
100
AcDbLayerTableRecord
  2
특수지정선
 70
     0
 62
     5
  6
CENTERX2
370
    60
390
F
  0
LAYER
  5
7E
330
2
100
AcDbSymbolTableRecord
100
AcDbLayerTableRecord
  2
참조1
 70
     0
 62
    -4
  6
Continuous
370
    -3
390
F
  0
LAYER
  5
144
330
2
100
AcDbSymbolTableRecord
100
AcDbLayerTableRecord
  2
Defpoints
 70
     0
 62
     7
  6
Continuous
290
     0
370
    -3
390
F
  0
ENDTAB
  0
TABLE
  2
STYLE
  5
3
330
0
100
AcDbSymbolTable
 70
     2
  0
STYLE
  5
11
330
3
100
AcDbSymbolTableRecord
100
AcDbTextStyleTableRecord
  2
Standard
 70
     0
 40
0.0
 41
1.0
 50
0.0
 71
     0
 42
3.5
  3
txt
  4

  0
STYLE
  5
94
330
3
100
AcDbSymbolTableRecord
100
AcDbTextStyleTableRecord
  2
SLDTEXTSTYLE0
 70
     0
 40
0.0
 41
0.75
 50
0.0
 71
     0
 42
3.5
  3
TXT
  4

  0
ENDTAB
  0
TABLE
  2
VIEW
  5
6
330
0
100
AcDbSymbolTable
 70
     0
  0
ENDTAB
  0
TABLE
  2
UCS
  5
7
330
0
100
AcDbSymbolTable
 70
     0
  0
ENDTAB
  0
TABLE
  2
APPID
  5
9
330
0
100
AcDbSymbolTable
 70
     2
  0
APPID
  5
12
330
9
100
AcDbSymbolTableRecord
100
AcDbRegAppTableRecord
  2
ACAD
 70
     0
  0
APPID
  5
153
330
9
100
AcDbSymbolTableRecord
100
AcDbRegAppTableRecord
  2
PE_URL
 70
     0
  0
ENDTAB
  0
TABLE
  2
DIMSTYLE
  5
A
330
0
100
AcDbSymbolTable
 70
     3
100
AcDbDimStyleTable
  0
DIMSTYLE
105
27
330
A
100
AcDbSymbolTableRecord
100
AcDbDimStyleTableRecord
  2
ISO-25
 70
     0
 41
2.5
 42
0.625
 43
3.75
 44
1.25
 73
     0
 74
     0
 77
     1
 78
     8
140
2.5
141
2.5
143
0.03937007874016
147
0.625
171
     3
172
     1
178
     0
271
     2
272
     2
274
     3
278
    44
283
     0
284
     8
340
11
  0
DIMSTYLE
105
C4
102
{ACAD_REACTORS
330
172
102
}
330
A
100
AcDbSymbolTableRecord
100
AcDbDimStyleTableRecord
  2
SLDDIMSTYLE0
 70
     0
 41
3.302
 44
0.0
 45
0.000000001
 73
     0
 74
     0
 77
     1
 78
     4
 79
     1
140
3.5
143
0.0393700787401575
147
0.875
148
0.000000001
170
     1
173
     1
178
     0
271
     2
272
     2
276
     2
284
    12
340
94
  0
DIMSTYLE
105
EC
102
{ACAD_REACTORS
330
EB
330
100
330
C3
330
D8
102
}
330
A
100
AcDbSymbolTableRecord
100
AcDbDimStyleTableRecord
  2
SLDDIMSTYLE1
 70
     0
 41
3.302
 44
0.0
 45
0.000000001
 73
     0
 74
     0
 77
     1
 78
    12
 79
     3
140
3.5
143
0.0393700787401575
147
0.875
148
0.000000001
170
     1
172
     1
173
     1
178
     0
271
     2
272
     2
276
     2
284
    12
289
     0
340
94
  0
ENDTAB
  0
TABLE
  2
BLOCK_RECORD
  5
1
330
0
100
AcDbSymbolTable
 70
    10
  0
BLOCK_RECORD
  5
1F
330
1
100
AcDbSymbolTableRecord
100
AcDbBlockTableRecord
  2
*Model_Space
340
22
  0
BLOCK_RECORD
  5
1B
330
1
100
AcDbSymbolTableRecord
100
AcDbBlockTableRecord
  2
*Paper_Space
340
1E
  0
BLOCK_RECORD
  5
23
330
1
100
AcDbSymbolTableRecord
100
AcDbBlockTableRecord
  2
*Paper_Space0
340
26
  0
BLOCK_RECORD
  5
7F
330
1
100
AcDbSymbolTableRecord
100
AcDbBlockTableRecord
  2
블럭10
340
0
102
{BLKREFS
331
BC
102
}
  0
BLOCK_RECORD
  5
C5
330
1
100
AcDbSymbolTableRecord
100
AcDbBlockTableRecord
  2
_D
340
0
  0
BLOCK_RECORD
  5
D9
330
1
100
AcDbSymbolTableRecord
100
AcDbBlockTableRecord
  2
_D_1
340
0
  0
BLOCK_RECORD
  5
ED
330
1
100
AcDbSymbolTableRecord
100
AcDbBlockTableRecord
  2
_D_2
340
0
  0
BLOCK_RECORD
  5
101
330
1
100
AcDbSymbolTableRecord
100
AcDbBlockTableRecord
  2
_D_3
340
0
  0
BLOCK_RECORD
  5
11B
330
1
100
AcDbSymbolTableRecord
100
AcDbBlockTableRecord
  2
SW_DOWELSYMBOL_0
340
0
102
{BLKREFS
331
121
102
}
  0
BLOCK_RECORD
  5
187
330
1
100
AcDbSymbolTableRecord
100
AcDbBlockTableRecord
  2
*D8
340
0
  0
BLOCK_RECORD
  5
198
330
1
100
AcDbSymbolTableRecord
100
AcDbBlockTableRecord
  2
*D9
340
0
  0
ENDTAB
  0
ENDSEC
  0
SECTION
  2
BLOCKS
  0
BLOCK
  5
20
330
1F
100
AcDbEntity
  8
0
100
AcDbBlockBegin
  2
*Model_Space
 70
     0
 10
0.0
 20
0.0
 30
0.0
  3
*Model_Space
  1

  0
ENDBLK
  5
21
330
1F
100
AcDbEntity
  8
0
100
AcDbBlockEnd
  0
BLOCK
  5
1C
330
1B
100
AcDbEntity
 67
     1
  8
0
100
AcDbBlockBegin
  2
*Paper_Space
 70
     0
 10
0.0
 20
0.0
 30
0.0
  3
*Paper_Space
  1

  0
ENDBLK
  5
1D
330
1B
100
AcDbEntity
 67
     1
  8
0
100
AcDbBlockEnd
  0
BLOCK
  5
24
330
23
100
AcDbEntity
  8
0
100
AcDbBlockBegin
  2
*Paper_Space0
 70
     0
 10
0.0
 20
0.0
 30
0.0
  3
*Paper_Space0
  1

  0
ENDBLK
  5
25
330
23
100
AcDbEntity
  8
0
100
AcDbBlockEnd
  0
BLOCK
  5
80
330
7F
100
AcDbEntity
  8
0
100
AcDbBlockBegin
  2
블럭10
 70
     2
 10
0.0
 20
0.0
 30
0.0
  3
블럭10
  1

  0
ELLIPSE
  5
82
330
7F
100
AcDbEntity
  8
중심선
100
AcDbEllipse
 10
20.54032771741204
 20
12.0471743016438
 30
0.0
 11
6.600054785286829
 21
-1.261213355974178E-13
 31
0.0
210
0.0
220
0.0
230
1.0
 40
0.636358354079598
 41
0.9219305317359503
 42
6.513795318482858
  0
ELLIPSE
  5
83
330
7F
100
AcDbEntity
  8
중심선
100
AcDbEllipse
 10
20.54032771746488
 20
12.04717430159265
 30
0.0
 11
3.960054785062283
 21
1.540847449632565E-10
 31
0.0
210
0.0
220
0.0
230
1.0
 40
0.3939339440162632
 41
1.131841032648279
 42
5.62031148352944
  0
LINE
  5
84
330
7F
100
AcDbEntity
  8
중심선
100
AcDbLine
 10
2.268634060543552
 20
16.24717430164393
 30
0.0
 11
5.714909304380834
 21
16.24717430164393
 31
0.0
  0
LINE
  5
85
330
7F
100
AcDbEntity
  8
중심선
100
AcDbLine
 10
5.245725140726316
 20
7.84717430164391
 30
0.0
 11
8.692000384563599
 21
7.84717430164391
 31
0.0
  0
LINE
  5
86
330
7F
100
AcDbEntity
  8
중심선
100
AcDbLine
 10
15.74043728645272
 20
16.24717430164393
 30
0.0
 11
8.692000384563599
 21
7.84717430164391
 31
0.0
  0
LINE
  5
87
330
7F
100
AcDbEntity
  8
중심선
100
AcDbLine
 10
0.1404042013395286
 20
13.71084872107135
 30
0.0
 11
3.58671253028996
 21
13.71088815037384
 31
0.0
  0
LINE
  5
88
330
7F
100
AcDbEntity
  8
중심선
100
AcDbLine
 10
2.750260043222114
 20
10.84717430164391
 30
0.0
 11
6.196535287059397
 21
10.84717430164391
 31
0.0
  0
LINE
  5
89
330
7F
100
AcDbEntity
  8
중심선
100
AcDbLine
 10
12.29416204261559
 20
16.24717430164393
 30
0.0
 11
5.245725140726316
 21
7.84717430164391
 31
0.0
  0
LINE
  5
8A
330
7F
100
AcDbEntity
  8
중심선
100
AcDbLine
 10
10.72767329541681
 20
16.24717430164393
 30
0.0
 11
6.196535287059397
 21
10.84717430164391
 31
0.0
  0
LINE
  5
8B
330
7F
100
AcDbEntity
  8
중심선
100
AcDbLine
 10
7.28139805157953
 20
16.24717430164393
 30
0.0
 11
2.750260043222114
 21
10.84717430164391
 31
0.0
  0
LINE
  5
8C
330
7F
100
AcDbEntity
  8
중심선
100
AcDbLine
 10
5.714909304380834
 20
16.24717430164393
 30
0.0
 11
3.58671253028996
 21
13.71088815037384
 31
0.0
  0
LINE
  5
8D
330
7F
100
AcDbEntity
  8
중심선
100
AcDbLine
 10
2.268634060543552
 20
16.24717430164393
 30
0.0
 11
0.1404042013395286
 21
13.71084872107135
 31
0.0
  0
LINE
  5
8E
330
7F
100
AcDbEntity
  8
중심선
100
AcDbLine
 10
7.28139805157953
 20
16.24717430164393
 30
0.0
 11
10.72767329541681
 21
16.24717430164393
 31
0.0
  0
LINE
  5
8F
330
7F
100
AcDbEntity
  8
중심선
100
AcDbLine
 10
12.29416204261559
 20
16.24717430164393
 30
0.0
 11
15.74043728645272
 21
16.24717430164393
 31
0.0
  0
LINE
  5
90
330
7F
100
AcDbEntity
  8
중심선
100
AcDbLine
 10
19.22036997980202
 20
11.08717430171403
 30
0.0
 11
23.66174974927406
 21
11.08717430171406
 31
0.0
  0
LINE
  5
91
330
7F
100
AcDbEntity
  8
중심선
100
AcDbLine
 10
19.22039502424796
 20
13.00717430171391
 30
0.0
 11
19.22036997980202
 21
11.08717430171403
 31
0.0
  0
LINE
  5
92
330
7F
100
AcDbEntity
  8
중심선
100
AcDbLine
 10
19.22039502424796
 20
13.00717430171391
 30
0.0
 11
26.96566020931264
 21
13.00717430171391
 31
0.0
  0
LINE
  5
93
330
7F
100
AcDbEntity
  8
중심선
100
AcDbLine
 10
22.22332737316547
 20
13.45928029700563
 30
0.0
 11
24.52862924686651
 21
15.39360700705356
 31
0.0
  0
ATTDEF
  5
95
330
7F
100
AcDbEntity
  8
FORMAT
 62
     2
100
AcDbText
 10
4.408487351596664
 20
2.075366912832191
 30
0.0
 40
4.233333333333333
  1
E5251016
 41
0.75
  7
SLDTEXTSTYLE0
 11
4.408487351596664
 21
-0.0412997538344756
 31
0.0
100
AcDbAttributeDefinition
  3

  2
AUTOATTR0
 70
     0
 74
     1
  0
ENDBLK
  5
81
330
7F
100
AcDbEntity
  8
0
100
AcDbBlockEnd
  0
BLOCK
  5
C6
330
C5
100
AcDbEntity
  8
0
100
AcDbBlockBegin
  2
_D
 70
     0
 10
0.0
 20
0.0
 30
0.0
  3
_D
  1

  0
LINE
  5
C8
330
C5
100
AcDbEntity
  8
치수문자_일반주서
 62
     0
370
    -2
100
AcDbLine
 10
31.74999999999999
 20
3.237500000000003
 30
0.0
 11
31.74999999999999
 21
13.175
 31
0.0
  0
LINE
  5
C9
330
C5
100
AcDbEntity
  8
치수문자_일반주서
 62
     0
370
    -2
100
AcDbLine
 10
19.05
 20
3.122278491685344
 30
0.0
 11
19.05
 21
13.175
 31
0.0
  0
LINE
  5
CA
330
C5
100
AcDbEntity
  8
치수문자_일반주서
 62
     0
370
    -2
100
AcDbLine
 10
31.74999999999999
 20
13.175
 30
0.0
 11
60.22899999999998
 21
13.175
 31
0.0
  0
LINE
  5
CB
330
C5
100
AcDbEntity
  8
치수문자_일반주서
 62
     0
370
    -2
100
AcDbLine
 10
31.74999999999999
 20
13.175
 30
0.0
 11
19.05
 21
13.175
 31
0.0
  0
LINE
  5
CC
330
C5
100
AcDbEntity
  8
치수문자_일반주서
 62
     0
370
    -2
100
AcDbLine
 10
35.05199999999999
 20
13.175
 30
0.0
 11
38.35399999999999
 21
13.175
 31
0.0
  0
LINE
  5
CD
330
C5
100
AcDbEntity
  8
치수문자_일반주서
 62
     0
370
    -2
100
AcDbLine
 10
15.748
 20
13.175
 30
0.0
 11
12.446
 21
13.175
 31
0.0
  0
SOLID
  5
CE
330
C5
100
AcDbEntity
  8
치수문자_일반주서
 62
     0
100
AcDbTrace
 10
35.05199999999999
 20
13.72533333333334
 30
0.0
 11
35.05199999999999
 21
12.62466666666667
 31
0.0
 12
31.74999999999999
 22
13.175
 32
0.0
 13
31.74999999999999
 23
13.175
 33
0.0
  0
SOLID
  5
CF
330
C5
100
AcDbEntity
  8
치수문자_일반주서
 62
     0
100
AcDbTrace
 10
15.748
 20
12.62466666666667
 30
0.0
 11
15.748
 21
13.72533333333334
 31
0.0
 12
19.05
 22
13.175
 32
0.0
 13
19.05
 23
13.175
 33
0.0
  0
MTEXT
  5
D0
330
C5
100
AcDbEntity
  8
치수문자_일반주서
 62
     0
100
AcDbMText
 10
49.29149999999998
 20
17.55
 30
0.0
 40
3.5
 41
0.0
 71
     2
 72
     1
  1
\A1;12.7 [1/2]
  7
SLDTEXTSTYLE0
 73
     1
 44
1.0
  0
POINT
  5
D1
330
C5
100
AcDbEntity
  8
Defpoints
 62
     0
100
AcDbPoint
 10
31.74999999999999
 20
3.175000000000003
 30
0.0
  0
POINT
  5
1AC
330
C5
100
AcDbEntity
  8
Defpoints
 62
     0
100
AcDbPoint
 10
19.05
 20
3.059778491685344
 30
0.0
  0
POINT
  5
1AE
330
C5
100
AcDbEntity
  8
Defpoints
 62
     0
100
AcDbPoint
 10
19.05
 20
13.175
 30
0.0
  0
ENDBLK
  5
C7
330
C5
100
AcDbEntity
  8
0
100
AcDbBlockEnd
  0
BLOCK
  5
DA
330
D9
100
AcDbEntity
  8
0
100
AcDbBlockBegin
  2
_D_1
 70
     0
 10
0.0
 20
0.0
 30
0.0
  3
_D_1
  1

  0
LINE
  5
DC
330
D9
100
AcDbEntity
  8
치수문자_일반주서
 62
     0
370
    -2
100
AcDbLine
 10
31.74999999999999
 20
3.237500000000003
 30
0.0
 11
31.74999999999999
 21
23.175
 31
0.0
  0
LINE
  5
DD
330
D9
100
AcDbEntity
  8
치수문자_일반주서
 62
     0
370
    -2
100
AcDbLine
 10
-31.75000000000001
 20
3.237500000000005
 30
0.0
 11
-31.75000000000001
 21
23.175
 31
0.0
  0
LINE
  5
DE
330
D9
100
AcDbEntity
  8
치수문자_일반주서
 62
     0
370
    -2
100
AcDbLine
 10
28.44799999999999
 20
23.175
 30
0.0
 11
-28.44800000000001
 21
23.175
 31
0.0
  0
SOLID
  5
DF
330
D9
100
AcDbEntity
  8
치수문자_일반주서
 62
     0
100
AcDbTrace
 10
28.44799999999999
 20
22.62466666666667
 30
0.0
 11
28.44799999999999
 21
23.72533333333334
 31
0.0
 12
31.74999999999999
 22
23.175
 32
0.0
 13
31.74999999999999
 23
23.175
 33
0.0
  0
SOLID
  5
E0
330
D9
100
AcDbEntity
  8
치수문자_일반주서
 62
     0
100
AcDbTrace
 10
-28.44800000000001
 20
23.72533333333334
 30
0.0
 11
-28.44800000000001
 21
22.62466666666667
 31
0.0
 12
-31.75000000000001
 22
23.175
 32
0.0
 13
-31.75000000000001
 23
23.175
 33
0.0
  0
MTEXT
  5
E1
330
D9
100
AcDbEntity
  8
치수문자_일반주서
 62
     0
100
AcDbMText
 10
0.2779156695830238
 20
27.55
 30
0.0
 40
3.5
 41
0.0
 71
     2
 72
     1
  1
\A1;63.5 [2 1/2]
  7
SLDTEXTSTYLE0
 73
     1
 44
1.0
  0
POINT
  5
E2
330
D9
100
AcDbEntity
  8
Defpoints
 62
     0
100
AcDbPoint
 10
31.74999999999999
 20
3.175000000000003
 30
0.0
  0
POINT
  5
E3
330
D9
100
AcDbEntity
  8
Defpoints
 62
     0
100
AcDbPoint
 10
-31.75000000000001
 20
3.175000000000005
 30
0.0
  0
POINT
  5
E4
330
D9
100
AcDbEntity
  8
Defpoints
 62
     0
100
AcDbPoint
 10
-31.75000000000001
 20
23.175
 30
0.0
  0
ENDBLK
  5
DB
330
D9
100
AcDbEntity
  8
0
100
AcDbBlockEnd
  0
BLOCK
  5
EE
330
ED
100
AcDbEntity
  8
0
100
AcDbBlockBegin
  2
_D_2
 70
     0
 10
0.0
 20
0.0
 30
0.0
  3
_D_2
  1

  0
LINE
  5
F0
330
ED
100
AcDbEntity
  8
치수문자_일반주서
 62
     0
370
    -2
100
AcDbLine
 10
-17.62656269841277
 20
3.174999999999998
 30
0.0
 11
-41.75000000000002
 21
3.174999999999908
 31
0.0
  0
LINE
  5
F1
330
ED
100
AcDbEntity
  8
치수문자_일반주서
 62
     0
370
    -2
100
AcDbLine
 10
-17.62656269841276
 20
-3.175000000000001
 30
0.0
 11
-41.75
 21
-3.17500000000009
 31
0.0
  0
LINE
  5
F2
330
ED
100
AcDbEntity
  8
치수문자_일반주서
 62
     0
370
    -2
100
AcDbLine
 10
-41.75000000000002
 20
3.174999999999908
 30
0.0
 11
-41.75000000000013
 21
35.15399999999995
 31
0.0
  0
LINE
  5
F3
330
ED
100
AcDbEntity
  8
치수문자_일반주서
 62
     0
370
    -2
100
AcDbLine
 10
-41.75000000000002
 20
3.174999999999908
 30
0.0
 11
-41.75
 21
-3.17500000000009
 31
0.0
  0
LINE
  5
F4
330
ED
100
AcDbEntity
  8
치수문자_일반주서
 62
     0
370
    -2
100
AcDbLine
 10
-41.75000000000004
 20
6.476999999999908
 30
0.0
 11
-41.75000000000005
 21
9.778999999999908
 31
0.0
  0
LINE
  5
F5
330
ED
100
AcDbEntity
  8
치수문자_일반주서
 62
     0
370
    -2
100
AcDbLine
 10
-41.74999999999999
 20
-6.477000000000089
 30
0.0
 11
-41.74999999999997
 21
-9.779000000000089
 31
0.0
  0
SOLID
  5
F6
330
ED
100
AcDbEntity
  8
치수문자_일반주서
 62
     0
100
AcDbTrace
 10
-42.30033333333337
 20
6.476999999999906
 30
0.0
 11
-41.1996666666667
 21
6.47699999999991
 31
0.0
 12
-41.75000000000002
 22
3.174999999999908
 32
0.0
 13
-41.75000000000002
 23
3.174999999999908
 33
0.0
  0
SOLID
  5
F7
330
ED
100
AcDbEntity
  8
치수문자_일반주서
 62
     0
100
AcDbTrace
 10
-41.19966666666665
 20
-6.477000000000087
 30
0.0
 11
-42.30033333333332
 21
-6.477000000000091
 31
0.0
 12
-41.75
 22
-3.17500000000009
 32
0.0
 13
-41.75
 23
-3.17500000000009
 33
0.0
  0
MTEXT
  5
F8
330
ED
100
AcDbEntity
  8
치수문자_일반주서
 62
     0
100
AcDbMText
 10
-46.12500000000009
 20
22.46649999999993
 30
0.0
 40
3.5
 41
0.0
 71
     2
 72
     1
  1
\A1;%%c6.35 [1/4]
  7
SLDTEXTSTYLE0
 11
-3.356894814614647E-15
 21
1.0
 31
0.0
 73
     1
 44
1.0
  0
POINT
  5
1A9
330
ED
100
AcDbEntity
  8
Defpoints
 62
     0
100
AcDbPoint
 10
-17.56406269841277
 20
3.174999999999999
 30
0.0
  0
POINT
  5
1AA
330
ED
100
AcDbEntity
  8
Defpoints
 62
     0
100
AcDbPoint
 10
-17.56406269841276
 20
-3.175000000000001
 30
0.0
  0
POINT
  5
1AB
330
ED
100
AcDbEntity
  8
Defpoints
 62
     0
100
AcDbPoint
 10
-41.75
 20
-3.175000000000091
 30
0.0
  0
ENDBLK
  5
EF
330
ED
100
AcDbEntity
  8
0
100
AcDbBlockEnd
  0
BLOCK
  5
102
330
101
100
AcDbEntity
  8
0
100
AcDbBlockBegin
  2
_D_3
 70
     0
 10
0.0
 20
0.0
 30
0.0
  3
_D_3
  1

  0
LINE
  5
104
330
101
100
AcDbEntity
  8
치수문자_일반주서
 62
     0
370
    -2
100
AcDbLine
 10
31.81249999999999
 20
3.175000000000003
 30
0.0
 11
66.58177070860097
 21
3.175000000000136
 31
0.0
  0
LINE
  5
105
330
101
100
AcDbEntity
  8
치수문자_일반주서
 62
     0
370
    -2
100
AcDbLine
 10
31.81249999999999
 20
-3.174999999999996
 30
0.0
 11
66.581770708601
 21
-3.174999999999866
 31
0.0
  0
LINE
  5
106
330
101
100
AcDbEntity
  8
치수문자_일반주서
 62
     0
370
    -2
100
AcDbLine
 10
66.58177070860097
 20
3.175000000000136
 30
0.0
 11
66.58177070860083
 21
35.81025000000015
 31
0.0
  0
LINE
  5
107
330
101
100
AcDbEntity
  8
치수문자_일반주서
 62
     0
370
    -2
100
AcDbLine
 10
66.58177070860097
 20
3.175000000000136
 30
0.0
 11
66.581770708601
 21
-3.174999999999866
 31
0.0
  0
LINE
  5
108
330
101
100
AcDbEntity
  8
치수문자_일반주서
 62
     0
370
    -2
100
AcDbLine
 10
66.58177070860096
 20
6.477000000000135
 30
0.0
 11
66.58177070860094
 21
9.779000000000135
 31
0.0
  0
LINE
  5
109
330
101
100
AcDbEntity
  8
치수문자_일반주서
 62
     0
370
    -2
100
AcDbLine
 10
66.58177070860101
 20
-6.476999999999865
 30
0.0
 11
66.58177070860103
 21
-9.778999999999865
 31
0.0
  0
SOLID
  5
10A
330
101
100
AcDbEntity
  8
치수문자_일반주서
 62
     0
100
AcDbTrace
 10
66.03143737526763
 20
6.477000000000133
 30
0.0
 11
67.13210404193428
 21
6.477000000000138
 31
0.0
 12
66.58177070860097
 22
3.175000000000136
 32
0.0
 13
66.58177070860097
 23
3.175000000000136
 33
0.0
  0
SOLID
  5
10B
330
101
100
AcDbEntity
  8
치수문자_일반주서
 62
     0
100
AcDbTrace
 10
67.13210404193434
 20
-6.476999999999863
 30
0.0
 11
66.03143737526769
 21
-6.476999999999868
 31
0.0
 12
66.581770708601
 22
-3.174999999999866
 32
0.0
 13
66.581770708601
 23
-3.174999999999866
 33
0.0
  0
MTEXT
  5
10C
330
101
100
AcDbEntity
  8
치수문자_일반주서
 62
     0
100
AcDbMText
 10
62.20677070860089
 20
23.12275000000013
 30
0.0
 40
3.5
 41
0.0
 71
     2
 72
     1
  1
\A1;%%c6.35 [1/4]
  7
SLDTEXTSTYLE0
 11
-4.475859752819529E-15
 21
1.0
 31
0.0
 73
     1
 44
1.0
  0
POINT
  5
10D
330
101
100
AcDbEntity
  8
Defpoints
 62
     0
100
AcDbPoint
 10
31.74999999999999
 20
3.175000000000003
 30
0.0
  0
POINT
  5
10E
330
101
100
AcDbEntity
  8
Defpoints
 62
     0
100
AcDbPoint
 10
31.74999999999999
 20
-3.174999999999997
 30
0.0
  0
POINT
  5
10F
330
101
100
AcDbEntity
  8
Defpoints
 62
     0
100
AcDbPoint
 10
66.581770708601
 20
-3.174999999999867
 30
0.0
  0
ENDBLK
  5
103
330
101
100
AcDbEntity
  8
0
100
AcDbBlockEnd
  0
BLOCK
  5
11C
330
11B
100
AcDbEntity
  8
0
100
AcDbBlockBegin
  2
SW_DOWELSYMBOL_0
 70
     0
 10
0.0
 20
0.0
 30
0.0
  3
SW_DOWELSYMBOL_0
  1

  0
CIRCLE
  5
11E
330
11B
100
AcDbEntity
  8
해칭선
 62
     0
100
AcDbCircle
 10
0.0
 20
0.0
 30
0.0
 40
3.000000000000001
  0
HATCH
  5
11F
330
11B
100
AcDbEntity
  8
0
  6
Continuous
 62
     0
370
     0
100
AcDbHatch
 10
0.0
 20
0.0
 30
0.0
210
0.0
220
0.0
230
1.0
  2
SOLID
 70
     1
 71
     0
 91
        1
 92
        0
 93
        3
 72
     2
 10
0.0
 20
0.0
 40
3.000000000000001
 50
0.0
 51
90.0
 73
     1
 72
     1
 10
0.0
 20
3.000000000000001
 11
0.0
 21
0.0
 72
     1
 10
0.0
 20
0.0
 11
3.000000000000001
 21
0.0
 97
        0
 75
     0
 76
     1
 98
        1
 10
0.0
 20
0.0
  0
HATCH
  5
120
330
11B
100
AcDbEntity
  8
0
  6
Continuous
 62
     0
370
     0
100
AcDbHatch
 10
0.0
 20
0.0
 30
0.0
210
0.0
220
0.0
230
1.0
  2
SOLID
 70
     1
 71
     0
 91
        1
 92
        0
 93
        3
 72
     2
 10
0.0
 20
0.0
 40
3.000000000000001
 50
180.0
 51
270.0000000000008
 73
     1
 72
     1
 10
0.0
 20
-3.000000000000001
 11
0.0
 21
0.0
 72
     1
 10
0.0
 20
0.0
 11
-3.000000000000001
 21
0.0
 97
        0
 75
     0
 76
     1
 98
        1
 10
0.0
 20
0.0
  0
ENDBLK
  5
11D
330
11B
100
AcDbEntity
  8
0
100
AcDbBlockEnd
  0
BLOCK
  5
188
330
187
100
AcDbEntity
  8
0
100
AcDbBlockBegin
  2
*D8
 70
     1
 10
0.0
 20
0.0
 30
0.0
  3
*D8
  1

  0
LINE
  5
18A
330
187
100
AcDbEntity
  8
치수문자_일반주서
 62
     0
370
    -2
100
AcDbLine
 10
12.954
 20
0.5733000005006854
 30
0.0
 11
12.954
 21
10.51080000050068
 31
0.0
  0
LINE
  5
18B
330
187
100
AcDbEntity
  8
치수문자_일반주서
 62
     0
370
    -2
100
AcDbLine
 10
6.603999999999996
 20
0.5158233692437935
 30
0.0
 11
6.603999999999996
 21
10.51080000050068
 31
0.0
  0
LINE
  5
18C
330
187
100
AcDbEntity
  8
치수문자_일반주서
 62
     0
370
    -2
100
AcDbLine
 10
12.954
 20
10.51080000050068
 30
0.0
 11
42.308
 21
10.51080000050068
 31
0.0
  0
LINE
  5
18D
330
187
100
AcDbEntity
  8
치수문자_일반주서
 62
     0
370
    -2
100
AcDbLine
 10
16.256
 20
10.51080000050068
 30
0.0
 11
19.558
 21
10.51080000050068
 31
0.0
  0
LINE
  5
18E
330
187
100
AcDbEntity
  8
치수문자_일반주서
 62
     0
370
    -2
100
AcDbLine
 10
3.301999999999996
 20
10.51080000050068
 30
0.0
 11
-0.0000000000000036
 21
10.51080000050068
 31
0.0
  0
SOLID
  5
18F
330
187
100
AcDbEntity
  8
치수문자_일반주서
 62
     0
100
AcDbTrace
 10
16.256
 20
11.06113333383401
 30
0.0
 11
16.256
 21
9.96046666716735
 31
0.0
 12
12.954
 22
10.51080000050068
 32
0.0
 13
12.954
 23
10.51080000050068
 33
0.0
  0
SOLID
  5
190
330
187
100
AcDbEntity
  8
치수문자_일반주서
 62
     0
100
AcDbTrace
 10
3.301999999999996
 20
9.96046666716735
 30
0.0
 11
3.301999999999996
 21
11.06113333383401
 31
0.0
 12
6.603999999999996
 22
10.51080000050068
 32
0.0
 13
6.603999999999996
 23
10.51080000050068
 33
0.0
  0
MTEXT
  5
191
330
187
100
AcDbEntity
  8
치수문자_일반주서
 62
     0
100
AcDbMText
 10
30.933
 20
14.88580000050068
 30
0.0
 40
3.5
 41
0.0
 71
     2
 72
     1
  1
\A1;6.35 [1/4]
  7
SLDTEXTSTYLE0
 73
     1
 44
1.0
  0
POINT
  5
192
330
187
100
AcDbEntity
  8
Defpoints
 62
     0
100
AcDbPoint
 10
12.954
 20
0.5108000005006854
 30
0.0
  0
POINT
  5
193
330
187
100
AcDbEntity
  8
Defpoints
 62
     0
100
AcDbPoint
 10
6.603999999999996
 20
0.4533233692437935
 30
0.0
  0
POINT
  5
194
330
187
100
AcDbEntity
  8
Defpoints
 62
     0
100
AcDbPoint
 10
6.603999999999996
 20
10.51080000050068
 30
0.0
  0
ENDBLK
  5
189
330
187
100
AcDbEntity
  8
0
100
AcDbBlockEnd
  0
BLOCK
  5
199
330
198
100
AcDbEntity
  8
0
100
AcDbBlockBegin
  2
*D9
 70
     1
 10
0.0
 20
0.0
 30
0.0
  3
*D9
  1

  0
LINE
  5
19B
330
198
100
AcDbEntity
  8
치수문자_일반주서
 62
     0
370
    -2
100
AcDbLine
 10
76.71422967558624
 20
-17.55439574743503
 30
0.0
 11
76.71422967558624
 21
-7.616895747435033
 31
0.0
  0
LINE
  5
19C
330
198
100
AcDbEntity
  8
치수문자_일반주서
 62
     0
370
    -2
100
AcDbLine
 10
70.36422967558624
 20
-17.61187237869192
 30
0.0
 11
70.36422967558624
 21
-7.616895747435033
 31
0.0
  0
LINE
  5
19D
330
198
100
AcDbEntity
  8
치수문자_일반주서
 62
     0
370
    -2
100
AcDbLine
 10
76.71422967558624
 20
-7.616895747435033
 30
0.0
 11
106.0682296755863
 21
-7.616895747435033
 31
0.0
  0
LINE
  5
19E
330
198
100
AcDbEntity
  8
치수문자_일반주서
 62
     0
370
    -2
100
AcDbLine
 10
80.01622967558623
 20
-7.616895747435033
 30
0.0
 11
83.31822967558622
 21
-7.616895747435033
 31
0.0
  0
LINE
  5
19F
330
198
100
AcDbEntity
  8
치수문자_일반주서
 62
     0
370
    -2
100
AcDbLine
 10
67.06222967558625
 20
-7.616895747435033
 30
0.0
 11
63.76022967558625
 21
-7.616895747435033
 31
0.0
  0
SOLID
  5
1A0
330
198
100
AcDbEntity
  8
치수문자_일반주서
 62
     0
100
AcDbTrace
 10
80.01622967558623
 20
-7.066562414101699
 30
0.0
 11
80.01622967558623
 21
-8.167229080768365
 31
0.0
 12
76.71422967558624
 22
-7.616895747435033
 32
0.0
 13
76.71422967558624
 23
-7.616895747435033
 33
0.0
  0
SOLID
  5
1A1
330
198
100
AcDbEntity
  8
치수문자_일반주서
 62
     0
100
AcDbTrace
 10
67.06222967558625
 20
-8.167229080768365
 30
0.0
 11
67.06222967558625
 21
-7.066562414101699
 31
0.0
 12
70.36422967558624
 22
-7.616895747435033
 32
0.0
 13
70.36422967558624
 23
-7.616895747435033
 33
0.0
  0
MTEXT
  5
1A2
330
198
100
AcDbEntity
  8
치수문자_일반주서
 62
     0
100
AcDbMText
 10
94.69322967558625
 20
-3.241895747435033
 30
0.0
 40
3.5
 41
0.0
 71
     2
 72
     1
  1
\A1;6.35 [1/4]
  7
SLDTEXTSTYLE0
 73
     1
 44
1.0
  0
POINT
  5
1A3
330
198
100
AcDbEntity
  8
Defpoints
 62
     0
100
AcDbPoint
 10
76.71422967558624
 20
-17.61689574743503
 30
0.0
  0
POINT
  5
1A4
330
198
100
AcDbEntity
  8
Defpoints
 62
     0
100
AcDbPoint
 10
70.36422967558624
 20
-17.67437237869192
 30
0.0
  0
POINT
  5
1A5
330
198
100
AcDbEntity
  8
Defpoints
 62
     0
100
AcDbPoint
 10
70.36422967558624
 20
-7.616895747435033
 30
0.0
  0
ENDBLK
  5
19A
330
198
100
AcDbEntity
  8
0
100
AcDbBlockEnd
  0
ENDSEC
  0
SECTION
  2
ENTITIES
  0
LINE
  5
96
330
1F
100
AcDbEntity
  8
외형선
  6
Continuous
370
    15
100
AcDbLine
 10
17.56406269841276
 20
3.175000000000003
 30
0.0
 11
-17.56406269841277
 21
3.174999999999999
 31
0.0
  0
LINE
  5
97
330
1F
100
AcDbEntity
  8
외형선
  6
Continuous
370
    15
100
AcDbLine
 10
-17.56406269841276
 20
-3.175000000000001
 30
0.0
 11
17.56406269841274
 21
-3.174999999999997
 31
0.0
  0
LINE
  5
9A
330
1F
100
AcDbEntity
  8
0
  6
Continuous
 62
     1
370
    15
100
AcDbLine
 10
27.93952810332401
 20
-3.174999999999997
 30
0.0
 11
28.57499999999999
 21
-3.174999999999997
 31
0.0
1001
PE_URL
1000

  0
ARC
  5
9B
330
1F
100
AcDbEntity
  8
0
  6
Continuous
 62
     1
370
    15
100
AcDbCircle
 10
28.57499999999999
 20
0.0000000000000031
 30
0.0
 40
3.175
100
AcDbArc
 50
270.0000000000008
 51
0.0
1001
PE_URL
1000

  0
ARC
  5
9C
330
1F
100
AcDbEntity
  8
0
  6
Continuous
 62
     1
370
    15
100
AcDbCircle
 10
28.57499999999999
 20
0.0000000000000031
 30
0.0
 40
3.175
100
AcDbArc
 50
0.0
 51
90.0
1001
PE_URL
1000

  0
LINE
  5
9D
330
1F
100
AcDbEntity
  8
0
  6
Continuous
 62
     1
370
    15
100
AcDbLine
 10
28.57499999999999
 20
3.175000000000003
 30
0.0
 11
27.93952810332402
 21
3.175000000000003
 31
0.0
1001
PE_URL
1000

  0
SPLINE
  5
9E
330
1F
100
AcDbEntity
  8
외형선
  6
Continuous
370
    15
100
AcDbSpline
210
0.0
220
0.0
230
1.0
 70
     8
 71
     3
 72
     9
 73
     5
 74
     0
 42
0.000000001
 43
0.00000001
 40
0.0
 40
0.0
 40
0.0
 40
0.0
 40
0.5720202251617371
 40
1.0
 40
1.0
 40
1.0
 40
1.0
 10
19.04999999999999
 20
3.059778491685333
 30
0.0
 10
18.76679626611524
 20
3.097552272309485
 30
0.0
 10
18.2717023491044
 20
3.163588015387402
 30
0.0
 10
17.77614935657564
 20
3.17077949340484
 30
0.0
 10
17.56406269841276
 20
3.173857300547497
 30
0.0
  0
SPLINE
  5
9F
330
1F
100
AcDbEntity
  8
외형선
  6
Continuous
370
    15
100
AcDbSpline
210
0.0
220
0.0
230
1.0
 70
     8
 71
     3
 72
    10
 73
     6
 74
     0
 42
0.000000001
 43
0.00000001
 40
0.0
 40
0.0
 40
0.0
 40
0.0
 40
0.5
 40
0.5
 40
1.0
 40
1.0
 40
1.0
 40
1.0
 10
17.52991002016511
 20
1.005000853140206
 30
0.0
 10
17.78252244154099
 20
0.8663757244804244
 30
0.0
 10
18.03772979411917
 20
0.7240688189563251
 30
0.0
 10
18.54605423841267
 20
0.4361236798023709
 30
0.0
 10
18.79687972147843
 20
0.2909375149989215
 30
0.0
 10
19.04999999999969
 20
0.1448525189741805
 30
0.0
  0
LINE
  5
A0
330
1F
100
AcDbEntity
  8
외형선
  6
Continuous
370
    15
100
AcDbLine
 10
17.52970423472038
 20
-3.174939239114036
 30
0.0
 11
17.52970423472038
 21
1.00515401700884
 31
0.0
  0
SPLINE
  5
A1
330
1F
100
AcDbEntity
  8
외형선
  6
Continuous
370
    15
100
AcDbSpline
210
0.0
220
0.0
230
1.0
 70
     8
 71
     3
 72
    10
 73
     6
 74
     0
 42
0.000000001
 43
0.00000001
 40
0.0
 40
0.0
 40
0.0
 40
0.0
 40
0.5
 40
0.5
 40
1.0
 40
1.0
 40
1.0
 40
1.0
 10
19.04999999999999
 20
-3.059778491685326
 30
0.0
 10
18.79684535485648
 20
-3.098822157557589
 30
0.0
 10
18.54598550683787
 20
-3.128041621608869
 30
0.0
 10
18.0375914770451
 20
-3.166625972666243
 30
0.0
 10
17.78234954896313
 20
-3.175850829167085
 30
0.0
 10
17.52970423472038
 20
-3.174938090202255
 30
0.0
  0
LINE
  5
A3
330
1F
100
AcDbEntity
  8
외형선
  6
Continuous
370
    15
100
AcDbLine
 10
19.04999999999999
 20
3.059778491685331
 30
0.0
 11
19.04999999999999
 21
0.1448525189740081
 31
0.0
  0
SPLINE
  5
A5
330
1F
100
AcDbEntity
  8
외형선
  6
Continuous
370
    15
100
AcDbSpline
210
0.0
220
0.0
230
1.0
 70
     8
 71
     3
 72
    10
 73
     6
 74
     0
 42
0.000000001
 43
0.00000001
 40
0.0
 40
0.0
 40
0.0
 40
0.0
 40
0.5
 40
0.5
 40
1.0
 40
1.0
 40
1.0
 40
1.0
 10
19.04999999999999
 20
-1.598912244754974
 30
0.0
 10
18.79684535485648
 20
-1.531866549800701
 30
0.0
 10
18.54598550683787
 20
-1.459950149874069
 30
0.0
 10
18.0375914770451
 20
-1.306644495292037
 30
0.0
 10
17.78234954896313
 20
-1.225452171178378
 30
0.0
 10
17.52970423472038
 20
-1.140904253743788
 30
0.0
  0
SPLINE
  5
A6
330
1F
100
AcDbEntity
  8
외형선
  6
Continuous
370
    15
100
AcDbSpline
210
0.0
220
0.0
230
1.0
 70
    24
 71
     3
 72
    14
 73
    10
 74
     0
 42
0.000000001
 43
0.00000001
 40
0.0
 40
0.0
 40
0.0
 40
0.0
 40
0.25
 40
0.25
 40
0.5
 40
0.5
 40
0.75
 40
0.75
 40
1.0
 40
1.0
 40
1.0
 40
1.0
 10
19.04999999999999
 20
0.1448525189747061
 30
0.0
 10
19.04999999999999
 20
0.1192534443751673
 30
0.0
 10
19.04999999999999
 20
0.0453559872480179
 30
0.0
 10
19.04999999999999
 20
-0.1837302434455807
 30
0.0
 10
19.04999999999999
 20
-0.3380095327375345
 30
0.0
 10
19.04999999999999
 20
-0.6828680568533387
 30
0.0
 10
19.04999999999999
 20
-0.8725113518185097
 30
0.0
 10
19.04999999999999
 20
-1.245786297706644
 30
0.0
 10
19.04999999999999
 20
-1.429268838538422
 30
0.0
 10
19.04999999999999
 20
-1.598912244754976
 30
0.0
  0
SPLINE
  5
A7
330
1F
100
AcDbEntity
  8
외형선
  6
Continuous
370
    15
100
AcDbSpline
210
0.0
220
0.0
230
1.0
 70
    24
 71
     3
 72
    21
 73
    17
 74
     0
 42
0.000000001
 43
0.00000001
 40
0.0
 40
0.0
 40
0.0
 40
0.0
 40
0.0268341814180908
 40
0.0997616535623239
 40
0.1731954738108068
 40
0.2482262879722524
 40
0.3238089325595282
 40
0.3967364047037418
 40
0.4701702249522443
 40
0.5452010391136868
 40
0.6207836837009659
 40
0.69371115584518
 40
0.7671449760936826
 40
0.8421757902551258
 40
0.9177584348424042
 40
0.9999999999999999
 40
0.9999999999999999
 40
0.9999999999999999
 40
0.9999999999999999
 10
19.04999999999999
 20
-1.598912244754974
 30
0.0
 10
19.04999999999999
 20
-1.601600751434511
 30
0.0
 10
19.04999999999999
 20
-1.611595834488658
 30
0.0
 10
19.04999999999999
 20
-1.643811230786342
 30
0.0
 10
19.04999999999999
 20
-1.695221434753332
 30
0.0
 10
19.04999999999999
 20
-1.762135122435388
 30
0.0
 10
19.04999999999999
 20
-1.842203040226765
 30
0.0
 10
19.04999999999999
 20
-1.934480060505419
 30
0.0
 10
19.04999999999999
 20
-2.03837289414508
 30
0.0
 10
19.04999999999999
 20
-2.154958096655977
 30
0.0
 10
19.04999999999999
 20
-2.282010083720355
 30
0.0
 10
19.04999999999999
 20
-2.417748274958763
 30
0.0
 10
19.04999999999999
 20
-2.561625845504121
 30
0.0
 10
19.04999999999999
 20
-2.715016133315031
 30
0.0
 10
19.04999999999999
 20
-2.881063443311641
 30
0.0
 10
19.04999999999999
 20
-2.998554415486061
 30
0.0
 10
19.04999999999999
 20
-3.059778491685346
 30
0.0
  0
SPLINE
  5
A8
330
1F
100
AcDbEntity
  8
0
  6
Continuous
 62
     1
370
    15
100
AcDbSpline
210
0.0
220
0.0
230
1.0
 70
     8
 71
     3
 72
    28
 73
    24
 74
     0
 42
0.000000001
 43
0.00000001
 40
0.0
 40
0.0
 40
0.0
 40
0.0
 40
0.1250000000000002
 40
0.1250000000000002
 40
0.2500000000000004
 40
0.2500000000000004
 40
0.3125000000000003
 40
0.3125000000000003
 40
0.3750000000000001
 40
0.3750000000000001
 40
0.4375
 40
0.4375
 40
0.4999999999999999
 40
0.4999999999999999
 40
0.6249999999999999
 40
0.6249999999999999
 40
0.6874999999999999
 40
0.6874999999999999
 40
0.7499999999999999
 40
0.7499999999999999
 40
0.875
 40
0.875
 40
1.0
 40
1.0
 40
1.0
 40
1.0
 10
28.57499999999999
 20
-1.327021745504508
 30
0.0
 10
28.1782880535038
 20
-1.118922233704443
 30
0.0
 10
27.7778758025075
 20
-0.8997367457090822
 30
0.0
 10
26.98981995529579
 20
-0.4531308627929074
 30
0.0
 10
26.58791276309911
 20
-0.223041660698345
 30
0.0
 10
25.99416301891333
 20
0.1203047026152501
 30
0.0
 10
25.79781121406665
 20
0.234441749155355
 30
0.0
 10
25.40038566395108
 20
0.4622621878527591
 30
0.0
 10
25.20071108110253
 20
0.5756727117372199
 30
0.0
 10
24.80294347466101
 20
0.7995017163575163
 30
0.0
 10
24.60614599871666
 20
0.9096824195316107
 30
0.0
 10
24.21093789013278
 20
1.126380848184346
 30
0.0
 10
24.01164566200764
 20
1.233050054397327
 30
0.0
 10
23.41392892020049
 20
1.545157427344495
 30
0.0
 10
23.02100216180285
 20
1.741809993430222
 30
0.0
 10
22.42406737396462
 20
2.015404508575656
 30
0.0
 10
22.22441121661604
 20
2.102930740436497
 30
0.0
 10
21.82724721636131
 20
2.269118933012739
 30
0.0
 10
21.63107548793113
 20
2.347623123149052
 30
0.0
 10
21.0367618985056
 20
2.569742245970987
 30
0.0
 10
20.63492997596721
 20
2.699392831633252
 30
0.0
 10
19.84791003056525
 20
2.913109858933886
 30
0.0
 10
19.4463781671601
 20
2.998645674197879
 30
0.0
 10
19.04999999999999
 20
3.059778491685333
 30
0.0
1001
PE_URL
1000

  0
SPLINE
  5
A9
330
1F
100
AcDbEntity
  8
0
  6
Continuous
 62
     1
370
    15
100
AcDbSpline
210
0.0
220
0.0
230
1.0
 70
     8
 71
     3
 72
    15
 73
    11
 74
     0
 42
0.000000001
 43
0.00000001
 40
0.0
 40
0.0
 40
0.0
 40
0.0
 40
0.1548080023116189
 40
0.3096143263584673
 40
0.4451759750641885
 40
0.5808384330121484
 40
0.7166572565246445
 40
0.8523669473716986
 40
0.9879500547261534
 40
1.0
 40
1.0
 40
1.0
 40
1.0
 10
30.90003051505452
 20
0.3327135945565687
 30
0.0
 10
30.44925503266413
 20
0.5059237846348786
 30
0.0
 10
29.54770895471479
 20
0.8523422870296548
 30
0.0
 10
28.25135459361175
 20
1.29598720080589
 30
0.0
 10
27.01102888862203
 20
1.654169168323378
 30
0.0
 10
25.8258428177257
 20
1.91860687343881
 30
0.0
 10
24.64001951803805
 20
2.097004388927468
 30
0.0
 10
23.454590965618
 20
2.168240770801089
 30
0.0
 10
22.62962944237848
 20
2.174700239790449
 30
0.0
 10
22.19980022154726
 20
2.129884378233289
 30
0.0
 10
22.16471716598546
 20
2.126226466474709
 30
0.0
1001
PE_URL
1000

  0
SPLINE
  5
AA
330
1F
100
AcDbEntity
  8
0
  6
Continuous
 62
     1
370
    15
100
AcDbSpline
210
0.0
220
0.0
230
1.0
 70
     8
 71
     3
 72
    24
 73
    20
 74
     0
 42
0.000000001
 43
0.00000001
 40
0.0
 40
0.0
 40
0.0
 40
0.0
 40
0.1250000000000001
 40
0.1250000000000001
 40
0.2500000000000001
 40
0.2500000000000001
 40
0.3750000000000002
 40
0.3750000000000002
 40
0.4375000000000002
 40
0.4375000000000002
 40
0.5000000000000002
 40
0.5000000000000002
 40
0.6250000000000001
 40
0.6250000000000001
 40
0.7500000000000001
 40
0.7500000000000001
 40
0.875
 40
0.875
 40
1.0
 40
1.0
 40
1.0
 40
1.0
 10
28.57499999999999
 20
-1.327021745504677
 30
0.0
 10
28.75131527825797
 20
-1.419509818153961
 30
0.0
 10
28.92451716956927
 20
-1.502878648201819
 30
0.0
 10
29.2705809076524
 20
-1.642756157959761
 30
0.0
 10
29.44520241105208
 20
-1.699952890085474
 30
0.0
 10
29.79005826218652
 20
-1.773375137620697
 30
0.0
 10
29.95905704379152
 20
-1.790099359052415
 30
0.0
 10
30.21297853981419
 20
-1.771474994661275
 30
0.0
 10
30.29612542777095
 20
-1.757966198588239
 30
0.0
 10
30.45937673594672
 20
-1.71323873654459
 30
0.0
 10
30.54050781796248
 20
-1.681565199469522
 30
0.0
 10
30.77408081492542
 20
-1.555425874459764
 30
0.0
 10
30.91888016970882
 20
-1.427806358293117
 30
0.0
 10
31.13903122608261
 20
-1.088947516046617
 30
0.0
 10
31.20535124774835
 20
-0.888011287389503
 30
0.0
 10
31.23881501951119
 20
-0.4953223578841471
 30
0.0
 10
31.20865839693629
 20
-0.3102312868816325
 30
0.0
 10
31.09201176670356
 20
0.0287477644812161
 30
0.0
 10
31.00562837895404
 20
0.184369917042126
 30
0.0
 10
30.90003051505389
 20
0.332713594556815
 30
0.0
1001
PE_URL
1000

  0
SPLINE
  5
AB
330
1F
100
AcDbEntity
  8
0
  6
Continuous
 62
     1
370
    15
100
AcDbSpline
210
0.0
220
0.0
230
1.0
 70
     8
 71
     3
 72
    11
 73
     7
 74
     0
 42
0.000000001
 43
0.00000001
 40
0.0
 40
0.0
 40
0.0
 40
0.0
 40
0.2641642338917086
 40
0.5347229534401704
 40
0.7670974926709103
 40
1.0
 40
1.0
 40
1.0
 40
1.0
 10
23.4259014401858
 20
-2.157427994471844
 30
0.0
 10
23.04058903869289
 20
-2.157435855617158
 30
0.0
 10
22.26063717962376
 20
-2.157451768198429
 30
0.0
 10
21.14175434748624
 20
-2.036549768878305
 30
0.0
 10
20.06860199248731
 20
-1.852434641153765
 30
0.0
 10
19.38979075539992
 20
-1.683483615337894
 30
0.0
 10
19.04999999999999
 20
-1.598912244754974
 30
0.0
1001
PE_URL
1000

  0
SPLINE
  5
AC
330
1F
100
AcDbEntity
  8
0
  6
Continuous
 62
     1
370
    15
100
AcDbSpline
210
0.0
220
0.0
230
1.0
 70
     8
 71
     3
 72
    17
 73
    13
 74
     0
 42
0.000000001
 43
0.00000001
 40
0.0
 40
0.0
 40
0.0
 40
0.0
 40
0.1257912854129376
 40
0.2528943070667514
 40
0.3557513787147388
 40
0.459323712581173
 40
0.5619165848988533
 40
0.6652227863796761
 40
0.7651084386756791
 40
0.8656479705029112
 40
0.9682003227861009
 40
1.0
 40
1.0
 40
1.0
 40
1.0
 10
19.04999999999999
 20
0.1448525189761639
 30
0.0
 10
19.42286123307147
 20
-0.0705604141059025
 30
0.0
 10
20.17247185085096
 20
-0.50363258016394
 30
0.0
 10
21.22707255986273
 20
-1.094853210187207
 30
0.0
 10
22.21470018776676
 20
-1.612184028889805
 30
0.0
 10
23.13053305239527
 20
-2.045750193677436
 30
0.0
 10
24.0478999104284
 20
-2.423218553061263
 30
0.0
 10
24.95319849522827
 20
-2.730606138547288
 30
0.0
 10
25.85387884176851
 20
-2.962918281733585
 30
0.0
 10
26.75135370401096
 20
-3.11123235446432
 30
0.0
 10
27.4469679018412
 20
-3.179591157940249
 30
0.0
 10
27.84525729668816
 20
-3.168282738875843
 30
0.0
 10
27.93952810332401
 20
-3.165606157975699
 30
0.0
1001
PE_URL
1000

  0
SPLINE
  5
AD
330
1F
100
AcDbEntity
  8
외형선
  6
Continuous
370
    15
100
AcDbSpline
210
0.0
220
0.0
230
1.0
 70
    24
 71
     3
 72
    14
 73
    10
 74
     0
 42
0.000000001
 43
0.00000001
 40
0.0
 40
0.0
 40
0.0
 40
0.0
 40
0.25
 40
0.25
 40
0.5
 40
0.5
 40
0.75
 40
0.75
 40
1.0
 40
1.0
 40
1.0
 40
1.0
 10
19.04999999999999
 20
0.1448525189747067
 30
0.0
 10
19.04999999999999
 20
0.1192534443751686
 30
0.0
 10
19.04999999999999
 20
0.04535598724802
 30
0.0
 10
19.04999999999999
 20
-0.1837302434455781
 30
0.0
 10
19.04999999999999
 20
-0.3380095327375322
 30
0.0
 10
19.04999999999999
 20
-0.6828680568533368
 30
0.0
 10
19.04999999999999
 20
-0.8725113518185083
 30
0.0
 10
19.04999999999999
 20
-1.245786297706643
 30
0.0
 10
19.04999999999999
 20
-1.429268838538422
 30
0.0
 10
19.04999999999999
 20
-1.598912244754976
 30
0.0
  0
SPLINE
  5
AE
330
1F
100
AcDbEntity
  8
0
  6
Continuous
 62
     1
370
    15
100
AcDbSpline
210
0.0
220
0.0
230
1.0
 70
     8
 71
     3
 72
    10
 73
     6
 74
     0
 42
0.000000001
 43
0.00000001
 40
0.0
 40
0.0
 40
0.0
 40
0.0
 40
0.5000000000000002
 40
0.5000000000000002
 40
1.0
 40
1.0
 40
1.0
 40
1.0
 10
30.90003051505388
 20
0.3327135945568161
 30
0.0
 10
30.97304688662041
 20
0.3767665439002848
 30
0.0
 10
31.03133578540356
 20
0.443763144058501
 30
0.0
 10
31.10929420150547
 20
0.6135945363276855
 30
0.0
 10
31.12859963175635
 20
0.7158996076812131
 30
0.0
 10
31.13038697796853
 20
0.8222956141747112
 30
0.0
1001
PE_URL
1000

  0
ARC
  5
AF
330
1F
100
AcDbEntity
  8
0
  6
Continuous
 62
     1
370
    15
100
AcDbCircle
 10
30.23096872609935
 20
-0.5519214779228983
 30
0.0
 40
1.6423841840473
100
AcDbArc
 50
23.84127197819474
 51
56.79545245917809
1001
PE_URL
1000

  0
ARC
  5
B0
330
1F
100
AcDbEntity
  8
0
  6
Continuous
 62
     1
370
    15
100
AcDbCircle
 10
28.89499430834587
 20
0.0592613866331951
 30
0.0
 40
2.838700673224943
100
AcDbArc
 50
1.063259670989444
 51
71.15743772997477
1001
PE_URL
1000

  0
SPLINE
  5
B1
330
1F
100
AcDbEntity
  8
0
  6
Continuous
 62
     1
370
    15
100
AcDbSpline
210
0.0
220
0.0
230
1.0
 70
     8
 71
     3
 72
    10
 73
     6
 74
     0
 42
0.000000001
 43
0.00000001
 40
0.0
 40
0.0
 40
0.0
 40
0.0
 40
0.5
 40
0.5
 40
1.0
 40
1.0
 40
1.0
 40
1.0
 10
29.81180613301344
 20
2.745834964690833
 30
0.0
 10
29.61519162763107
 20
2.865650022546146
 30
0.0
 10
29.41268570773403
 20
2.959768233867764
 30
0.0
 10
29.00000200343284
 20
3.096733595775766
 30
0.0
 10
28.78793401584354
 20
3.139759319449731
 30
0.0
 10
28.57499999999978
 20
3.153907900777766
 30
0.0
1001
PE_URL
1000

  0
SPLINE
  5
B2
330
1F
100
AcDbEntity
  8
0
  6
Continuous
 62
     1
370
    15
100
AcDbSpline
210
0.0
220
0.0
230
1.0
 70
     8
 71
     3
 72
     8
 73
     4
 74
     0
 42
0.000000001
 43
0.00000001
 40
0.0
 40
0.0
 40
0.0
 40
0.0
 40
1.0
 40
1.0
 40
1.0
 40
1.0
 10
29.16717302342694
 20
1.421300422022654
 30
0.0
 10
29.81262600409675
 20
1.241906286902253
 30
0.0
 10
30.47069561614635
 20
1.039789687382146
 30
0.0
 10
31.13038697796854
 20
0.8222956141747344
 30
0.0
1001
PE_URL
1000

  0
SPLINE
  5
B3
330
1F
100
AcDbEntity
  8
0
  6
Continuous
 62
     1
370
    15
100
AcDbSpline
210
0.0
220
0.0
230
1.0
 70
     8
 71
     3
 72
    13
 73
     9
 74
     0
 42
0.000000001
 43
0.00000001
 40
0.0
 40
0.0
 40
0.0
 40
0.0
 40
0.12033130599955
 40
0.2986780853196936
 40
0.4711196631913835
 40
0.6446900920593008
 40
0.8217354337642412
 40
1.0
 40
1.0
 40
1.0
 40
1.0
 10
23.4259014401858
 20
2.157427994471852
 30
0.0
 10
23.63249970840435
 20
2.244571106832663
 30
0.0
 10
24.14530370956854
 20
2.460871742253535
 30
0.0
 10
24.95318926360373
 20
2.729433870623806
 30
0.0
 10
25.85388706374954
 20
2.962530338471391
 30
0.0
 10
26.75132952316414
 20
3.113998222239451
 30
0.0
 10
27.65867878888188
 20
3.189446799561783
 30
0.0
 10
28.26886166104588
 20
3.165781269319261
 30
0.0
 10
28.5749999999997
 20
3.153907900777772
 30
0.0
1001
PE_URL
1000

  0
SPLINE
  5
B4
330
1F
100
AcDbEntity
  8
0
  6
Continuous
 62
     1
370
    15
100
AcDbSpline
210
0.0
220
0.0
230
1.0
 70
     8
 71
     3
 72
    14
 73
    10
 74
     0
 42
0.000000001
 43
0.00000001
 40
0.0
 40
0.0
 40
0.0
 40
0.0
 40
0.2500000000000002
 40
0.2500000000000002
 40
0.5000000000000003
 40
0.5000000000000003
 40
0.7500000000000001
 40
0.7500000000000001
 40
1.0
 40
1.0
 40
1.0
 40
1.0
 10
29.81180613301346
 20
2.745834964690835
 30
0.0
 10
29.83435599609673
 20
2.612544322476125
 30
0.0
 10
29.84447811097652
 20
2.476835981654213
 30
0.0
 10
29.82471525516242
 20
2.20207207491547
 30
0.0
 10
29.79405871870914
 20
2.066723175768901
 30
0.0
 10
29.68195726739381
 20
1.820463414477468
 30
0.0
 10
29.60013814151904
 20
1.710828110182166
 30
0.0
 10
29.40266708228354
 20
1.535668418786684
 30
0.0
 10
29.28702174395707
 20
1.468988956236267
 30
0.0
 10
29.16717302342694
 20
1.421300422022652
 30
0.0
1001
PE_URL
1000

  0
SPLINE
  5
B5
330
1F
100
AcDbEntity
  8
0
  6
Continuous
 62
     1
370
    15
100
AcDbSpline
210
0.0
220
0.0
230
1.0
 70
     8
 71
     3
 72
    10
 73
     6
 74
     0
 42
0.000000001
 43
0.00000001
 40
0.0
 40
0.0
 40
0.0
 40
0.0
 40
0.3268587486729715
 40
0.6631502762038101
 40
1.0
 40
1.0
 40
1.0
 40
1.0
 10
22.16471716598546
 20
-2.126226466474701
 30
0.0
 10
21.82546532178391
 20
-2.264783833837222
 30
0.0
 10
21.13717120361115
 20
-2.545897179616015
 30
0.0
 10
20.09899922680615
 20
-2.865278978399127
 30
0.0
 10
19.39985966064593
 20
-2.994909488948984
 30
0.0
 10
19.04999999999999
 20
-3.059778491685326
 30
0.0
1001
PE_URL
1000

  0
SPLINE
  5
B6
330
1F
100
AcDbEntity
  8
외형선
  6
Continuous
370
    15
100
AcDbSpline
210
0.0
220
0.0
230
1.0
 70
    24
 71
     3
 72
    15
 73
    11
 74
     0
 42
0.000000001
 43
0.00000001
 40
0.0
 40
0.0
 40
0.0
 40
0.0
 40
0.1009491852308447
 40
0.2361571202443381
 40
0.3752860945328591
 40
0.5104940295463526
 40
0.6496230038348738
 40
0.7848309388483679
 40
0.923959913136889
 40
1.0
 40
1.0
 40
1.0
 40
1.0
 10
19.04999999999999
 20
-1.583114963629101
 30
0.0
 10
19.04999999999999
 20
-1.588661015951328
 30
0.0
 10
19.04999999999999
 20
-1.601635263758742
 30
0.0
 10
19.04999999999999
 20
-1.690471105785982
 30
0.0
 10
19.04999999999999
 20
-1.834869054108571
 30
0.0
 10
19.04999999999999
 20
-2.03407831471465
 30
0.0
 10
19.04999999999999
 20
-2.276201484459894
 30
0.0
 10
19.04999999999999
 20
-2.559683471285463
 30
0.0
 10
19.04999999999999
 20
-2.825439196503084
 30
0.0
 10
19.04999999999999
 20
-2.998588173721167
 30
0.0
 10
19.04999999999999
 20
-3.059778491685344
 30
0.0
  0
LINE
  5
B7
330
1F
100
AcDbEntity
  8
중심선
 62
     1
100
AcDbLine
 10
-34.75
 20
-0.0000000000000043
 30
0.0
 11
34.75
 21
0.0000000000000043
 31
0.0
  0
LINE
  5
B8
330
1F
100
AcDbEntity
  8
참조1
100
AcDbLine
 10
-0.0000000000000036
 20
-0.0000000000000043
 30
0.0
 11
0.0000000000000036
 21
-40.00000000000001
 31
0.0
  0
LINE
  5
B9
330
1F
100
AcDbEntity
  8
참조1
100
AcDbLine
 10
31.74999999999999
 20
-0.0000000000000043
 30
0.0
 11
31.74999999999999
 21
0.630973477839306
 31
0.0
  0
LINE
  5
BA
330
1F
100
AcDbEntity
  8
참조1
100
AcDbLine
 10
0.0000000000000036
 20
-40.00000000000001
 30
0.0
 11
-19.12760681430868
 21
-40.0
 31
0.0
  0
CIRCLE
  5
BB
330
1F
100
AcDbEntity
  8
해칭선
100
AcDbCircle
 10
0.0
 20
0.0
 30
0.0
 40
3.000000000000001
  0
INSERT
  5
BC
330
1F
100
AcDbEntity
  8
0
  6
Continuous
 62
     7
100
AcDbBlockReference
 66
     1
  2
블럭10
 10
-13.94027293212521
 20
-52.04717430164393
 30
0.0
  0
ATTRIB
  5
BD
330
BC
100
AcDbEntity
  8
FORMAT
 62
     2
100
AcDbText
 10
-23.12156822086649
 20
-49.97180738881175
 30
0.0
 40
4.233333333333333
  1
E5251016 [ 2 FLUTE ]
 41
0.75
  7
SLDTEXTSTYLE0
 11
-23.12156822086649
 21
-52.08847405547841
 31
0.0
100
AcDbAttribute
  2
AUTOATTR0
 70
     0
 74
     1
  0
SEQEND
  5
BE
330
BC
100
AcDbEntity
  8
0
  6
Continuous
 62
     7
  0
HATCH
  5
BF
330
1F
100
AcDbEntity
  8
중심선
100
AcDbHatch
 10
0.0
 20
0.0
 30
0.0
210
0.0
220
0.0
230
1.0
  2
SOLID
 70
     1
 71
     0
 91
        1
 92
        0
 93
        4
 72
     1
 10
-8.225363627744358
 20
-35.8
 11
-11.67163887158164
 21
-35.8
 72
     1
 10
-11.67163887158164
 20
-35.8
 11
-13.79986873078566
 21
-38.3363255805726
 72
     1
 10
-13.79986873078566
 20
-38.3363255805726
 11
-10.35356040183523
 21
-38.33628615127011
 72
     1
 10
-10.35356040183523
 20
-38.33628615127011
 11
-8.225363627744358
 21
-35.8
 97
        0
 75
     0
 76
     1
 98
        1
 10
10.12536934298443
 20
-0.0010749287238935
  0
HATCH
  5
C0
330
1F
100
AcDbEntity
  8
중심선
100
AcDbHatch
 10
0.0
 20
0.0
 30
0.0
210
0.0
220
0.0
230
1.0
  2
SOLID
 70
     1
 71
     0
 91
        1
 92
        0
 93
        4
 72
     1
 10
-3.212599636708404
 20
-35.80000000000003
 11
-6.65887488054566
 21
-35.79999999999998
 72
     1
 10
-6.65887488054566
 20
-35.79999999999998
 11
-11.19001288890308
 21
-41.20000000000002
 72
     1
 10
-11.19001288890308
 20
-41.20000000000002
 11
-7.743737645065792
 21
-41.20000000000002
 72
     1
 10
-7.743737645065792
 20
-41.20000000000002
 11
-3.212599636708404
 21
-35.80000000000003
 97
        0
 75
     0
 76
     1
 98
        1
 10
10.12536934298443
 20
-0.0010749287238935
  0
HATCH
  5
C1
330
1F
100
AcDbEntity
  8
중심선
100
AcDbHatch
 10
0.0
 20
0.0
 30
0.0
210
0.0
220
0.0
230
1.0
  2
SOLID
 70
     1
 71
     0
 91
        1
 92
        0
 93
        4
 72
     1
 10
1.800164354327491
 20
-35.8
 11
-1.646110889509597
 21
-35.8
 72
     1
 10
-1.646110889509597
 20
-35.8
 11
-8.694547791398875
 21
-44.20000000000002
 72
     1
 10
-8.694547791398875
 20
-44.20000000000002
 11
-5.248272547561591
 21
-44.20000000000002
 72
     1
 10
-5.248272547561591
 20
-44.20000000000002
 11
1.800164354327491
 21
-35.8
 97
        0
 75
     0
 76
     1
 98
        1
 10
10.12536934298443
 20
-0.0010749287238935
  0
HATCH
  5
C2
330
1F
100
AcDbEntity
  8
중심선
100
AcDbHatch
 10
0.0
 20
0.0
 30
0.0
210
0.0
220
0.0
230
1.0
  2
SOLID
 70
     1
 71
     0
 91
        1
 92
        0
 93
        6
 72
     3
 10
6.60005478533969
 20
-40.00000000005127
 11
3.960054785062283
 21
1.540882976769353E-10
 40
0.3939339440162628
 50
17.09539180608437
 51
320.0019657685081
 73
     0
 72
     1
 10
8.283054441040285
 20
-38.5878940046383
 11
10.58835631474132
 21
-36.65356729459038
 72
     3
 10
6.600054785286844
 20
-40.00000000000015
 11
6.600054785286829
 21
-1.278976924368180E-13
 40
0.636358354079598
 50
39.99873849337411
 51
368.4976242363725
 73
     1
 72
     1
 10
13.02538727718745
 20
-39.03999999993002
 11
5.280122092122765
 21
-39.03999999993002
 72
     1
 10
5.280122092122766
 20
-39.03999999993002
 11
5.280097047676832
 21
-40.95999999992991
 72
     1
 10
5.280097047676832
 20
-40.95999999992991
 11
9.721476817148869
 21
-40.95999999992988
 97
        0
 75
     0
 76
     1
 98
        1
 10
10.12536934298443
 20
-0.0010749287238935
  0
DIMENSION
  5
C3
330
1F
100
AcDbEntity
  8
치수문자_일반주서
100
AcDbDimension
  2
_D
 10
19.05
 20
13.175
 30
0.0
 11
49.29149999999998
 21
13.175
 31
0.0
 70
   160
  1
<>
 71
     2
 42
12.69999999999999
  3
SLDDIMSTYLE1
100
AcDbAlignedDimension
 13
31.74999999999999
 23
3.175000000000003
 33
0.0
 14
19.05
 24
3.059778491685344
 34
0.0
 50
0.000000000000008
100
AcDbRotatedDimension
1001
PE_URL
1000

1001
ACAD
1000
DSTYLE
1002
{
1070
   171
1070
     8
1070
   273
1070
     7
1002
}
  0
DIMENSION
  5
D8
330
1F
100
AcDbEntity
  8
치수문자_일반주서
100
AcDbDimension
  2
_D_1
 10
-31.75000000000001
 20
23.175
 30
0.0
 11
0.2779156695830238
 21
23.175
 31
0.0
 70
   160
  1
<>
 71
     2
 42
63.5
  3
SLDDIMSTYLE1
100
AcDbAlignedDimension
 13
31.74999999999999
 23
3.175000000000003
 33
0.0
 14
-31.75000000000001
 24
3.175000000000005
 34
0.0
 50
0.0000000000000032
100
AcDbRotatedDimension
1001
PE_URL
1000

1001
ACAD
1000
DSTYLE
1002
{
1070
   171
1070
     8
1070
   273
1070
     7
1002
}
  0
DIMENSION
  5
EB
330
1F
100
AcDbEntity
  8
치수문자_일반주서
100
AcDbDimension
  2
_D_2
 10
-41.75
 20
-3.17500000000009
 30
0.0
 11
-41.75000000000009
 21
22.46649999999995
 31
0.0
 70
   160
  1
%%c<>
 71
     2
 42
6.35
 52
-270.0
  3
SLDDIMSTYLE1
100
AcDbAlignedDimension
 13
-17.56406269841277
 23
3.174999999999999
 33
0.0
 14
-17.56406269841276
 24
-3.175000000000001
 34
0.0
 50
90.0000000000002
100
AcDbRotatedDimension
1001
ACAD
1000
DSTYLE
1002
{
1070
   171
1070
     8
1070
   273
1070
     7
1002
}
  0
DIMENSION
  5
100
330
1F
100
AcDbEntity
  8
치수문자_일반주서
100
AcDbDimension
  2
_D_3
 10
66.581770708601
 20
-3.174999999999866
 30
0.0
 11
66.58177070860089
 21
23.12275000000015
 31
0.0
 70
   160
  1
%%c<>
 71
     2
 42
6.35
 52
-270.0
  3
SLDDIMSTYLE1
100
AcDbAlignedDimension
 13
31.74999999999999
 23
3.175000000000003
 33
0.0
 14
31.74999999999999
 24
-3.174999999999997
 34
0.0
 50
90.0000000000002
100
AcDbRotatedDimension
1001
PE_URL
1000

1001
ACAD
1000
DSTYLE
1002
{
1070
   171
1070
     8
1070
   273
1070
     7
1002
}
  0
LINE
  5
114
330
1F
100
AcDbEntity
  8
참조1
100
AcDbLine
 10
78.84473381534558
 20
7.440000000000002
 30
0.0
 11
78.84473381534558
 21
-7.440000000000002
 31
0.0
  0
LINE
  5
115
330
1F
100
AcDbEntity
  8
참조1
100
AcDbLine
 10
91.54473381534558
 20
5.440000000000002
 30
0.0
 11
78.84473381534558
 21
5.440000000000002
 31
0.0
  0
SOLID
  5
116
330
1F
100
AcDbEntity
  8
참조1
100
AcDbTrace
 10
78.84473381534558
 20
5.440000000000002
 30
0.0
 11
85.19473381534557
 21
4.424000000000002
 31
0.0
 12
85.19473381534557
 22
6.456000000000002
 32
0.0
 13
85.19473381534557
 23
6.456000000000002
 33
0.0
  0
LINE
  5
117
330
1F
100
AcDbEntity
  8
참조1
100
AcDbLine
 10
91.54473381534558
 20
-5.440000000000002
 30
0.0
 11
78.84473381534558
 21
-5.440000000000002
 31
0.0
  0
SOLID
  5
118
330
1F
100
AcDbEntity
  8
참조1
100
AcDbTrace
 10
78.84473381534558
 20
-5.440000000000002
 30
0.0
 11
85.19473381534557
 21
-6.456000000000002
 31
0.0
 12
85.19473381534557
 22
-4.424000000000002
 32
0.0
 13
85.19473381534557
 23
-4.424000000000002
 33
0.0
  0
MTEXT
  5
119
330
1F
100
AcDbEntity
  8
참조1
100
AcDbMText
 10
88.24222390781586
 20
10.98821664464994
 30
0.0
 40
3.5
 41
0.0
 71
     1
 72
     1
  1
A
  7
SLDTEXTSTYLE0
 73
     1
 44
1.0
  0
MTEXT
  5
11A
330
1F
100
AcDbEntity
  8
참조1
100
AcDbMText
 10
88.24222390781586
 20
0.1082166446499316
 30
0.0
 40
3.5
 41
0.0
 71
     1
 72
     1
  1
A
  7
SLDTEXTSTYLE0
 73
     1
 44
1.0
  0
INSERT
  5
121
330
1F
100
AcDbEntity
  8
해칭선
100
AcDbBlockReference
  2
SW_DOWELSYMBOL_0
 10
0.0
 20
0.0
 30
0.0
  0
LINE
  5
1CD
330
1F
100
AcDbEntity
  8
0
  6
Continuous
 62
     1
370
    15
100
AcDbLine
 10
-27.93952810332402
 20
3.174999999999994
 30
0.0
 11
-28.575
 21
3.174999999999994
 31
0.0
1001
PE_URL
1000

  0
ARC
  5
1CE
330
1F
100
AcDbEntity
  8
0
  6
Continuous
 62
     1
370
    15
100
AcDbCircle
 10
-28.575
 20
-0.0000000000000071
 30
0.0
 40
3.175
100
AcDbArc
 50
90.00000000000078
 51
179.9999999999999
1001
PE_URL
1000

  0
ARC
  5
1CF
330
1F
100
AcDbEntity
  8
0
  6
Continuous
 62
     1
370
    15
100
AcDbCircle
 10
-28.575
 20
-0.0000000000000071
 30
0.0
 40
3.175
100
AcDbArc
 50
179.9999999999999
 51
270.0
1001
PE_URL
1000

  0
LINE
  5
1D0
330
1F
100
AcDbEntity
  8
0
  6
Continuous
 62
     1
370
    15
100
AcDbLine
 10
-28.575
 20
-3.175000000000008
 30
0.0
 11
-27.93952810332403
 21
-3.175000000000004
 31
0.0
1001
PE_URL
1000

  0
SPLINE
  5
1D1
330
1F
100
AcDbEntity
  8
외형선
  6
Continuous
370
    15
100
AcDbSpline
210
0.0
220
0.0
230
1.0
 70
     8
 71
     3
 72
     9
 73
     5
 74
     0
 42
0.000000001
 43
0.00000001
 40
0.0
 40
0.0
 40
0.0
 40
0.0
 40
0.5720202251617371
 40
1.0
 40
1.0
 40
1.0
 40
1.0
 10
-19.05
 20
-3.059778491685346
 30
0.0
 10
-18.76679626611525
 20
-3.097552272309496
 30
0.0
 10
-18.27170234910441
 20
-3.163588015387415
 30
0.0
 10
-17.77614935657565
 20
-3.170779493404854
 30
0.0
 10
-17.56406269841277
 20
-3.17385730054751
 30
0.0
  0
SPLINE
  5
1D2
330
1F
100
AcDbEntity
  8
외형선
  6
Continuous
370
    15
100
AcDbSpline
210
0.0
220
0.0
230
1.0
 70
     8
 71
     3
 72
    10
 73
     6
 74
     0
 42
0.000000001
 43
0.00000001
 40
0.0
 40
0.0
 40
0.0
 40
0.0
 40
0.5
 40
0.5
 40
1.0
 40
1.0
 40
1.0
 40
1.0
 10
-17.52991002016512
 20
-1.005000853140221
 30
0.0
 10
-17.782522441541
 20
-0.866375724480438
 30
0.0
 10
-18.03772979411918
 20
-0.72406881895634
 30
0.0
 10
-18.54605423841268
 20
-0.4361236798023853
 30
0.0
 10
-18.79687972147844
 20
-0.2909375149989337
 30
0.0
 10
-19.0499999999997
 20
-0.1448525189741936
 30
0.0
  0
LINE
  5
1D3
330
1F
100
AcDbEntity
  8
외형선
  6
Continuous
370
    15
100
AcDbLine
 10
-17.52970423472038
 20
3.174939239114021
 30
0.0
 11
-17.52970423472039
 21
-1.005154017008856
 31
0.0
  0
SPLINE
  5
1D4
330
1F
100
AcDbEntity
  8
외형선
  6
Continuous
370
    15
100
AcDbSpline
210
0.0
220
0.0
230
1.0
 70
     8
 71
     3
 72
    10
 73
     6
 74
     0
 42
0.000000001
 43
0.00000001
 40
0.0
 40
0.0
 40
0.0
 40
0.0
 40
0.5
 40
0.5
 40
1.0
 40
1.0
 40
1.0
 40
1.0
 10
-19.05
 20
3.059778491685314
 30
0.0
 10
-18.79684535485649
 20
3.098822157557574
 30
0.0
 10
-18.54598550683787
 20
3.128041621608855
 30
0.0
 10
-18.03759147704511
 20
3.166625972666228
 30
0.0
 10
-17.78234954896314
 20
3.175850829167072
 30
0.0
 10
-17.52970423472038
 20
3.174938090202239
 30
0.0
  0
LINE
  5
1D5
330
1F
100
AcDbEntity
  8
외형선
  6
Continuous
370
    15
100
AcDbLine
 10
-19.05
 20
-3.059778491685343
 30
0.0
 11
-19.05
 21
-0.1448525189740195
 31
0.0
  0
SPLINE
  5
1D6
330
1F
100
AcDbEntity
  8
외형선
  6
Continuous
370
    15
100
AcDbSpline
210
0.0
220
0.0
230
1.0
 70
     8
 71
     3
 72
    10
 73
     6
 74
     0
 42
0.000000001
 43
0.00000001
 40
0.0
 40
0.0
 40
0.0
 40
0.0
 40
0.5
 40
0.5
 40
1.0
 40
1.0
 40
1.0
 40
1.0
 10
-19.05
 20
1.598912244754963
 30
0.0
 10
-18.79684535485649
 20
1.531866549800689
 30
0.0
 10
-18.54598550683787
 20
1.459950149874057
 30
0.0
 10
-18.03759147704511
 20
1.306644495292023
 30
0.0
 10
-17.78234954896314
 20
1.225452171178365
 30
0.0
 10
-17.52970423472038
 20
1.140904253743773
 30
0.0
  0
SPLINE
  5
1D7
330
1F
100
AcDbEntity
  8
외형선
  6
Continuous
370
    15
100
AcDbSpline
210
0.0
220
0.0
230
1.0
 70
    24
 71
     3
 72
    14
 73
    10
 74
     0
 42
0.000000001
 43
0.00000001
 40
0.0
 40
0.0
 40
0.0
 40
0.0
 40
0.25
 40
0.25
 40
0.5
 40
0.5
 40
0.75
 40
0.75
 40
1.0
 40
1.0
 40
1.0
 40
1.0
 10
-19.05
 20
-0.1448525189747194
 30
0.0
 10
-19.05
 20
-0.1192534443751789
 30
0.0
 10
-19.05
 20
-0.0453559872480298
 30
0.0
 10
-19.05
 20
0.1837302434455701
 30
0.0
 10
-19.05
 20
0.338009532737523
 30
0.0
 10
-19.05
 20
0.6828680568533265
 30
0.0
 10
-19.05
 20
0.872511351818499
 30
0.0
 10
-19.05
 20
1.24578629770663
 30
0.0
 10
-19.05
 20
1.429268838538409
 30
0.0
 10
-19.05
 20
1.598912244754963
 30
0.0
  0
SPLINE
  5
1D8
330
1F
100
AcDbEntity
  8
외형선
  6
Continuous
370
    15
100
AcDbSpline
210
0.0
220
0.0
230
1.0
 70
    24
 71
     3
 72
    21
 73
    17
 74
     0
 42
0.000000001
 43
0.00000001
 40
0.0
 40
0.0
 40
0.0
 40
0.0
 40
0.0268341814180908
 40
0.0997616535623239
 40
0.1731954738108068
 40
0.2482262879722524
 40
0.3238089325595282
 40
0.3967364047037418
 40
0.4701702249522443
 40
0.5452010391136868
 40
0.6207836837009659
 40
0.69371115584518
 40
0.7671449760936826
 40
0.8421757902551258
 40
0.9177584348424042
 40
0.9999999999999999
 40
0.9999999999999999
 40
0.9999999999999999
 40
0.9999999999999999
 10
-19.05
 20
1.598912244754963
 30
0.0
 10
-19.05
 20
1.6016007514345
 30
0.0
 10
-19.05
 20
1.611595834488647
 30
0.0
 10
-19.04999999999999
 20
1.64381123078633
 30
0.0
 10
-19.05
 20
1.695221434753318
 30
0.0
 10
-19.05
 20
1.762135122435375
 30
0.0
 10
-19.05
 20
1.842203040226753
 30
0.0
 10
-19.05
 20
1.934480060505408
 30
0.0
 10
-19.05
 20
2.038372894145066
 30
0.0
 10
-19.04999999999999
 20
2.154958096655964
 30
0.0
 10
-19.05
 20
2.282010083720344
 30
0.0
 10
-19.05
 20
2.41774827495875
 30
0.0
 10
-19.05
 20
2.561625845504107
 30
0.0
 10
-19.05
 20
2.715016133315018
 30
0.0
 10
-19.05
 20
2.881063443311628
 30
0.0
 10
-19.05
 20
2.998554415486048
 30
0.0
 10
-19.05
 20
3.059778491685332
 30
0.0
  0
SPLINE
  5
1D9
330
1F
100
AcDbEntity
  8
0
  6
Continuous
 62
     1
370
    15
100
AcDbSpline
210
0.0
220
0.0
230
1.0
 70
     8
 71
     3
 72
    28
 73
    24
 74
     0
 42
0.000000001
 43
0.00000001
 40
0.0
 40
0.0
 40
0.0
 40
0.0
 40
0.1250000000000002
 40
0.1250000000000002
 40
0.2500000000000004
 40
0.2500000000000004
 40
0.3125000000000003
 40
0.3125000000000003
 40
0.3750000000000001
 40
0.3750000000000001
 40
0.4375
 40
0.4375
 40
0.4999999999999999
 40
0.4999999999999999
 40
0.6249999999999999
 40
0.6249999999999999
 40
0.6874999999999999
 40
0.6874999999999999
 40
0.7499999999999999
 40
0.7499999999999999
 40
0.875
 40
0.875
 40
1.0
 40
1.0
 40
1.0
 40
1.0
 10
-28.575
 20
1.327021745504503
 30
0.0
 10
-28.17828805350381
 20
1.118922233704442
 30
0.0
 10
-27.77787580250751
 20
0.899736745709081
 30
0.0
 10
-26.9898199552958
 20
0.4531308627929036
 30
0.0
 10
-26.58791276309912
 20
0.2230416606983425
 30
0.0
 10
-25.99416301891334
 20
-0.1203047026152539
 30
0.0
 10
-25.79781121406666
 20
-0.2344417491553585
 30
0.0
 10
-25.40038566395109
 20
-0.4622621878527653
 30
0.0
 10
-25.20071108110254
 20
-0.5756727117372265
 30
0.0
 10
-24.80294347466102
 20
-0.799501716357522
 30
0.0
 10
-24.60614599871667
 20
-0.9096824195316167
 30
0.0
 10
-24.2109378901328
 20
-1.126380848184354
 30
0.0
 10
-24.01164566200766
 20
-1.233050054397335
 30
0.0
 10
-23.4139289202005
 20
-1.545157427344503
 30
0.0
 10
-23.02100216180287
 20
-1.74180999343023
 30
0.0
 10
-22.42406737396463
 20
-2.015404508575667
 30
0.0
 10
-22.22441121661605
 20
-2.102930740436506
 30
0.0
 10
-21.82724721636133
 20
-2.269118933012745
 30
0.0
 10
-21.63107548793115
 20
-2.347623123149059
 30
0.0
 10
-21.03676189850561
 20
-2.569742245970996
 30
0.0
 10
-20.63492997596722
 20
-2.699392831633261
 30
0.0
 10
-19.84791003056526
 20
-2.913109858933897
 30
0.0
 10
-19.44637816716011
 20
-2.998645674197892
 30
0.0
 10
-19.05
 20
-3.059778491685346
 30
0.0
1001
PE_URL
1000

  0
SPLINE
  5
1DA
330
1F
100
AcDbEntity
  8
0
  6
Continuous
 62
     1
370
    15
100
AcDbSpline
210
0.0
220
0.0
230
1.0
 70
     8
 71
     3
 72
    15
 73
    11
 74
     0
 42
0.000000001
 43
0.00000001
 40
0.0
 40
0.0
 40
0.0
 40
0.0
 40
0.1548080023116189
 40
0.3096143263584673
 40
0.4451759750641885
 40
0.5808384330121484
 40
0.7166572565246445
 40
0.8523669473716986
 40
0.9879500547261534
 40
1.0
 40
1.0
 40
1.0
 40
1.0
 10
-30.90003051505453
 20
-0.3327135945565693
 30
0.0
 10
-30.44925503266414
 20
-0.5059237846348807
 30
0.0
 10
-29.5477089547148
 20
-0.8523422870296571
 30
0.0
 10
-28.25135459361177
 20
-1.295987200805893
 30
0.0
 10
-27.01102888862204
 20
-1.654169168323381
 30
0.0
 10
-25.82584281772571
 20
-1.918606873438815
 30
0.0
 10
-24.64001951803806
 20
-2.097004388927473
 30
0.0
 10
-23.45459096561801
 20
-2.168240770801098
 30
0.0
 10
-22.62962944237849
 20
-2.174700239790461
 30
0.0
 10
-22.19980022154727
 20
-2.129884378233299
 30
0.0
 10
-22.16471716598547
 20
-2.126226466474719
 30
0.0
1001
PE_URL
1000

  0
SPLINE
  5
1DB
330
1F
100
AcDbEntity
  8
0
  6
Continuous
 62
     1
370
    15
100
AcDbSpline
210
0.0
220
0.0
230
1.0
 70
     8
 71
     3
 72
    24
 73
    20
 74
     0
 42
0.000000001
 43
0.00000001
 40
0.0
 40
0.0
 40
0.0
 40
0.0
 40
0.1250000000000001
 40
0.1250000000000001
 40
0.2500000000000001
 40
0.2500000000000001
 40
0.3750000000000002
 40
0.3750000000000002
 40
0.4375000000000002
 40
0.4375000000000002
 40
0.5000000000000002
 40
0.5000000000000002
 40
0.6250000000000001
 40
0.6250000000000001
 40
0.7500000000000001
 40
0.7500000000000001
 40
0.875
 40
0.875
 40
1.0
 40
1.0
 40
1.0
 40
1.0
 10
-28.575
 20
1.327021745504673
 30
0.0
 10
-28.75131527825797
 20
1.419509818153958
 30
0.0
 10
-28.92451716956928
 20
1.502878648201815
 30
0.0
 10
-29.27058090765241
 20
1.642756157959759
 30
0.0
 10
-29.44520241105209
 20
1.69995289008547
 30
0.0
 10
-29.79005826218652
 20
1.773375137620693
 30
0.0
 10
-29.95905704379153
 20
1.790099359052412
 30
0.0
 10
-30.21297853981419
 20
1.771474994661272
 30
0.0
 10
-30.29612542777096
 20
1.757966198588239
 30
0.0
 10
-30.45937673594672
 20
1.713238736544589
 30
0.0
 10
-30.54050781796249
 20
1.681565199469521
 30
0.0
 10
-30.77408081492543
 20
1.555425874459765
 30
0.0
 10
-30.91888016970883
 20
1.427806358293118
 30
0.0
 10
-31.13903122608263
 20
1.088947516046616
 30
0.0
 10
-31.20535124774836
 20
0.888011287389503
 30
0.0
 10
-31.2388150195112
 20
0.4953223578841452
 30
0.0
 10
-31.2086583969363
 20
0.3102312868816313
 30
0.0
 10
-31.09201176670357
 20
-0.0287477644812171
 30
0.0
 10
-31.00562837895405
 20
-0.184369917042126
 30
0.0
 10
-30.9000305150539
 20
-0.3327135945568145
 30
0.0
1001
PE_URL
1000

  0
SPLINE
  5
1DC
330
1F
100
AcDbEntity
  8
0
  6
Continuous
 62
     1
370
    15
100
AcDbSpline
210
0.0
220
0.0
230
1.0
 70
     8
 71
     3
 72
    11
 73
     7
 74
     0
 42
0.000000001
 43
0.00000001
 40
0.0
 40
0.0
 40
0.0
 40
0.0
 40
0.2641642338917086
 40
0.5347229534401704
 40
0.7670974926709103
 40
1.0
 40
1.0
 40
1.0
 40
1.0
 10
-23.4259014401858
 20
2.157427994471835
 30
0.0
 10
-23.0405890386929
 20
2.157435855617148
 30
0.0
 10
-22.26063717962376
 20
2.157451768198417
 30
0.0
 10
-21.14175434748625
 20
2.036549768878295
 30
0.0
 10
-20.06860199248732
 20
1.852434641153753
 30
0.0
 10
-19.38979075539993
 20
1.683483615337881
 30
0.0
 10
-19.05
 20
1.598912244754963
 30
0.0
1001
PE_URL
1000

  0
SPLINE
  5
1DD
330
1F
100
AcDbEntity
  8
0
  6
Continuous
 62
     1
370
    15
100
AcDbSpline
210
0.0
220
0.0
230
1.0
 70
     8
 71
     3
 72
    17
 73
    13
 74
     0
 42
0.000000001
 43
0.00000001
 40
0.0
 40
0.0
 40
0.0
 40
0.0
 40
0.1257912854129376
 40
0.2528943070667514
 40
0.3557513787147388
 40
0.459323712581173
 40
0.5619165848988533
 40
0.6652227863796761
 40
0.7651084386756791
 40
0.8656479705029112
 40
0.9682003227861009
 40
1.0
 40
1.0
 40
1.0
 40
1.0
 10
-19.05
 20
-0.144852518976176
 30
0.0
 10
-19.42286123307148
 20
0.0705604141058913
 30
0.0
 10
-20.17247185085097
 20
0.5036325801639308
 30
0.0
 10
-21.22707255986274
 20
1.094853210187196
 30
0.0
 10
-22.21470018776677
 20
1.612184028889793
 30
0.0
 10
-23.13053305239528
 20
2.045750193677428
 30
0.0
 10
-24.04789991042841
 20
2.423218553061254
 30
0.0
 10
-24.95319849522827
 20
2.73060613854728
 30
0.0
 10
-25.85387884176852
 20
2.962918281733579
 30
0.0
 10
-26.75135370401097
 20
3.111232354464317
 30
0.0
 10
-27.44696790184121
 20
3.179591157940248
 30
0.0
 10
-27.84525729668817
 20
3.168282738875842
 30
0.0
 10
-27.93952810332402
 20
3.165606157975699
 30
0.0
1001
PE_URL
1000

  0
SPLINE
  5
1DE
330
1F
100
AcDbEntity
  8
외형선
  6
Continuous
370
    15
100
AcDbSpline
210
0.0
220
0.0
230
1.0
 70
    24
 71
     3
 72
    14
 73
    10
 74
     0
 42
0.000000001
 43
0.00000001
 40
0.0
 40
0.0
 40
0.0
 40
0.0
 40
0.25
 40
0.25
 40
0.5
 40
0.5
 40
0.75
 40
0.75
 40
1.0
 40
1.0
 40
1.0
 40
1.0
 10
-19.05
 20
-0.1448525189747194
 30
0.0
 10
-19.05
 20
-0.1192534443751825
 30
0.0
 10
-19.05
 20
-0.0453559872480334
 30
0.0
 10
-19.05
 20
0.1837302434455665
 30
0.0
 10
-19.05
 20
0.3380095327375194
 30
0.0
 10
-19.05
 20
0.682868056853323
 30
0.0
 10
-19.05
 20
0.8725113518184955
 30
0.0
 10
-19.05
 20
1.24578629770663
 30
0.0
 10
-19.05
 20
1.429268838538409
 30
0.0
 10
-19.05
 20
1.598912244754963
 30
0.0
  0
SPLINE
  5
1DF
330
1F
100
AcDbEntity
  8
0
  6
Continuous
 62
     1
370
    15
100
AcDbSpline
210
0.0
220
0.0
230
1.0
 70
     8
 71
     3
 72
    10
 73
     6
 74
     0
 42
0.000000001
 43
0.00000001
 40
0.0
 40
0.0
 40
0.0
 40
0.0
 40
0.5000000000000002
 40
0.5000000000000002
 40
1.0
 40
1.0
 40
1.0
 40
1.0
 10
-30.9000305150539
 20
-0.332713594556818
 30
0.0
 10
-30.97304688662042
 20
-0.3767665439002847
 30
0.0
 10
-31.03133578540357
 20
-0.4437631440585008
 30
0.0
 10
-31.10929420150548
 20
-0.6135945363276853
 30
0.0
 10
-31.12859963175636
 20
-0.7158996076812123
 30
0.0
 10
-31.13038697796854
 20
-0.8222956141747098
 30
0.0
1001
PE_URL
1000

  0
ARC
  5
1E0
330
1F
100
AcDbEntity
  8
0
  6
Continuous
 62
     1
370
    15
100
AcDbCircle
 10
-30.23096872609936
 20
0.551921477922896
 30
0.0
 40
1.6423841840473
100
AcDbArc
 50
203.8412719781947
 51
236.7954524591781
1001
PE_URL
1000

  0
ARC
  5
1E1
330
1F
100
AcDbEntity
  8
0
  6
Continuous
 62
     1
370
    15
100
AcDbCircle
 10
-28.89499430834588
 20
-0.0592613866331995
 30
0.0
 40
2.838700673224943
100
AcDbArc
 50
181.0632596709894
 51
251.1574377299748
1001
PE_URL
1000

  0
SPLINE
  5
1E2
330
1F
100
AcDbEntity
  8
0
  6
Continuous
 62
     1
370
    15
100
AcDbSpline
210
0.0
220
0.0
230
1.0
 70
     8
 71
     3
 72
    10
 73
     6
 74
     0
 42
0.000000001
 43
0.00000001
 40
0.0
 40
0.0
 40
0.0
 40
0.0
 40
0.5
 40
0.5
 40
1.0
 40
1.0
 40
1.0
 40
1.0
 10
-29.81180613301346
 20
-2.745834964690836
 30
0.0
 10
-29.61519162763108
 20
-2.865650022546149
 30
0.0
 10
-29.41268570773404
 20
-2.959768233867766
 30
0.0
 10
-29.00000200343285
 20
-3.09673359577577
 30
0.0
 10
-28.78793401584355
 20
-3.139759319449734
 30
0.0
 10
-28.57499999999979
 20
-3.153907900777771
 30
0.0
1001
PE_URL
1000

  0
SPLINE
  5
1E3
330
1F
100
AcDbEntity
  8
0
  6
Continuous
 62
     1
370
    15
100
AcDbSpline
210
0.0
220
0.0
230
1.0
 70
     8
 71
     3
 72
     8
 73
     4
 74
     0
 42
0.000000001
 43
0.00000001
 40
0.0
 40
0.0
 40
0.0
 40
0.0
 40
1.0
 40
1.0
 40
1.0
 40
1.0
 10
-29.16717302342696
 20
-1.421300422022657
 30
0.0
 10
-29.81262600409676
 20
-1.241906286902253
 30
0.0
 10
-30.47069561614636
 20
-1.039789687382147
 30
0.0
 10
-31.13038697796855
 20
-0.8222956141747346
 30
0.0
1001
PE_URL
1000

  0
SPLINE
  5
1E4
330
1F
100
AcDbEntity
  8
0
  6
Continuous
 62
     1
370
    15
100
AcDbSpline
210
0.0
220
0.0
230
1.0
 70
     8
 71
     3
 72
    13
 73
     9
 74
     0
 42
0.000000001
 43
0.00000001
 40
0.0
 40
0.0
 40
0.0
 40
0.0
 40
0.12033130599955
 40
0.2986780853196936
 40
0.4711196631913835
 40
0.6446900920593008
 40
0.8217354337642412
 40
1.0
 40
1.0
 40
1.0
 40
1.0
 10
-23.42590144018581
 20
-2.15742799447186
 30
0.0
 10
-23.63249970840436
 20
-2.244571106832673
 30
0.0
 10
-24.14530370956855
 20
-2.460871742253541
 30
0.0
 10
-24.95318926360374
 20
-2.729433870623811
 30
0.0
 10
-25.85388706374955
 20
-2.962530338471396
 30
0.0
 10
-26.75132952316415
 20
-3.113998222239456
 30
0.0
 10
-27.65867878888189
 20
-3.189446799561786
 30
0.0
 10
-28.26886166104589
 20
-3.165781269319261
 30
0.0
 10
-28.57499999999972
 20
-3.153907900777778
 30
0.0
1001
PE_URL
1000

  0
SPLINE
  5
1E5
330
1F
100
AcDbEntity
  8
0
  6
Continuous
 62
     1
370
    15
100
AcDbSpline
210
0.0
220
0.0
230
1.0
 70
     8
 71
     3
 72
    14
 73
    10
 74
     0
 42
0.000000001
 43
0.00000001
 40
0.0
 40
0.0
 40
0.0
 40
0.0
 40
0.2500000000000002
 40
0.2500000000000002
 40
0.5000000000000003
 40
0.5000000000000003
 40
0.7500000000000001
 40
0.7500000000000001
 40
1.0
 40
1.0
 40
1.0
 40
1.0
 10
-29.81180613301347
 20
-2.745834964690836
 30
0.0
 10
-29.83435599609674
 20
-2.612544322476129
 30
0.0
 10
-29.84447811097653
 20
-2.476835981654215
 30
0.0
 10
-29.82471525516243
 20
-2.202072074915474
 30
0.0
 10
-29.79405871870915
 20
-2.066723175768903
 30
0.0
 10
-29.68195726739382
 20
-1.820463414477469
 30
0.0
 10
-29.60013814151906
 20
-1.710828110182167
 30
0.0
 10
-29.40266708228355
 20
-1.535668418786688
 30
0.0
 10
-29.28702174395709
 20
-1.46898895623627
 30
0.0
 10
-29.16717302342695
 20
-1.421300422022654
 30
0.0
1001
PE_URL
1000

  0
SPLINE
  5
1E6
330
1F
100
AcDbEntity
  8
0
  6
Continuous
 62
     1
370
    15
100
AcDbSpline
210
0.0
220
0.0
230
1.0
 70
     8
 71
     3
 72
    10
 73
     6
 74
     0
 42
0.000000001
 43
0.00000001
 40
0.0
 40
0.0
 40
0.0
 40
0.0
 40
0.3268587486729715
 40
0.6631502762038101
 40
1.0
 40
1.0
 40
1.0
 40
1.0
 10
-22.16471716598547
 20
2.126226466474691
 30
0.0
 10
-21.82546532178392
 20
2.264783833837214
 30
0.0
 10
-21.13717120361115
 20
2.545897179616006
 30
0.0
 10
-20.09899922680616
 20
2.865278978399118
 30
0.0
 10
-19.39985966064594
 20
2.994909488948974
 30
0.0
 10
-19.05
 20
3.059778491685314
 30
0.0
1001
PE_URL
1000

  0
SPLINE
  5
1E7
330
1F
100
AcDbEntity
  8
외형선
  6
Continuous
370
    15
100
AcDbSpline
210
0.0
220
0.0
230
1.0
 70
    24
 71
     3
 72
    15
 73
    11
 74
     0
 42
0.000000001
 43
0.00000001
 40
0.0
 40
0.0
 40
0.0
 40
0.0
 40
0.1009491852308447
 40
0.2361571202443381
 40
0.3752860945328591
 40
0.5104940295463526
 40
0.6496230038348738
 40
0.7848309388483679
 40
0.923959913136889
 40
1.0
 40
1.0
 40
1.0
 40
1.0
 10
-19.05
 20
1.58311496362909
 30
0.0
 10
-19.05
 20
1.588661015951317
 30
0.0
 10
-19.05
 20
1.60163526375873
 30
0.0
 10
-19.05
 20
1.690471105785971
 30
0.0
 10
-19.05
 20
1.834869054108559
 30
0.0
 10
-19.04999999999999
 20
2.034078314714638
 30
0.0
 10
-19.05
 20
2.276201484459882
 30
0.0
 10
-19.05
 20
2.559683471285449
 30
0.0
 10
-19.05
 20
2.825439196503073
 30
0.0
 10
-19.05
 20
2.998588173721153
 30
0.0
 10
-19.05
 20
3.059778491685332
 30
0.0
  0
ENDSEC
  0
SECTION
  2
OBJECTS
  0
DICTIONARY
  5
C
330
0
100
AcDbDictionary
281
     1
  3
ACAD_DETAILVIEWSTYLE
350
14A
  3
ACAD_GROUP
350
D
  3
ACAD_LAYOUT
350
1A
  3
ACAD_MLINESTYLE
350
17
  3
ACAD_PLOTSETTINGS
350
19
  3
ACAD_PLOTSTYLENAME
350
E
  3
ACAD_SCALELIST
350
47
  3
ACAD_SECTIONVIEWSTYLE
350
14B
  3
AcDbVariableDictionary
350
145
  3
APPDATA
350
143
  3
DWGPROPS
350
1EA
  0
DICTIONARY
  5
183
330
2
100
AcDbDictionary
280
     1
281
     1
  3
ACAD_LAYERSTATES
360
184
  0
DICTIONARY
  5
14A
102
{ACAD_REACTORS
330
C
102
}
330
C
100
AcDbDictionary
281
     1
  0
DICTIONARY
  5
D
102
{ACAD_REACTORS
330
C
102
}
330
C
100
AcDbDictionary
281
     1
  0
DICTIONARY
  5
1A
102
{ACAD_REACTORS
330
C
102
}
330
C
100
AcDbDictionary
281
     1
  3
Layout1
350
1E
  3
Layout2
350
26
  3
Model
350
22
  0
DICTIONARY
  5
17
102
{ACAD_REACTORS
330
C
102
}
330
C
100
AcDbDictionary
281
     1
  3
Standard
350
18
  0
DICTIONARY
  5
19
102
{ACAD_REACTORS
330
C
102
}
330
C
100
AcDbDictionary
281
     1
  0
ACDBDICTIONARYWDFLT
  5
E
102
{ACAD_REACTORS
330
C
102
}
330
C
100
AcDbDictionary
281
     1
  3
Normal
350
F
100
AcDbDictionaryWithDefault
340
F
  0
DICTIONARY
  5
47
102
{ACAD_REACTORS
330
C
102
}
330
C
100
AcDbDictionary
281
     1
  3
A0
350
48
  3
A1
350
49
  3
A2
350
4A
  3
A3
350
4B
  3
A4
350
4C
  3
A5
350
4D
  3
A6
350
4E
  3
A7
350
4F
  3
A8
350
50
  3
A9
350
51
  3
B0
350
52
  3
B1
350
53
  3
B2
350
54
  3
B3
350
55
  3
B4
350
56
  3
B5
350
57
  3
B6
350
58
  3
B7
350
59
  3
B8
350
5A
  3
B9
350
5B
  3
C0
350
5C
  3
C1
350
5D
  3
C2
350
5E
  3
C3
350
5F
  3
C4
350
60
  3
C5
350
61
  3
C6
350
62
  3
C7
350
63
  3
C8
350
64
  3
C9
350
65
  3
D0
350
66
  3
D1
350
67
  3
D2
350
68
  0
DICTIONARY
  5
14B
102
{ACAD_REACTORS
330
C
102
}
330
C
100
AcDbDictionary
281
     1
  0
DICTIONARY
  5
145
102
{ACAD_REACTORS
330
C
102
}
330
C
100
AcDbDictionary
281
     1
  0
DICTIONARY
  5
143
102
{ACAD_REACTORS
330
C
102
}
330
C
100
AcDbDictionary
281
     1
  0
XRECORD
  5
1EA
102
{ACAD_REACTORS
330
C
102
}
330
C
100
AcDbXrecord
280
     1
  1
DWGPROPS COOKIE
  2

  3

  4

  6

  7

  8
120170442
  9

300
=
301
=
302
=
303
=
304
=
305
=
306
=
307
=
308
=
309
=
 40
0.0
 41
2458319.378419873
 42
2458324.241108426
  1

 90
        0
  0
DICTIONARY
  5
184
102
{ACAD_REACTORS
330
183
102
}
330
183
100
AcDbDictionary
281
     1
  0
LAYOUT
  5
1E
102
{ACAD_REACTORS
330
1A
102
}
330
1A
100
AcDbPlotSettings
  1

  2
none_device
  4

  6

 40
0.0
 41
0.0
 42
0.0
 43
0.0
 44
0.0
 45
0.0
 46
0.0
 47
0.0
 48
0.0
 49
0.0
140
0.0
141
0.0
142
1.0
143
1.0
 70
   688
 72
     1
 73
     0
 74
     5
  7

 75
    16
147
1.0
148
0.0
149
0.0
100
AcDbLayout
  1
Layout1
 70
     1
 71
     1
 10
0.0
 20
0.0
 11
420.0
 21
297.0
 12
0.0
 22
0.0
 32
0.0
 14
1.000000000000000E+20
 24
1.000000000000000E+20
 34
1.000000000000000E+20
 15
-1.000000000000000E+20
 25
-1.000000000000000E+20
 35
-1.000000000000000E+20
146
0.0
 13
0.0
 23
0.0
 33
0.0
 16
1.0
 26
0.0
 36
0.0
 17
0.0
 27
1.0
 37
0.0
 76
     0
330
1B
  0
LAYOUT
  5
26
102
{ACAD_REACTORS
330
1A
102
}
330
1A
100
AcDbPlotSettings
  1

  2
none_device
  4

  6

 40
0.0
 41
0.0
 42
0.0
 43
0.0
 44
0.0
 45
0.0
 46
0.0
 47
0.0
 48
0.0
 49
0.0
140
0.0
141
0.0
142
1.0
143
1.0
 70
   688
 72
     1
 73
     0
 74
     5
  7

 75
    16
147
1.0
148
0.0
149
0.0
100
AcDbLayout
  1
Layout2
 70
     1
 71
     2
 10
0.0
 20
0.0
 11
0.0
 21
0.0
 12
0.0
 22
0.0
 32
0.0
 14
0.0
 24
0.0
 34
0.0
 15
0.0
 25
0.0
 35
0.0
146
0.0
 13
0.0
 23
0.0
 33
0.0
 16
1.0
 26
0.0
 36
0.0
 17
0.0
 27
1.0
 37
0.0
 76
     0
330
23
  0
LAYOUT
  5
22
102
{ACAD_REACTORS
330
1A
102
}
330
1A
100
AcDbPlotSettings
  1

  2
none_device
  4
ANSI_A_(11.00_x_8.50_Inches)
  6

 40
6.35
 41
19.05
 42
6.35000508
 43
19.05000254
 44
279.4
 45
215.9
 46
118.1430065323409
 47
91.01762687543983
 48
0.0
 49
0.0
140
0.0
141
0.0
142
0.0742292754234702
143
1.0
 70
  1696
 72
     0
 73
     0
 74
     0
  7

 75
     0
147
0.0235690232323232
148
0.0
149
0.0
100
AcDbLayout
  1
Model
 70
     1
 71
     0
 10
0.0
 20
0.0
 11
420.0
 21
297.0
 12
0.0
 22
0.0
 32
0.0
 14
-46.12500000000012
 24
-49.97180738881175
 34
0.0
 15
91.54473381534558
 25
35.81025000000015
 35
0.0
146
0.0
 13
0.0
 23
0.0
 33
0.0
 16
1.0
 26
0.0
 36
0.0
 17
0.0
 27
1.0
 37
0.0
 76
     0
330
1F
331
29
  0
MLINESTYLE
  5
18
102
{ACAD_REACTORS
330
17
102
}
330
17
100
AcDbMlineStyle
  2
Standard
 70
     0
  3

 62
   256
 51
90.0
 52
90.0
 71
     2
 49
0.5
 62
   256
  6
BYLAYER
 49
-0.5
 62
   256
  6
BYLAYER
  0
ACDBPLACEHOLDER
  5
F
102
{ACAD_REACTORS
330
E
102
}
330
E
  0
SCALE
  5
48
102
{ACAD_REACTORS
330
47
102
}
330
47
100
AcDbScale
 70
     0
300
1:1
140
1.0
141
1.0
290
     1
  0
SCALE
  5
49
102
{ACAD_REACTORS
330
47
102
}
330
47
100
AcDbScale
 70
     0
300
1:2
140
1.0
141
2.0
290
     0
  0
SCALE
  5
4A
102
{ACAD_REACTORS
330
47
102
}
330
47
100
AcDbScale
 70
     0
300
1:4
140
1.0
141
4.0
290
     0
  0
SCALE
  5
4B
102
{ACAD_REACTORS
330
47
102
}
330
47
100
AcDbScale
 70
     0
300
1:5
140
1.0
141
5.0
290
     0
  0
SCALE
  5
4C
102
{ACAD_REACTORS
330
47
102
}
330
47
100
AcDbScale
 70
     0
300
1:8
140
1.0
141
8.0
290
     0
  0
SCALE
  5
4D
102
{ACAD_REACTORS
330
47
102
}
330
47
100
AcDbScale
 70
     0
300
1:10
140
1.0
141
10.0
290
     0
  0
SCALE
  5
4E
102
{ACAD_REACTORS
330
47
102
}
330
47
100
AcDbScale
 70
     0
300
1:16
140
1.0
141
16.0
290
     0
  0
SCALE
  5
4F
102
{ACAD_REACTORS
330
47
102
}
330
47
100
AcDbScale
 70
     0
300
1:20
140
1.0
141
20.0
290
     0
  0
SCALE
  5
50
102
{ACAD_REACTORS
330
47
102
}
330
47
100
AcDbScale
 70
     0
300
1:30
140
1.0
141
30.0
290
     0
  0
SCALE
  5
51
102
{ACAD_REACTORS
330
47
102
}
330
47
100
AcDbScale
 70
     0
300
1:40
140
1.0
141
40.0
290
     0
  0
SCALE
  5
52
102
{ACAD_REACTORS
330
47
102
}
330
47
100
AcDbScale
 70
     0
300
1:50
140
1.0
141
50.0
290
     0
  0
SCALE
  5
53
102
{ACAD_REACTORS
330
47
102
}
330
47
100
AcDbScale
 70
     0
300
1:100
140
1.0
141
100.0
290
     0
  0
SCALE
  5
54
102
{ACAD_REACTORS
330
47
102
}
330
47
100
AcDbScale
 70
     0
300
2:1
140
2.0
141
1.0
290
     0
  0
SCALE
  5
55
102
{ACAD_REACTORS
330
47
102
}
330
47
100
AcDbScale
 70
     0
300
4:1
140
4.0
141
1.0
290
     0
  0
SCALE
  5
56
102
{ACAD_REACTORS
330
47
102
}
330
47
100
AcDbScale
 70
     0
300
8:1
140
8.0
141
1.0
290
     0
  0
SCALE
  5
57
102
{ACAD_REACTORS
330
47
102
}
330
47
100
AcDbScale
 70
     0
300
10:1
140
10.0
141
1.0
290
     0
  0
SCALE
  5
58
102
{ACAD_REACTORS
330
47
102
}
330
47
100
AcDbScale
 70
     0
300
100:1
140
100.0
141
1.0
290
     0
  0
SCALE
  5
59
102
{ACAD_REACTORS
330
47
102
}
330
47
100
AcDbScale
 70
     0
300
1/128" = 1'-0"
140
0.0078125
141
12.0
290
     0
  0
SCALE
  5
5A
102
{ACAD_REACTORS
330
47
102
}
330
47
100
AcDbScale
 70
     0
300
1/64" = 1'-0"
140
0.015625
141
12.0
290
     0
  0
SCALE
  5
5B
102
{ACAD_REACTORS
330
47
102
}
330
47
100
AcDbScale
 70
     0
300
1/32" = 1'-0"
140
0.03125
141
12.0
290
     0
  0
SCALE
  5
5C
102
{ACAD_REACTORS
330
47
102
}
330
47
100
AcDbScale
 70
     0
300
1/16" = 1'-0"
140
0.0625
141
12.0
290
     0
  0
SCALE
  5
5D
102
{ACAD_REACTORS
330
47
102
}
330
47
100
AcDbScale
 70
     0
300
3/32" = 1'-0"
140
0.09375
141
12.0
290
     0
  0
SCALE
  5
5E
102
{ACAD_REACTORS
330
47
102
}
330
47
100
AcDbScale
 70
     0
300
1/8" = 1'-0"
140
0.125
141
12.0
290
     0
  0
SCALE
  5
5F
102
{ACAD_REACTORS
330
47
102
}
330
47
100
AcDbScale
 70
     0
300
3/16" = 1'-0"
140
0.1875
141
12.0
290
     0
  0
SCALE
  5
60
102
{ACAD_REACTORS
330
47
102
}
330
47
100
AcDbScale
 70
     0
300
1/4" = 1'-0"
140
0.25
141
12.0
290
     0
  0
SCALE
  5
61
102
{ACAD_REACTORS
330
47
102
}
330
47
100
AcDbScale
 70
     0
300
3/8" = 1'-0"
140
0.375
141
12.0
290
     0
  0
SCALE
  5
62
102
{ACAD_REACTORS
330
47
102
}
330
47
100
AcDbScale
 70
     0
300
1/2" = 1'-0"
140
0.5
141
12.0
290
     0
  0
SCALE
  5
63
102
{ACAD_REACTORS
330
47
102
}
330
47
100
AcDbScale
 70
     0
300
3/4" = 1'-0"
140
0.75
141
12.0
290
     0
  0
SCALE
  5
64
102
{ACAD_REACTORS
330
47
102
}
330
47
100
AcDbScale
 70
     0
300
1" = 1'-0"
140
1.0
141
12.0
290
     0
  0
SCALE
  5
65
102
{ACAD_REACTORS
330
47
102
}
330
47
100
AcDbScale
 70
     0
300
1-1/2" = 1'-0"
140
1.5
141
12.0
290
     0
  0
SCALE
  5
66
102
{ACAD_REACTORS
330
47
102
}
330
47
100
AcDbScale
 70
     0
300
3" = 1'-0"
140
3.0
141
12.0
290
     0
  0
SCALE
  5
67
102
{ACAD_REACTORS
330
47
102
}
330
47
100
AcDbScale
 70
     0
300
6" = 1'-0"
140
6.0
141
12.0
290
     0
  0
SCALE
  5
68
102
{ACAD_REACTORS
330
47
102
}
330
47
100
AcDbScale
 70
     0
300
1'-0" = 1'-0"
140
12.0
141
12.0
290
     0
  0
ENDSEC
  0
EOF
