  0
SECTION
  2
HEADER
  9
$ACADVER
  1
AC1015
  9
$ACADMAINTVER
 70
     6
  9
$DWGCODEPAGE
  3
ANSI_949
  9
$INSBASE
 10
0.0
 20
0.0
 30
0.0
  9
$EXTMIN
 10
-49.3000000000001
 20
-49.97180738881175
 30
0.0
  9
$EXTMAX
 10
93.13223381534559
 20
39.28525000000012
 30
0.0
  9
$LIMMIN
 10
0.0
 20
0.0
  9
$LIMMAX
 10
420.0
 20
297.0
  9
$ORTHOMODE
 70
     1
  9
$REGENMODE
 70
     1
  9
$FILLMODE
 70
     1
  9
$QTEXTMODE
 70
     0
  9
$MIRRTEXT
 70
     1
  9
$LTSCALE
 40
1.0
  9
$ATTMODE
 70
     1
  9
$TEXTSIZE
 40
3.5
  9
$TRACEWID
 40
1.0
  9
$TEXTSTYLE
  7
Standard
  9
$CLAYER
  8
0
  9
$CELTYPE
  6
ByLayer
  9
$CECOLOR
 62
   256
  9
$CELTSCALE
 40
1.0
  9
$DISPSILH
 70
     0
  9
$DIMSCALE
 40
1.0
  9
$DIMASZ
 40
3.302
  9
$DIMEXO
 40
1.0
  9
$DIMDLI
 40
3.75
  9
$DIMRND
 40
0.0
  9
$DIMDLE
 40
0.0
  9
$DIMEXE
 40
1.0
  9
$DIMTP
 40
0.0
  9
$DIMTM
 40
0.0
  9
$DIMTXT
 40
3.5
  9
$DIMCEN
 40
2.5
  9
$DIMTSZ
 40
0.0
  9
$DIMTOL
 70
     0
  9
$DIMLIM
 70
     0
  9
$DIMTIH
 70
     1
  9
$DIMTOH
 70
     1
  9
$DIMSE1
 70
     0
  9
$DIMSE2
 70
     0
  9
$DIMTAD
 70
     1
  9
$DIMZIN
 70
     0
  9
$DIMBLK
  1

  9
$DIMASO
 70
     1
  9
$DIMSHO
 70
     1
  9
$DIMPOST
  1

  9
$DIMAPOST
  1

  9
$DIMALT
 70
     0
  9
$DIMALTD
 70
     3
  9
$DIMALTF
 40
0.0393700787401575
  9
$DIMLFAC
 40
1.0
  9
$DIMTOFL
 70
     1
  9
$DIMTVP
 40
0.0
  9
$DIMTIX
 70
     0
  9
$DIMSOXD
 70
     0
  9
$DIMSAH
 70
     0
  9
$DIMBLK1
  1

  9
$DIMBLK2
  1

  9
$DIMSTYLE
  2
ISO-25
  9
$DIMCLRD
 70
     0
  9
$DIMCLRE
 70
     0
  9
$DIMCLRT
 70
     0
  9
$DIMTFAC
 40
1.0
  9
$DIMGAP
 40
1.524
  9
$DIMJUST
 70
     0
  9
$DIMSD1
 70
     0
  9
$DIMSD2
 70
     0
  9
$DIMTOLJ
 70
     0
  9
$DIMTZIN
 70
     0
  9
$DIMALTZ
 70
     0
  9
$DIMALTTZ
 70
     0
  9
$DIMUPT
 70
     0
  9
$DIMDEC
 70
     2
  9
$DIMTDEC
 70
     2
  9
$DIMALTU
 70
     2
  9
$DIMALTTD
 70
     3
  9
$DIMTXSTY
  7
Standard
  9
$DIMAUNIT
 70
     0
  9
$DIMADEC
 70
     2
  9
$DIMALTRND
 40
0.0
  9
$DIMAZIN
 70
     0
  9
$DIMDSEP
 70
    44
  9
$DIMATFIT
 70
     3
  9
$DIMFRAC
 70
     0
  9
$DIMLDRBLK
  1

  9
$DIMLUNIT
 70
     2
  9
$DIMLWD
 70
    -2
  9
$DIMLWE
 70
    -2
  9
$DIMTMOVE
 70
     0
  9
$LUNITS
 70
     2
  9
$LUPREC
 70
     2
  9
$SKETCHINC
 40
1.0
  9
$FILLETRAD
 40
10.0
  9
$AUNITS
 70
     0
  9
$AUPREC
 70
     2
  9
$MENU
  1
.
  9
$ELEVATION
 40
0.0
  9
$PELEVATION
 40
0.0
  9
$THICKNESS
 40
0.0
  9
$LIMCHECK
 70
     0
  9
$CHAMFERA
 40
0.0
  9
$CHAMFERB
 40
0.0
  9
$CHAMFERC
 40
0.0
  9
$CHAMFERD
 40
0.0
  9
$SKPOLY
 70
     0
  9
$TDCREATE
 40
2458319.754055243
  9
$TDUCREATE
 40
2458319.379055243
  9
$TDUPDATE
 40
2458324.623090012
  9
$TDUUPDATE
 40
2458324.248090012
  9
$TDINDWG
 40
0.0015655556
  9
$TDUSRTIMER
 40
0.001565544
  9
$USRTIMER
 70
     1
  9
$ANGBASE
 50
0.0
  9
$ANGDIR
 70
     0
  9
$PDMODE
 70
     0
  9
$PDSIZE
 40
-1.0
  9
$PLINEWID
 40
0.0
  9
$SPLFRAME
 70
     0
  9
$SPLINETYPE
 70
     6
  9
$SPLINESEGS
 70
     8
  9
$HANDSEED
  5
1E6
  9
$SURFTAB1
 70
     6
  9
$SURFTAB2
 70
     6
  9
$SURFTYPE
 70
     6
  9
$SURFU
 70
     6
  9
$SURFV
 70
     6
  9
$UCSBASE
  2

  9
$UCSNAME
  2

  9
$UCSORG
 10
0.0
 20
0.0
 30
0.0
  9
$UCSXDIR
 10
1.0
 20
0.0
 30
0.0
  9
$UCSYDIR
 10
0.0
 20
1.0
 30
0.0
  9
$UCSORTHOREF
  2

  9
$UCSORTHOVIEW
 70
     0
  9
$UCSORGTOP
 10
0.0
 20
0.0
 30
0.0
  9
$UCSORGBOTTOM
 10
0.0
 20
0.0
 30
0.0
  9
$UCSORGLEFT
 10
0.0
 20
0.0
 30
0.0
  9
$UCSORGRIGHT
 10
0.0
 20
0.0
 30
0.0
  9
$UCSORGFRONT
 10
0.0
 20
0.0
 30
0.0
  9
$UCSORGBACK
 10
0.0
 20
0.0
 30
0.0
  9
$PUCSBASE
  2

  9
$PUCSNAME
  2

  9
$PUCSORG
 10
0.0
 20
0.0
 30
0.0
  9
$PUCSXDIR
 10
1.0
 20
0.0
 30
0.0
  9
$PUCSYDIR
 10
0.0
 20
1.0
 30
0.0
  9
$PUCSORTHOREF
  2

  9
$PUCSORTHOVIEW
 70
     0
  9
$PUCSORGTOP
 10
0.0
 20
0.0
 30
0.0
  9
$PUCSORGBOTTOM
 10
0.0
 20
0.0
 30
0.0
  9
$PUCSORGLEFT
 10
0.0
 20
0.0
 30
0.0
  9
$PUCSORGRIGHT
 10
0.0
 20
0.0
 30
0.0
  9
$PUCSORGFRONT
 10
0.0
 20
0.0
 30
0.0
  9
$PUCSORGBACK
 10
0.0
 20
0.0
 30
0.0
  9
$USERI1
 70
     0
  9
$USERI2
 70
     0
  9
$USERI3
 70
     0
  9
$USERI4
 70
     0
  9
$USERI5
 70
     0
  9
$USERR1
 40
0.0
  9
$USERR2
 40
0.0
  9
$USERR3
 40
0.0
  9
$USERR4
 40
0.0
  9
$USERR5
 40
0.0
  9
$WORLDVIEW
 70
     1
  9
$SHADEDGE
 70
     3
  9
$SHADEDIF
 70
    70
  9
$TILEMODE
 70
     1
  9
$MAXACTVP
 70
    64
  9
$PINSBASE
 10
0.0
 20
0.0
 30
0.0
  9
$PLIMCHECK
 70
     0
  9
$PEXTMIN
 10
1.000000000000000E+20
 20
1.000000000000000E+20
 30
1.000000000000000E+20
  9
$PEXTMAX
 10
-1.000000000000000E+20
 20
-1.000000000000000E+20
 30
-1.000000000000000E+20
  9
$PLIMMIN
 10
0.0
 20
0.0
  9
$PLIMMAX
 10
0.0
 20
0.0
  9
$UNITMODE
 70
     0
  9
$VISRETAIN
 70
     1
  9
$PLINEGEN
 70
     0
  9
$PSLTSCALE
 70
     1
  9
$TREEDEPTH
 70
  3020
  9
$CMLSTYLE
  2
Standard
  9
$CMLJUST
 70
     0
  9
$CMLSCALE
 40
20.0
  9
$PROXYGRAPHICS
 70
     1
  9
$MEASUREMENT
 70
     1
  9
$CELWEIGHT
370
    -1
  9
$ENDCAPS
280
     0
  9
$JOINSTYLE
280
     0
  9
$LWDISPLAY
290
     1
  9
$INSUNITS
 70
     4
  9
$HYPERLINKBASE
  1

  9
$STYLESHEET
  1

  9
$XEDIT
290
     1
  9
$CEPSNTYPE
380
     0
  9
$PSTYLEMODE
290
     1
  9
$FINGERPRINTGUID
  2
{9B1C6D09-C43A-4DCA-A489-4F4EB165997B}
  9
$VERSIONGUID
  2
{FAEB1C32-E019-11D5-929B-00C0DF256EC4}
  9
$EXTNAMES
290
     1
  9
$PSVPSCALE
 40
0.0
  9
$OLESTARTUP
290
     0
  0
ENDSEC
  0
SECTION
  2
CLASSES
  0
CLASS
  1
ACDBDICTIONARYWDFLT
  2
AcDbDictionaryWithDefault
  3
ObjectDBX Classes
 90
        0
280
     0
281
     0
  0
CLASS
  1
VISUALSTYLE
  2
AcDbVisualStyle
  3
ObjectDBX Classes
 90
     4095
280
     0
281
     0
  0
CLASS
  1
MATERIAL
  2
AcDbMaterial
  3
ObjectDBX Classes
 90
     1153
280
     0
281
     0
  0
CLASS
  1
SCALE
  2
AcDbScale
  3
ObjectDBX Classes
 90
     1153
280
     0
281
     0
  0
CLASS
  1
SUN
  2
AcDbSun
  3
SCENEOE
 90
     1153
280
     0
281
     0
  0
CLASS
  1
ACDBPLACEHOLDER
  2
AcDbPlaceHolder
  3
ObjectDBX Classes
 90
        0
280
     0
281
     0
  0
CLASS
  1
LAYOUT
  2
AcDbLayout
  3
ObjectDBX Classes
 90
        0
280
     0
281
     0
  0
CLASS
  1
TABLESTYLE
  2
AcDbTableStyle
  3
ObjectDBX Classes
 90
     4095
280
     0
281
     0
  0
CLASS
  1
MLEADERSTYLE
  2
AcDbMLeaderStyle
  3
ACDB_MLEADERSTYLE_CLASS
 90
     4095
280
     0
281
     0
  0
CLASS
  1
DICTIONARYVAR
  2
AcDbDictionaryVar
  3
ObjectDBX Classes
 90
        0
280
     0
281
     0
  0
ENDSEC
  0
SECTION
  2
TABLES
  0
TABLE
  2
VPORT
  5
8
330
0
100
AcDbSymbolTable
 70
     1
  0
VPORT
  5
29
330
8
100
AcDbSymbolTableRecord
100
AcDbViewportTableRecord
  2
*Active
 70
     0
 10
0.0
 20
0.0
 11
1.0
 21
1.0
 12
21.91611690767274
 22
-5.34327869440579
 13
0.0
 23
0.0
 14
10.0
 24
10.0
 15
10.0
 25
10.0
 16
0.0
 26
0.0
 36
1.0
 17
0.0
 27
0.0
 37
0.0
 40
91.04219853658817
 41
1.782762691853601
 42
50.0
 43
0.0
 44
0.0
 50
0.0
 51
0.0
 71
    16
 72
  2000
 73
     1
 74
     3
 75
     0
 76
     0
 77
     0
 78
     0
281
     0
 65
     1
110
0.0
120
0.0
130
0.0
111
1.0
121
0.0
131
0.0
112
0.0
122
1.0
132
0.0
 79
     0
146
0.0
  0
ENDTAB
  0
TABLE
  2
LTYPE
  5
5
330
0
100
AcDbSymbolTable
 70
     6
  0
LTYPE
  5
14
330
5
100
AcDbSymbolTableRecord
100
AcDbLinetypeTableRecord
  2
ByBlock
 70
     0
  3

 72
    65
 73
     0
 40
0.0
  0
LTYPE
  5
15
330
5
100
AcDbSymbolTableRecord
100
AcDbLinetypeTableRecord
  2
ByLayer
 70
     0
  3

 72
    65
 73
     0
 40
0.0
  0
LTYPE
  5
16
330
5
100
AcDbSymbolTableRecord
100
AcDbLinetypeTableRecord
  2
Continuous
 70
     0
  3
Solid line
 72
    65
 73
     0
 40
0.0
  0
LTYPE
  5
6A
330
5
100
AcDbSymbolTableRecord
100
AcDbLinetypeTableRecord
  2
HIDDEN
 70
     0
  3
Hidden __ __ __ __ __ __ __ __ __ __ __ __ __ __
 72
    65
 73
     2
 40
1.905
 49
1.27
 74
     0
 49
-0.635
 74
     0
  0
LTYPE
  5
6B
330
5
100
AcDbSymbolTableRecord
100
AcDbLinetypeTableRecord
  2
PHANTOM
 70
     0
  3
Phantom ______  __  __  ______  __  __  ______
 72
    65
 73
     6
 40
12.7
 49
6.35
 74
     0
 49
-1.27
 74
     0
 49
1.27
 74
     0
 49
-1.27
 74
     0
 49
1.27
 74
     0
 49
-1.27
 74
     0
  0
LTYPE
  5
6C
330
5
100
AcDbSymbolTableRecord
100
AcDbLinetypeTableRecord
  2
CENTER
 70
     0
  3
Center ____ _ ____ _ ____ _ ____ _ ____ _ ____
 72
    65
 73
     4
 40
10.16
 49
6.35
 74
     0
 49
-1.27
 74
     0
 49
1.27
 74
     0
 49
-1.27
 74
     0
  0
LTYPE
  5
6D
330
5
100
AcDbSymbolTableRecord
100
AcDbLinetypeTableRecord
  2
CENTERX2
 70
     0
  3
Center (2x) ________  __  ________  __  _____
 72
    65
 73
     4
 40
20.32
 49
12.7
 74
     0
 49
-2.54
 74
     0
 49
2.54
 74
     0
 49
-2.54
 74
     0
  0
LTYPE
  5
6E
330
5
100
AcDbSymbolTableRecord
100
AcDbLinetypeTableRecord
  2
DOT2
 70
     0
  3
Dot (.5x) ........................................
 72
    65
 73
     2
 40
0.635
 49
0.0
 74
     0
 49
-0.635
 74
     0
  0
ENDTAB
  0
TABLE
  2
LAYER
  5
2
102
{ACAD_XDICTIONARY
360
17B
102
}
330
0
100
AcDbSymbolTable
 70
    18
  0
LAYER
  5
10
330
2
100
AcDbSymbolTableRecord
100
AcDbLayerTableRecord
  2
0
 70
     0
 62
     7
  6
Continuous
370
    -3
390
F
  0
LAYER
  5
6F
330
2
100
AcDbSymbolTableRecord
100
AcDbLayerTableRecord
  2
FORMAT
 70
     0
 62
     2
  6
Continuous
370
    -3
390
F
  0
LAYER
  5
70
330
2
100
AcDbSymbolTableRecord
100
AcDbLayerTableRecord
  2
외형선
 70
     0
 62
     4
  6
Continuous
370
    30
390
F
  0
LAYER
  5
71
330
2
100
AcDbSymbolTableRecord
100
AcDbLayerTableRecord
  2
숨은선
 70
     0
 62
     2
  6
HIDDEN
370
    15
390
F
  0
LAYER
  5
72
330
2
100
AcDbSymbolTableRecord
100
AcDbLayerTableRecord
  2
중심선
 70
     0
 62
     1
  6
CENTERX2
370
    -3
390
F
  0
LAYER
  5
73
330
2
100
AcDbSymbolTableRecord
100
AcDbLayerTableRecord
  2
파단선
 70
     0
 62
     4
  6
Continuous
370
    -3
390
F
  0
LAYER
  5
74
330
2
100
AcDbSymbolTableRecord
100
AcDbLayerTableRecord
  2
해칭선
 70
     0
 62
   100
  6
Continuous
370
    -3
390
F
  0
LAYER
  5
75
330
2
100
AcDbSymbolTableRecord
100
AcDbLayerTableRecord
  2
가는실선
 70
     0
 62
     4
  6
Continuous
370
    -3
390
F
  0
LAYER
  5
76
330
2
100
AcDbSymbolTableRecord
100
AcDbLayerTableRecord
  2
치수_보조선
 70
     0
 62
     4
  6
Continuous
370
    -3
390
F
  0
LAYER
  5
77
330
2
100
AcDbSymbolTableRecord
100
AcDbLayerTableRecord
  2
치수문자_일반주서
 70
     0
 62
     7
  6
Continuous
370
    15
390
F
  0
LAYER
  5
78
330
2
100
AcDbSymbolTableRecord
100
AcDbLayerTableRecord
  2
개별주서
 70
     0
 62
   100
  6
Continuous
370
    30
390
F
  0
LAYER
  5
79
330
2
100
AcDbSymbolTableRecord
100
AcDbLayerTableRecord
  2
중간선
 70
     0
 62
     2
  6
Continuous
370
    15
390
F
  0
LAYER
  5
7A
330
2
100
AcDbSymbolTableRecord
100
AcDbLayerTableRecord
  2
윤곽선
 70
     0
 62
     3
  6
Continuous
370
    40
390
F
  0
LAYER
  5
7B
330
2
100
AcDbSymbolTableRecord
100
AcDbLayerTableRecord
  2
중심마크
 70
     0
 62
   100
  6
Continuous
370
    30
390
F
  0
LAYER
  5
7C
330
2
100
AcDbSymbolTableRecord
100
AcDbLayerTableRecord
  2
가상선
 70
     0
 62
     4
  6
PHANTOM
370
    -3
390
F
  0
LAYER
  5
7D
330
2
100
AcDbSymbolTableRecord
100
AcDbLayerTableRecord
  2
특수지정선
 70
     0
 62
     5
  6
CENTERX2
370
    60
390
F
  0
LAYER
  5
7E
330
2
100
AcDbSymbolTableRecord
100
AcDbLayerTableRecord
  2
참조1
 70
     0
 62
    -4
  6
Continuous
370
    -3
390
F
  0
LAYER
  5
144
330
2
100
AcDbSymbolTableRecord
100
AcDbLayerTableRecord
  2
Defpoints
 70
     0
 62
     7
  6
Continuous
290
     0
370
    -3
390
F
  0
ENDTAB
  0
TABLE
  2
STYLE
  5
3
330
0
100
AcDbSymbolTable
 70
     2
  0
STYLE
  5
11
330
3
100
AcDbSymbolTableRecord
100
AcDbTextStyleTableRecord
  2
Standard
 70
     0
 40
0.0
 41
1.0
 50
0.0
 71
     0
 42
3.5
  3
txt
  4

  0
STYLE
  5
94
330
3
100
AcDbSymbolTableRecord
100
AcDbTextStyleTableRecord
  2
SLDTEXTSTYLE0
 70
     0
 40
0.0
 41
0.75
 50
0.0
 71
     0
 42
3.5
  3
TXT
  4

  0
ENDTAB
  0
TABLE
  2
VIEW
  5
6
330
0
100
AcDbSymbolTable
 70
     0
  0
ENDTAB
  0
TABLE
  2
UCS
  5
7
330
0
100
AcDbSymbolTable
 70
     0
  0
ENDTAB
  0
TABLE
  2
APPID
  5
9
330
0
100
AcDbSymbolTable
 70
     2
  0
APPID
  5
12
330
9
100
AcDbSymbolTableRecord
100
AcDbRegAppTableRecord
  2
ACAD
 70
     0
  0
APPID
  5
14B
330
9
100
AcDbSymbolTableRecord
100
AcDbRegAppTableRecord
  2
PE_URL
 70
     0
  0
ENDTAB
  0
TABLE
  2
DIMSTYLE
  5
A
330
0
100
AcDbSymbolTable
 70
     3
100
AcDbDimStyleTable
  0
DIMSTYLE
105
27
330
A
100
AcDbSymbolTableRecord
100
AcDbDimStyleTableRecord
  2
ISO-25
 70
     0
 41
2.5
 42
0.625
 43
3.75
 44
1.25
 73
     0
 74
     0
 77
     1
 78
     8
140
2.5
141
2.5
143
0.03937007874016
147
0.625
171
     3
172
     1
178
     0
271
     2
272
     2
274
     3
278
    44
283
     0
284
     8
340
11
  0
DIMSTYLE
105
C4
330
A
100
AcDbSymbolTableRecord
100
AcDbDimStyleTableRecord
  2
SLDDIMSTYLE0
 70
     0
 41
3.302
 44
0.0
 45
0.000000001
 73
     0
 74
     0
 77
     1
 78
    12
 79
     3
140
3.5
143
0.0393700787401575
147
0.875
148
0.000000001
170
     1
173
     1
178
     0
271
     2
272
     2
276
     2
284
    12
340
94
  0
DIMSTYLE
105
EC
102
{ACAD_REACTORS
330
EB
330
16A
330
C3
330
100
330
D8
102
}
330
A
100
AcDbSymbolTableRecord
100
AcDbDimStyleTableRecord
  2
SLDDIMSTYLE1
 70
     0
 41
3.302
 44
0.0
 45
0.000000001
 73
     0
 74
     0
 77
     1
 78
    12
 79
     3
140
3.5
143
0.0393700787401575
147
0.875
148
0.000000001
170
     1
172
     1
173
     1
178
     0
271
     2
272
     2
276
     2
284
    12
289
     0
340
94
  0
ENDTAB
  0
TABLE
  2
BLOCK_RECORD
  5
1
330
0
100
AcDbSymbolTable
 70
    10
  0
BLOCK_RECORD
  5
1F
330
1
100
AcDbSymbolTableRecord
100
AcDbBlockTableRecord
  2
*Model_Space
340
22
  0
BLOCK_RECORD
  5
1B
330
1
100
AcDbSymbolTableRecord
100
AcDbBlockTableRecord
  2
*Paper_Space
340
1E
  0
BLOCK_RECORD
  5
23
330
1
100
AcDbSymbolTableRecord
100
AcDbBlockTableRecord
  2
*Paper_Space0
340
26
  0
BLOCK_RECORD
  5
7F
330
1
100
AcDbSymbolTableRecord
100
AcDbBlockTableRecord
  2
블럭10
340
0
102
{BLKREFS
331
BC
102
}
  0
BLOCK_RECORD
  5
C5
330
1
100
AcDbSymbolTableRecord
100
AcDbBlockTableRecord
  2
_D
340
0
  0
BLOCK_RECORD
  5
D9
330
1
100
AcDbSymbolTableRecord
100
AcDbBlockTableRecord
  2
_D_1
340
0
  0
BLOCK_RECORD
  5
ED
330
1
100
AcDbSymbolTableRecord
100
AcDbBlockTableRecord
  2
_D_2
340
0
  0
BLOCK_RECORD
  5
101
330
1
100
AcDbSymbolTableRecord
100
AcDbBlockTableRecord
  2
_D_3
340
0
  0
BLOCK_RECORD
  5
11A
330
1
100
AcDbSymbolTableRecord
100
AcDbBlockTableRecord
  2
SW_DOWELSYMBOL_0
340
0
102
{BLKREFS
331
120
102
}
  0
BLOCK_RECORD
  5
17F
330
1
100
AcDbSymbolTableRecord
100
AcDbBlockTableRecord
  2
*D8
340
0
  0
BLOCK_RECORD
  5
191
330
1
100
AcDbSymbolTableRecord
100
AcDbBlockTableRecord
  2
*D9
340
0
  0
ENDTAB
  0
ENDSEC
  0
SECTION
  2
BLOCKS
  0
BLOCK
  5
20
330
1F
100
AcDbEntity
  8
0
100
AcDbBlockBegin
  2
*Model_Space
 70
     0
 10
0.0
 20
0.0
 30
0.0
  3
*Model_Space
  1

  0
ENDBLK
  5
21
330
1F
100
AcDbEntity
  8
0
100
AcDbBlockEnd
  0
BLOCK
  5
1C
330
1B
100
AcDbEntity
 67
     1
  8
0
100
AcDbBlockBegin
  2
*Paper_Space
 70
     0
 10
0.0
 20
0.0
 30
0.0
  3
*Paper_Space
  1

  0
ENDBLK
  5
1D
330
1B
100
AcDbEntity
 67
     1
  8
0
100
AcDbBlockEnd
  0
BLOCK
  5
24
330
23
100
AcDbEntity
  8
0
100
AcDbBlockBegin
  2
*Paper_Space0
 70
     0
 10
0.0
 20
0.0
 30
0.0
  3
*Paper_Space0
  1

  0
ENDBLK
  5
25
330
23
100
AcDbEntity
  8
0
100
AcDbBlockEnd
  0
BLOCK
  5
80
330
7F
100
AcDbEntity
  8
0
100
AcDbBlockBegin
  2
블럭10
 70
     2
 10
0.0
 20
0.0
 30
0.0
  3
블럭10
  1

  0
ELLIPSE
  5
82
330
7F
100
AcDbEntity
  8
중심선
100
AcDbEllipse
 10
20.54032771741204
 20
12.0471743016438
 30
0.0
 11
6.600054785286829
 21
-1.261213355974178E-13
 31
0.0
210
0.0
220
0.0
230
1.0
 40
0.636358354079598
 41
0.9219305317359503
 42
6.513795318482858
  0
ELLIPSE
  5
83
330
7F
100
AcDbEntity
  8
중심선
100
AcDbEllipse
 10
20.54032771746488
 20
12.04717430159265
 30
0.0
 11
3.960054785062283
 21
1.540847449632565E-10
 31
0.0
210
0.0
220
0.0
230
1.0
 40
0.3939339440162632
 41
1.131841032648279
 42
5.62031148352944
  0
LINE
  5
84
330
7F
100
AcDbEntity
  8
중심선
100
AcDbLine
 10
2.268634060543552
 20
16.24717430164393
 30
0.0
 11
5.714909304380834
 21
16.24717430164393
 31
0.0
  0
LINE
  5
85
330
7F
100
AcDbEntity
  8
중심선
100
AcDbLine
 10
5.245725140726316
 20
7.84717430164391
 30
0.0
 11
8.692000384563599
 21
7.84717430164391
 31
0.0
  0
LINE
  5
86
330
7F
100
AcDbEntity
  8
중심선
100
AcDbLine
 10
15.74043728645272
 20
16.24717430164393
 30
0.0
 11
8.692000384563599
 21
7.84717430164391
 31
0.0
  0
LINE
  5
87
330
7F
100
AcDbEntity
  8
중심선
100
AcDbLine
 10
0.1404042013395286
 20
13.71084872107135
 30
0.0
 11
3.58671253028996
 21
13.71088815037384
 31
0.0
  0
LINE
  5
88
330
7F
100
AcDbEntity
  8
중심선
100
AcDbLine
 10
2.750260043222114
 20
10.84717430164391
 30
0.0
 11
6.196535287059397
 21
10.84717430164391
 31
0.0
  0
LINE
  5
89
330
7F
100
AcDbEntity
  8
중심선
100
AcDbLine
 10
12.29416204261559
 20
16.24717430164393
 30
0.0
 11
5.245725140726316
 21
7.84717430164391
 31
0.0
  0
LINE
  5
8A
330
7F
100
AcDbEntity
  8
중심선
100
AcDbLine
 10
10.72767329541681
 20
16.24717430164393
 30
0.0
 11
6.196535287059397
 21
10.84717430164391
 31
0.0
  0
LINE
  5
8B
330
7F
100
AcDbEntity
  8
중심선
100
AcDbLine
 10
7.28139805157953
 20
16.24717430164393
 30
0.0
 11
2.750260043222114
 21
10.84717430164391
 31
0.0
  0
LINE
  5
8C
330
7F
100
AcDbEntity
  8
중심선
100
AcDbLine
 10
5.714909304380834
 20
16.24717430164393
 30
0.0
 11
3.58671253028996
 21
13.71088815037384
 31
0.0
  0
LINE
  5
8D
330
7F
100
AcDbEntity
  8
중심선
100
AcDbLine
 10
2.268634060543552
 20
16.24717430164393
 30
0.0
 11
0.1404042013395286
 21
13.71084872107135
 31
0.0
  0
LINE
  5
8E
330
7F
100
AcDbEntity
  8
중심선
100
AcDbLine
 10
7.28139805157953
 20
16.24717430164393
 30
0.0
 11
10.72767329541681
 21
16.24717430164393
 31
0.0
  0
LINE
  5
8F
330
7F
100
AcDbEntity
  8
중심선
100
AcDbLine
 10
12.29416204261559
 20
16.24717430164393
 30
0.0
 11
15.74043728645272
 21
16.24717430164393
 31
0.0
  0
LINE
  5
90
330
7F
100
AcDbEntity
  8
중심선
100
AcDbLine
 10
19.22036997980202
 20
11.08717430171403
 30
0.0
 11
23.66174974927406
 21
11.08717430171406
 31
0.0
  0
LINE
  5
91
330
7F
100
AcDbEntity
  8
중심선
100
AcDbLine
 10
19.22039502424796
 20
13.00717430171391
 30
0.0
 11
19.22036997980202
 21
11.08717430171403
 31
0.0
  0
LINE
  5
92
330
7F
100
AcDbEntity
  8
중심선
100
AcDbLine
 10
19.22039502424796
 20
13.00717430171391
 30
0.0
 11
26.96566020931264
 21
13.00717430171391
 31
0.0
  0
LINE
  5
93
330
7F
100
AcDbEntity
  8
중심선
100
AcDbLine
 10
22.22332737316547
 20
13.45928029700563
 30
0.0
 11
24.52862924686651
 21
15.39360700705356
 31
0.0
  0
ATTDEF
  5
95
330
7F
100
AcDbEntity
  8
FORMAT
 62
     2
100
AcDbText
 10
4.408487351596664
 20
2.075366912832191
 30
0.0
 40
4.233333333333333
  1
E5251028
 41
0.75
  7
SLDTEXTSTYLE0
 11
4.408487351596664
 21
-0.0412997538344756
 31
0.0
100
AcDbAttributeDefinition
  3

  2
AUTOATTR0
 70
     0
 74
     1
  0
ENDBLK
  5
81
330
7F
100
AcDbEntity
  8
0
100
AcDbBlockEnd
  0
BLOCK
  5
C6
330
C5
100
AcDbEntity
  8
0
100
AcDbBlockBegin
  2
_D
 70
     0
 10
0.0
 20
0.0
 30
0.0
  3
_D
  1

  0
LINE
  5
C8
330
C5
100
AcDbEntity
  8
치수문자_일반주서
 62
     0
370
    -2
100
AcDbLine
 10
34.92499999999999
 20
5.618750000000004
 30
0.0
 11
34.92499999999999
 21
15.55624999999999
 31
0.0
  0
LINE
  5
C9
330
C5
100
AcDbEntity
  8
치수문자_일반주서
 62
     0
370
    -2
100
AcDbLine
 10
20.6375
 20
3.83218902719621
 30
0.0
 11
20.6375
 21
15.55624999999999
 31
0.0
  0
LINE
  5
CA
330
C5
100
AcDbEntity
  8
치수문자_일반주서
 62
     0
370
    -2
100
AcDbLine
 10
34.92499999999999
 20
15.55624999999999
 30
0.0
 11
68.654
 21
15.55624999999999
 31
0.0
  0
LINE
  5
CB
330
C5
100
AcDbEntity
  8
치수문자_일반주서
 62
     0
370
    -2
100
AcDbLine
 10
34.92499999999999
 20
15.55624999999999
 30
0.0
 11
20.6375
 21
15.55624999999999
 31
0.0
  0
LINE
  5
CC
330
C5
100
AcDbEntity
  8
치수문자_일반주서
 62
     0
370
    -2
100
AcDbLine
 10
38.22699999999999
 20
15.55624999999999
 30
0.0
 11
41.52899999999999
 21
15.55624999999999
 31
0.0
  0
LINE
  5
CD
330
C5
100
AcDbEntity
  8
치수문자_일반주서
 62
     0
370
    -2
100
AcDbLine
 10
17.3355
 20
15.55624999999999
 30
0.0
 11
14.0335
 21
15.55624999999999
 31
0.0
  0
SOLID
  5
CE
330
C5
100
AcDbEntity
  8
치수문자_일반주서
 62
     0
100
AcDbTrace
 10
38.22699999999999
 20
16.10658333333333
 30
0.0
 11
38.22699999999999
 21
15.00591666666666
 31
0.0
 12
34.92499999999999
 22
15.55624999999999
 32
0.0
 13
34.92499999999999
 23
15.55624999999999
 33
0.0
  0
SOLID
  5
CF
330
C5
100
AcDbEntity
  8
치수문자_일반주서
 62
     0
100
AcDbTrace
 10
17.3355
 20
15.00591666666666
 30
0.0
 11
17.3355
 21
16.10658333333333
 31
0.0
 12
20.6375
 22
15.55624999999999
 32
0.0
 13
20.6375
 23
15.55624999999999
 33
0.0
  0
MTEXT
  5
D0
330
C5
100
AcDbEntity
  8
치수문자_일반주서
 62
     0
100
AcDbMText
 10
55.0915
 20
19.93124999999999
 30
0.0
 40
3.5
 41
0.0
 71
     2
 72
     1
  1
\A1;14.29 [9/16]
  7
SLDTEXTSTYLE0
 73
     1
 44
1.0
  0
POINT
  5
D1
330
C5
100
AcDbEntity
  8
Defpoints
 62
     0
100
AcDbPoint
 10
34.92499999999999
 20
5.556250000000004
 30
0.0
  0
POINT
  5
D2
330
C5
100
AcDbEntity
  8
Defpoints
 62
     0
100
AcDbPoint
 10
20.6375
 20
3.76968902719621
 30
0.0
  0
POINT
  5
D3
330
C5
100
AcDbEntity
  8
Defpoints
 62
     0
100
AcDbPoint
 10
20.6375
 20
15.55624999999999
 30
0.0
  0
ENDBLK
  5
C7
330
C5
100
AcDbEntity
  8
0
100
AcDbBlockEnd
  0
BLOCK
  5
DA
330
D9
100
AcDbEntity
  8
0
100
AcDbBlockBegin
  2
_D_1
 70
     0
 10
0.0
 20
0.0
 30
0.0
  3
_D_1
  1

  0
LINE
  5
DC
330
D9
100
AcDbEntity
  8
치수문자_일반주서
 62
     0
370
    -2
100
AcDbLine
 10
34.92499999999999
 20
5.618750000000004
 30
0.0
 11
34.92499999999999
 21
25.55625
 31
0.0
  0
LINE
  5
DD
330
D9
100
AcDbEntity
  8
치수문자_일반주서
 62
     0
370
    -2
100
AcDbLine
 10
-34.92499999999999
 20
5.618750000000009
 30
0.0
 11
-34.92499999999999
 21
25.55625
 31
0.0
  0
LINE
  5
DE
330
D9
100
AcDbEntity
  8
치수문자_일반주서
 62
     0
370
    -2
100
AcDbLine
 10
31.62299999999999
 20
25.55625
 30
0.0
 11
-31.62299999999999
 21
25.55625
 31
0.0
  0
SOLID
  5
DF
330
D9
100
AcDbEntity
  8
치수문자_일반주서
 62
     0
100
AcDbTrace
 10
31.62299999999999
 20
25.00591666666666
 30
0.0
 11
31.62299999999999
 21
26.10658333333333
 31
0.0
 12
34.92499999999999
 22
25.55625
 32
0.0
 13
34.92499999999999
 23
25.55625
 33
0.0
  0
SOLID
  5
E0
330
D9
100
AcDbEntity
  8
치수문자_일반주서
 62
     0
100
AcDbTrace
 10
-31.62299999999999
 20
26.10658333333333
 30
0.0
 11
-31.62299999999999
 21
25.00591666666666
 31
0.0
 12
-34.92499999999999
 22
25.55625
 32
0.0
 13
-34.92499999999999
 23
25.55625
 33
0.0
  0
MTEXT
  5
E1
330
D9
100
AcDbEntity
  8
치수문자_일반주서
 62
     0
100
AcDbMText
 10
0.3057072365413518
 20
29.93125
 30
0.0
 40
3.5
 41
0.0
 71
     2
 72
     1
  1
\A1;69.85 [2 3/4]
  7
SLDTEXTSTYLE0
 73
     1
 44
1.0
  0
POINT
  5
E2
330
D9
100
AcDbEntity
  8
Defpoints
 62
     0
100
AcDbPoint
 10
34.92499999999999
 20
5.556250000000004
 30
0.0
  0
POINT
  5
E3
330
D9
100
AcDbEntity
  8
Defpoints
 62
     0
100
AcDbPoint
 10
-34.92499999999999
 20
5.556250000000009
 30
0.0
  0
POINT
  5
E4
330
D9
100
AcDbEntity
  8
Defpoints
 62
     0
100
AcDbPoint
 10
-34.92499999999999
 20
25.55625
 30
0.0
  0
ENDBLK
  5
DB
330
D9
100
AcDbEntity
  8
0
100
AcDbBlockEnd
  0
BLOCK
  5
EE
330
ED
100
AcDbEntity
  8
0
100
AcDbBlockBegin
  2
_D_2
 70
     0
 10
0.0
 20
0.0
 30
0.0
  3
_D_2
  1

  0
LINE
  5
F0
330
ED
100
AcDbEntity
  8
치수문자_일반주서
 62
     0
370
    -2
100
AcDbLine
 10
-18.66988977287892
 20
5.556249999999999
 30
0.0
 11
-44.925
 21
5.556249999999899
 31
0.0
  0
LINE
  5
F1
330
ED
100
AcDbEntity
  8
치수문자_일반주서
 62
     0
370
    -2
100
AcDbLine
 10
-18.66988977287893
 20
-5.556250000000001
 30
0.0
 11
-44.92499999999997
 21
-5.556250000000102
 31
0.0
  0
LINE
  5
F2
330
ED
100
AcDbEntity
  8
치수문자_일반주서
 62
     0
370
    -2
100
AcDbLine
 10
-44.925
 20
5.556249999999899
 30
0.0
 11
-44.92500000000011
 21
39.28524999999995
 31
0.0
  0
LINE
  5
F3
330
ED
100
AcDbEntity
  8
치수문자_일반주서
 62
     0
370
    -2
100
AcDbLine
 10
-44.925
 20
5.556249999999899
 30
0.0
 11
-44.92499999999997
 21
-5.556250000000102
 31
0.0
  0
LINE
  5
F4
330
ED
100
AcDbEntity
  8
치수문자_일반주서
 62
     0
370
    -2
100
AcDbLine
 10
-44.92500000000001
 20
8.858249999999899
 30
0.0
 11
-44.92500000000002
 21
12.1602499999999
 31
0.0
  0
LINE
  5
F5
330
ED
100
AcDbEntity
  8
치수문자_일반주서
 62
     0
370
    -2
100
AcDbLine
 10
-44.92499999999996
 20
-8.858250000000101
 30
0.0
 11
-44.92499999999995
 21
-12.1602500000001
 31
0.0
  0
SOLID
  5
F6
330
ED
100
AcDbEntity
  8
치수문자_일반주서
 62
     0
100
AcDbTrace
 10
-45.47533333333335
 20
8.858249999999897
 30
0.0
 11
-44.37466666666668
 21
8.8582499999999
 31
0.0
 12
-44.925
 22
5.556249999999899
 32
0.0
 13
-44.925
 23
5.556249999999899
 33
0.0
  0
SOLID
  5
F7
330
ED
100
AcDbEntity
  8
치수문자_일반주서
 62
     0
100
AcDbTrace
 10
-44.37466666666663
 20
-8.8582500000001
 30
0.0
 11
-45.4753333333333
 21
-8.858250000000103
 31
0.0
 12
-44.92499999999997
 22
-5.556250000000102
 32
0.0
 13
-44.92499999999997
 23
-5.556250000000102
 33
0.0
  0
MTEXT
  5
F8
330
ED
100
AcDbEntity
  8
치수문자_일반주서
 62
     0
100
AcDbMText
 10
-49.30000000000007
 20
25.72274999999993
 30
0.0
 40
3.5
 41
0.0
 71
     2
 72
     1
  1
\A1;%%c11.11 [7/16]
  7
SLDTEXTSTYLE0
 11
-3.197042680585377E-15
 21
1.0
 31
0.0
 73
     1
 44
1.0
  0
POINT
  5
1AA
330
ED
100
AcDbEntity
  8
Defpoints
 62
     0
100
AcDbPoint
 10
-18.60738977287892
 20
5.556249999999999
 30
0.0
  0
POINT
  5
1AB
330
ED
100
AcDbEntity
  8
Defpoints
 62
     0
100
AcDbPoint
 10
-18.60738977287893
 20
-5.556250000000001
 30
0.0
  0
POINT
  5
1AC
330
ED
100
AcDbEntity
  8
Defpoints
 62
     0
100
AcDbPoint
 10
-44.92499999999997
 20
-5.5562500000001
 30
0.0
  0
ENDBLK
  5
EF
330
ED
100
AcDbEntity
  8
0
100
AcDbBlockEnd
  0
BLOCK
  5
102
330
101
100
AcDbEntity
  8
0
100
AcDbBlockBegin
  2
_D_3
 70
     0
 10
0.0
 20
0.0
 30
0.0
  3
_D_3
  1

  0
LINE
  5
104
330
101
100
AcDbEntity
  8
치수문자_일반주서
 62
     0
370
    -2
100
AcDbLine
 10
34.98749999999999
 20
5.556250000000004
 30
0.0
 11
75.48836193652444
 21
5.556250000000155
 31
0.0
  0
LINE
  5
105
330
101
100
AcDbEntity
  8
치수문자_일반주서
 62
     0
370
    -2
100
AcDbLine
 10
34.98749999999999
 20
-5.556249999999997
 30
0.0
 11
75.48836193652448
 21
-5.556249999999849
 31
0.0
  0
LINE
  5
106
330
101
100
AcDbEntity
  8
치수문자_일반주서
 62
     0
370
    -2
100
AcDbLine
 10
75.48836193652444
 20
5.556250000000155
 30
0.0
 11
75.48836193652431
 21
39.28525000000018
 31
0.0
  0
LINE
  5
107
330
101
100
AcDbEntity
  8
치수문자_일반주서
 62
     0
370
    -2
100
AcDbLine
 10
75.48836193652444
 20
5.556250000000155
 30
0.0
 11
75.48836193652448
 21
-5.556249999999849
 31
0.0
  0
LINE
  5
108
330
101
100
AcDbEntity
  8
치수문자_일반주서
 62
     0
370
    -2
100
AcDbLine
 10
75.48836193652443
 20
8.858250000000155
 30
0.0
 11
75.48836193652441
 21
12.16025000000015
 31
0.0
  0
LINE
  5
109
330
101
100
AcDbEntity
  8
치수문자_일반주서
 62
     0
370
    -2
100
AcDbLine
 10
75.4883619365245
 20
-8.858249999999849
 30
0.0
 11
75.48836193652451
 21
-12.16024999999985
 31
0.0
  0
SOLID
  5
10A
330
101
100
AcDbEntity
  8
치수문자_일반주서
 62
     0
100
AcDbTrace
 10
74.9380286031911
 20
8.858250000000153
 30
0.0
 11
76.03869526985775
 21
8.858250000000156
 31
0.0
 12
75.48836193652444
 22
5.556250000000155
 32
0.0
 13
75.48836193652444
 23
5.556250000000155
 33
0.0
  0
SOLID
  5
10B
330
101
100
AcDbEntity
  8
치수문자_일반주서
 62
     0
100
AcDbTrace
 10
76.03869526985783
 20
-8.858249999999847
 30
0.0
 11
74.93802860319117
 21
-8.85824999999985
 31
0.0
 12
75.48836193652448
 22
-5.556249999999849
 32
0.0
 13
75.48836193652448
 23
-5.556249999999849
 33
0.0
  0
MTEXT
  5
10C
330
101
100
AcDbEntity
  8
치수문자_일반주서
 62
     0
100
AcDbMText
 10
71.11336193652437
 20
25.72275000000016
 30
0.0
 40
3.5
 41
0.0
 71
     2
 72
     1
  1
\A1;%%c11.11 [7/16]
  7
SLDTEXTSTYLE0
 11
-3.836451216702453E-15
 21
1.0
 31
0.0
 73
     1
 44
1.0
  0
POINT
  5
10D
330
101
100
AcDbEntity
  8
Defpoints
 62
     0
100
AcDbPoint
 10
34.92499999999999
 20
5.556250000000004
 30
0.0
  0
POINT
  5
10E
330
101
100
AcDbEntity
  8
Defpoints
 62
     0
100
AcDbPoint
 10
34.92499999999999
 20
-5.556249999999997
 30
0.0
  0
POINT
  5
10F
330
101
100
AcDbEntity
  8
Defpoints
 62
     0
100
AcDbPoint
 10
75.48836193652448
 20
-5.556249999999845
 30
0.0
  0
ENDBLK
  5
103
330
101
100
AcDbEntity
  8
0
100
AcDbBlockEnd
  0
BLOCK
  5
11B
330
11A
100
AcDbEntity
  8
0
100
AcDbBlockBegin
  2
SW_DOWELSYMBOL_0
 70
     0
 10
0.0
 20
0.0
 30
0.0
  3
SW_DOWELSYMBOL_0
  1

  0
CIRCLE
  5
11D
330
11A
100
AcDbEntity
  8
해칭선
 62
     0
100
AcDbCircle
 10
0.0
 20
0.0
 30
0.0
 40
3.000000000000001
  0
HATCH
  5
11E
330
11A
100
AcDbEntity
  8
0
  6
Continuous
 62
     0
370
     0
100
AcDbHatch
 10
0.0
 20
0.0
 30
0.0
210
0.0
220
0.0
230
1.0
  2
SOLID
 70
     1
 71
     0
 91
        1
 92
        0
 93
        3
 72
     2
 10
0.0
 20
0.0
 40
3.000000000000001
 50
0.0
 51
90.0
 73
     1
 72
     1
 10
0.0
 20
3.000000000000001
 11
0.0
 21
0.0
 72
     1
 10
0.0
 20
0.0
 11
3.000000000000001
 21
0.0
 97
        0
 75
     0
 76
     1
 98
        1
 10
0.0
 20
0.0
  0
HATCH
  5
11F
330
11A
100
AcDbEntity
  8
0
  6
Continuous
 62
     0
370
     0
100
AcDbHatch
 10
0.0
 20
0.0
 30
0.0
210
0.0
220
0.0
230
1.0
  2
SOLID
 70
     1
 71
     0
 91
        1
 92
        0
 93
        3
 72
     2
 10
0.0
 20
0.0
 40
3.000000000000001
 50
180.0
 51
270.0000000000008
 73
     1
 72
     1
 10
0.0
 20
-3.000000000000001
 11
0.0
 21
0.0
 72
     1
 10
0.0
 20
0.0
 11
-3.000000000000001
 21
0.0
 97
        0
 75
     0
 76
     1
 98
        1
 10
0.0
 20
0.0
  0
ENDBLK
  5
11C
330
11A
100
AcDbEntity
  8
0
100
AcDbBlockEnd
  0
BLOCK
  5
180
330
17F
100
AcDbEntity
  8
0
100
AcDbBlockBegin
  2
*D8
 70
     1
 10
0.0
 20
0.0
 30
0.0
  3
*D8
  1

  0
LINE
  5
182
330
17F
100
AcDbEntity
  8
치수문자_일반주서
 62
     0
370
    -2
100
AcDbLine
 10
19.30399999999999
 20
0.9642183647204536
 30
0.0
 11
19.30399999999999
 21
11.29859336472045
 31
0.0
  0
LINE
  5
183
330
17F
100
AcDbEntity
  8
치수문자_일반주서
 62
     0
370
    -2
100
AcDbLine
 10
6.604000000000001
 20
0.964218364720443
 30
0.0
 11
6.603999999999999
 21
11.29859336472045
 31
0.0
  0
LINE
  5
184
330
17F
100
AcDbEntity
  8
치수문자_일반주서
 62
     0
370
    -2
100
AcDbLine
 10
19.30399999999999
 20
11.29859336472045
 30
0.0
 11
47.78299999999999
 21
11.29859336472045
 31
0.0
  0
LINE
  5
185
330
17F
100
AcDbEntity
  8
치수문자_일반주서
 62
     0
370
    -2
100
AcDbLine
 10
19.30399999999999
 20
11.29859336472045
 30
0.0
 11
6.603999999999999
 21
11.29859336472045
 31
0.0
  0
LINE
  5
186
330
17F
100
AcDbEntity
  8
치수문자_일반주서
 62
     0
370
    -2
100
AcDbLine
 10
22.60599999999999
 20
11.29859336472045
 30
0.0
 11
25.90799999999999
 21
11.29859336472045
 31
0.0
  0
LINE
  5
187
330
17F
100
AcDbEntity
  8
치수문자_일반주서
 62
     0
370
    -2
100
AcDbLine
 10
3.302
 20
11.29859336472045
 30
0.0
 11
0.0
 21
11.29859336472045
 31
0.0
  0
SOLID
  5
188
330
17F
100
AcDbEntity
  8
치수문자_일반주서
 62
     0
100
AcDbTrace
 10
22.60599999999999
 20
11.84892669805378
 30
0.0
 11
22.60599999999999
 21
10.74826003138712
 31
0.0
 12
19.30399999999999
 22
11.29859336472045
 32
0.0
 13
19.30399999999999
 23
11.29859336472045
 33
0.0
  0
SOLID
  5
189
330
17F
100
AcDbEntity
  8
치수문자_일반주서
 62
     0
100
AcDbTrace
 10
3.302
 20
10.74826003138712
 30
0.0
 11
3.302
 21
11.84892669805378
 31
0.0
 12
6.603999999999999
 22
11.29859336472045
 32
0.0
 13
6.603999999999999
 23
11.29859336472045
 33
0.0
  0
MTEXT
  5
18A
330
17F
100
AcDbEntity
  8
치수문자_일반주서
 62
     0
100
AcDbMText
 10
36.84549999999999
 20
15.67359336472045
 30
0.0
 40
3.5
 41
0.0
 71
     2
 72
     1
  1
\A1;12.7 [1/2]
  7
SLDTEXTSTYLE0
 73
     1
 44
1.0
  0
POINT
  5
18B
330
17F
100
AcDbEntity
  8
Defpoints
 62
     0
100
AcDbPoint
 10
19.30399999999999
 20
0.9017183647204536
 30
0.0
  0
POINT
  5
18C
330
17F
100
AcDbEntity
  8
Defpoints
 62
     0
100
AcDbPoint
 10
6.604000000000001
 20
0.901718364720443
 30
0.0
  0
POINT
  5
18D
330
17F
100
AcDbEntity
  8
Defpoints
 62
     0
100
AcDbPoint
 10
6.604000000000001
 20
11.29859336472045
 30
0.0
  0
ENDBLK
  5
181
330
17F
100
AcDbEntity
  8
0
100
AcDbBlockEnd
  0
BLOCK
  5
192
330
191
100
AcDbEntity
  8
0
100
AcDbBlockBegin
  2
*D9
 70
     1
 10
0.0
 20
0.0
 30
0.0
  3
*D9
  1

  0
LINE
  5
194
330
191
100
AcDbEntity
  8
치수문자_일반주서
 62
     0
370
    -2
100
AcDbLine
 10
56.75445754173305
 20
-23.49952647605224
 30
0.0
 11
56.75445754173305
 21
-13.16515147605224
 31
0.0
  0
LINE
  5
195
330
191
100
AcDbEntity
  8
치수문자_일반주서
 62
     0
370
    -2
100
AcDbLine
 10
44.05445754173306
 20
-23.49952647605225
 30
0.0
 11
44.05445754173306
 21
-13.16515147605224
 31
0.0
  0
LINE
  5
196
330
191
100
AcDbEntity
  8
치수문자_일반주서
 62
     0
370
    -2
100
AcDbLine
 10
56.75445754173305
 20
-13.16515147605224
 30
0.0
 11
85.23345754173306
 21
-13.16515147605224
 31
0.0
  0
LINE
  5
197
330
191
100
AcDbEntity
  8
치수문자_일반주서
 62
     0
370
    -2
100
AcDbLine
 10
56.75445754173305
 20
-13.16515147605224
 30
0.0
 11
44.05445754173306
 21
-13.16515147605224
 31
0.0
  0
LINE
  5
198
330
191
100
AcDbEntity
  8
치수문자_일반주서
 62
     0
370
    -2
100
AcDbLine
 10
60.05645754173305
 20
-13.16515147605224
 30
0.0
 11
63.35845754173305
 21
-13.16515147605224
 31
0.0
  0
LINE
  5
199
330
191
100
AcDbEntity
  8
치수문자_일반주서
 62
     0
370
    -2
100
AcDbLine
 10
40.75245754173306
 20
-13.16515147605224
 30
0.0
 11
37.45045754173306
 21
-13.16515147605224
 31
0.0
  0
SOLID
  5
19A
330
191
100
AcDbEntity
  8
치수문자_일반주서
 62
     0
100
AcDbTrace
 10
60.05645754173305
 20
-12.61481814271891
 30
0.0
 11
60.05645754173305
 21
-13.71548480938557
 31
0.0
 12
56.75445754173305
 22
-13.16515147605224
 32
0.0
 13
56.75445754173305
 23
-13.16515147605224
 33
0.0
  0
SOLID
  5
19B
330
191
100
AcDbEntity
  8
치수문자_일반주서
 62
     0
100
AcDbTrace
 10
40.75245754173306
 20
-13.71548480938557
 30
0.0
 11
40.75245754173306
 21
-12.61481814271891
 31
0.0
 12
44.05445754173306
 22
-13.16515147605224
 32
0.0
 13
44.05445754173306
 23
-13.16515147605224
 33
0.0
  0
MTEXT
  5
19C
330
191
100
AcDbEntity
  8
치수문자_일반주서
 62
     0
100
AcDbMText
 10
74.29595754173306
 20
-8.79015147605224
 30
0.0
 40
3.5
 41
0.0
 71
     2
 72
     1
  1
\A1;12.7 [1/2]
  7
SLDTEXTSTYLE0
 73
     1
 44
1.0
  0
POINT
  5
19D
330
191
100
AcDbEntity
  8
Defpoints
 62
     0
100
AcDbPoint
 10
56.75445754173305
 20
-23.56202647605224
 30
0.0
  0
POINT
  5
19E
330
191
100
AcDbEntity
  8
Defpoints
 62
     0
100
AcDbPoint
 10
44.05445754173306
 20
-23.56202647605225
 30
0.0
  0
POINT
  5
19F
330
191
100
AcDbEntity
  8
Defpoints
 62
     0
100
AcDbPoint
 10
44.05445754173306
 20
-13.16515147605224
 30
0.0
  0
ENDBLK
  5
193
330
191
100
AcDbEntity
  8
0
100
AcDbBlockEnd
  0
ENDSEC
  0
SECTION
  2
ENTITIES
  0
LINE
  5
96
330
1F
100
AcDbEntity
  8
외형선
  6
Continuous
370
    15
100
AcDbLine
 10
18.6073897728789
 20
5.556250000000003
 30
0.0
 11
-18.60738977287892
 21
5.556249999999998
 31
0.0
  0
LINE
  5
97
330
1F
100
AcDbEntity
  8
외형선
  6
Continuous
370
    15
100
AcDbLine
 10
-18.60738977287893
 20
-5.556250000000001
 30
0.0
 11
18.6073897728789
 21
-5.556249999999996
 31
0.0
  0
LINE
  5
9A
330
1F
100
AcDbEntity
  8
0
  6
Continuous
 62
     1
370
    15
100
AcDbLine
 10
28.25803725767754
 20
-5.556249999999997
 30
0.0
 11
29.36874999999998
 21
-5.556249999999997
 31
0.0
1001
PE_URL
1000

  0
ARC
  5
9B
330
1F
100
AcDbEntity
  8
0
  6
Continuous
 62
     1
370
    15
100
AcDbCircle
 10
29.36874999999998
 20
0.0000000000000033
 30
0.0
 40
5.556250000000006
100
AcDbArc
 50
270.0000000000008
 51
0.0
1001
PE_URL
1000

  0
ARC
  5
9C
330
1F
100
AcDbEntity
  8
0
  6
Continuous
 62
     1
370
    15
100
AcDbCircle
 10
29.36874999999998
 20
0.0000000000000033
 30
0.0
 40
5.556250000000006
100
AcDbArc
 50
0.0
 51
90.0
1001
PE_URL
1000

  0
LINE
  5
9D
330
1F
100
AcDbEntity
  8
0
  6
Continuous
 62
     1
370
    15
100
AcDbLine
 10
29.36874999999998
 20
5.556250000000004
 30
0.0
 11
28.25803725767754
 21
5.556250000000004
 31
0.0
1001
PE_URL
1000

  0
LINE
  5
9E
330
1F
100
AcDbEntity
  8
외형선
  6
Continuous
370
    15
100
AcDbLine
 10
20.32132080769041
 20
3.767299785472559
 30
0.0
 11
20.63749999999998
 21
3.903872423576639
 31
0.0
  0
LINE
  5
9F
330
1F
100
AcDbEntity
  8
외형선
  6
Continuous
370
    15
100
AcDbLine
 10
18.6073897728789
 20
3.522981708115287
 30
0.0
 11
18.6073897728789
 21
5.556250000000003
 31
0.0
  0
SPLINE
  5
A0
330
1F
100
AcDbEntity
  8
외형선
  6
Continuous
370
    15
100
AcDbSpline
210
0.0
220
0.0
230
1.0
 70
     8
 71
     3
 72
    10
 73
     6
 74
     0
 42
0.000000001
 43
0.00000001
 40
0.0
 40
0.0
 40
0.0
 40
0.0
 40
0.5
 40
0.5
 40
1.0
 40
1.0
 40
1.0
 40
1.0
 10
20.63749999999999
 20
2.545388730604013
 30
0.0
 10
20.29819104834257
 20
2.719216663049354
 30
0.0
 10
19.96117125405708
 20
2.887926270649585
 30
0.0
 10
19.28660436393028
 20
3.21414376957348
 30
0.0
 10
18.94683032474199
 20
3.371990936072081
 30
0.0
 10
18.6073897728789
 20
3.523223643788877
 30
0.0
  0
SPLINE
  5
A1
330
1F
100
AcDbEntity
  8
외형선
  6
Continuous
370
    15
100
AcDbSpline
210
0.0
220
0.0
230
1.0
 70
     8
 71
     3
 72
    10
 73
     6
 74
     0
 42
0.000000001
 43
0.00000001
 40
0.0
 40
0.0
 40
0.0
 40
0.0
 40
0.5
 40
0.5
 40
1.0
 40
1.0
 40
1.0
 40
1.0
 10
18.60746654853444
 20
-2.989395956977951
 30
0.0
 10
18.94689435528122
 20
-3.154250368119805
 30
0.0
 10
19.28665540971708
 20
-3.313586247969983
 30
0.0
 10
19.96119649599821
 20
-3.618644340902474
 30
0.0
 10
20.29820383932325
 20
-3.764725243906771
 30
0.0
 10
20.63749999999998
 20
-3.903872423576633
 30
0.0
  0
LINE
  5
A2
330
1F
100
AcDbEntity
  8
외형선
  6
Continuous
370
    15
100
AcDbLine
 10
18.6073897728789
 20
-5.556249999999996
 30
0.0
 11
18.6073897728789
 21
-2.989152608934331
 31
0.0
  0
LINE
  5
A4
330
1F
100
AcDbEntity
  8
외형선
  6
Continuous
370
    15
100
AcDbLine
 10
20.63749999999999
 20
2.545388730604014
 30
0.0
 11
20.63749999999999
 21
-3.903872423576636
 31
0.0
  0
SPLINE
  5
A6
330
1F
100
AcDbEntity
  8
외형선
  6
Continuous
370
    15
100
AcDbSpline
210
0.0
220
0.0
230
1.0
 70
     8
 71
     3
 72
    10
 73
     6
 74
     0
 42
0.000000001
 43
0.00000001
 40
0.0
 40
0.0
 40
0.0
 40
0.0
 40
0.5
 40
0.5
 40
1.0
 40
1.0
 40
1.0
 40
1.0
 10
20.63749999999999
 20
3.769689027196222
 30
0.0
 10
20.29819104834257
 20
3.78115854261511
 30
0.0
 10
19.96117125405708
 20
3.785603024835578
 30
0.0
 10
19.28660436393028
 20
3.780498614382897
 30
0.0
 10
18.94683032474199
 20
3.770919341127358
 30
0.0
 10
18.6073897728789
 20
3.754348283161667
 30
0.0
  0
SPLINE
  5
A7
330
1F
100
AcDbEntity
  8
외형선
  6
Continuous
370
    15
100
AcDbSpline
210
0.0
220
0.0
230
1.0
 70
    24
 71
     3
 72
    10
 73
     6
 74
     0
 42
0.000000001
 43
0.00000001
 40
0.0
 40
0.0
 40
0.0
 40
0.0
 40
0.3441153010055469
 40
0.6882306020110939
 40
0.9999999999999999
 40
0.9999999999999999
 40
0.9999999999999999
 40
0.9999999999999999
 10
20.63749999999999
 20
3.769689027196222
 30
0.0
 10
20.63749999999999
 20
3.606489231287868
 30
0.0
 10
20.63749999999999
 20
3.280089639471158
 30
0.0
 10
20.63749999999999
 20
2.881536452239097
 30
0.0
 10
20.63749999999999
 20
2.686820140648702
 30
0.0
 10
20.63749999999999
 20
2.59426334318685
 30
0.0
  0
LINE
  5
A8
330
1F
100
AcDbEntity
  8
외형선
  6
Continuous
370
    15
100
AcDbLine
 10
20.31301816448016
 20
-3.767237045665325
 30
0.0
 11
18.6073897728789
 21
-3.754348283161661
 31
0.0
  0
LINE
  5
A9
330
1F
100
AcDbEntity
  8
외형선
  6
Continuous
370
    15
100
AcDbLine
 10
20.63749999999999
 20
3.903872423576665
 30
0.0
 11
20.63749999999999
 21
3.818563639778997
 31
0.0
  0
SPLINE
  5
AA
330
1F
100
AcDbEntity
  8
0
  6
Continuous
 62
     1
370
    15
100
AcDbSpline
210
0.0
220
0.0
230
1.0
 70
     8
 71
     3
 72
    22
 73
    18
 74
     0
 42
0.000000001
 43
0.00000001
 40
0.0
 40
0.0
 40
0.0
 40
0.0
 40
0.125
 40
0.125
 40
0.25
 40
0.25
 40
0.375
 40
0.375
 40
0.5
 40
0.5
 40
0.625
 40
0.625
 40
0.75
 40
0.75
 40
0.875
 40
0.875
 40
1.0
 40
1.0
 40
1.0
 40
1.0
 10
29.36875000000028
 20
-2.323184551715035
 30
0.0
 10
29.00388433296661
 20
-2.132202918490693
 30
0.0
 10
28.64117399042786
 20
-1.936610495547059
 30
0.0
 10
27.91619739237543
 20
-1.53808009101227
 30
0.0
 10
27.55077746237995
 20
-1.334551976425169
 30
0.0
 10
26.82109240234089
 20
-0.9228447495039573
 30
0.0
 10
26.45862852908186
 20
-0.7150177153512041
 30
0.0
 10
25.73340654621754
 20
-0.2971460638718907
 30
0.0
 10
25.36793765114004
 20
-0.0865767508874148
 30
0.0
 10
24.63830523129919
 20
0.3337833543413045
 30
0.0
 10
24.27607222682049
 20
0.543200186548528
 30
0.0
 10
23.55061109596752
 20
0.9590099537849031
 30
0.0
 10
23.18509643698399
 20
1.165833436470618
 30
0.0
 10
22.45552302198001
 20
1.573313074830689
 30
0.0
 10
22.09350527910616
 20
1.773598039004948
 30
0.0
 10
21.36781124399405
 20
2.166043659792435
 30
0.0
 10
21.00225402362232
 20
2.358525291052304
 30
0.0
 10
20.63749999999999
 20
2.545388730604013
 30
0.0
1001
PE_URL
1000

  0
SPLINE
  5
AB
330
1F
100
AcDbEntity
  8
외형선
  6
Continuous
370
    15
100
AcDbSpline
210
0.0
220
0.0
230
1.0
 70
    24
 71
     3
 72
    10
 73
     6
 74
     0
 42
0.000000001
 43
0.00000001
 40
0.0
 40
0.0
 40
0.0
 40
0.0
 40
0.3394769083847922
 40
0.6888600707714904
 40
1.0
 40
1.0
 40
1.0
 40
1.0
 10
20.63749999999999
 20
3.769689027196222
 30
0.0
 10
20.63749999999999
 20
3.608619859922777
 30
0.0
 10
20.63749999999999
 20
3.281781376283335
 30
0.0
 10
20.63749999999999
 20
2.883711586072608
 30
0.0
 10
20.63749999999999
 20
2.686948671201691
 30
0.0
 10
20.63749999999999
 20
2.59426334318685
 30
0.0
  0
SPLINE
  5
AC
330
1F
100
AcDbEntity
  8
0
  6
Continuous
 62
     1
370
    15
100
AcDbSpline
210
0.0
220
0.0
230
1.0
 70
     8
 71
     3
 72
    30
 73
    26
 74
     0
 42
0.000000001
 43
0.00000001
 40
0.0
 40
0.0
 40
0.0
 40
0.0
 40
0.1249999999999998
 40
0.1249999999999998
 40
0.1874999999999999
 40
0.1874999999999999
 40
0.25
 40
0.25
 40
0.3750000000000002
 40
0.3750000000000002
 40
0.4375000000000002
 40
0.4375000000000002
 40
0.5000000000000002
 40
0.5000000000000002
 40
0.625
 40
0.625
 40
0.6875
 40
0.6875
 40
0.7499999999999999
 40
0.7499999999999999
 40
0.8749999999999999
 40
0.8749999999999999
 40
0.9375
 40
0.9375
 40
1.0
 40
1.0
 40
1.0
 40
1.0
 10
33.43755340134936
 20
0.5822080399179506
 30
0.0
 10
32.90323812889122
 20
0.7895328004773396
 30
0.0
 10
32.37400584314185
 20
0.993521093177826
 30
0.0
 10
31.57160950898425
 20
1.292325137116943
 30
0.0
 10
31.3038793435345
 20
1.390580170624111
 30
0.0
 10
30.7706615096073
 20
1.583389552801302
 30
0.0
 10
30.50623515534005
 20
1.677823864595021
 30
0.0
 10
29.70698459382708
 20
1.955722130947006
 30
0.0
 10
29.16921831879854
 20
2.133344479082093
 30
0.0
 10
28.37178255856086
 20
2.382857532500186
 30
0.0
 10
28.1067113098519
 20
2.463313147397185
 30
0.0
 10
27.57264485056707
 20
2.618756772259342
 30
0.0
 10
27.30479289384708
 20
2.693623437569492
 30
0.0
 10
26.502945035165
 20
2.908485445340192
 30
0.0
 10
25.97389438765556
 20
3.038505562043972
 30
0.0
 10
25.17169437329257
 20
3.212372347681439
 30
0.0
 10
24.90389312566084
 20
3.2667106806016
 30
0.0
 10
24.37026252833495
 20
3.367606026217995
 30
0.0
 10
24.1056634476236
 20
3.414101808240315
 30
0.0
 10
23.30717716197447
 20
3.54194059586531
 30
0.0
 10
22.76937737622901
 20
3.611440470093148
 30
0.0
 10
21.9710802053702
 20
3.689959823519484
 30
0.0
 10
21.70641392222144
 20
3.711882585487621
 30
0.0
 10
21.17269489226978
 20
3.747250795661551
 30
0.0
 10
20.90488095313962
 20
3.760650863157896
 30
0.0
 10
20.63749999999999
 20
3.769689027196222
 30
0.0
1001
PE_URL
1000

  0
SPLINE
  5
AD
330
1F
100
AcDbEntity
  8
0
  6
Continuous
 62
     1
370
    15
100
AcDbSpline
210
0.0
220
0.0
230
1.0
 70
     8
 71
     3
 72
    32
 73
    28
 74
     0
 42
0.000000001
 43
0.00000001
 40
0.0
 40
0.0
 40
0.0
 40
0.0
 40
0.1250000000000004
 40
0.1250000000000004
 40
0.1875000000000006
 40
0.1875000000000006
 40
0.2500000000000007
 40
0.2500000000000007
 40
0.3750000000000011
 40
0.3750000000000011
 40
0.4375000000000009
 40
0.4375000000000009
 40
0.5000000000000009
 40
0.5000000000000009
 40
0.5625000000000009
 40
0.5625000000000009
 40
0.6250000000000008
 40
0.6250000000000008
 40
0.6875000000000008
 40
0.6875000000000008
 40
0.7500000000000008
 40
0.7500000000000008
 40
0.8125000000000007
 40
0.8125000000000007
 40
0.8750000000000004
 40
0.8750000000000004
 40
1.0
 40
1.0
 40
1.0
 40
1.0
 10
29.36874999999998
 20
-2.323184551714878
 30
0.0
 10
29.67749000471578
 20
-2.484788329953819
 30
0.0
 10
29.98136900609028
 20
-2.629426145350682
 30
0.0
 10
30.43561007205583
 20
-2.812963001784537
 30
0.0
 10
30.58670619549948
 20
-2.868622564717486
 30
0.0
 10
30.88995696780968
 20
-2.965818045017287
 30
0.0
 10
31.04282846685478
 20
-3.007421599355502
 30
0.0
 10
31.49528500841952
 20
-3.10410416621322
 30
0.0
 10
31.79106656763885
 20
-3.133253180679815
 30
0.0
 10
32.23567669936399
 20
-3.100018341147326
 30
0.0
 10
32.38121201036134
 20
-3.076000478208692
 30
0.0
 10
32.66692984479449
 20
-2.997414985488247
 30
0.0
 10
32.80883715185864
 20
-2.942165947890696
 30
0.0
 10
33.08130447976952
 20
-2.795156236825781
 30
0.0
 10
33.21105873865967
 20
-2.704469927109652
 30
0.0
 10
33.4567612543682
 20
-2.479444973238085
 30
0.0
 10
33.56717051368084
 20
-2.350088045934266
 30
0.0
 10
33.75974274498664
 20
-2.053565210387167
 30
0.0
 10
33.83709631854987
 20
-1.893388292552355
 30
0.0
 10
33.95154739460955
 20
-1.554742554215134
 30
0.0
 10
33.98657440444868
 20
-1.381952237827586
 30
0.0
 10
34.01578741276589
 20
-1.038383620442266
 30
0.0
 10
34.00982156351262
 20
-0.8723601351806798
 30
0.0
 10
33.9654920968819
 20
-0.5510353489219475
 30
0.0
 10
33.92654782874889
 20
-0.3945330170793707
 30
0.0
 10
33.77344623808595
 20
0.0502779899841101
 30
0.0
 10
33.62228906202979
 20
0.3225950459363657
 30
0.0
 10
33.43755340134432
 20
0.5822080399199117
 30
0.0
1001
PE_URL
1000

  0
SPLINE
  5
AE
330
1F
100
AcDbEntity
  8
0
  6
Continuous
 62
     1
370
    15
100
AcDbSpline
210
0.0
220
0.0
230
1.0
 70
     8
 71
     3
 72
    15
 73
    11
 74
     0
 42
0.000000001
 43
0.00000001
 40
0.0
 40
0.0
 40
0.0
 40
0.0
 40
0.1284264938926507
 40
0.2571858279035785
 40
0.3869522226630184
 40
0.5170620988334752
 40
0.6727390771928302
 40
0.8290098763743091
 40
0.9870876782318352
 40
1.0
 40
1.0
 40
1.0
 40
1.0
 10
20.63749999999999
 20
-3.903872423576598
 30
0.0
 10
20.96390757093202
 20
-4.033782589916245
 30
0.0
 10
21.61756865611528
 20
-4.293939607915048
 30
0.0
 10
22.59938509248714
 20
-4.631579676535218
 30
0.0
 10
23.58769808530291
 20
-4.923112643697703
 30
0.0
 10
24.64194569905118
 20
-5.179950610908641
 30
0.0
 10
25.76615814411915
 20
-5.385944415916488
 30
0.0
 10
26.95881749899129
 20
-5.514402377949694
 30
0.0
 10
27.79101676649691
 20
-5.56830745524916
 30
0.0
 10
28.22524640032088
 20
-5.554046723102786
 30
0.0
 10
28.25803725767754
 20
-5.552969823699366
 30
0.0
1001
PE_URL
1000

  0
SPLINE
  5
AF
330
1F
100
AcDbEntity
  8
0
  6
Continuous
 62
     1
370
    15
100
AcDbSpline
210
0.0
220
0.0
230
1.0
 70
     8
 71
     3
 72
    12
 73
     8
 74
     0
 42
0.000000001
 43
0.00000001
 40
0.0
 40
0.0
 40
0.0
 40
0.0
 40
0.2499999999999997
 40
0.2499999999999997
 40
0.4999999999999993
 40
0.4999999999999993
 40
1.0
 40
1.0
 40
1.0
 40
1.0
 10
33.43755340134429
 20
0.5822080399199154
 30
0.0
 10
33.50145687715796
 20
0.6207296788556539
 30
0.0
 10
33.5583828249101
 20
0.6684798219895918
 30
0.0
 10
33.65823166068523
 20
0.782976456379676
 30
0.0
 10
33.70148187000029
 20
0.850809713799402
 30
0.0
 10
33.80379811555898
 20
1.073739099127916
 30
0.0
 10
33.83756776521781
 20
1.252801126269929
 30
0.0
 10
33.84067976337439
 20
1.439015348161284
 30
0.0
1001
PE_URL
1000

  0
ARC
  5
B0
330
1F
100
AcDbEntity
  8
0
  6
Continuous
 62
     1
370
    15
100
AcDbCircle
 10
32.26669878475849
 20
-0.965860197047733
 30
0.0
 40
2.874168142087258
100
AcDbArc
 50
23.84125672760639
 51
56.79542084518516
1001
PE_URL
1000

  0
ARC
  5
B1
330
1F
100
AcDbEntity
  8
0
  6
Continuous
 62
     1
370
    15
100
AcDbCircle
 10
29.92796662493564
 20
0.10312286645292
 30
0.0
 40
4.968510339636021
100
AcDbArc
 50
1.069834029754449
 51
71.16112496140691
1001
PE_URL
1000

  0
SPLINE
  5
B2
330
1F
100
AcDbEntity
  8
0
  6
Continuous
 62
     1
370
    15
100
AcDbSpline
210
0.0
220
0.0
230
1.0
 70
     8
 71
     3
 72
    10
 73
     6
 74
     0
 42
0.000000001
 43
0.00000001
 40
0.0
 40
0.0
 40
0.0
 40
0.0
 40
0.5
 40
0.5
 40
1.0
 40
1.0
 40
1.0
 40
1.0
 10
31.53233796461948
 20
4.805472023998652
 30
0.0
 10
31.18841261622655
 20
5.014999732505571
 30
0.0
 10
30.83456855800021
 20
5.179735637432299
 30
0.0
 10
30.11325549249995
 20
5.419413304107687
 30
0.0
 10
29.74138344520274
 20
5.494478700664773
 30
0.0
 10
29.36874999999994
 20
5.519225175822652
 30
0.0
1001
PE_URL
1000

  0
SPLINE
  5
B3
330
1F
100
AcDbEntity
  8
0
  6
Continuous
 62
     1
370
    15
100
AcDbSpline
210
0.0
220
0.0
230
1.0
 70
     8
 71
     3
 72
     8
 73
     4
 74
     0
 42
0.000000001
 43
0.00000001
 40
0.0
 40
0.0
 40
0.0
 40
0.0
 40
1.0
 40
1.0
 40
1.0
 40
1.0
 10
30.4051263873197
 20
2.487238184731868
 30
0.0
 10
31.53461041079119
 20
2.173345498485452
 30
0.0
 10
32.68617801790865
 20
1.819646319518019
 30
0.0
 10
33.84067976337441
 20
1.439015348161328
 30
0.0
1001
PE_URL
1000

  0
SPLINE
  5
B4
330
1F
100
AcDbEntity
  8
0
  6
Continuous
 62
     1
370
    15
100
AcDbSpline
210
0.0
220
0.0
230
1.0
 70
     8
 71
     3
 72
    22
 73
    18
 74
     0
 42
0.000000001
 43
0.00000001
 40
0.0
 40
0.0
 40
0.0
 40
0.0
 40
0.1250000000000001
 40
0.1250000000000001
 40
0.2500000000000001
 40
0.2500000000000001
 40
0.3750000000000002
 40
0.3750000000000002
 40
0.5000000000000002
 40
0.5000000000000002
 40
0.6250000000000002
 40
0.6250000000000002
 40
0.7500000000000003
 40
0.7500000000000003
 40
0.8750000000000002
 40
0.8750000000000002
 40
1.0
 40
1.0
 40
1.0
 40
1.0
 10
20.63749999999995
 20
3.903872423576655
 30
0.0
 10
21.00225402362229
 20
4.053460009710999
 30
0.0
 10
21.36781124399403
 20
4.194746439137337
 30
0.0
 10
22.09350527910616
 20
4.458090850296973
 30
0.0
 10
22.45552302198001
 20
4.580416766019614
 30
0.0
 10
23.18509643698401
 20
4.80550795834982
 30
0.0
 10
23.55061109596755
 20
4.908017455900445
 30
0.0
 10
24.27607222682053
 20
5.091109318041177
 30
0.0
 10
24.63830523129924
 20
5.171927237703871
 30
0.0
 10
25.36793765114011
 20
5.311399327981475
 30
0.0
 10
25.73340654621762
 20
5.369883827478501
 30
0.0
 10
26.45862852908196
 20
5.463362911848563
 30
0.0
 10
26.821092402341
 20
5.498516754477284
 30
0.0
 10
27.55077746238008
 20
5.545220543819276
 30
0.0
 10
27.91619739237557
 20
5.55668792504806
 30
0.0
 10
28.64117399042801
 20
5.555786423669995
 30
0.0
 10
29.00388433296677
 20
5.543455795165767
 30
0.0
 10
29.36875000000045
 20
5.519225175822664
 30
0.0
1001
PE_URL
1000

  0
SPLINE
  5
B5
330
1F
100
AcDbEntity
  8
0
  6
Continuous
 62
     1
370
    15
100
AcDbSpline
210
0.0
220
0.0
230
1.0
 70
     8
 71
     3
 72
    18
 73
    14
 74
     0
 42
0.000000001
 43
0.00000001
 40
0.0
 40
0.0
 40
0.0
 40
0.0
 40
0.2499999999999994
 40
0.2499999999999994
 40
0.3749999999999997
 40
0.3749999999999997
 40
0.5
 40
0.5
 40
0.6250000000000002
 40
0.6250000000000002
 40
0.7500000000000006
 40
0.7500000000000006
 40
1.0
 40
1.0
 40
1.0
 40
1.0
 10
31.5323379646195
 20
4.805472023998654
 30
0.0
 10
31.57183204731812
 20
4.572246723497743
 30
0.0
 10
31.58959819978915
 20
4.334863504788069
 30
0.0
 10
31.56375688504655
 20
3.974203248539851
 30
0.0
 10
31.54640174317266
 20
3.855983693835897
 30
0.0
 10
31.49116935249543
 20
3.624241228525363
 30
0.0
 10
31.45259456368512
 20
3.50939635501466
 30
0.0
 10
31.35460531595497
 20
3.293844624188386
 30
0.0
 10
31.29546050155918
 20
3.192851793515899
 30
0.0
 10
31.15653496755592
 20
3.004656421282808
 30
0.0
 10
31.07624751499269
 20
2.917446187540667
 30
0.0
 10
30.81721559518489
 20
2.687382250659286
 30
0.0
 10
30.61487766755518
 20
2.570608374697636
 30
0.0
 10
30.40512638731971
 20
2.487238184731865
 30
0.0
1001
PE_URL
1000

  0
LINE
  5
B6
330
1F
100
AcDbEntity
  8
외형선
  6
Continuous
370
    15
100
AcDbLine
 10
20.63749999999999
 20
3.903872423576667
 30
0.0
 11
20.63749999999999
 21
3.818563639778997
 31
0.0
  0
LINE
  5
B7
330
1F
100
AcDbEntity
  8
중심선
 62
     1
100
AcDbLine
 10
-37.92499999999999
 20
-0.0000000000000045
 30
0.0
 11
37.925
 21
0.0000000000000045
 31
0.0
  0
LINE
  5
B8
330
1F
100
AcDbEntity
  8
참조1
100
AcDbLine
 10
-0.0000000000000036
 20
-0.0000000000000041
 30
0.0
 11
0.0000000000000053
 21
-40.00000000000001
 31
0.0
  0
LINE
  5
B9
330
1F
100
AcDbEntity
  8
참조1
100
AcDbLine
 10
34.925
 20
-0.0000000000000041
 30
0.0
 11
34.925
 21
0.6309734778393062
 31
0.0
  0
LINE
  5
BA
330
1F
100
AcDbEntity
  8
참조1
100
AcDbLine
 10
0.0000000000000053
 20
-40.00000000000001
 30
0.0
 11
-17.54010681430868
 21
-40.0
 31
0.0
  0
CIRCLE
  5
BB
330
1F
100
AcDbEntity
  8
해칭선
100
AcDbCircle
 10
-0.0000000000000018
 20
0.0
 30
0.0
 40
3.000000000000001
  0
INSERT
  5
BC
330
1F
100
AcDbEntity
  8
0
  6
Continuous
 62
     7
100
AcDbBlockReference
 66
     1
  2
블럭10
 10
-13.94027293212521
 20
-52.04717430164393
 30
0.0
  0
ATTRIB
  5
BD
330
BC
100
AcDbEntity
  8
FORMAT
 62
     2
100
AcDbText
 10
-23.12156822086649
 20
-49.97180738881175
 30
0.0
 40
4.233333333333333
  1
E5251028 [ 2 FLUTE ]
 41
0.75
  7
SLDTEXTSTYLE0
 11
-23.12156822086649
 21
-52.08847405547841
 31
0.0
100
AcDbAttribute
  2
AUTOATTR0
 70
     0
 74
     1
  0
SEQEND
  5
BE
330
BC
100
AcDbEntity
  8
0
  6
Continuous
 62
     7
  0
HATCH
  5
BF
330
1F
100
AcDbEntity
  8
중심선
100
AcDbHatch
 10
0.0
 20
0.0
 30
0.0
210
0.0
220
0.0
230
1.0
  2
SOLID
 70
     1
 71
     0
 91
        1
 92
        0
 93
        4
 72
     1
 10
-8.22536362774435
 20
-35.8
 11
-11.67163887158163
 21
-35.8
 72
     1
 10
-11.67163887158163
 20
-35.8
 11
-13.79986873078565
 21
-38.3363255805726
 72
     1
 10
-13.79986873078565
 20
-38.3363255805726
 11
-10.35356040183522
 21
-38.33628615127011
 72
     1
 10
-10.35356040183522
 20
-38.33628615127011
 11
-8.22536362774435
 21
-35.8
 97
        0
 75
     0
 76
     1
 98
        1
 10
11.71286934298443
 20
-0.0010749287238933
  0
HATCH
  5
C0
330
1F
100
AcDbEntity
  8
중심선
100
AcDbHatch
 10
0.0
 20
0.0
 30
0.0
210
0.0
220
0.0
230
1.0
  2
SOLID
 70
     1
 71
     0
 91
        1
 92
        0
 93
        4
 72
     1
 10
-3.212599636708342
 20
-35.8
 11
-6.658874880545653
 21
-35.8
 72
     1
 10
-6.658874880545653
 20
-35.8
 11
-11.19001288890307
 21
-41.20000000000002
 72
     1
 10
-11.19001288890307
 20
-41.20000000000002
 11
-7.743737645065785
 21
-41.20000000000002
 72
     1
 10
-7.743737645065785
 20
-41.20000000000002
 11
-3.212599636708342
 21
-35.8
 97
        0
 75
     0
 76
     1
 98
        1
 10
11.71286934298443
 20
-0.0010749287238933
  0
HATCH
  5
C1
330
1F
100
AcDbEntity
  8
중심선
100
AcDbHatch
 10
0.0
 20
0.0
 30
0.0
210
0.0
220
0.0
230
1.0
  2
SOLID
 70
     1
 71
     0
 91
        1
 92
        0
 93
        4
 72
     1
 10
1.800164354327498
 20
-35.8
 11
-1.646110889509618
 21
-35.8
 72
     1
 10
-1.646110889509618
 20
-35.8
 11
-8.694547791398868
 21
-44.20000000000002
 72
     1
 10
-8.694547791398868
 20
-44.20000000000002
 11
-5.248272547561584
 21
-44.20000000000002
 72
     1
 10
-5.248272547561584
 20
-44.20000000000002
 11
1.800164354327498
 21
-35.8
 97
        0
 75
     0
 76
     1
 98
        1
 10
11.71286934298443
 20
-0.0010749287238933
  0
HATCH
  5
C2
330
1F
100
AcDbEntity
  8
중심선
100
AcDbHatch
 10
0.0
 20
0.0
 30
0.0
210
0.0
220
0.0
230
1.0
  2
SOLID
 70
     1
 71
     0
 91
        1
 92
        0
 93
        6
 72
     3
 10
6.600054785339697
 20
-40.00000000005127
 11
3.960054785062283
 21
1.540882976769353E-10
 40
0.3939339440162628
 50
17.09539180608437
 51
320.0019657685075
 73
     0
 72
     1
 10
8.283054441040264
 20
-38.5878940046383
 11
10.58835631474136
 21
-36.65356729459035
 72
     3
 10
6.600054785286851
 20
-40.00000000000015
 11
6.600054785286829
 21
-1.278976924368180E-13
 40
0.636358354079598
 50
39.99873849337413
 51
368.4976242363725
 73
     1
 72
     1
 10
13.02538727718746
 20
-39.03999999993002
 11
5.280122092122772
 21
-39.03999999993002
 72
     1
 10
5.280122092122773
 20
-39.03999999993002
 11
5.280097047676839
 21
-40.95999999992991
 72
     1
 10
5.280097047676839
 20
-40.95999999992991
 11
9.721476817148876
 21
-40.95999999992988
 97
        0
 75
     0
 76
     1
 98
        1
 10
11.71286934298443
 20
-0.0010749287238933
  0
DIMENSION
  5
C3
330
1F
100
AcDbEntity
  8
치수문자_일반주서
100
AcDbDimension
  2
_D
 10
20.6375
 20
15.55624999999999
 30
0.0
 11
55.0915
 21
15.55624999999999
 31
0.0
 70
   160
  1
<>
 71
     2
 42
14.28749999999999
  3
SLDDIMSTYLE1
100
AcDbAlignedDimension
 13
34.92499999999999
 23
5.556250000000004
 33
0.0
 14
20.6375
 24
3.76968902719621
 34
0.0
100
AcDbRotatedDimension
1001
PE_URL
1000

1001
ACAD
1000
DSTYLE
1002
{
1070
   171
1070
     8
1070
   273
1070
     7
1002
}
  0
DIMENSION
  5
D8
330
1F
100
AcDbEntity
  8
치수문자_일반주서
100
AcDbDimension
  2
_D_1
 10
-34.92499999999999
 20
25.55625
 30
0.0
 11
0.3057072365413518
 21
25.55625
 31
0.0
 70
   160
  1
<>
 71
     2
 42
69.84999999999998
  3
SLDDIMSTYLE1
100
AcDbAlignedDimension
 13
34.92499999999999
 23
5.556250000000004
 33
0.0
 14
-34.92499999999999
 24
5.556250000000009
 34
0.0
 50
0.0000000000000058
100
AcDbRotatedDimension
1001
PE_URL
1000

1001
ACAD
1000
DSTYLE
1002
{
1070
   171
1070
     8
1070
   273
1070
     7
1002
}
  0
DIMENSION
  5
EB
330
1F
100
AcDbEntity
  8
치수문자_일반주서
100
AcDbDimension
  2
_D_2
 10
-44.92499999999997
 20
-5.556250000000102
 30
0.0
 11
-44.92500000000007
 21
25.72274999999995
 31
0.0
 70
   160
  1
%%c<>
 71
     2
 42
11.1125
 52
-270.0
  3
SLDDIMSTYLE1
100
AcDbAlignedDimension
 13
-18.60738977287892
 23
5.556249999999999
 33
0.0
 14
-18.60738977287893
 24
-5.556250000000001
 34
0.0
 50
90.0000000000002
100
AcDbRotatedDimension
1001
PE_URL
1000

1001
ACAD
1000
DSTYLE
1002
{
1070
   171
1070
     8
1070
   273
1070
     7
1002
}
  0
DIMENSION
  5
100
330
1F
100
AcDbEntity
  8
치수문자_일반주서
100
AcDbDimension
  2
_D_3
 10
75.48836193652448
 20
-5.556249999999849
 30
0.0
 11
75.48836193652437
 21
25.72275000000018
 31
0.0
 70
   160
  1
%%c<>
 71
     2
 42
11.1125
 52
-270.0
  3
SLDDIMSTYLE1
100
AcDbAlignedDimension
 13
34.92499999999999
 23
5.556250000000004
 33
0.0
 14
34.92499999999999
 24
-5.556249999999997
 34
0.0
 50
90.0000000000002
100
AcDbRotatedDimension
1001
PE_URL
1000

1001
ACAD
1000
DSTYLE
1002
{
1070
   171
1070
     8
1070
   273
1070
     7
1002
}
  0
LINE
  5
113
330
1F
100
AcDbEntity
  8
참조1
100
AcDbLine
 10
80.43223381534557
 20
7.440000000000002
 30
0.0
 11
80.43223381534557
 21
-7.440000000000002
 31
0.0
  0
LINE
  5
114
330
1F
100
AcDbEntity
  8
참조1
100
AcDbLine
 10
93.13223381534559
 20
5.440000000000002
 30
0.0
 11
80.43223381534557
 21
5.440000000000002
 31
0.0
  0
SOLID
  5
115
330
1F
100
AcDbEntity
  8
참조1
100
AcDbTrace
 10
80.43223381534557
 20
5.440000000000002
 30
0.0
 11
86.78223381534556
 21
4.424000000000002
 31
0.0
 12
86.78223381534556
 22
6.456000000000002
 32
0.0
 13
86.78223381534556
 23
6.456000000000002
 33
0.0
  0
LINE
  5
116
330
1F
100
AcDbEntity
  8
참조1
100
AcDbLine
 10
93.13223381534559
 20
-5.440000000000002
 30
0.0
 11
80.43223381534557
 21
-5.440000000000002
 31
0.0
  0
SOLID
  5
117
330
1F
100
AcDbEntity
  8
참조1
100
AcDbTrace
 10
80.43223381534557
 20
-5.440000000000002
 30
0.0
 11
86.78223381534556
 21
-6.456000000000002
 31
0.0
 12
86.78223381534556
 22
-4.424000000000002
 32
0.0
 13
86.78223381534556
 23
-4.424000000000002
 33
0.0
  0
MTEXT
  5
118
330
1F
100
AcDbEntity
  8
참조1
100
AcDbMText
 10
89.82972390781586
 20
10.98821664464994
 30
0.0
 40
3.5
 41
0.0
 71
     1
 72
     1
  1
A
  7
SLDTEXTSTYLE0
 73
     1
 44
1.0
  0
MTEXT
  5
119
330
1F
100
AcDbEntity
  8
참조1
100
AcDbMText
 10
89.82972390781586
 20
0.1082166446499318
 30
0.0
 40
3.5
 41
0.0
 71
     1
 72
     1
  1
A
  7
SLDTEXTSTYLE0
 73
     1
 44
1.0
  0
INSERT
  5
120
330
1F
100
AcDbEntity
  8
해칭선
100
AcDbBlockReference
  2
SW_DOWELSYMBOL_0
 10
-0.0000000000000018
 20
0.0
 30
0.0
  0
LINE
  5
1C9
330
1F
100
AcDbEntity
  8
0
  6
Continuous
 62
     1
370
    15
100
AcDbLine
 10
-28.25803725767755
 20
5.556250000000015
 30
0.0
 11
-29.36875
 21
5.556250000000016
 31
0.0
1001
PE_URL
1000

  0
ARC
  5
1CA
330
1F
100
AcDbEntity
  8
0
  6
Continuous
 62
     1
370
    15
100
AcDbCircle
 10
-29.36875000000001
 20
0.000000000000016
 30
0.0
 40
5.556250000000006
100
AcDbArc
 50
90.0000000000007
 51
179.9999999999999
1001
PE_URL
1000

  0
ARC
  5
1CB
330
1F
100
AcDbEntity
  8
0
  6
Continuous
 62
     1
370
    15
100
AcDbCircle
 10
-29.36875000000001
 20
0.000000000000016
 30
0.0
 40
5.556250000000006
100
AcDbArc
 50
179.9999999999999
 51
269.9999999999999
1001
PE_URL
1000

  0
LINE
  5
1CC
330
1F
100
AcDbEntity
  8
0
  6
Continuous
 62
     1
370
    15
100
AcDbLine
 10
-29.36875000000002
 20
-5.556249999999981
 30
0.0
 11
-28.25803725767757
 21
-5.556249999999984
 31
0.0
1001
PE_URL
1000

  0
LINE
  5
1CD
330
1F
100
AcDbEntity
  8
외형선
  6
Continuous
370
    15
100
AcDbLine
 10
-20.32132080769044
 20
-3.767299785472552
 30
0.0
 11
-20.63750000000001
 21
-3.903872423576633
 31
0.0
  0
LINE
  5
1CE
330
1F
100
AcDbEntity
  8
외형선
  6
Continuous
370
    15
100
AcDbLine
 10
-18.60738977287893
 20
-3.522981708115282
 30
0.0
 11
-18.60738977287894
 21
-5.556249999999999
 31
0.0
  0
SPLINE
  5
1CF
330
1F
100
AcDbEntity
  8
외형선
  6
Continuous
370
    15
100
AcDbSpline
210
0.0
220
0.0
230
1.0
 70
     8
 71
     3
 72
    10
 73
     6
 74
     0
 42
0.000000001
 43
0.00000001
 40
0.0
 40
0.0
 40
0.0
 40
0.0
 40
0.5
 40
0.5
 40
1.0
 40
1.0
 40
1.0
 40
1.0
 10
-20.63750000000001
 20
-2.545388730604007
 30
0.0
 10
-20.2981910483426
 20
-2.719216663049348
 30
0.0
 10
-19.96117125405711
 20
-2.887926270649579
 30
0.0
 10
-19.28660436393031
 20
-3.214143769573475
 30
0.0
 10
-18.94683032474202
 20
-3.371990936072077
 30
0.0
 10
-18.60738977287893
 20
-3.523223643788874
 30
0.0
  0
SPLINE
  5
1D0
330
1F
100
AcDbEntity
  8
외형선
  6
Continuous
370
    15
100
AcDbSpline
210
0.0
220
0.0
230
1.0
 70
     8
 71
     3
 72
    10
 73
     6
 74
     0
 42
0.000000001
 43
0.00000001
 40
0.0
 40
0.0
 40
0.0
 40
0.0
 40
0.5
 40
0.5
 40
1.0
 40
1.0
 40
1.0
 40
1.0
 10
-18.60746654853446
 20
2.989395956977955
 30
0.0
 10
-18.94689435528124
 20
3.154250368119808
 30
0.0
 10
-19.2866554097171
 20
3.313586247969988
 30
0.0
 10
-19.96119649599823
 20
3.618644340902479
 30
0.0
 10
-20.29820383932326
 20
3.764725243906778
 30
0.0
 10
-20.6375
 20
3.90387242357664
 30
0.0
  0
LINE
  5
1D1
330
1F
100
AcDbEntity
  8
외형선
  6
Continuous
370
    15
100
AcDbLine
 10
-18.60738977287892
 20
5.556249999999999
 30
0.0
 11
-18.60738977287892
 21
2.989152608934335
 31
0.0
  0
LINE
  5
1D2
330
1F
100
AcDbEntity
  8
외형선
  6
Continuous
370
    15
100
AcDbLine
 10
-20.63750000000001
 20
-2.545388730604007
 30
0.0
 11
-20.63750000000001
 21
3.903872423576644
 31
0.0
  0
SPLINE
  5
1D3
330
1F
100
AcDbEntity
  8
외형선
  6
Continuous
370
    15
100
AcDbSpline
210
0.0
220
0.0
230
1.0
 70
     8
 71
     3
 72
    10
 73
     6
 74
     0
 42
0.000000001
 43
0.00000001
 40
0.0
 40
0.0
 40
0.0
 40
0.0
 40
0.5
 40
0.5
 40
1.0
 40
1.0
 40
1.0
 40
1.0
 10
-20.63750000000002
 20
-3.769689027196215
 30
0.0
 10
-20.29819104834261
 20
-3.781158542615103
 30
0.0
 10
-19.96117125405712
 20
-3.78560302483557
 30
0.0
 10
-19.28660436393032
 20
-3.780498614382893
 30
0.0
 10
-18.94683032474202
 20
-3.770919341127353
 30
0.0
 10
-18.60738977287894
 20
-3.754348283161661
 30
0.0
  0
SPLINE
  5
1D4
330
1F
100
AcDbEntity
  8
외형선
  6
Continuous
370
    15
100
AcDbSpline
210
0.0
220
0.0
230
1.0
 70
    24
 71
     3
 72
    10
 73
     6
 74
     0
 42
0.000000001
 43
0.00000001
 40
0.0
 40
0.0
 40
0.0
 40
0.0
 40
0.3441153010055469
 40
0.6882306020110939
 40
0.9999999999999999
 40
0.9999999999999999
 40
0.9999999999999999
 40
0.9999999999999999
 10
-20.63750000000002
 20
-3.769689027196215
 30
0.0
 10
-20.63750000000002
 20
-3.60648923128786
 30
0.0
 10
-20.63750000000002
 20
-3.28008963947115
 30
0.0
 10
-20.63750000000002
 20
-2.881536452239089
 30
0.0
 10
-20.63750000000002
 20
-2.686820140648695
 30
0.0
 10
-20.63750000000002
 20
-2.594263343186842
 30
0.0
  0
LINE
  5
1D5
330
1F
100
AcDbEntity
  8
외형선
  6
Continuous
370
    15
100
AcDbLine
 10
-20.31301816448018
 20
3.767237045665333
 30
0.0
 11
-18.60738977287892
 21
3.754348283161665
 31
0.0
  0
LINE
  5
1D6
330
1F
100
AcDbEntity
  8
외형선
  6
Continuous
370
    15
100
AcDbLine
 10
-20.63750000000002
 20
-3.903872423576658
 30
0.0
 11
-20.63750000000002
 21
-3.81856363977899
 31
0.0
  0
SPLINE
  5
1D7
330
1F
100
AcDbEntity
  8
0
  6
Continuous
 62
     1
370
    15
100
AcDbSpline
210
0.0
220
0.0
230
1.0
 70
     8
 71
     3
 72
    22
 73
    18
 74
     0
 42
0.000000001
 43
0.00000001
 40
0.0
 40
0.0
 40
0.0
 40
0.0
 40
0.125
 40
0.125
 40
0.25
 40
0.25
 40
0.375
 40
0.375
 40
0.5
 40
0.5
 40
0.625
 40
0.625
 40
0.75
 40
0.75
 40
0.875
 40
0.875
 40
1.0
 40
1.0
 40
1.0
 40
1.0
 10
-29.3687500000003
 20
2.323184551715054
 30
0.0
 10
-29.00388433296663
 20
2.132202918490712
 30
0.0
 10
-28.64117399042788
 20
1.936610495547079
 30
0.0
 10
-27.91619739237546
 20
1.538080091012288
 30
0.0
 10
-27.55077746237997
 20
1.334551976425187
 30
0.0
 10
-26.82109240234091
 20
0.9228447495039731
 30
0.0
 10
-26.45862852908189
 20
0.7150177153512196
 30
0.0
 10
-25.73340654621757
 20
0.2971460638719048
 30
0.0
 10
-25.36793765114006
 20
0.0865767508874296
 30
0.0
 10
-24.63830523129921
 20
-0.3337833543412891
 30
0.0
 10
-24.27607222682051
 20
-0.5432001865485141
 30
0.0
 10
-23.55061109596755
 20
-0.9590099537848928
 30
0.0
 10
-23.18509643698401
 20
-1.165833436470606
 30
0.0
 10
-22.45552302198004
 20
-1.573313074830679
 30
0.0
 10
-22.09350527910619
 20
-1.773598039004938
 30
0.0
 10
-21.36781124399408
 20
-2.166043659792429
 30
0.0
 10
-21.00225402362235
 20
-2.358525291052295
 30
0.0
 10
-20.63750000000002
 20
-2.545388730604007
 30
0.0
1001
PE_URL
1000

  0
SPLINE
  5
1D8
330
1F
100
AcDbEntity
  8
외형선
  6
Continuous
370
    15
100
AcDbSpline
210
0.0
220
0.0
230
1.0
 70
    24
 71
     3
 72
    10
 73
     6
 74
     0
 42
0.000000001
 43
0.00000001
 40
0.0
 40
0.0
 40
0.0
 40
0.0
 40
0.3394769083847922
 40
0.6888600707714904
 40
1.0
 40
1.0
 40
1.0
 40
1.0
 10
-20.63750000000002
 20
-3.769689027196215
 30
0.0
 10
-20.63750000000002
 20
-3.608619859922769
 30
0.0
 10
-20.63750000000001
 20
-3.281781376283327
 30
0.0
 10
-20.63750000000001
 20
-2.8837115860726
 30
0.0
 10
-20.63750000000002
 20
-2.686948671201684
 30
0.0
 10
-20.63750000000002
 20
-2.594263343186842
 30
0.0
  0
SPLINE
  5
1D9
330
1F
100
AcDbEntity
  8
0
  6
Continuous
 62
     1
370
    15
100
AcDbSpline
210
0.0
220
0.0
230
1.0
 70
     8
 71
     3
 72
    30
 73
    26
 74
     0
 42
0.000000001
 43
0.00000001
 40
0.0
 40
0.0
 40
0.0
 40
0.0
 40
0.1249999999999998
 40
0.1249999999999998
 40
0.1874999999999999
 40
0.1874999999999999
 40
0.25
 40
0.25
 40
0.3750000000000002
 40
0.3750000000000002
 40
0.4375000000000002
 40
0.4375000000000002
 40
0.5000000000000002
 40
0.5000000000000002
 40
0.625
 40
0.625
 40
0.6875
 40
0.6875
 40
0.7499999999999999
 40
0.7499999999999999
 40
0.8749999999999999
 40
0.8749999999999999
 40
0.9375
 40
0.9375
 40
1.0
 40
1.0
 40
1.0
 40
1.0
 10
-33.43755340134939
 20
-0.5822080399179264
 30
0.0
 10
-32.90323812889125
 20
-0.7895328004773141
 30
0.0
 10
-32.37400584314189
 20
-0.9935210931778009
 30
0.0
 10
-31.57160950898427
 20
-1.292325137116919
 30
0.0
 10
-31.30387934353453
 20
-1.390580170624087
 30
0.0
 10
-30.77066150960733
 20
-1.583389552801279
 30
0.0
 10
-30.50623515534008
 20
-1.677823864595002
 30
0.0
 10
-29.70698459382711
 20
-1.955722130946985
 30
0.0
 10
-29.16921831879857
 20
-2.133344479082073
 30
0.0
 10
-28.37178255856089
 20
-2.382857532500168
 30
0.0
 10
-28.10671130985193
 20
-2.463313147397166
 30
0.0
 10
-27.57264485056709
 20
-2.618756772259324
 30
0.0
 10
-27.30479289384711
 20
-2.693623437569475
 30
0.0
 10
-26.50294503516503
 20
-2.908485445340176
 30
0.0
 10
-25.97389438765558
 20
-3.038505562043959
 30
0.0
 10
-25.1716943732926
 20
-3.212372347681427
 30
0.0
 10
-24.90389312566086
 20
-3.266710680601587
 30
0.0
 10
-24.37026252833498
 20
-3.367606026217981
 30
0.0
 10
-24.10566344762363
 20
-3.414101808240304
 30
0.0
 10
-23.30717716197449
 20
-3.541940595865299
 30
0.0
 10
-22.76937737622903
 20
-3.611440470093136
 30
0.0
 10
-21.97108020537023
 20
-3.689959823519473
 30
0.0
 10
-21.70641392222148
 20
-3.711882585487615
 30
0.0
 10
-21.17269489226981
 20
-3.747250795661543
 30
0.0
 10
-20.90488095313966
 20
-3.760650863157888
 30
0.0
 10
-20.63750000000002
 20
-3.769689027196215
 30
0.0
1001
PE_URL
1000

  0
SPLINE
  5
1DA
330
1F
100
AcDbEntity
  8
0
  6
Continuous
 62
     1
370
    15
100
AcDbSpline
210
0.0
220
0.0
230
1.0
 70
     8
 71
     3
 72
    32
 73
    28
 74
     0
 42
0.000000001
 43
0.00000001
 40
0.0
 40
0.0
 40
0.0
 40
0.0
 40
0.1250000000000004
 40
0.1250000000000004
 40
0.1875000000000006
 40
0.1875000000000006
 40
0.2500000000000007
 40
0.2500000000000007
 40
0.3750000000000011
 40
0.3750000000000011
 40
0.4375000000000009
 40
0.4375000000000009
 40
0.5000000000000009
 40
0.5000000000000009
 40
0.5625000000000009
 40
0.5625000000000009
 40
0.6250000000000008
 40
0.6250000000000008
 40
0.6875000000000008
 40
0.6875000000000008
 40
0.7500000000000008
 40
0.7500000000000008
 40
0.8125000000000007
 40
0.8125000000000007
 40
0.8750000000000004
 40
0.8750000000000004
 40
1.0
 40
1.0
 40
1.0
 40
1.0
 10
-29.36875000000001
 20
2.323184551714897
 30
0.0
 10
-29.6774900047158
 20
2.48478832995384
 30
0.0
 10
-29.9813690060903
 20
2.629426145350703
 30
0.0
 10
-30.43561007205586
 20
2.812963001784558
 30
0.0
 10
-30.5867061954995
 20
2.868622564717507
 30
0.0
 10
-30.8899569678097
 20
2.96581804501731
 30
0.0
 10
-31.0428284668548
 20
3.007421599355524
 30
0.0
 10
-31.49528500841954
 20
3.104104166213242
 30
0.0
 10
-31.79106656763887
 20
3.133253180679839
 30
0.0
 10
-32.23567669936402
 20
3.100018341147351
 30
0.0
 10
-32.38121201036137
 20
3.076000478208716
 30
0.0
 10
-32.66692984479451
 20
2.997414985488271
 30
0.0
 10
-32.80883715185867
 20
2.942165947890722
 30
0.0
 10
-33.08130447976954
 20
2.795156236825807
 30
0.0
 10
-33.2110587386597
 20
2.704469927109679
 30
0.0
 10
-33.45676125436822
 20
2.479444973238111
 30
0.0
 10
-33.56717051368086
 20
2.350088045934292
 30
0.0
 10
-33.75974274498667
 20
2.053565210387193
 30
0.0
 10
-33.8370963185499
 20
1.893388292552382
 30
0.0
 10
-33.95154739460958
 20
1.55474255421516
 30
0.0
 10
-33.9865744044487
 20
1.381952237827612
 30
0.0
 10
-34.01578741276592
 20
1.038383620442293
 30
0.0
 10
-34.00982156351265
 20
0.8723601351807062
 30
0.0
 10
-33.96549209688193
 20
0.5510353489219746
 30
0.0
 10
-33.92654782874892
 20
0.3945330170793966
 30
0.0
 10
-33.77344623808597
 20
-0.0502779899840835
 30
0.0
 10
-33.62228906202982
 20
-0.3225950459363389
 30
0.0
 10
-33.43755340134435
 20
-0.5822080399198875
 30
0.0
1001
PE_URL
1000

  0
SPLINE
  5
1DB
330
1F
100
AcDbEntity
  8
0
  6
Continuous
 62
     1
370
    15
100
AcDbSpline
210
0.0
220
0.0
230
1.0
 70
     8
 71
     3
 72
    15
 73
    11
 74
     0
 42
0.000000001
 43
0.00000001
 40
0.0
 40
0.0
 40
0.0
 40
0.0
 40
0.1284264938926507
 40
0.2571858279035785
 40
0.3869522226630184
 40
0.5170620988334752
 40
0.6727390771928302
 40
0.8290098763743091
 40
0.9870876782318352
 40
1.0
 40
1.0
 40
1.0
 40
1.0
 10
-20.63750000000001
 20
3.903872423576605
 30
0.0
 10
-20.96390757093204
 20
4.033782589916253
 30
0.0
 10
-21.6175686561153
 20
4.293939607915057
 30
0.0
 10
-22.59938509248716
 20
4.631579676535228
 30
0.0
 10
-23.58769808530293
 20
4.923112643697714
 30
0.0
 10
-24.6419456990512
 20
5.179950610908653
 30
0.0
 10
-25.76615814411917
 20
5.385944415916502
 30
0.0
 10
-26.9588174989913
 20
5.514402377949709
 30
0.0
 10
-27.79101676649693
 20
5.568307455249178
 30
0.0
 10
-28.22524640032089
 20
5.554046723102804
 30
0.0
 10
-28.25803725767755
 20
5.552969823699383
 30
0.0
1001
PE_URL
1000

  0
SPLINE
  5
1DC
330
1F
100
AcDbEntity
  8
0
  6
Continuous
 62
     1
370
    15
100
AcDbSpline
210
0.0
220
0.0
230
1.0
 70
     8
 71
     3
 72
    12
 73
     8
 74
     0
 42
0.000000001
 43
0.00000001
 40
0.0
 40
0.0
 40
0.0
 40
0.0
 40
0.2499999999999997
 40
0.2499999999999997
 40
0.4999999999999993
 40
0.4999999999999993
 40
1.0
 40
1.0
 40
1.0
 40
1.0
 10
-33.43755340134432
 20
-0.582208039919891
 30
0.0
 10
-33.50145687715799
 20
-0.6207296788556249
 30
0.0
 10
-33.55838282491014
 20
-0.668479821989564
 30
0.0
 10
-33.65823166068526
 20
-0.7829764563796466
 30
0.0
 10
-33.70148187000032
 20
-0.8508097137993751
 30
0.0
 10
-33.80379811555902
 20
-1.073739099127888
 30
0.0
 10
-33.83756776521784
 20
-1.252801126269901
 30
0.0
 10
-33.84067976337442
 20
-1.439015348161256
 30
0.0
1001
PE_URL
1000

  0
ARC
  5
1DD
330
1F
100
AcDbEntity
  8
0
  6
Continuous
 62
     1
370
    15
100
AcDbCircle
 10
-32.26669878475852
 20
0.9658601970477569
 30
0.0
 40
2.874168142087258
100
AcDbArc
 50
203.8412567276064
 51
236.7954208451852
1001
PE_URL
1000

  0
ARC
  5
1DE
330
1F
100
AcDbEntity
  8
0
  6
Continuous
 62
     1
370
    15
100
AcDbCircle
 10
-29.92796662493567
 20
-0.1031228664528996
 30
0.0
 40
4.968510339636021
100
AcDbArc
 50
181.0698340297544
 51
251.1611249614068
1001
PE_URL
1000

  0
SPLINE
  5
1DF
330
1F
100
AcDbEntity
  8
0
  6
Continuous
 62
     1
370
    15
100
AcDbSpline
210
0.0
220
0.0
230
1.0
 70
     8
 71
     3
 72
    10
 73
     6
 74
     0
 42
0.000000001
 43
0.00000001
 40
0.0
 40
0.0
 40
0.0
 40
0.0
 40
0.5
 40
0.5
 40
1.0
 40
1.0
 40
1.0
 40
1.0
 10
-31.53233796461951
 20
-4.805472023998625
 30
0.0
 10
-31.18841261622659
 20
-5.014999732505547
 30
0.0
 10
-30.83456855800024
 20
-5.179735637432277
 30
0.0
 10
-30.11325549249998
 20
-5.419413304107668
 30
0.0
 10
-29.74138344520277
 20
-5.494478700664754
 30
0.0
 10
-29.36874999999997
 20
-5.51922517582263
 30
0.0
1001
PE_URL
1000

  0
SPLINE
  5
1E0
330
1F
100
AcDbEntity
  8
0
  6
Continuous
 62
     1
370
    15
100
AcDbSpline
210
0.0
220
0.0
230
1.0
 70
     8
 71
     3
 72
     8
 73
     4
 74
     0
 42
0.000000001
 43
0.00000001
 40
0.0
 40
0.0
 40
0.0
 40
0.0
 40
1.0
 40
1.0
 40
1.0
 40
1.0
 10
-30.40512638731973
 20
-2.487238184731847
 30
0.0
 10
-31.53461041079122
 20
-2.173345498485428
 30
0.0
 10
-32.68617801790867
 20
-1.819646319517993
 30
0.0
 10
-33.84067976337444
 20
-1.439015348161298
 30
0.0
1001
PE_URL
1000

  0
SPLINE
  5
1E1
330
1F
100
AcDbEntity
  8
0
  6
Continuous
 62
     1
370
    15
100
AcDbSpline
210
0.0
220
0.0
230
1.0
 70
     8
 71
     3
 72
    22
 73
    18
 74
     0
 42
0.000000001
 43
0.00000001
 40
0.0
 40
0.0
 40
0.0
 40
0.0
 40
0.1250000000000001
 40
0.1250000000000001
 40
0.2500000000000001
 40
0.2500000000000001
 40
0.3750000000000002
 40
0.3750000000000002
 40
0.5000000000000002
 40
0.5000000000000002
 40
0.6250000000000002
 40
0.6250000000000002
 40
0.7500000000000003
 40
0.7500000000000003
 40
0.8750000000000002
 40
0.8750000000000002
 40
1.0
 40
1.0
 40
1.0
 40
1.0
 10
-20.63749999999999
 20
-3.903872423576647
 30
0.0
 10
-21.00225402362232
 20
-4.053460009710992
 30
0.0
 10
-21.36781124399406
 20
-4.194746439137329
 30
0.0
 10
-22.09350527910619
 20
-4.458090850296962
 30
0.0
 10
-22.45552302198005
 20
-4.580416766019603
 30
0.0
 10
-23.18509643698404
 20
-4.805507958349811
 30
0.0
 10
-23.55061109596758
 20
-4.908017455900435
 30
0.0
 10
-24.27607222682056
 20
-5.091109318041163
 30
0.0
 10
-24.63830523129927
 20
-5.171927237703859
 30
0.0
 10
-25.36793765114014
 20
-5.311399327981459
 30
0.0
 10
-25.73340654621765
 20
-5.369883827478485
 30
0.0
 10
-26.45862852908199
 20
-5.463362911848549
 30
0.0
 10
-26.82109240234103
 20
-5.498516754477265
 30
0.0
 10
-27.55077746238011
 20
-5.545220543819259
 30
0.0
 10
-27.9161973923756
 20
-5.556687925048042
 30
0.0
 10
-28.64117399042804
 20
-5.555786423669979
 30
0.0
 10
-29.0038843329668
 20
-5.543455795165745
 30
0.0
 10
-29.36875000000048
 20
-5.519225175822644
 30
0.0
1001
PE_URL
1000

  0
SPLINE
  5
1E2
330
1F
100
AcDbEntity
  8
0
  6
Continuous
 62
     1
370
    15
100
AcDbSpline
210
0.0
220
0.0
230
1.0
 70
     8
 71
     3
 72
    18
 73
    14
 74
     0
 42
0.000000001
 43
0.00000001
 40
0.0
 40
0.0
 40
0.0
 40
0.0
 40
0.2499999999999994
 40
0.2499999999999994
 40
0.3749999999999997
 40
0.3749999999999997
 40
0.5
 40
0.5
 40
0.6250000000000002
 40
0.6250000000000002
 40
0.7500000000000006
 40
0.7500000000000006
 40
1.0
 40
1.0
 40
1.0
 40
1.0
 10
-31.53233796461953
 20
-4.805472023998629
 30
0.0
 10
-31.57183204731815
 20
-4.57224672349772
 30
0.0
 10
-31.58959819978918
 20
-4.334863504788046
 30
0.0
 10
-31.56375688504659
 20
-3.974203248539826
 30
0.0
 10
-31.54640174317269
 20
-3.855983693835874
 30
0.0
 10
-31.49116935249546
 20
-3.624241228525339
 30
0.0
 10
-31.45259456368515
 20
-3.509396355014633
 30
0.0
 10
-31.354605315955
 20
-3.29384462418836
 30
0.0
 10
-31.29546050155921
 20
-3.192851793515874
 30
0.0
 10
-31.15653496755595
 20
-3.004656421282785
 30
0.0
 10
-31.07624751499272
 20
-2.917446187540644
 30
0.0
 10
-30.81721559518492
 20
-2.687382250659265
 30
0.0
 10
-30.61487766755521
 20
-2.570608374697617
 30
0.0
 10
-30.40512638731974
 20
-2.487238184731844
 30
0.0
1001
PE_URL
1000

  0
LINE
  5
1E3
330
1F
100
AcDbEntity
  8
외형선
  6
Continuous
370
    15
100
AcDbLine
 10
-20.63750000000002
 20
-3.903872423576662
 30
0.0
 11
-20.63750000000002
 21
-3.81856363977899
 31
0.0
  0
ENDSEC
  0
SECTION
  2
OBJECTS
  0
DICTIONARY
  5
C
330
0
100
AcDbDictionary
281
     1
  3
ACAD_DETAILVIEWSTYLE
350
1A5
  3
ACAD_GROUP
350
D
  3
ACAD_LAYOUT
350
1A
  3
ACAD_MLINESTYLE
350
17
  3
ACAD_PLOTSETTINGS
350
19
  3
ACAD_PLOTSTYLENAME
350
E
  3
ACAD_SCALELIST
350
47
  3
ACAD_SECTIONVIEWSTYLE
350
1A6
  3
AcDbVariableDictionary
350
1A0
  3
APPDATA
350
142
  3
DWGPROPS
350
1E5
  0
DICTIONARY
  5
17B
330
2
100
AcDbDictionary
280
     1
281
     1
  3
ACAD_LAYERSTATES
360
17C
  0
DICTIONARY
  5
1A5
102
{ACAD_REACTORS
330
C
102
}
330
C
100
AcDbDictionary
281
     1
  0
DICTIONARY
  5
D
102
{ACAD_REACTORS
330
C
102
}
330
C
100
AcDbDictionary
281
     1
  0
DICTIONARY
  5
1A
102
{ACAD_REACTORS
330
C
102
}
330
C
100
AcDbDictionary
281
     1
  3
Layout1
350
1E
  3
Layout2
350
26
  3
Model
350
22
  0
DICTIONARY
  5
17
102
{ACAD_REACTORS
330
C
102
}
330
C
100
AcDbDictionary
281
     1
  3
Standard
350
18
  0
DICTIONARY
  5
19
102
{ACAD_REACTORS
330
C
102
}
330
C
100
AcDbDictionary
281
     1
  0
ACDBDICTIONARYWDFLT
  5
E
102
{ACAD_REACTORS
330
C
102
}
330
C
100
AcDbDictionary
281
     1
  3
Normal
350
F
100
AcDbDictionaryWithDefault
340
F
  0
DICTIONARY
  5
47
102
{ACAD_REACTORS
330
C
102
}
330
C
100
AcDbDictionary
281
     1
  3
A0
350
48
  3
A1
350
49
  3
A2
350
4A
  3
A3
350
4B
  3
A4
350
4C
  3
A5
350
4D
  3
A6
350
4E
  3
A7
350
4F
  3
A8
350
50
  3
A9
350
51
  3
B0
350
52
  3
B1
350
53
  3
B2
350
54
  3
B3
350
55
  3
B4
350
56
  3
B5
350
57
  3
B6
350
58
  3
B7
350
59
  3
B8
350
5A
  3
B9
350
5B
  3
C0
350
5C
  3
C1
350
5D
  3
C2
350
5E
  3
C3
350
5F
  3
C4
350
60
  3
C5
350
61
  3
C6
350
62
  3
C7
350
63
  3
C8
350
64
  3
C9
350
65
  3
D0
350
66
  3
D1
350
67
  3
D2
350
68
  0
DICTIONARY
  5
1A6
102
{ACAD_REACTORS
330
C
102
}
330
C
100
AcDbDictionary
281
     1
  0
DICTIONARY
  5
1A0
102
{ACAD_REACTORS
330
C
102
}
330
C
100
AcDbDictionary
281
     1
  0
DICTIONARY
  5
142
102
{ACAD_REACTORS
330
C
102
}
330
C
100
AcDbDictionary
281
     1
  0
XRECORD
  5
1E5
102
{ACAD_REACTORS
330
C
102
}
330
C
100
AcDbXrecord
280
     1
  1
DWGPROPS COOKIE
  2

  3

  4

  6

  7

  8
120170442
  9

300
=
301
=
302
=
303
=
304
=
305
=
306
=
307
=
308
=
309
=
 40
0.0
 41
2458319.379055243
 42
2458324.248090012
  1

 90
        0
  0
DICTIONARY
  5
17C
102
{ACAD_REACTORS
330
17B
102
}
330
17B
100
AcDbDictionary
281
     1
  0
LAYOUT
  5
1E
102
{ACAD_REACTORS
330
1A
102
}
330
1A
100
AcDbPlotSettings
  1

  2
none_device
  4

  6

 40
0.0
 41
0.0
 42
0.0
 43
0.0
 44
0.0
 45
0.0
 46
0.0
 47
0.0
 48
0.0
 49
0.0
140
0.0
141
0.0
142
1.0
143
1.0
 70
   688
 72
     1
 73
     0
 74
     5
  7

 75
    16
147
1.0
148
0.0
149
0.0
100
AcDbLayout
  1
Layout1
 70
     1
 71
     1
 10
0.0
 20
0.0
 11
420.0
 21
297.0
 12
0.0
 22
0.0
 32
0.0
 14
1.000000000000000E+20
 24
1.000000000000000E+20
 34
1.000000000000000E+20
 15
-1.000000000000000E+20
 25
-1.000000000000000E+20
 35
-1.000000000000000E+20
146
0.0
 13
0.0
 23
0.0
 33
0.0
 16
1.0
 26
0.0
 36
0.0
 17
0.0
 27
1.0
 37
0.0
 76
     0
330
1B
  0
LAYOUT
  5
26
102
{ACAD_REACTORS
330
1A
102
}
330
1A
100
AcDbPlotSettings
  1

  2
none_device
  4

  6

 40
0.0
 41
0.0
 42
0.0
 43
0.0
 44
0.0
 45
0.0
 46
0.0
 47
0.0
 48
0.0
 49
0.0
140
0.0
141
0.0
142
1.0
143
1.0
 70
   688
 72
     1
 73
     0
 74
     5
  7

 75
    16
147
1.0
148
0.0
149
0.0
100
AcDbLayout
  1
Layout2
 70
     1
 71
     2
 10
0.0
 20
0.0
 11
0.0
 21
0.0
 12
0.0
 22
0.0
 32
0.0
 14
0.0
 24
0.0
 34
0.0
 15
0.0
 25
0.0
 35
0.0
146
0.0
 13
0.0
 23
0.0
 33
0.0
 16
1.0
 26
0.0
 36
0.0
 17
0.0
 27
1.0
 37
0.0
 76
     0
330
23
  0
LAYOUT
  5
22
102
{ACAD_REACTORS
330
1A
102
}
330
1A
100
AcDbPlotSettings
  1

  2
none_device
  4
ANSI_A_(11.00_x_8.50_Inches)
  6

 40
6.35
 41
19.05
 42
6.35000508
 43
19.05000254
 44
279.4
 45
215.9
 46
123.9529092459452
 47
64.49103207718231
 48
0.0
 49
0.0
140
0.0
141
0.0
142
0.0640153087028162
143
1.0
 70
  1696
 72
     0
 73
     0
 74
     0
  7

 75
     0
147
0.0235690232323232
148
0.0
149
0.0
100
AcDbLayout
  1
Model
 70
     1
 71
     0
 10
0.0
 20
0.0
 11
420.0
 21
297.0
 12
0.0
 22
0.0
 32
0.0
 14
-49.3000000000001
 24
-49.97180738881175
 34
0.0
 15
93.13223381534559
 25
39.28525000000012
 35
0.0
146
0.0
 13
0.0
 23
0.0
 33
0.0
 16
1.0
 26
0.0
 36
0.0
 17
0.0
 27
1.0
 37
0.0
 76
     0
330
1F
331
29
  0
MLINESTYLE
  5
18
102
{ACAD_REACTORS
330
17
102
}
330
17
100
AcDbMlineStyle
  2
Standard
 70
     0
  3

 62
   256
 51
90.0
 52
90.0
 71
     2
 49
0.5
 62
   256
  6
BYLAYER
 49
-0.5
 62
   256
  6
BYLAYER
  0
ACDBPLACEHOLDER
  5
F
102
{ACAD_REACTORS
330
E
102
}
330
E
  0
SCALE
  5
48
102
{ACAD_REACTORS
330
47
102
}
330
47
100
AcDbScale
 70
     0
300
1:1
140
1.0
141
1.0
290
     1
  0
SCALE
  5
49
102
{ACAD_REACTORS
330
47
102
}
330
47
100
AcDbScale
 70
     0
300
1:2
140
1.0
141
2.0
290
     0
  0
SCALE
  5
4A
102
{ACAD_REACTORS
330
47
102
}
330
47
100
AcDbScale
 70
     0
300
1:4
140
1.0
141
4.0
290
     0
  0
SCALE
  5
4B
102
{ACAD_REACTORS
330
47
102
}
330
47
100
AcDbScale
 70
     0
300
1:5
140
1.0
141
5.0
290
     0
  0
SCALE
  5
4C
102
{ACAD_REACTORS
330
47
102
}
330
47
100
AcDbScale
 70
     0
300
1:8
140
1.0
141
8.0
290
     0
  0
SCALE
  5
4D
102
{ACAD_REACTORS
330
47
102
}
330
47
100
AcDbScale
 70
     0
300
1:10
140
1.0
141
10.0
290
     0
  0
SCALE
  5
4E
102
{ACAD_REACTORS
330
47
102
}
330
47
100
AcDbScale
 70
     0
300
1:16
140
1.0
141
16.0
290
     0
  0
SCALE
  5
4F
102
{ACAD_REACTORS
330
47
102
}
330
47
100
AcDbScale
 70
     0
300
1:20
140
1.0
141
20.0
290
     0
  0
SCALE
  5
50
102
{ACAD_REACTORS
330
47
102
}
330
47
100
AcDbScale
 70
     0
300
1:30
140
1.0
141
30.0
290
     0
  0
SCALE
  5
51
102
{ACAD_REACTORS
330
47
102
}
330
47
100
AcDbScale
 70
     0
300
1:40
140
1.0
141
40.0
290
     0
  0
SCALE
  5
52
102
{ACAD_REACTORS
330
47
102
}
330
47
100
AcDbScale
 70
     0
300
1:50
140
1.0
141
50.0
290
     0
  0
SCALE
  5
53
102
{ACAD_REACTORS
330
47
102
}
330
47
100
AcDbScale
 70
     0
300
1:100
140
1.0
141
100.0
290
     0
  0
SCALE
  5
54
102
{ACAD_REACTORS
330
47
102
}
330
47
100
AcDbScale
 70
     0
300
2:1
140
2.0
141
1.0
290
     0
  0
SCALE
  5
55
102
{ACAD_REACTORS
330
47
102
}
330
47
100
AcDbScale
 70
     0
300
4:1
140
4.0
141
1.0
290
     0
  0
SCALE
  5
56
102
{ACAD_REACTORS
330
47
102
}
330
47
100
AcDbScale
 70
     0
300
8:1
140
8.0
141
1.0
290
     0
  0
SCALE
  5
57
102
{ACAD_REACTORS
330
47
102
}
330
47
100
AcDbScale
 70
     0
300
10:1
140
10.0
141
1.0
290
     0
  0
SCALE
  5
58
102
{ACAD_REACTORS
330
47
102
}
330
47
100
AcDbScale
 70
     0
300
100:1
140
100.0
141
1.0
290
     0
  0
SCALE
  5
59
102
{ACAD_REACTORS
330
47
102
}
330
47
100
AcDbScale
 70
     0
300
1/128" = 1'-0"
140
0.0078125
141
12.0
290
     0
  0
SCALE
  5
5A
102
{ACAD_REACTORS
330
47
102
}
330
47
100
AcDbScale
 70
     0
300
1/64" = 1'-0"
140
0.015625
141
12.0
290
     0
  0
SCALE
  5
5B
102
{ACAD_REACTORS
330
47
102
}
330
47
100
AcDbScale
 70
     0
300
1/32" = 1'-0"
140
0.03125
141
12.0
290
     0
  0
SCALE
  5
5C
102
{ACAD_REACTORS
330
47
102
}
330
47
100
AcDbScale
 70
     0
300
1/16" = 1'-0"
140
0.0625
141
12.0
290
     0
  0
SCALE
  5
5D
102
{ACAD_REACTORS
330
47
102
}
330
47
100
AcDbScale
 70
     0
300
3/32" = 1'-0"
140
0.09375
141
12.0
290
     0
  0
SCALE
  5
5E
102
{ACAD_REACTORS
330
47
102
}
330
47
100
AcDbScale
 70
     0
300
1/8" = 1'-0"
140
0.125
141
12.0
290
     0
  0
SCALE
  5
5F
102
{ACAD_REACTORS
330
47
102
}
330
47
100
AcDbScale
 70
     0
300
3/16" = 1'-0"
140
0.1875
141
12.0
290
     0
  0
SCALE
  5
60
102
{ACAD_REACTORS
330
47
102
}
330
47
100
AcDbScale
 70
     0
300
1/4" = 1'-0"
140
0.25
141
12.0
290
     0
  0
SCALE
  5
61
102
{ACAD_REACTORS
330
47
102
}
330
47
100
AcDbScale
 70
     0
300
3/8" = 1'-0"
140
0.375
141
12.0
290
     0
  0
SCALE
  5
62
102
{ACAD_REACTORS
330
47
102
}
330
47
100
AcDbScale
 70
     0
300
1/2" = 1'-0"
140
0.5
141
12.0
290
     0
  0
SCALE
  5
63
102
{ACAD_REACTORS
330
47
102
}
330
47
100
AcDbScale
 70
     0
300
3/4" = 1'-0"
140
0.75
141
12.0
290
     0
  0
SCALE
  5
64
102
{ACAD_REACTORS
330
47
102
}
330
47
100
AcDbScale
 70
     0
300
1" = 1'-0"
140
1.0
141
12.0
290
     0
  0
SCALE
  5
65
102
{ACAD_REACTORS
330
47
102
}
330
47
100
AcDbScale
 70
     0
300
1-1/2" = 1'-0"
140
1.5
141
12.0
290
     0
  0
SCALE
  5
66
102
{ACAD_REACTORS
330
47
102
}
330
47
100
AcDbScale
 70
     0
300
3" = 1'-0"
140
3.0
141
12.0
290
     0
  0
SCALE
  5
67
102
{ACAD_REACTORS
330
47
102
}
330
47
100
AcDbScale
 70
     0
300
6" = 1'-0"
140
6.0
141
12.0
290
     0
  0
SCALE
  5
68
102
{ACAD_REACTORS
330
47
102
}
330
47
100
AcDbScale
 70
     0
300
1'-0" = 1'-0"
140
12.0
141
12.0
290
     0
  0
ENDSEC
  0
EOF
