  0
SECTION
  2
HEADER
  9
$ACADVER
  1
AC1015
  9
$ACADMAINTVER
 70
     6
  9
$DWGCODEPAGE
  3
ANSI_949
  9
$INSBASE
 10
0.0
 20
0.0
 30
0.0
  9
$EXTMIN
 10
-39.77500000000013
 20
-49.97180738881175
 30
0.0
  9
$EXTMAX
 10
109.0072338153456
 20
37.46337500000016
 30
0.0
  9
$LIMMIN
 10
0.0
 20
0.0
  9
$LIMMAX
 10
420.0
 20
297.0
  9
$ORTHOMODE
 70
     1
  9
$REGENMODE
 70
     1
  9
$FILLMODE
 70
     1
  9
$QTEXTMODE
 70
     0
  9
$MIRRTEXT
 70
     1
  9
$LTSCALE
 40
1.0
  9
$ATTMODE
 70
     1
  9
$TEXTSIZE
 40
3.5
  9
$TRACEWID
 40
1.0
  9
$TEXTSTYLE
  7
Standard
  9
$CLAYER
  8
0
  9
$CELTYPE
  6
ByLayer
  9
$CECOLOR
 62
   256
  9
$CELTSCALE
 40
1.0
  9
$DISPSILH
 70
     0
  9
$DIMSCALE
 40
1.0
  9
$DIMASZ
 40
3.302
  9
$DIMEXO
 40
1.0
  9
$DIMDLI
 40
3.75
  9
$DIMRND
 40
0.0
  9
$DIMDLE
 40
0.0
  9
$DIMEXE
 40
1.0
  9
$DIMTP
 40
0.0
  9
$DIMTM
 40
0.0
  9
$DIMTXT
 40
3.5
  9
$DIMCEN
 40
2.5
  9
$DIMTSZ
 40
0.0
  9
$DIMTOL
 70
     0
  9
$DIMLIM
 70
     0
  9
$DIMTIH
 70
     1
  9
$DIMTOH
 70
     1
  9
$DIMSE1
 70
     0
  9
$DIMSE2
 70
     0
  9
$DIMTAD
 70
     1
  9
$DIMZIN
 70
     0
  9
$DIMBLK
  1

  9
$DIMASO
 70
     1
  9
$DIMSHO
 70
     1
  9
$DIMPOST
  1

  9
$DIMAPOST
  1

  9
$DIMALT
 70
     0
  9
$DIMALTD
 70
     3
  9
$DIMALTF
 40
0.0393700787401575
  9
$DIMLFAC
 40
1.0
  9
$DIMTOFL
 70
     1
  9
$DIMTVP
 40
0.0
  9
$DIMTIX
 70
     0
  9
$DIMSOXD
 70
     0
  9
$DIMSAH
 70
     0
  9
$DIMBLK1
  1

  9
$DIMBLK2
  1

  9
$DIMSTYLE
  2
ISO-25
  9
$DIMCLRD
 70
     0
  9
$DIMCLRE
 70
     0
  9
$DIMCLRT
 70
     0
  9
$DIMTFAC
 40
1.0
  9
$DIMGAP
 40
1.524
  9
$DIMJUST
 70
     0
  9
$DIMSD1
 70
     0
  9
$DIMSD2
 70
     0
  9
$DIMTOLJ
 70
     0
  9
$DIMTZIN
 70
     0
  9
$DIMALTZ
 70
     0
  9
$DIMALTTZ
 70
     0
  9
$DIMUPT
 70
     0
  9
$DIMDEC
 70
     2
  9
$DIMTDEC
 70
     2
  9
$DIMALTU
 70
     2
  9
$DIMALTTD
 70
     3
  9
$DIMTXSTY
  7
Standard
  9
$DIMAUNIT
 70
     0
  9
$DIMADEC
 70
     2
  9
$DIMALTRND
 40
0.0
  9
$DIMAZIN
 70
     0
  9
$DIMDSEP
 70
    44
  9
$DIMATFIT
 70
     3
  9
$DIMFRAC
 70
     0
  9
$DIMLDRBLK
  1

  9
$DIMLUNIT
 70
     2
  9
$DIMLWD
 70
    -2
  9
$DIMLWE
 70
    -2
  9
$DIMTMOVE
 70
     0
  9
$LUNITS
 70
     2
  9
$LUPREC
 70
     2
  9
$SKETCHINC
 40
1.0
  9
$FILLETRAD
 40
10.0
  9
$AUNITS
 70
     0
  9
$AUPREC
 70
     2
  9
$MENU
  1
.
  9
$ELEVATION
 40
0.0
  9
$PELEVATION
 40
0.0
  9
$THICKNESS
 40
0.0
  9
$LIMCHECK
 70
     0
  9
$CHAMFERA
 40
0.0
  9
$CHAMFERB
 40
0.0
  9
$CHAMFERC
 40
0.0
  9
$CHAMFERD
 40
0.0
  9
$SKPOLY
 70
     0
  9
$TDCREATE
 40
2458320.374897164
  9
$TDUCREATE
 40
2458319.999897164
  9
$TDUPDATE
 40
2458324.636243819
  9
$TDUUPDATE
 40
2458324.261243819
  9
$TDINDWG
 40
0.0019174306
  9
$TDUSRTIMER
 40
0.001917419
  9
$USRTIMER
 70
     1
  9
$ANGBASE
 50
0.0
  9
$ANGDIR
 70
     0
  9
$PDMODE
 70
     0
  9
$PDSIZE
 40
-1.0
  9
$PLINEWID
 40
0.0
  9
$SPLFRAME
 70
     0
  9
$SPLINETYPE
 70
     6
  9
$SPLINESEGS
 70
     8
  9
$HANDSEED
  5
1EF
  9
$SURFTAB1
 70
     6
  9
$SURFTAB2
 70
     6
  9
$SURFTYPE
 70
     6
  9
$SURFU
 70
     6
  9
$SURFV
 70
     6
  9
$UCSBASE
  2

  9
$UCSNAME
  2

  9
$UCSORG
 10
0.0
 20
0.0
 30
0.0
  9
$UCSXDIR
 10
1.0
 20
0.0
 30
0.0
  9
$UCSYDIR
 10
0.0
 20
1.0
 30
0.0
  9
$UCSORTHOREF
  2

  9
$UCSORTHOVIEW
 70
     0
  9
$UCSORGTOP
 10
0.0
 20
0.0
 30
0.0
  9
$UCSORGBOTTOM
 10
0.0
 20
0.0
 30
0.0
  9
$UCSORGLEFT
 10
0.0
 20
0.0
 30
0.0
  9
$UCSORGRIGHT
 10
0.0
 20
0.0
 30
0.0
  9
$UCSORGFRONT
 10
0.0
 20
0.0
 30
0.0
  9
$UCSORGBACK
 10
0.0
 20
0.0
 30
0.0
  9
$PUCSBASE
  2

  9
$PUCSNAME
  2

  9
$PUCSORG
 10
0.0
 20
0.0
 30
0.0
  9
$PUCSXDIR
 10
1.0
 20
0.0
 30
0.0
  9
$PUCSYDIR
 10
0.0
 20
1.0
 30
0.0
  9
$PUCSORTHOREF
  2

  9
$PUCSORTHOVIEW
 70
     0
  9
$PUCSORGTOP
 10
0.0
 20
0.0
 30
0.0
  9
$PUCSORGBOTTOM
 10
0.0
 20
0.0
 30
0.0
  9
$PUCSORGLEFT
 10
0.0
 20
0.0
 30
0.0
  9
$PUCSORGRIGHT
 10
0.0
 20
0.0
 30
0.0
  9
$PUCSORGFRONT
 10
0.0
 20
0.0
 30
0.0
  9
$PUCSORGBACK
 10
0.0
 20
0.0
 30
0.0
  9
$USERI1
 70
     0
  9
$USERI2
 70
     0
  9
$USERI3
 70
     0
  9
$USERI4
 70
     0
  9
$USERI5
 70
     0
  9
$USERR1
 40
0.0
  9
$USERR2
 40
0.0
  9
$USERR3
 40
0.0
  9
$USERR4
 40
0.0
  9
$USERR5
 40
0.0
  9
$WORLDVIEW
 70
     1
  9
$SHADEDGE
 70
     3
  9
$SHADEDIF
 70
    70
  9
$TILEMODE
 70
     1
  9
$MAXACTVP
 70
    64
  9
$PINSBASE
 10
0.0
 20
0.0
 30
0.0
  9
$PLIMCHECK
 70
     0
  9
$PEXTMIN
 10
1.000000000000000E+20
 20
1.000000000000000E+20
 30
1.000000000000000E+20
  9
$PEXTMAX
 10
-1.000000000000000E+20
 20
-1.000000000000000E+20
 30
-1.000000000000000E+20
  9
$PLIMMIN
 10
0.0
 20
0.0
  9
$PLIMMAX
 10
0.0
 20
0.0
  9
$UNITMODE
 70
     0
  9
$VISRETAIN
 70
     1
  9
$PLINEGEN
 70
     0
  9
$PSLTSCALE
 70
     1
  9
$TREEDEPTH
 70
  3020
  9
$CMLSTYLE
  2
Standard
  9
$CMLJUST
 70
     0
  9
$CMLSCALE
 40
20.0
  9
$PROXYGRAPHICS
 70
     1
  9
$MEASUREMENT
 70
     1
  9
$CELWEIGHT
370
    -1
  9
$ENDCAPS
280
     0
  9
$JOINSTYLE
280
     0
  9
$LWDISPLAY
290
     1
  9
$INSUNITS
 70
     4
  9
$HYPERLINKBASE
  1

  9
$STYLESHEET
  1

  9
$XEDIT
290
     1
  9
$CEPSNTYPE
380
     0
  9
$PSTYLEMODE
290
     1
  9
$FINGERPRINTGUID
  2
{003EC4AE-0EC9-4DED-9633-4643ED2A4D3E}
  9
$VERSIONGUID
  2
{FAEB1C32-E019-11D5-929B-00C0DF256EC4}
  9
$EXTNAMES
290
     1
  9
$PSVPSCALE
 40
0.0
  9
$OLESTARTUP
290
     0
  0
ENDSEC
  0
SECTION
  2
CLASSES
  0
CLASS
  1
ACDBDICTIONARYWDFLT
  2
AcDbDictionaryWithDefault
  3
ObjectDBX Classes
 90
        0
280
     0
281
     0
  0
CLASS
  1
VISUALSTYLE
  2
AcDbVisualStyle
  3
ObjectDBX Classes
 90
     4095
280
     0
281
     0
  0
CLASS
  1
MATERIAL
  2
AcDbMaterial
  3
ObjectDBX Classes
 90
     1153
280
     0
281
     0
  0
CLASS
  1
SCALE
  2
AcDbScale
  3
ObjectDBX Classes
 90
     1153
280
     0
281
     0
  0
CLASS
  1
SUN
  2
AcDbSun
  3
SCENEOE
 90
     1153
280
     0
281
     0
  0
CLASS
  1
ACDBPLACEHOLDER
  2
AcDbPlaceHolder
  3
ObjectDBX Classes
 90
        0
280
     0
281
     0
  0
CLASS
  1
LAYOUT
  2
AcDbLayout
  3
ObjectDBX Classes
 90
        0
280
     0
281
     0
  0
CLASS
  1
TABLESTYLE
  2
AcDbTableStyle
  3
ObjectDBX Classes
 90
     4095
280
     0
281
     0
  0
CLASS
  1
MLEADERSTYLE
  2
AcDbMLeaderStyle
  3
ACDB_MLEADERSTYLE_CLASS
 90
     4095
280
     0
281
     0
  0
ENDSEC
  0
SECTION
  2
TABLES
  0
TABLE
  2
VPORT
  5
8
330
0
100
AcDbSymbolTable
 70
     1
  0
VPORT
  5
29
330
8
100
AcDbSymbolTableRecord
100
AcDbViewportTableRecord
  2
*Active
 70
     0
 10
0.0
 20
0.0
 11
1.0
 21
1.0
 12
34.61611690767273
 22
-6.254216194405792
 13
0.0
 23
0.0
 14
10.0
 24
10.0
 15
10.0
 25
10.0
 16
0.0
 26
0.0
 36
1.0
 17
0.0
 27
0.0
 37
0.0
 40
89.18388603658815
 41
1.782762691853601
 42
50.0
 43
0.0
 44
0.0
 50
0.0
 51
0.0
 71
    16
 72
  2000
 73
     1
 74
     3
 75
     0
 76
     0
 77
     0
 78
     0
281
     0
 65
     1
110
0.0
120
0.0
130
0.0
111
1.0
121
0.0
131
0.0
112
0.0
122
1.0
132
0.0
 79
     0
146
0.0
  0
ENDTAB
  0
TABLE
  2
LTYPE
  5
5
330
0
100
AcDbSymbolTable
 70
     6
  0
LTYPE
  5
14
330
5
100
AcDbSymbolTableRecord
100
AcDbLinetypeTableRecord
  2
ByBlock
 70
     0
  3

 72
    65
 73
     0
 40
0.0
  0
LTYPE
  5
15
330
5
100
AcDbSymbolTableRecord
100
AcDbLinetypeTableRecord
  2
ByLayer
 70
     0
  3

 72
    65
 73
     0
 40
0.0
  0
LTYPE
  5
16
330
5
100
AcDbSymbolTableRecord
100
AcDbLinetypeTableRecord
  2
Continuous
 70
     0
  3
Solid line
 72
    65
 73
     0
 40
0.0
  0
LTYPE
  5
6A
330
5
100
AcDbSymbolTableRecord
100
AcDbLinetypeTableRecord
  2
HIDDEN
 70
     0
  3
Hidden __ __ __ __ __ __ __ __ __ __ __ __ __ __
 72
    65
 73
     2
 40
1.905
 49
1.27
 74
     0
 49
-0.635
 74
     0
  0
LTYPE
  5
6B
330
5
100
AcDbSymbolTableRecord
100
AcDbLinetypeTableRecord
  2
PHANTOM
 70
     0
  3
Phantom ______  __  __  ______  __  __  ______
 72
    65
 73
     6
 40
12.7
 49
6.35
 74
     0
 49
-1.27
 74
     0
 49
1.27
 74
     0
 49
-1.27
 74
     0
 49
1.27
 74
     0
 49
-1.27
 74
     0
  0
LTYPE
  5
6C
330
5
100
AcDbSymbolTableRecord
100
AcDbLinetypeTableRecord
  2
CENTER
 70
     0
  3
Center ____ _ ____ _ ____ _ ____ _ ____ _ ____
 72
    65
 73
     4
 40
10.16
 49
6.35
 74
     0
 49
-1.27
 74
     0
 49
1.27
 74
     0
 49
-1.27
 74
     0
  0
LTYPE
  5
6D
330
5
100
AcDbSymbolTableRecord
100
AcDbLinetypeTableRecord
  2
CENTERX2
 70
     0
  3
Center (2x) ________  __  ________  __  _____
 72
    65
 73
     4
 40
20.32
 49
12.7
 74
     0
 49
-2.54
 74
     0
 49
2.54
 74
     0
 49
-2.54
 74
     0
  0
LTYPE
  5
6E
330
5
100
AcDbSymbolTableRecord
100
AcDbLinetypeTableRecord
  2
DOT2
 70
     0
  3
Dot (.5x) ........................................
 72
    65
 73
     2
 40
0.635
 49
0.0
 74
     0
 49
-0.635
 74
     0
  0
ENDTAB
  0
TABLE
  2
LAYER
  5
2
102
{ACAD_XDICTIONARY
360
183
102
}
330
0
100
AcDbSymbolTable
 70
    18
  0
LAYER
  5
10
330
2
100
AcDbSymbolTableRecord
100
AcDbLayerTableRecord
  2
0
 70
     0
 62
     7
  6
Continuous
370
    -3
390
F
  0
LAYER
  5
6F
330
2
100
AcDbSymbolTableRecord
100
AcDbLayerTableRecord
  2
FORMAT
 70
     0
 62
     2
  6
Continuous
370
    -3
390
F
  0
LAYER
  5
70
330
2
100
AcDbSymbolTableRecord
100
AcDbLayerTableRecord
  2
외형선
 70
     0
 62
     4
  6
Continuous
370
    30
390
F
  0
LAYER
  5
71
330
2
100
AcDbSymbolTableRecord
100
AcDbLayerTableRecord
  2
숨은선
 70
     0
 62
     2
  6
HIDDEN
370
    15
390
F
  0
LAYER
  5
72
330
2
100
AcDbSymbolTableRecord
100
AcDbLayerTableRecord
  2
중심선
 70
     0
 62
     1
  6
CENTERX2
370
    -3
390
F
  0
LAYER
  5
73
330
2
100
AcDbSymbolTableRecord
100
AcDbLayerTableRecord
  2
파단선
 70
     0
 62
     4
  6
Continuous
370
    -3
390
F
  0
LAYER
  5
74
330
2
100
AcDbSymbolTableRecord
100
AcDbLayerTableRecord
  2
해칭선
 70
     0
 62
   100
  6
Continuous
370
    -3
390
F
  0
LAYER
  5
75
330
2
100
AcDbSymbolTableRecord
100
AcDbLayerTableRecord
  2
가는실선
 70
     0
 62
     4
  6
Continuous
370
    -3
390
F
  0
LAYER
  5
76
330
2
100
AcDbSymbolTableRecord
100
AcDbLayerTableRecord
  2
치수_보조선
 70
     0
 62
     4
  6
Continuous
370
    -3
390
F
  0
LAYER
  5
77
330
2
100
AcDbSymbolTableRecord
100
AcDbLayerTableRecord
  2
치수문자_일반주서
 70
     0
 62
     7
  6
Continuous
370
    15
390
F
  0
LAYER
  5
78
330
2
100
AcDbSymbolTableRecord
100
AcDbLayerTableRecord
  2
개별주서
 70
     0
 62
   100
  6
Continuous
370
    30
390
F
  0
LAYER
  5
79
330
2
100
AcDbSymbolTableRecord
100
AcDbLayerTableRecord
  2
중간선
 70
     0
 62
     2
  6
Continuous
370
    15
390
F
  0
LAYER
  5
7A
330
2
100
AcDbSymbolTableRecord
100
AcDbLayerTableRecord
  2
윤곽선
 70
     0
 62
     3
  6
Continuous
370
    40
390
F
  0
LAYER
  5
7B
330
2
100
AcDbSymbolTableRecord
100
AcDbLayerTableRecord
  2
중심마크
 70
     0
 62
   100
  6
Continuous
370
    30
390
F
  0
LAYER
  5
7C
330
2
100
AcDbSymbolTableRecord
100
AcDbLayerTableRecord
  2
가상선
 70
     0
 62
     4
  6
PHANTOM
370
    -3
390
F
  0
LAYER
  5
7D
330
2
100
AcDbSymbolTableRecord
100
AcDbLayerTableRecord
  2
특수지정선
 70
     0
 62
     5
  6
CENTERX2
370
    60
390
F
  0
LAYER
  5
7E
330
2
100
AcDbSymbolTableRecord
100
AcDbLayerTableRecord
  2
참조1
 70
     0
 62
    -4
  6
Continuous
370
    -3
390
F
  0
LAYER
  5
14C
330
2
100
AcDbSymbolTableRecord
100
AcDbLayerTableRecord
  2
Defpoints
 70
     0
 62
     7
  6
Continuous
290
     0
370
    -3
390
F
  0
ENDTAB
  0
TABLE
  2
STYLE
  5
3
330
0
100
AcDbSymbolTable
 70
     2
  0
STYLE
  5
11
330
3
100
AcDbSymbolTableRecord
100
AcDbTextStyleTableRecord
  2
Standard
 70
     0
 40
0.0
 41
1.0
 50
0.0
 71
     0
 42
3.5
  3
txt
  4

  0
STYLE
  5
94
330
3
100
AcDbSymbolTableRecord
100
AcDbTextStyleTableRecord
  2
SLDTEXTSTYLE0
 70
     0
 40
0.0
 41
0.75
 50
0.0
 71
     0
 42
3.5
  3
TXT
  4

  0
ENDTAB
  0
TABLE
  2
VIEW
  5
6
330
0
100
AcDbSymbolTable
 70
     0
  0
ENDTAB
  0
TABLE
  2
UCS
  5
7
330
0
100
AcDbSymbolTable
 70
     0
  0
ENDTAB
  0
TABLE
  2
APPID
  5
9
330
0
100
AcDbSymbolTable
 70
     2
  0
APPID
  5
12
330
9
100
AcDbSymbolTableRecord
100
AcDbRegAppTableRecord
  2
ACAD
 70
     0
  0
APPID
  5
153
330
9
100
AcDbSymbolTableRecord
100
AcDbRegAppTableRecord
  2
PE_URL
 70
     0
  0
ENDTAB
  0
TABLE
  2
DIMSTYLE
  5
A
330
0
100
AcDbSymbolTable
 70
     4
100
AcDbDimStyleTable
  0
DIMSTYLE
105
27
330
A
100
AcDbSymbolTableRecord
100
AcDbDimStyleTableRecord
  2
ISO-25
 70
     0
 41
2.5
 42
0.625
 43
3.75
 44
1.25
 73
     0
 74
     0
 77
     1
 78
     8
140
2.5
141
2.5
143
0.03937007874016
147
0.625
171
     3
172
     1
178
     0
271
     2
272
     2
274
     3
278
    44
283
     0
284
     8
340
11
  0
DIMSTYLE
105
CA
330
A
100
AcDbSymbolTableRecord
100
AcDbDimStyleTableRecord
  2
SLDDIMSTYLE0
 70
     0
 41
3.302
 44
0.0
 45
0.000000001
 73
     0
 74
     0
 77
     1
 78
    12
 79
     3
140
3.5
143
0.0393700787401575
147
0.875
148
0.000000001
170
     1
173
     1
178
     0
271
     2
272
     2
276
     2
284
    12
340
94
  0
DIMSTYLE
105
DF
330
A
100
AcDbSymbolTableRecord
100
AcDbDimStyleTableRecord
  2
SLDDIMSTYLE1
 70
     0
 41
3.302
 44
0.0
 45
0.000000001
 73
     0
 74
     0
 77
     1
 78
     4
 79
     1
140
3.5
143
0.0393700787401575
147
0.875
148
0.000000001
170
     1
173
     1
178
     0
271
     2
272
     2
276
     2
284
    12
340
94
  0
DIMSTYLE
105
F3
102
{ACAD_REACTORS
330
F2
330
107
330
172
330
C9
330
DE
102
}
330
A
100
AcDbSymbolTableRecord
100
AcDbDimStyleTableRecord
  2
SLDDIMSTYLE2
 70
     0
 41
3.302
 44
0.0
 45
0.000000001
 73
     0
 74
     0
 77
     1
 78
    12
 79
     3
140
3.5
143
0.0393700787401575
147
0.875
148
0.000000001
170
     1
172
     1
173
     1
178
     0
271
     2
272
     2
276
     2
284
    12
289
     0
340
94
  0
ENDTAB
  0
TABLE
  2
BLOCK_RECORD
  5
1
330
0
100
AcDbSymbolTable
 70
    10
  0
BLOCK_RECORD
  5
1F
330
1
100
AcDbSymbolTableRecord
100
AcDbBlockTableRecord
  2
*Model_Space
340
22
  0
BLOCK_RECORD
  5
1B
330
1
100
AcDbSymbolTableRecord
100
AcDbBlockTableRecord
  2
*Paper_Space
340
1E
  0
BLOCK_RECORD
  5
23
330
1
100
AcDbSymbolTableRecord
100
AcDbBlockTableRecord
  2
*Paper_Space0
340
26
  0
BLOCK_RECORD
  5
7F
330
1
100
AcDbSymbolTableRecord
100
AcDbBlockTableRecord
  2
블럭10
340
0
102
{BLKREFS
331
C2
102
}
  0
BLOCK_RECORD
  5
CB
330
1
100
AcDbSymbolTableRecord
100
AcDbBlockTableRecord
  2
_D
340
0
  0
BLOCK_RECORD
  5
E0
330
1
100
AcDbSymbolTableRecord
100
AcDbBlockTableRecord
  2
_D_1
340
0
  0
BLOCK_RECORD
  5
F4
330
1
100
AcDbSymbolTableRecord
100
AcDbBlockTableRecord
  2
_D_2
340
0
  0
BLOCK_RECORD
  5
108
330
1
100
AcDbSymbolTableRecord
100
AcDbBlockTableRecord
  2
_D_3
340
0
  0
BLOCK_RECORD
  5
122
330
1
100
AcDbSymbolTableRecord
100
AcDbBlockTableRecord
  2
SW_DOWELSYMBOL_0
340
0
102
{BLKREFS
331
128
102
}
  0
BLOCK_RECORD
  5
187
330
1
100
AcDbSymbolTableRecord
100
AcDbBlockTableRecord
  2
*D8
340
0
  0
BLOCK_RECORD
  5
199
330
1
100
AcDbSymbolTableRecord
100
AcDbBlockTableRecord
  2
*D9
340
0
  0
ENDTAB
  0
ENDSEC
  0
SECTION
  2
BLOCKS
  0
BLOCK
  5
20
330
1F
100
AcDbEntity
  8
0
100
AcDbBlockBegin
  2
*Model_Space
 70
     0
 10
0.0
 20
0.0
 30
0.0
  3
*Model_Space
  1

  0
ENDBLK
  5
21
330
1F
100
AcDbEntity
  8
0
100
AcDbBlockEnd
  0
BLOCK
  5
1C
330
1B
100
AcDbEntity
 67
     1
  8
0
100
AcDbBlockBegin
  2
*Paper_Space
 70
     0
 10
0.0
 20
0.0
 30
0.0
  3
*Paper_Space
  1

  0
ENDBLK
  5
1D
330
1B
100
AcDbEntity
 67
     1
  8
0
100
AcDbBlockEnd
  0
BLOCK
  5
24
330
23
100
AcDbEntity
  8
0
100
AcDbBlockBegin
  2
*Paper_Space0
 70
     0
 10
0.0
 20
0.0
 30
0.0
  3
*Paper_Space0
  1

  0
ENDBLK
  5
25
330
23
100
AcDbEntity
  8
0
100
AcDbBlockEnd
  0
BLOCK
  5
80
330
7F
100
AcDbEntity
  8
0
100
AcDbBlockBegin
  2
블럭10
 70
     2
 10
0.0
 20
0.0
 30
0.0
  3
블럭10
  1

  0
ELLIPSE
  5
82
330
7F
100
AcDbEntity
  8
중심선
100
AcDbEllipse
 10
20.54032771741204
 20
12.0471743016438
 30
0.0
 11
6.600054785286829
 21
-1.261213355974178E-13
 31
0.0
210
0.0
220
0.0
230
1.0
 40
0.636358354079598
 41
0.9219305317359503
 42
6.513795318482858
  0
ELLIPSE
  5
83
330
7F
100
AcDbEntity
  8
중심선
100
AcDbEllipse
 10
20.54032771746488
 20
12.04717430159265
 30
0.0
 11
3.960054785062283
 21
1.540847449632565E-10
 31
0.0
210
0.0
220
0.0
230
1.0
 40
0.3939339440162632
 41
1.131841032648279
 42
5.62031148352944
  0
LINE
  5
84
330
7F
100
AcDbEntity
  8
중심선
100
AcDbLine
 10
2.268634060543552
 20
16.24717430164393
 30
0.0
 11
5.714909304380834
 21
16.24717430164393
 31
0.0
  0
LINE
  5
85
330
7F
100
AcDbEntity
  8
중심선
100
AcDbLine
 10
5.245725140726316
 20
7.84717430164391
 30
0.0
 11
8.692000384563599
 21
7.84717430164391
 31
0.0
  0
LINE
  5
86
330
7F
100
AcDbEntity
  8
중심선
100
AcDbLine
 10
15.74043728645272
 20
16.24717430164393
 30
0.0
 11
8.692000384563599
 21
7.84717430164391
 31
0.0
  0
LINE
  5
87
330
7F
100
AcDbEntity
  8
중심선
100
AcDbLine
 10
0.1404042013395286
 20
13.71084872107135
 30
0.0
 11
3.58671253028996
 21
13.71088815037384
 31
0.0
  0
LINE
  5
88
330
7F
100
AcDbEntity
  8
중심선
100
AcDbLine
 10
2.750260043222114
 20
10.84717430164391
 30
0.0
 11
6.196535287059397
 21
10.84717430164391
 31
0.0
  0
LINE
  5
89
330
7F
100
AcDbEntity
  8
중심선
100
AcDbLine
 10
12.29416204261559
 20
16.24717430164393
 30
0.0
 11
5.245725140726316
 21
7.84717430164391
 31
0.0
  0
LINE
  5
8A
330
7F
100
AcDbEntity
  8
중심선
100
AcDbLine
 10
10.72767329541681
 20
16.24717430164393
 30
0.0
 11
6.196535287059397
 21
10.84717430164391
 31
0.0
  0
LINE
  5
8B
330
7F
100
AcDbEntity
  8
중심선
100
AcDbLine
 10
7.28139805157953
 20
16.24717430164393
 30
0.0
 11
2.750260043222114
 21
10.84717430164391
 31
0.0
  0
LINE
  5
8C
330
7F
100
AcDbEntity
  8
중심선
100
AcDbLine
 10
5.714909304380834
 20
16.24717430164393
 30
0.0
 11
3.58671253028996
 21
13.71088815037384
 31
0.0
  0
LINE
  5
8D
330
7F
100
AcDbEntity
  8
중심선
100
AcDbLine
 10
2.268634060543552
 20
16.24717430164393
 30
0.0
 11
0.1404042013395286
 21
13.71084872107135
 31
0.0
  0
LINE
  5
8E
330
7F
100
AcDbEntity
  8
중심선
100
AcDbLine
 10
7.28139805157953
 20
16.24717430164393
 30
0.0
 11
10.72767329541681
 21
16.24717430164393
 31
0.0
  0
LINE
  5
8F
330
7F
100
AcDbEntity
  8
중심선
100
AcDbLine
 10
12.29416204261559
 20
16.24717430164393
 30
0.0
 11
15.74043728645272
 21
16.24717430164393
 31
0.0
  0
LINE
  5
90
330
7F
100
AcDbEntity
  8
중심선
100
AcDbLine
 10
19.22036997980202
 20
11.08717430171403
 30
0.0
 11
23.66174974927406
 21
11.08717430171406
 31
0.0
  0
LINE
  5
91
330
7F
100
AcDbEntity
  8
중심선
100
AcDbLine
 10
19.22039502424796
 20
13.00717430171391
 30
0.0
 11
19.22036997980202
 21
11.08717430171403
 31
0.0
  0
LINE
  5
92
330
7F
100
AcDbEntity
  8
중심선
100
AcDbLine
 10
19.22039502424796
 20
13.00717430171391
 30
0.0
 11
26.96566020931264
 21
13.00717430171391
 31
0.0
  0
LINE
  5
93
330
7F
100
AcDbEntity
  8
중심선
100
AcDbLine
 10
22.22332737316547
 20
13.45928029700563
 30
0.0
 11
24.52862924686651
 21
15.39360700705356
 31
0.0
  0
ATTDEF
  5
95
330
7F
100
AcDbEntity
  8
FORMAT
 62
     2
100
AcDbText
 10
4.408487351596664
 20
2.075366912832191
 30
0.0
 40
4.233333333333333
  1
E5252010
 41
0.75
  7
SLDTEXTSTYLE0
 11
4.408487351596664
 21
-0.0412997538344756
 31
0.0
100
AcDbAttributeDefinition
  3

  2
AUTOATTR0
 70
     0
 74
     1
  0
ENDBLK
  5
81
330
7F
100
AcDbEntity
  8
0
100
AcDbBlockEnd
  0
BLOCK
  5
CC
330
CB
100
AcDbEntity
  8
0
100
AcDbBlockBegin
  2
_D
 70
     0
 10
0.0
 20
0.0
 30
0.0
  3
_D
  1

  0
LINE
  5
CE
330
CB
100
AcDbEntity
  8
치수문자_일반주서
 62
     0
370
    -2
100
AcDbLine
 10
25.4
 20
2.046874999999998
 30
0.0
 11
25.4
 21
12.43482362961351
 31
0.0
  0
LINE
  5
CF
330
CB
100
AcDbEntity
  8
치수문자_일반주서
 62
     0
370
    -2
100
AcDbLine
 10
17.46249999999999
 20
2.046875000000011
 30
0.0
 11
17.46249999999999
 21
12.43482362961351
 31
0.0
  0
LINE
  5
D0
330
CB
100
AcDbEntity
  8
치수문자_일반주서
 62
     0
370
    -2
100
AcDbLine
 10
25.4
 20
12.43482362961351
 30
0.0
 11
57.379
 21
12.43482362961351
 31
0.0
  0
LINE
  5
D1
330
CB
100
AcDbEntity
  8
치수문자_일반주서
 62
     0
370
    -2
100
AcDbLine
 10
25.4
 20
12.43482362961351
 30
0.0
 11
17.46249999999999
 21
12.43482362961351
 31
0.0
  0
LINE
  5
D2
330
CB
100
AcDbEntity
  8
치수문자_일반주서
 62
     0
370
    -2
100
AcDbLine
 10
28.702
 20
12.43482362961351
 30
0.0
 11
32.004
 21
12.43482362961351
 31
0.0
  0
LINE
  5
D3
330
CB
100
AcDbEntity
  8
치수문자_일반주서
 62
     0
370
    -2
100
AcDbLine
 10
14.16049999999999
 20
12.43482362961351
 30
0.0
 11
10.85849999999999
 21
12.43482362961351
 31
0.0
  0
SOLID
  5
D4
330
CB
100
AcDbEntity
  8
치수문자_일반주서
 62
     0
100
AcDbTrace
 10
28.702
 20
12.98515696294684
 30
0.0
 11
28.702
 21
11.88449029628018
 31
0.0
 12
25.4
 22
12.43482362961351
 32
0.0
 13
25.4
 23
12.43482362961351
 33
0.0
  0
SOLID
  5
D5
330
CB
100
AcDbEntity
  8
치수문자_일반주서
 62
     0
100
AcDbTrace
 10
14.16049999999999
 20
11.88449029628018
 30
0.0
 11
14.16049999999999
 21
12.98515696294684
 31
0.0
 12
17.46249999999999
 22
12.43482362961351
 32
0.0
 13
17.46249999999999
 23
12.43482362961351
 33
0.0
  0
MTEXT
  5
D6
330
CB
100
AcDbEntity
  8
치수문자_일반주서
 62
     0
100
AcDbMText
 10
44.6915
 20
16.80982362961351
 30
0.0
 40
3.5
 41
0.0
 71
     2
 72
     1
  1
\A1;7.94 [5/16]
  7
SLDTEXTSTYLE0
 73
     1
 44
1.0
  0
POINT
  5
D7
330
CB
100
AcDbEntity
  8
Defpoints
 62
     0
100
AcDbPoint
 10
25.4
 20
1.984374999999998
 30
0.0
  0
POINT
  5
D8
330
CB
100
AcDbEntity
  8
Defpoints
 62
     0
100
AcDbPoint
 10
17.46249999999999
 20
1.984375000000011
 30
0.0
  0
POINT
  5
D9
330
CB
100
AcDbEntity
  8
Defpoints
 62
     0
100
AcDbPoint
 10
17.46249999999999
 20
12.43482362961351
 30
0.0
  0
ENDBLK
  5
CD
330
CB
100
AcDbEntity
  8
0
100
AcDbBlockEnd
  0
BLOCK
  5
E1
330
E0
100
AcDbEntity
  8
0
100
AcDbBlockBegin
  2
_D_1
 70
     0
 10
0.0
 20
0.0
 30
0.0
  3
_D_1
  1

  0
LINE
  5
E3
330
E0
100
AcDbEntity
  8
치수문자_일반주서
 62
     0
370
    -2
100
AcDbLine
 10
25.4
 20
2.046874999999998
 30
0.0
 11
25.4
 21
22.38125
 31
0.0
  0
LINE
  5
E4
330
E0
100
AcDbEntity
  8
치수문자_일반주서
 62
     0
370
    -2
100
AcDbLine
 10
-25.40000000000001
 20
2.046874999999998
 30
0.0
 11
-25.40000000000001
 21
22.38125
 31
0.0
  0
LINE
  5
E5
330
E0
100
AcDbEntity
  8
치수문자_일반주서
 62
     0
370
    -2
100
AcDbLine
 10
22.098
 20
22.38125
 30
0.0
 11
-22.09800000000001
 21
22.38125
 31
0.0
  0
SOLID
  5
E6
330
E0
100
AcDbEntity
  8
치수문자_일반주서
 62
     0
100
AcDbTrace
 10
22.098
 20
21.83091666666667
 30
0.0
 11
22.098
 21
22.93158333333334
 31
0.0
 12
25.4
 22
22.38125
 32
0.0
 13
25.4
 23
22.38125
 33
0.0
  0
SOLID
  5
E7
330
E0
100
AcDbEntity
  8
치수문자_일반주서
 62
     0
100
AcDbTrace
 10
-22.09800000000001
 20
22.93158333333334
 30
0.0
 11
-22.09800000000001
 21
21.83091666666667
 31
0.0
 12
-25.40000000000001
 22
22.38125
 32
0.0
 13
-25.40000000000001
 23
22.38125
 33
0.0
  0
MTEXT
  5
E8
330
E0
100
AcDbEntity
  8
치수문자_일반주서
 62
     0
100
AcDbMText
 10
0.0
 20
26.75625
 30
0.0
 40
3.5
 41
0.0
 71
     2
 72
     1
  1
\A1;50.8 [2]
  7
SLDTEXTSTYLE0
 73
     1
 44
1.0
  0
POINT
  5
E9
330
E0
100
AcDbEntity
  8
Defpoints
 62
     0
100
AcDbPoint
 10
25.4
 20
1.984374999999998
 30
0.0
  0
POINT
  5
EA
330
E0
100
AcDbEntity
  8
Defpoints
 62
     0
100
AcDbPoint
 10
-25.40000000000001
 20
1.984374999999998
 30
0.0
  0
POINT
  5
EB
330
E0
100
AcDbEntity
  8
Defpoints
 62
     0
100
AcDbPoint
 10
-25.40000000000001
 20
22.38125
 30
0.0
  0
ENDBLK
  5
E2
330
E0
100
AcDbEntity
  8
0
100
AcDbBlockEnd
  0
BLOCK
  5
F5
330
F4
100
AcDbEntity
  8
0
100
AcDbBlockBegin
  2
_D_2
 70
     0
 10
0.0
 20
0.0
 30
0.0
  3
_D_2
  1

  0
LINE
  5
F7
330
F4
100
AcDbEntity
  8
치수문자_일반주서
 62
     0
370
    -2
100
AcDbLine
 10
25.4625
 20
1.984374999999998
 30
0.0
 11
64.75602745415542
 21
1.984375000000142
 31
0.0
  0
LINE
  5
F8
330
F4
100
AcDbEntity
  8
치수문자_일반주서
 62
     0
370
    -2
100
AcDbLine
 10
25.4625
 20
-1.984375000000002
 30
0.0
 11
64.75602745415543
 21
-1.984374999999858
 31
0.0
  0
LINE
  5
F9
330
F4
100
AcDbEntity
  8
치수문자_일반주서
 62
     0
370
    -2
100
AcDbLine
 10
64.75602745415542
 20
1.984375000000142
 30
0.0
 11
64.75602745415529
 21
37.46337500000016
 31
0.0
  0
LINE
  5
FA
330
F4
100
AcDbEntity
  8
치수문자_일반주서
 62
     0
370
    -2
100
AcDbLine
 10
64.75602745415542
 20
1.984375000000142
 30
0.0
 11
64.75602745415543
 21
-1.984374999999858
 31
0.0
  0
LINE
  5
FB
330
F4
100
AcDbEntity
  8
치수문자_일반주서
 62
     0
370
    -2
100
AcDbLine
 10
64.7560274541554
 20
5.286375000000142
 30
0.0
 11
64.75602745415539
 21
8.588375000000141
 31
0.0
  0
LINE
  5
FC
330
F4
100
AcDbEntity
  8
치수문자_일반주서
 62
     0
370
    -2
100
AcDbLine
 10
64.75602745415544
 20
-5.286374999999857
 30
0.0
 11
64.75602745415546
 21
-8.588374999999857
 31
0.0
  0
SOLID
  5
FD
330
F4
100
AcDbEntity
  8
치수문자_일반주서
 62
     0
100
AcDbTrace
 10
64.20569412082207
 20
5.28637500000014
 30
0.0
 11
65.30636078748873
 21
5.286375000000143
 31
0.0
 12
64.75602745415542
 22
1.984375000000142
 32
0.0
 13
64.75602745415542
 23
1.984375000000142
 33
0.0
  0
SOLID
  5
FE
330
F4
100
AcDbEntity
  8
치수문자_일반주서
 62
     0
100
AcDbTrace
 10
65.30636078748877
 20
-5.286374999999856
 30
0.0
 11
64.20569412082212
 21
-5.286374999999859
 31
0.0
 12
64.75602745415543
 22
-1.984374999999858
 32
0.0
 13
64.75602745415543
 23
-1.984374999999858
 33
0.0
  0
MTEXT
  5
FF
330
F4
100
AcDbEntity
  8
치수문자_일반주서
 62
     0
100
AcDbMText
 10
60.38102745415534
 20
23.02587500000014
 30
0.0
 40
3.5
 41
0.0
 71
     2
 72
     1
  1
\A1;%%c3.97 [5/32]
  7
SLDTEXTSTYLE0
 11
-3.580687802255623E-15
 21
1.0
 31
0.0
 73
     1
 44
1.0
  0
POINT
  5
100
330
F4
100
AcDbEntity
  8
Defpoints
 62
     0
100
AcDbPoint
 10
25.4
 20
1.984374999999998
 30
0.0
  0
POINT
  5
101
330
F4
100
AcDbEntity
  8
Defpoints
 62
     0
100
AcDbPoint
 10
25.4
 20
-1.984375000000002
 30
0.0
  0
POINT
  5
102
330
F4
100
AcDbEntity
  8
Defpoints
 62
     0
100
AcDbPoint
 10
64.75602745415543
 20
-1.984374999999855
 30
0.0
  0
ENDBLK
  5
F6
330
F4
100
AcDbEntity
  8
0
100
AcDbBlockEnd
  0
BLOCK
  5
109
330
108
100
AcDbEntity
  8
0
100
AcDbBlockBegin
  2
_D_3
 70
     0
 10
0.0
 20
0.0
 30
0.0
  3
_D_3
  1

  0
LINE
  5
10B
330
108
100
AcDbEntity
  8
치수문자_일반주서
 62
     0
370
    -2
100
AcDbLine
 10
-15.04384233574606
 20
2.381250000000005
 30
0.0
 11
-35.40000000000003
 21
2.38124999999993
 31
0.0
  0
LINE
  5
10C
330
108
100
AcDbEntity
  8
치수문자_일반주서
 62
     0
370
    -2
100
AcDbLine
 10
-15.04384233574605
 20
-2.381250000000003
 30
0.0
 11
-35.40000000000001
 21
-2.381250000000076
 31
0.0
  0
LINE
  5
10D
330
108
100
AcDbEntity
  8
치수문자_일반주서
 62
     0
370
    -2
100
AcDbLine
 10
-35.40000000000003
 20
2.38124999999993
 30
0.0
 11
-35.40000000000013
 21
36.98524999999997
 31
0.0
  0
LINE
  5
10E
330
108
100
AcDbEntity
  8
치수문자_일반주서
 62
     0
370
    -2
100
AcDbLine
 10
-35.40000000000003
 20
2.38124999999993
 30
0.0
 11
-35.40000000000001
 21
-2.381250000000076
 31
0.0
  0
LINE
  5
10F
330
108
100
AcDbEntity
  8
치수문자_일반주서
 62
     0
370
    -2
100
AcDbLine
 10
-35.40000000000003
 20
5.68324999999993
 30
0.0
 11
-35.40000000000004
 21
8.98524999999993
 31
0.0
  0
LINE
  5
110
330
108
100
AcDbEntity
  8
치수문자_일반주서
 62
     0
370
    -2
100
AcDbLine
 10
-35.40000000000001
 20
-5.683250000000076
 30
0.0
 11
-35.4
 21
-8.985250000000075
 31
0.0
  0
SOLID
  5
111
330
108
100
AcDbEntity
  8
치수문자_일반주서
 62
     0
100
AcDbTrace
 10
-35.95033333333337
 20
5.683249999999928
 30
0.0
 11
-34.8496666666667
 21
5.683249999999932
 31
0.0
 12
-35.40000000000003
 22
2.38124999999993
 32
0.0
 13
-35.40000000000003
 23
2.38124999999993
 33
0.0
  0
SOLID
  5
112
330
108
100
AcDbEntity
  8
치수문자_일반주서
 62
     0
100
AcDbTrace
 10
-34.84966666666667
 20
-5.683250000000074
 30
0.0
 11
-35.95033333333334
 21
-5.683250000000077
 31
0.0
 12
-35.40000000000001
 22
-2.381250000000076
 32
0.0
 13
-35.40000000000001
 23
-2.381250000000076
 33
0.0
  0
MTEXT
  5
113
330
108
100
AcDbEntity
  8
치수문자_일반주서
 62
     0
100
AcDbMText
 10
-39.77500000000009
 20
22.98524999999995
 30
0.0
 40
3.5
 41
0.0
 71
     2
 72
     1
  1
\A1;%%c4.76 [3/16]
  7
SLDTEXTSTYLE0
 11
-2.983906501879681E-15
 21
1.0
 31
0.0
 73
     1
 44
1.0
  0
POINT
  5
1AC
330
108
100
AcDbEntity
  8
Defpoints
 62
     0
100
AcDbPoint
 10
-14.98134233574606
 20
2.381250000000005
 30
0.0
  0
POINT
  5
1AD
330
108
100
AcDbEntity
  8
Defpoints
 62
     0
100
AcDbPoint
 10
-14.98134233574605
 20
-2.381250000000003
 30
0.0
  0
POINT
  5
1AE
330
108
100
AcDbEntity
  8
Defpoints
 62
     0
100
AcDbPoint
 10
-35.40000000000001
 20
-2.381250000000079
 30
0.0
  0
ENDBLK
  5
10A
330
108
100
AcDbEntity
  8
0
100
AcDbBlockEnd
  0
BLOCK
  5
123
330
122
100
AcDbEntity
  8
0
100
AcDbBlockBegin
  2
SW_DOWELSYMBOL_0
 70
     0
 10
0.0
 20
0.0
 30
0.0
  3
SW_DOWELSYMBOL_0
  1

  0
CIRCLE
  5
125
330
122
100
AcDbEntity
  8
해칭선
 62
     0
100
AcDbCircle
 10
0.0
 20
0.0
 30
0.0
 40
3.000000000000001
  0
HATCH
  5
126
330
122
100
AcDbEntity
  8
0
  6
Continuous
 62
     0
370
     0
100
AcDbHatch
 10
0.0
 20
0.0
 30
0.0
210
0.0
220
0.0
230
1.0
  2
SOLID
 70
     1
 71
     0
 91
        1
 92
        0
 93
        3
 72
     2
 10
0.0
 20
0.0
 40
3.000000000000001
 50
0.0
 51
90.0
 73
     1
 72
     1
 10
0.0
 20
3.000000000000001
 11
0.0
 21
0.0
 72
     1
 10
0.0
 20
0.0
 11
3.000000000000001
 21
0.0
 97
        0
 75
     0
 76
     1
 98
        1
 10
0.0
 20
0.0
  0
HATCH
  5
127
330
122
100
AcDbEntity
  8
0
  6
Continuous
 62
     0
370
     0
100
AcDbHatch
 10
0.0
 20
0.0
 30
0.0
210
0.0
220
0.0
230
1.0
  2
SOLID
 70
     1
 71
     0
 91
        1
 92
        0
 93
        3
 72
     2
 10
0.0
 20
0.0
 40
3.000000000000001
 50
180.0
 51
270.0000000000008
 73
     1
 72
     1
 10
0.0
 20
-3.000000000000001
 11
0.0
 21
0.0
 72
     1
 10
0.0
 20
0.0
 11
-3.000000000000003
 21
0.0
 97
        0
 75
     0
 76
     1
 98
        1
 10
0.0
 20
0.0
  0
ENDBLK
  5
124
330
122
100
AcDbEntity
  8
0
100
AcDbBlockEnd
  0
BLOCK
  5
188
330
187
100
AcDbEntity
  8
0
100
AcDbBlockBegin
  2
*D8
 70
     1
 10
0.0
 20
0.0
 30
0.0
  3
*D8
  1

  0
LINE
  5
18A
330
187
100
AcDbEntity
  8
치수문자_일반주서
 62
     0
370
    -2
100
AcDbLine
 10
12.95400000000005
 20
1.216513565852266
 30
0.0
 11
12.95400000000005
 21
11.15401356585227
 31
0.0
  0
LINE
  5
18B
330
187
100
AcDbEntity
  8
치수문자_일반주서
 62
     0
370
    -2
100
AcDbLine
 10
6.604000000000003
 20
1.210675679903457
 30
0.0
 11
6.604000000000003
 21
11.15401356585227
 31
0.0
  0
LINE
  5
18C
330
187
100
AcDbEntity
  8
치수문자_일반주서
 62
     0
370
    -2
100
AcDbLine
 10
12.95400000000005
 20
11.15401356585227
 30
0.0
 11
42.30800000000006
 21
11.15401356585227
 31
0.0
  0
LINE
  5
18D
330
187
100
AcDbEntity
  8
치수문자_일반주서
 62
     0
370
    -2
100
AcDbLine
 10
12.95400000000005
 20
11.15401356585227
 30
0.0
 11
6.604000000000003
 21
11.15401356585227
 31
0.0
  0
LINE
  5
18E
330
187
100
AcDbEntity
  8
치수문자_일반주서
 62
     0
370
    -2
100
AcDbLine
 10
16.25600000000005
 20
11.15401356585227
 30
0.0
 11
19.55800000000005
 21
11.15401356585227
 31
0.0
  0
LINE
  5
18F
330
187
100
AcDbEntity
  8
치수문자_일반주서
 62
     0
370
    -2
100
AcDbLine
 10
3.302000000000003
 20
11.15401356585227
 30
0.0
 11
0.0000000000000036
 21
11.15401356585227
 31
0.0
  0
SOLID
  5
190
330
187
100
AcDbEntity
  8
치수문자_일반주서
 62
     0
100
AcDbTrace
 10
16.25600000000005
 20
11.7043468991856
 30
0.0
 11
16.25600000000005
 21
10.60368023251894
 31
0.0
 12
12.95400000000005
 22
11.15401356585227
 32
0.0
 13
12.95400000000005
 23
11.15401356585227
 33
0.0
  0
SOLID
  5
191
330
187
100
AcDbEntity
  8
치수문자_일반주서
 62
     0
100
AcDbTrace
 10
3.302000000000003
 20
10.60368023251894
 30
0.0
 11
3.302000000000003
 21
11.7043468991856
 31
0.0
 12
6.604000000000003
 22
11.15401356585227
 32
0.0
 13
6.604000000000003
 23
11.15401356585227
 33
0.0
  0
MTEXT
  5
192
330
187
100
AcDbEntity
  8
치수문자_일반주서
 62
     0
100
AcDbMText
 10
30.93300000000006
 20
15.52901356585227
 30
0.0
 40
3.5
 41
0.0
 71
     2
 72
     1
  1
\A1;6.35 [1/4]
  7
SLDTEXTSTYLE0
 73
     1
 44
1.0
  0
POINT
  5
193
330
187
100
AcDbEntity
  8
Defpoints
 62
     0
100
AcDbPoint
 10
12.95400000000005
 20
1.154013565852266
 30
0.0
  0
POINT
  5
194
330
187
100
AcDbEntity
  8
Defpoints
 62
     0
100
AcDbPoint
 10
6.604000000000003
 20
1.148175679903457
 30
0.0
  0
POINT
  5
195
330
187
100
AcDbEntity
  8
Defpoints
 62
     0
100
AcDbPoint
 10
6.604000000000003
 20
11.15401356585227
 30
0.0
  0
ENDBLK
  5
189
330
187
100
AcDbEntity
  8
0
100
AcDbBlockEnd
  0
BLOCK
  5
19A
330
199
100
AcDbEntity
  8
0
100
AcDbBlockBegin
  2
*D9
 70
     1
 10
0.0
 20
0.0
 30
0.0
  3
*D9
  1

  0
LINE
  5
19C
330
199
100
AcDbEntity
  8
치수문자_일반주서
 62
     0
370
    -2
100
AcDbLine
 10
42.76072828876644
 20
-23.94387187116482
 30
0.0
 11
42.76072828876644
 21
-14.00637187116481
 31
0.0
  0
LINE
  5
19D
330
199
100
AcDbEntity
  8
치수문자_일반주서
 62
     0
370
    -2
100
AcDbLine
 10
36.41072828876639
 20
-23.94970975711363
 30
0.0
 11
36.41072828876639
 21
-14.00637187116481
 31
0.0
  0
LINE
  5
19E
330
199
100
AcDbEntity
  8
치수문자_일반주서
 62
     0
370
    -2
100
AcDbLine
 10
42.76072828876644
 20
-14.00637187116481
 30
0.0
 11
72.11472828876646
 21
-14.00637187116481
 31
0.0
  0
LINE
  5
19F
330
199
100
AcDbEntity
  8
치수문자_일반주서
 62
     0
370
    -2
100
AcDbLine
 10
42.76072828876644
 20
-14.00637187116481
 30
0.0
 11
36.41072828876639
 21
-14.00637187116481
 31
0.0
  0
LINE
  5
1A0
330
199
100
AcDbEntity
  8
치수문자_일반주서
 62
     0
370
    -2
100
AcDbLine
 10
46.06272828876644
 20
-14.00637187116481
 30
0.0
 11
49.36472828876644
 21
-14.00637187116481
 31
0.0
  0
LINE
  5
1A1
330
199
100
AcDbEntity
  8
치수문자_일반주서
 62
     0
370
    -2
100
AcDbLine
 10
33.10872828876639
 20
-14.00637187116481
 30
0.0
 11
29.80672828876639
 21
-14.00637187116481
 31
0.0
  0
SOLID
  5
1A2
330
199
100
AcDbEntity
  8
치수문자_일반주서
 62
     0
100
AcDbTrace
 10
46.06272828876644
 20
-13.45603853783148
 30
0.0
 11
46.06272828876644
 21
-14.55670520449815
 31
0.0
 12
42.76072828876644
 22
-14.00637187116481
 32
0.0
 13
42.76072828876644
 23
-14.00637187116481
 33
0.0
  0
SOLID
  5
1A3
330
199
100
AcDbEntity
  8
치수문자_일반주서
 62
     0
100
AcDbTrace
 10
33.10872828876639
 20
-14.55670520449815
 30
0.0
 11
33.10872828876639
 21
-13.45603853783148
 31
0.0
 12
36.41072828876639
 22
-14.00637187116481
 32
0.0
 13
36.41072828876639
 23
-14.00637187116481
 33
0.0
  0
MTEXT
  5
1A4
330
199
100
AcDbEntity
  8
치수문자_일반주서
 62
     0
100
AcDbMText
 10
60.73972828876645
 20
-9.631371871164815
 30
0.0
 40
3.5
 41
0.0
 71
     2
 72
     1
  1
\A1;6.35 [1/4]
  7
SLDTEXTSTYLE0
 73
     1
 44
1.0
  0
POINT
  5
1A5
330
199
100
AcDbEntity
  8
Defpoints
 62
     0
100
AcDbPoint
 10
42.76072828876644
 20
-24.00637187116482
 30
0.0
  0
POINT
  5
1A6
330
199
100
AcDbEntity
  8
Defpoints
 62
     0
100
AcDbPoint
 10
36.41072828876639
 20
-24.01220975711363
 30
0.0
  0
POINT
  5
1A7
330
199
100
AcDbEntity
  8
Defpoints
 62
     0
100
AcDbPoint
 10
36.41072828876639
 20
-14.00637187116481
 30
0.0
  0
ENDBLK
  5
19B
330
199
100
AcDbEntity
  8
0
100
AcDbBlockEnd
  0
ENDSEC
  0
SECTION
  2
ENTITIES
  0
LINE
  5
96
330
1F
100
AcDbEntity
  8
0
  6
Continuous
 62
     1
370
    15
100
AcDbLine
 10
22.14349347342687
 20
0.5763961218614999
 30
0.0
 11
22.10826072568034
 21
0.5953109807774065
 31
0.0
1001
PE_URL
1000

  0
LINE
  5
97
330
1F
100
AcDbEntity
  8
0
  6
Continuous
 62
     1
370
    15
100
AcDbLine
 10
23.15690349933544
 20
-1.98437499999999
 30
0.0
 11
23.41562500000002
 21
-1.98437499999999
 31
0.0
1001
PE_URL
1000

  0
LINE
  5
98
330
1F
100
AcDbEntity
  8
0
  6
Continuous
 62
     1
370
    15
100
AcDbLine
 10
18.96828991226353
 20
1.98437499999999
 30
0.0
 11
17.75737864358945
 21
1.98437499999999
 31
0.0
1001
PE_URL
1000

  0
ARC
  5
99
330
1F
100
AcDbEntity
  8
0
  6
Continuous
 62
     1
370
    15
100
AcDbCircle
 10
23.41562500000002
 20
-0.0000000000000018
 30
0.0
 40
1.984374999999984
100
AcDbArc
 50
332.5852420549891
 51
0.0
1001
PE_URL
1000

  0
ARC
  5
9A
330
1F
100
AcDbEntity
  8
0
  6
Continuous
 62
     1
370
    15
100
AcDbCircle
 10
23.41562500000002
 20
-0.0000000000000018
 30
0.0
 40
1.984374999999982
100
AcDbArc
 50
270.0000000000009
 51
295.8773229293304
1001
PE_URL
1000

  0
ARC
  5
9B
330
1F
100
AcDbEntity
  8
0
  6
Continuous
 62
     1
370
    15
100
AcDbCircle
 10
23.41562500000002
 20
-0.0000000000000018
 30
0.0
 40
1.984374999999983
100
AcDbArc
 50
64.02024774048837
 51
89.9999999999998
1001
PE_URL
1000

  0
ARC
  5
9C
330
1F
100
AcDbEntity
  8
0
  6
Continuous
 62
     1
370
    15
100
AcDbCircle
 10
23.41562500000002
 20
-0.0000000000000018
 30
0.0
 40
1.984374999999983
100
AcDbArc
 50
0.0
 51
27.43593310293965
1001
PE_URL
1000

  0
LINE
  5
9D
330
1F
100
AcDbEntity
  8
0
  6
Continuous
 62
     1
370
    15
100
AcDbLine
 10
17.75737864358945
 20
-1.98437499999999
 30
0.0
 11
18.96828991226356
 21
-1.98437499999999
 31
0.0
1001
PE_URL
1000

  0
LINE
  5
9E
330
1F
100
AcDbEntity
  8
0
  6
Continuous
 62
     1
370
    15
100
AcDbLine
 10
23.41562500000002
 20
1.98437499999999
 30
0.0
 11
23.15690349933541
 21
1.98437499999999
 31
0.0
1001
PE_URL
1000

  0
LINE
  5
9F
330
1F
100
AcDbEntity
  8
외형선
  6
Continuous
370
    15
100
AcDbLine
 10
-14.98134233574605
 20
-2.381250000000003
 30
0.0
 11
14.98134233574607
 21
-2.381250000000003
 31
0.0
  0
LINE
  5
A0
330
1F
100
AcDbEntity
  8
외형선
  6
Continuous
370
    15
100
AcDbLine
 10
14.98134233574606
 20
2.381250000000003
 30
0.0
 11
-14.98134233574606
 21
2.381250000000003
 31
0.0
  0
LINE
  5
A1
330
1F
100
AcDbEntity
  8
외형선
  6
Continuous
370
    15
100
AcDbLine
 10
14.98134233574606
 20
-2.381250000000005
 30
0.0
 11
16.46249999999998
 21
-1.984375
 31
0.0
  0
LINE
  5
A2
330
1F
100
AcDbEntity
  8
외형선
  6
Continuous
370
    15
100
AcDbLine
 10
16.46249999999998
 20
1.984375
 30
0.0
 11
14.98134233574606
 21
2.381250000000005
 31
0.0
  0
LINE
  5
A5
330
1F
100
AcDbEntity
  8
외형선
  6
Continuous
370
    15
100
AcDbLine
 10
16.46249999999998
 20
-1.984375
 30
0.0
 11
17.46249999999998
 21
-1.984375
 31
0.0
  0
LINE
  5
A6
330
1F
100
AcDbEntity
  8
외형선
  6
Continuous
370
    15
100
AcDbLine
 10
17.46249999999998
 20
1.984375
 30
0.0
 11
16.46249999999998
 21
1.984375
 31
0.0
  0
SPLINE
  5
A7
330
1F
100
AcDbEntity
  8
0
  6
Continuous
 62
     1
370
    15
100
AcDbSpline
210
0.0
220
0.0
230
1.0
 70
     8
 71
     3
 72
    10
 73
     6
 74
     0
 42
0.000000001
 43
0.00000001
 40
0.0
 40
0.0
 40
0.0
 40
0.0
 40
0.2563786650108519
 40
0.6284031533857659
 40
0.9999999999999999
 40
0.9999999999999999
 40
0.9999999999999999
 40
0.9999999999999999
 10
21.06829383829246
 20
1.617880341229334
 30
0.0
 10
21.26897300375263
 20
1.68338728196133
 30
0.0
 10
21.76085254602522
 20
1.84394965996926
 30
0.0
 10
22.54325982435902
 20
1.977418659478397
 30
0.0
 10
23.12494811388774
 20
1.978292606741331
 30
0.0
 10
23.41562500000002
 20
1.978729329078
 30
0.0
1001
PE_URL
1000

  0
SPLINE
  5
A8
330
1F
100
AcDbEntity
  8
0
  6
Continuous
 62
     1
370
    15
100
AcDbSpline
210
0.0
220
0.0
230
1.0
 70
     8
 71
     3
 72
    36
 73
    32
 74
     0
 42
0.000000001
 43
0.00000001
 40
0.0
 40
0.0
 40
0.0
 40
0.0
 40
0.125
 40
0.125
 40
0.1875
 40
0.1875
 40
0.25
 40
0.25
 40
0.3125
 40
0.3125
 40
0.375
 40
0.375
 40
0.4375
 40
0.4375
 40
0.5
 40
0.5
 40
0.5625
 40
0.5625
 40
0.625
 40
0.625
 40
0.6875
 40
0.6875
 40
0.75
 40
0.75
 40
0.8125
 40
0.8125
 40
0.875
 40
0.875
 40
0.9375
 40
0.9375
 40
1.0
 40
1.0
 40
1.0
 40
1.0
 10
23.41562500000002
 20
1.978729329077992
 30
0.0
 10
23.61746476221898
 20
1.969981219741192
 30
0.0
 10
23.81938472389218
 20
1.9217410938577
 30
0.0
 10
24.12116007844633
 20
1.794016264614345
 30
0.0
 10
24.21918188814561
 20
1.743192341361809
 30
0.0
 10
24.40981162609652
 20
1.625382148161104
 30
0.0
 10
24.5032782947187
 20
1.557603907364235
 30
0.0
 10
24.67810679174175
 20
1.408612461417019
 30
0.0
 10
24.75947686403115
 20
1.327678236773468
 30
0.0
 10
24.90853287193693
 20
1.151995454366053
 30
0.0
 10
24.97646763610622
 20
1.056548712357224
 30
0.0
 10
25.09122930720479
 20
0.8567444453909662
 30
0.0
 10
25.13899952146477
 20
0.7513427035022714
 30
0.0
 10
25.2089942204414
 20
0.5308108091729307
 30
0.0
 10
25.23043658354439
 20
0.4174837678154583
 30
0.0
 10
25.23727451658087
 20
0.1977249844941659
 30
0.0
 10
25.22171163450789
 20
0.0920388612341266
 30
0.0
 10
25.15185462782706
 20
-0.0775018881303093
 30
0.0
 10
25.09698645340336
 20
-0.1419282852406299
 30
0.0
 10
24.96356470158174
 20
-0.2148646108888856
 30
0.0
 10
24.88619682045323
 20
-0.2245787846962772
 30
0.0
 10
24.72408005918135
 20
-0.2069182339199171
 30
0.0
 10
24.63737652046785
 20
-0.1794693099200362
 30
0.0
 10
24.46212610733196
 20
-0.103566406818067
 30
0.0
 10
24.37171614579902
 20
-0.0544859504935888
 30
0.0
 10
24.18785716509382
 20
0.0550592915869048
 30
0.0
 10
24.09554188035111
 20
0.1147748236821236
 30
0.0
 10
23.90715137048001
 20
0.2384501091084566
 30
0.0
 10
23.81029409302928
 20
0.3027930126933361
 30
0.0
 10
23.61514309935867
 20
0.4263591093193657
 30
0.0
 10
23.51648900843497
 20
0.4860668897300302
 30
0.0
 10
23.41562500000003
 20
0.5418580426847326
 30
0.0
1001
PE_URL
1000

  0
SPLINE
  5
A9
330
1F
100
AcDbEntity
  8
0
  6
Continuous
 62
     1
370
    15
100
AcDbSpline
210
0.0
220
0.0
230
1.0
 70
     8
 71
     3
 72
    13
 73
     9
 74
     0
 42
0.000000001
 43
0.00000001
 40
0.0
 40
0.0
 40
0.0
 40
0.0
 40
0.1871808104902781
 40
0.3747392283338338
 40
0.5624442645439315
 40
0.7496912823590448
 40
0.9457694735682185
 40
1.0
 40
1.0
 40
1.0
 40
1.0
 10
23.41562500000002
 20
0.5418580426847418
 30
0.0
 10
23.13822362023843
 20
0.6930732057482215
 30
0.0
 10
22.58286124779053
 20
0.995808584286004
 30
0.0
 10
21.74888163671219
 20
1.382081460522569
 30
0.0
 10
20.91454398456617
 20
1.692040788578409
 30
0.0
 10
20.06827948540094
 20
1.896972740040408
 30
0.0
 10
19.41974579224487
 20
1.992661746891765
 30
0.0
 10
19.04868247417014
 20
1.975352345544998
 30
0.0
 10
18.96828991226353
 20
1.971602184719195
 30
0.0
1001
PE_URL
1000

  0
SPLINE
  5
AA
330
1F
100
AcDbEntity
  8
0
  6
Continuous
 62
     1
370
    15
100
AcDbSpline
210
0.0
220
0.0
230
1.0
 70
     8
 71
     3
 72
    28
 73
    24
 74
     0
 42
0.000000001
 43
0.00000001
 40
0.0
 40
0.0
 40
0.0
 40
0.0
 40
0.125
 40
0.125
 40
0.25
 40
0.25
 40
0.375
 40
0.375
 40
0.5
 40
0.5
 40
0.5625
 40
0.5625
 40
0.625
 40
0.625
 40
0.6875
 40
0.6875
 40
0.75
 40
0.75
 40
0.875
 40
0.875
 40
0.9375
 40
0.9375
 40
1.0
 40
1.0
 40
1.0
 40
1.0
 10
17.46249999999998
 20
1.977077642564008
 30
0.0
 10
17.7074893737616
 20
1.98929748354347
 30
0.0
 10
17.95879580503984
 20
1.986121838019343
 30
0.0
 10
18.45662948561154
 20
1.948715444761748
 30
0.0
 10
18.70068876169646
 20
1.914806330677075
 30
0.0
 10
19.19929874413544
 20
1.817198377707638
 30
0.0
 10
19.44802880323224
 20
1.753727172669412
 30
0.0
 10
19.9402996800377
 20
1.601093906674952
 30
0.0
 10
20.19191907692993
 20
1.511026670156573
 30
0.0
 10
20.56446118656432
 20
1.359835973076644
 30
0.0
 10
20.68679256798587
 20
1.306944353477068
 30
0.0
 10
20.93344077952296
 20
1.19601549723047
 30
0.0
 10
21.05802696085995
 20
1.137920026989467
 30
0.0
 10
21.30755194733559
 20
1.017432159604862
 30
0.0
 10
21.43248646482516
 20
0.9550417883963409
 30
0.0
 10
21.68050779815841
 20
0.8270874406818338
 30
0.0
 10
21.80258120292839
 20
0.7617121955881637
 30
0.0
 10
22.1732618410317
 20
0.5607440724950521
 30
0.0
 10
22.42502087946015
 20
0.42046294285899
 30
0.0
 10
22.79648078288981
 20
0.2078958632907322
 30
0.0
 10
22.91845658423248
 20
0.1368505840442978
 30
0.0
 10
23.16600840161377
 20
-0.0061854828182638
 30
0.0
 10
23.29083683466891
 20
-0.0780336397423295
 30
0.0
 10
23.41562500000003
 20
-0.1495806901691984
 30
0.0
1001
PE_URL
1000

  0
SPLINE
  5
AB
330
1F
100
AcDbEntity
  8
0
  6
Continuous
 62
     1
370
    15
100
AcDbSpline
210
0.0
220
0.0
230
1.0
 70
     8
 71
     3
 72
    36
 73
    32
 74
     0
 42
0.000000001
 43
0.00000001
 40
0.0
 40
0.0
 40
0.0
 40
0.0
 40
0.125
 40
0.125
 40
0.1875
 40
0.1875
 40
0.25
 40
0.25
 40
0.3125
 40
0.3125
 40
0.375
 40
0.375
 40
0.4375000000000001
 40
0.4375000000000001
 40
0.5
 40
0.5
 40
0.5625
 40
0.5625
 40
0.625
 40
0.625
 40
0.6875
 40
0.6875
 40
0.75
 40
0.75
 40
0.8125000000000001
 40
0.8125000000000001
 40
0.8750000000000001
 40
0.8750000000000001
 40
0.9375000000000001
 40
0.9375000000000001
 40
1.0
 40
1.0
 40
1.0
 40
1.0
 10
23.41562500000002
 20
-0.1495806901691956
 30
0.0
 10
23.61746476221897
 20
-0.2653051229093233
 30
0.0
 10
23.81938472389218
 20
-0.3679826966198907
 30
0.0
 10
24.12116007844629
 20
-0.4846797950378505
 30
0.0
 10
24.21918188814562
 20
-0.5162375635245444
 30
0.0
 10
24.40981162609653
 20
-0.5662598859114696
 30
0.0
 10
24.50327829471868
 20
-0.5847941712230381
 30
0.0
 10
24.67810679174176
 20
-0.610781878829401
 30
0.0
 10
24.75947686403115
 20
-0.6183637131331331
 30
0.0
 10
24.90853287193693
 20
-0.628628327082388
 30
0.0
 10
24.97646763610623
 20
-0.631276867665866
 30
0.0
 10
25.09122930720482
 20
-0.6398238514538495
 30
0.0
 10
25.13899952146474
 20
-0.6455884696390046
 30
0.0
 10
25.2089942204414
 20
-0.673340029635363
 30
0.0
 10
25.23043658354439
 20
-0.6952782870647386
 30
0.0
 10
25.23727451658088
 20
-0.7705475623654635
 30
0.0
 10
25.22171163450788
 20
-0.8249882207838269
 30
0.0
 10
25.15185462782707
 20
-0.9646376441695919
 30
0.0
 10
25.09698645340336
 20
-1.050852512963221
 30
0.0
 10
24.96356470158173
 20
-1.228465245091521
 30
0.0
 10
24.88619682045322
 20
-1.3183577432101
 30
0.0
 10
24.72408005918135
 20
-1.481963039789781
 30
0.0
 10
24.63737652046785
 20
-1.557609151216292
 30
0.0
 10
24.46212610733198
 20
-1.686754786758641
 30
0.0
 10
24.37171614579903
 20
-1.741864865142826
 30
0.0
 10
24.18785716509382
 20
-1.830791676816333
 30
0.0
 10
24.09554188035111
 20
-1.864277355650011
 30
0.0
 10
23.90715137048002
 20
-1.911160290429865
 30
0.0
 10
23.81029409302927
 20
-1.924485958822303
 30
0.0
 10
23.61514309935867
 20
-1.931192363583017
 30
0.0
 10
23.51648900843496
 20
-1.924797797288073
 30
0.0
 10
23.41562500000003
 20
-1.908961498355275
 30
0.0
1001
PE_URL
1000

  0
SPLINE
  5
AC
330
1F
100
AcDbEntity
  8
0
  6
Continuous
 62
     1
370
    15
100
AcDbSpline
210
0.0
220
0.0
230
1.0
 70
     8
 71
     3
 72
    28
 73
    24
 74
     0
 42
0.000000001
 43
0.00000001
 40
0.0
 40
0.0
 40
0.0
 40
0.0
 40
0.1249999999999977
 40
0.1249999999999977
 40
0.2499999999999953
 40
0.2499999999999953
 40
0.374999999999993
 40
0.374999999999993
 40
0.4999999999999907
 40
0.4999999999999907
 40
0.5624999999999908
 40
0.5624999999999908
 40
0.624999999999991
 40
0.624999999999991
 40
0.6874999999999911
 40
0.6874999999999911
 40
0.7499999999999913
 40
0.7499999999999913
 40
0.8749999999999943
 40
0.8749999999999943
 40
0.9374999999999971
 40
0.9374999999999971
 40
1.0
 40
1.0
 40
1.0
 40
1.0
 10
17.46249999999999
 20
0.8412937808769576
 30
0.0
 10
17.7074893737616
 20
0.7121258562106964
 30
0.0
 10
17.95879580503984
 20
0.5752634811938165
 30
0.0
 10
18.45662948561158
 20
0.2954986873824798
 30
0.0
 10
18.70068876169646
 20
0.1531325261770415
 30
0.0
 10
19.19929874413543
 20
-0.1337647703018155
 30
0.0
 10
19.44802880323226
 20
-0.277165369646642
 30
0.0
 10
19.94029968003769
 20
-0.5564736612719695
 30
0.0
 10
20.19191907692992
 20
-0.6938744073978587
 30
0.0
 10
20.56446118656434
 20
-0.8893646927400579
 30
0.0
 10
20.68679256798588
 20
-0.9525996722207973
 30
0.0
 10
20.93344077952296
 20
-1.07546711836254
 30
0.0
 10
21.05802696085993
 20
-1.13513110560169
 30
0.0
 10
21.30755194733556
 20
-1.249824525224188
 30
0.0
 10
21.43248646482516
 20
-1.304851935150235
 30
0.0
 10
21.68050779815837
 20
-1.409331559584787
 30
0.0
 10
21.8025812029284
 20
-1.458662665452481
 30
0.0
 10
22.17326184103168
 20
-1.598462129503246
 30
0.0
 10
22.42502087946015
 20
-1.680367371240078
 30
0.0
 10
22.79648078288983
 20
-1.78197005918824
 30
0.0
 10
22.91845658423248
 20
-1.812278215675071
 30
0.0
 10
23.16600840161374
 20
-1.866019906783569
 30
0.0
 10
23.29083683466889
 20
-1.889368952707697
 30
0.0
 10
23.41562500000002
 20
-1.908961498355279
 30
0.0
1001
PE_URL
1000

  0
SPLINE
  5
AD
330
1F
100
AcDbEntity
  8
0
  6
Continuous
 62
     1
370
    15
100
AcDbSpline
210
0.0
220
0.0
230
1.0
 70
     8
 71
     3
 72
    14
 73
    10
 74
     0
 42
0.000000001
 43
0.00000001
 40
0.0
 40
0.0
 40
0.0
 40
0.0
 40
0.1465510798413019
 40
0.2927703737697139
 40
0.4389360392291022
 40
0.5853275165919125
 40
0.7389243493791131
 40
0.8922715117957597
 40
0.9999999999999999
 40
0.9999999999999999
 40
0.9999999999999999
 40
0.9999999999999999
 10
17.46249999999998
 20
0.1700239274293977
 30
0.0
 10
17.74076578009496
 20
0.0092320778397233
 30
0.0
 10
18.29666735744223
 20
-0.3119875948810071
 30
0.0
 10
19.12954138507176
 20
-0.7790114415416277
 30
0.0
 10
19.96209547419193
 20
-1.199282123577237
 30
0.0
 10
20.8089141941152
 20
-1.556218457509073
 30
0.0
 10
21.66990789195667
 20
-1.818030974407728
 30
0.0
 10
22.4570067791591
 20
-1.968284192158613
 30
0.0
 10
22.95246215059163
 20
-1.970243867353209
 30
0.0
 10
23.15690349933543
 20
-1.971052494452609
 30
0.0
1001
PE_URL
1000

  0
SPLINE
  5
AE
330
1F
100
AcDbEntity
  8
0
  6
Continuous
 62
     1
370
    15
100
AcDbSpline
210
0.0
220
0.0
230
1.0
 70
     8
 71
     3
 72
    12
 73
     8
 74
     0
 42
0.000000001
 43
0.00000001
 40
0.0
 40
0.0
 40
0.0
 40
0.0
 40
0.0427815276312277
 40
0.2737324168687043
 40
0.5155756950593772
 40
0.7575787826955694
 40
1.0
 40
1.0
 40
1.0
 40
1.0
 10
21.06829383829249
 20
-1.617880341229333
 30
0.0
 10
21.01685421301537
 20
-1.637069426870004
 30
0.0
 10
20.68772400823867
 20
-1.759848464477044
 30
0.0
 10
20.06830837988856
 20
-1.897802477939834
 30
0.0
 10
19.20927063126893
 20
-2.00094546739321
 30
0.0
 10
18.33645986500396
 20
-1.976860058744897
 30
0.0
 10
17.75398754152749
 20
-1.857128753130248
 30
0.0
 10
17.46249999999999
 20
-1.797211427429363
 30
0.0
1001
PE_URL
1000

  0
LINE
  5
AF
330
1F
100
AcDbEntity
  8
외형선
  6
Continuous
370
    15
100
AcDbLine
 10
17.46249999999998
 20
0.1700239274293975
 30
0.0
 11
17.46249999999999
 21
0.8412937808769576
 31
0.0
  0
SPLINE
  5
B0
330
1F
100
AcDbEntity
  8
0
  6
Continuous
 62
     1
370
    15
100
AcDbSpline
210
0.0
220
0.0
230
1.0
 70
     8
 71
     3
 72
    14
 73
    10
 74
     0
 42
0.000000001
 43
0.00000001
 40
0.0
 40
0.0
 40
0.0
 40
0.0
 40
0.0633612193743595
 40
0.224144745292059
 40
0.3869007620339435
 40
0.6268099089224937
 40
0.7896759839238422
 40
0.9571182980320833
 40
1.0
 40
1.0
 40
1.0
 40
1.0
 10
25.17358328438038
 20
0.9126321676693748
 30
0.0
 10
25.16617584782564
 20
0.9290929278702866
 30
0.0
 10
25.13997152290539
 20
0.9873240184171354
 30
0.0
 10
25.04451712959596
 20
1.124542109605947
 30
0.0
 10
24.88777742142453
 20
1.320211144276886
 30
0.0
 10
24.70249370430952
 20
1.506022107495254
 30
0.0
 10
24.50689106765341
 20
1.655750499770518
 30
0.0
 10
24.375658543566
 20
1.743068005476336
 30
0.0
 10
24.29897014084244
 20
1.774344432841685
 30
0.0
 10
24.28333460244156
 20
1.780721195999424
 30
0.0
1001
PE_URL
1000

  0
LINE
  5
B1
330
1F
100
AcDbEntity
  8
0
  6
Continuous
 62
     1
370
    15
100
AcDbLine
 10
17.46249999999998
 20
-1.977077642564007
 30
0.0
 11
17.75737864358945
 21
-1.97105315446302
 31
0.0
1001
PE_URL
1000

  0
LINE
  5
B2
330
1F
100
AcDbEntity
  8
외형선
  6
Continuous
370
    15
100
AcDbLine
 10
17.46249999999998
 20
-1.977077642564007
 30
0.0
 11
17.46249999999999
 21
-1.797211427429362
 31
0.0
  0
LINE
  5
B3
330
1F
100
AcDbEntity
  8
외형선
  6
Continuous
370
    15
100
AcDbLine
 10
14.98134233574606
 20
0.0000000000000004
 30
0.0
 11
14.98134233574606
 21
2.381250000000003
 31
0.0
  0
LINE
  5
B4
330
1F
100
AcDbEntity
  8
외형선
  6
Continuous
370
    15
100
AcDbLine
 10
14.98134233574606
 20
-2.381250000000003
 30
0.0
 11
14.98134233574606
 21
0.0000000000000004
 31
0.0
  0
LINE
  5
B7
330
1F
100
AcDbEntity
  8
외형선
  6
Continuous
370
    15
100
AcDbLine
 10
16.46249999999998
 20
0.0000000000000004
 30
0.0
 11
16.46249999999998
 21
1.984375
 31
0.0
  0
LINE
  5
B8
330
1F
100
AcDbEntity
  8
외형선
  6
Continuous
370
    15
100
AcDbLine
 10
16.46249999999998
 20
-1.984375
 30
0.0
 11
16.46249999999998
 21
0.0000000000000004
 31
0.0
  0
LINE
  5
BB
330
1F
100
AcDbEntity
  8
외형선
  6
Continuous
370
    15
100
AcDbLine
 10
17.46249999999998
 20
0.0000000000000004
 30
0.0
 11
17.46249999999998
 21
1.984375
 31
0.0
  0
LINE
  5
BC
330
1F
100
AcDbEntity
  8
외형선
  6
Continuous
370
    15
100
AcDbLine
 10
17.46249999999998
 20
-1.984375
 30
0.0
 11
17.46249999999998
 21
0.0000000000000004
 31
0.0
  0
LINE
  5
BD
330
1F
100
AcDbEntity
  8
중심선
 62
     1
100
AcDbLine
 10
-28.40000000000001
 20
-0.0000000000000035
 30
0.0
 11
28.40000000000001
 21
0.0000000000000035
 31
0.0
  0
LINE
  5
BF
330
1F
100
AcDbEntity
  8
참조1
100
AcDbLine
 10
0.0
 20
-0.0000000000000035
 30
0.0
 11
0.0000000000000071
 21
-40.00000000000001
 31
0.0
  0
LINE
  5
C0
330
1F
100
AcDbEntity
  8
참조1
100
AcDbLine
 10
0.0000000000000071
 20
-40.00000000000001
 30
0.0
 11
-1.665106814308675
 21
-40.0
 31
0.0
  0
CIRCLE
  5
C1
330
1F
100
AcDbEntity
  8
해칭선
100
AcDbCircle
 10
0.0
 20
0.0
 30
0.0
 40
3.000000000000001
  0
INSERT
  5
C2
330
1F
100
AcDbEntity
  8
0
  6
Continuous
 62
     7
100
AcDbBlockReference
 66
     1
  2
블럭10
 10
-13.94027293212521
 20
-52.04717430164393
 30
0.0
  0
ATTRIB
  5
C3
330
C2
100
AcDbEntity
  8
FORMAT
 62
     2
100
AcDbText
 10
-23.12156822086649
 20
-49.97180738881175
 30
0.0
 40
4.233333333333333
  1
E5252010 [ 4 FLUTE ]
 41
0.75
  7
SLDTEXTSTYLE0
 11
-23.12156822086649
 21
-52.08847405547841
 31
0.0
100
AcDbAttribute
  2
AUTOATTR0
 70
     0
 74
     1
  0
SEQEND
  5
C4
330
C2
100
AcDbEntity
  8
0
  6
Continuous
 62
     7
  0
HATCH
  5
C5
330
1F
100
AcDbEntity
  8
중심선
100
AcDbHatch
 10
0.0
 20
0.0
 30
0.0
210
0.0
220
0.0
230
1.0
  2
SOLID
 70
     1
 71
     0
 91
        1
 92
        0
 93
        4
 72
     1
 10
-8.225363627744368
 20
-35.8
 11
-11.67163887158165
 21
-35.8
 72
     1
 10
-11.67163887158165
 20
-35.8
 11
-13.79986873078567
 21
-38.3363255805726
 72
     1
 10
-13.79986873078567
 20
-38.3363255805726
 11
-10.35356040183521
 21
-38.33628615127011
 72
     1
 10
-10.35356040183521
 20
-38.33628615127011
 11
-8.225363627744368
 21
-35.8
 97
        0
 75
     0
 76
     1
 98
        1
 10
28.0132386859688
 20
-0.0010749287238927
  0
HATCH
  5
C6
330
1F
100
AcDbEntity
  8
중심선
100
AcDbHatch
 10
0.0
 20
0.0
 30
0.0
210
0.0
220
0.0
230
1.0
  2
SOLID
 70
     1
 71
     0
 91
        1
 92
        0
 93
        4
 72
     1
 10
-3.212599636708418
 20
-35.8
 11
-6.658874880545699
 21
-35.8
 72
     1
 10
-6.658874880545699
 20
-35.8
 11
-11.19001288890309
 21
-41.20000000000002
 72
     1
 10
-11.19001288890309
 20
-41.20000000000002
 11
-7.74373764506581
 21
-41.20000000000002
 72
     1
 10
-7.74373764506581
 20
-41.20000000000002
 11
-3.212599636708418
 21
-35.8
 97
        0
 75
     0
 76
     1
 98
        1
 10
28.0132386859688
 20
-0.0010749287238927
  0
HATCH
  5
C7
330
1F
100
AcDbEntity
  8
중심선
100
AcDbHatch
 10
0.0
 20
0.0
 30
0.0
210
0.0
220
0.0
230
1.0
  2
SOLID
 70
     1
 71
     0
 91
        1
 92
        0
 93
        4
 72
     1
 10
1.80016435432745
 20
-35.80000000000003
 11
-1.646110889509639
 21
-35.80000000000003
 72
     1
 10
-1.646110889509639
 20
-35.80000000000003
 11
-8.694547791398886
 21
-44.20000000000002
 72
     1
 10
-8.694547791398886
 20
-44.20000000000002
 11
-5.248272547561609
 21
-44.20000000000002
 72
     1
 10
-5.248272547561609
 20
-44.20000000000002
 11
1.80016435432745
 21
-35.80000000000003
 97
        0
 75
     0
 76
     1
 98
        1
 10
28.0132386859688
 20
-0.0010749287238927
  0
HATCH
  5
C8
330
1F
100
AcDbEntity
  8
중심선
100
AcDbHatch
 10
0.0
 20
0.0
 30
0.0
210
0.0
220
0.0
230
1.0
  2
SOLID
 70
     1
 71
     0
 91
        1
 92
        0
 93
        6
 72
     3
 10
6.600054785339676
 20
-40.00000000005127
 11
3.960054785062283
 21
1.540882976769353E-10
 40
0.3939339440162628
 50
17.09539180608437
 51
320.0019657685086
 73
     0
 72
     1
 10
8.28305444104027
 20
-38.58789400463833
 11
10.58835631474131
 21
-36.65356729459041
 72
     3
 10
6.600054785286829
 20
-40.00000000000015
 11
6.600054785286829
 21
-1.278976924368180E-13
 40
0.636358354079598
 50
39.99873849337384
 51
368.4976242363725
 73
     1
 72
     1
 10
13.02538727718744
 20
-39.03999999993002
 11
5.280122092122753
 21
-39.03999999993002
 72
     1
 10
5.280122092122753
 20
-39.03999999993002
 11
5.280097047676819
 21
-40.95999999992991
 72
     1
 10
5.280097047676819
 20
-40.95999999992991
 11
9.721476817148854
 21
-40.95999999992988
 97
        0
 75
     0
 76
     1
 98
        1
 10
28.0132386859688
 20
-0.0010749287238927
  0
DIMENSION
  5
C9
330
1F
100
AcDbEntity
  8
치수문자_일반주서
100
AcDbDimension
  2
_D
 10
17.46249999999999
 20
12.43482362961351
 30
0.0
 11
44.6915
 21
12.43482362961351
 31
0.0
 70
   160
  1
<>
 71
     2
 42
7.937500000000007
  3
SLDDIMSTYLE2
100
AcDbAlignedDimension
 13
25.4
 23
1.984374999999998
 33
0.0
 14
17.46249999999999
 24
1.984375000000011
 34
0.0
100
AcDbRotatedDimension
1001
PE_URL
1000

1001
ACAD
1000
DSTYLE
1002
{
1070
   171
1070
     8
1070
   273
1070
     7
1002
}
  0
DIMENSION
  5
DE
330
1F
100
AcDbEntity
  8
치수문자_일반주서
100
AcDbDimension
  2
_D_1
 10
-25.40000000000001
 20
22.38125
 30
0.0
 11
0.0
 21
22.38125
 31
0.0
 70
   160
  1
<>
 71
     2
 42
50.8
  3
SLDDIMSTYLE2
100
AcDbAlignedDimension
 13
25.4
 23
1.984374999999998
 33
0.0
 14
-25.40000000000001
 24
1.984374999999998
 34
0.0
100
AcDbRotatedDimension
1001
PE_URL
1000

1001
ACAD
1000
DSTYLE
1002
{
1070
   171
1070
     8
1070
   273
1070
     7
1002
}
  0
DIMENSION
  5
F2
330
1F
100
AcDbEntity
  8
치수문자_일반주서
100
AcDbDimension
  2
_D_2
 10
64.75602745415543
 20
-1.984374999999858
 30
0.0
 11
64.75602745415534
 21
23.02587500000016
 31
0.0
 70
   160
  1
%%c<>
 71
     2
 42
3.96875
 52
-270.0
  3
SLDDIMSTYLE2
100
AcDbAlignedDimension
 13
25.4
 23
1.984374999999998
 33
0.0
 14
25.4
 24
-1.984375000000002
 34
0.0
 50
90.0000000000002
100
AcDbRotatedDimension
1001
PE_URL
1000

1001
ACAD
1000
DSTYLE
1002
{
1070
   171
1070
     8
1070
   273
1070
     7
1002
}
  0
DIMENSION
  5
107
330
1F
100
AcDbEntity
  8
치수문자_일반주서
100
AcDbDimension
  2
_D_3
 10
-35.40000000000001
 20
-2.381250000000076
 30
0.0
 11
-35.40000000000009
 21
22.98524999999996
 31
0.0
 70
   160
  1
%%c<>
 71
     2
 42
4.762500000000008
 52
-270.0
  3
SLDDIMSTYLE2
100
AcDbAlignedDimension
 13
-14.98134233574606
 23
2.381250000000005
 33
0.0
 14
-14.98134233574605
 24
-2.381250000000003
 34
0.0
 50
90.0000000000002
100
AcDbRotatedDimension
1001
PE_URL
1000

1001
ACAD
1000
DSTYLE
1002
{
1070
   171
1070
     8
1070
   273
1070
     7
1002
}
  0
LINE
  5
11B
330
1F
100
AcDbEntity
  8
참조1
100
AcDbLine
 10
96.30723381534558
 20
7.440000000000003
 30
0.0
 11
96.30723381534558
 21
-7.440000000000001
 31
0.0
  0
LINE
  5
11C
330
1F
100
AcDbEntity
  8
참조1
100
AcDbLine
 10
109.0072338153456
 20
5.440000000000003
 30
0.0
 11
96.30723381534558
 21
5.440000000000003
 31
0.0
  0
SOLID
  5
11D
330
1F
100
AcDbEntity
  8
참조1
100
AcDbTrace
 10
96.30723381534558
 20
5.440000000000003
 30
0.0
 11
102.6572338153456
 21
4.424000000000003
 31
0.0
 12
102.6572338153456
 22
6.456000000000003
 32
0.0
 13
102.6572338153456
 23
6.456000000000003
 33
0.0
  0
LINE
  5
11E
330
1F
100
AcDbEntity
  8
참조1
100
AcDbLine
 10
109.0072338153456
 20
-5.440000000000001
 30
0.0
 11
96.30723381534558
 21
-5.440000000000001
 31
0.0
  0
SOLID
  5
11F
330
1F
100
AcDbEntity
  8
참조1
100
AcDbTrace
 10
96.30723381534558
 20
-5.440000000000001
 30
0.0
 11
102.6572338153456
 21
-6.456000000000001
 31
0.0
 12
102.6572338153456
 22
-4.424000000000001
 32
0.0
 13
102.6572338153456
 23
-4.424000000000001
 33
0.0
  0
MTEXT
  5
120
330
1F
100
AcDbEntity
  8
참조1
100
AcDbMText
 10
105.7047239078159
 20
10.98821664464994
 30
0.0
 40
3.5
 41
0.0
 71
     1
 72
     1
  1
A
  7
SLDTEXTSTYLE0
 73
     1
 44
1.0
  0
MTEXT
  5
121
330
1F
100
AcDbEntity
  8
참조1
100
AcDbMText
 10
105.7047239078159
 20
0.1082166446499332
 30
0.0
 40
3.5
 41
0.0
 71
     1
 72
     1
  1
A
  7
SLDTEXTSTYLE0
 73
     1
 44
1.0
  0
INSERT
  5
128
330
1F
100
AcDbEntity
  8
해칭선
100
AcDbBlockReference
  2
SW_DOWELSYMBOL_0
 10
0.0
 20
0.0
 30
0.0
  0
LINE
  5
1CE
330
1F
100
AcDbEntity
  8
0
  6
Continuous
 62
     1
370
    15
100
AcDbLine
 10
-22.14349347342686
 20
-0.5763961218615083
 30
0.0
 11
-22.10826072568033
 21
-0.5953109807774162
 31
0.0
1001
PE_URL
1000

  0
LINE
  5
1CF
330
1F
100
AcDbEntity
  8
0
  6
Continuous
 62
     1
370
    15
100
AcDbLine
 10
-23.15690349933543
 20
1.98437499999998
 30
0.0
 11
-23.41562500000001
 21
1.98437499999998
 31
0.0
1001
PE_URL
1000

  0
LINE
  5
1D0
330
1F
100
AcDbEntity
  8
0
  6
Continuous
 62
     1
370
    15
100
AcDbLine
 10
-18.96828991226351
 20
-1.984374999999996
 30
0.0
 11
-17.75737864358943
 21
-1.984374999999995
 31
0.0
1001
PE_URL
1000

  0
ARC
  5
1D1
330
1F
100
AcDbEntity
  8
0
  6
Continuous
 62
     1
370
    15
100
AcDbCircle
 10
-23.41562500000001
 20
-0.0000000000000071
 30
0.0
 40
1.984374999999984
100
AcDbArc
 50
152.5852420549891
 51
180.0000000000001
1001
PE_URL
1000

  0
ARC
  5
1D2
330
1F
100
AcDbEntity
  8
0
  6
Continuous
 62
     1
370
    15
100
AcDbCircle
 10
-23.41562500000001
 20
-0.0000000000000071
 30
0.0
 40
1.984374999999982
100
AcDbArc
 50
90.00000000000104
 51
115.8773229293305
1001
PE_URL
1000

  0
ARC
  5
1D3
330
1F
100
AcDbEntity
  8
0
  6
Continuous
 62
     1
370
    15
100
AcDbCircle
 10
-23.41562500000001
 20
-0.0000000000000071
 30
0.0
 40
1.984374999999983
100
AcDbArc
 50
244.0202477404885
 51
269.9999999999998
1001
PE_URL
1000

  0
ARC
  5
1D4
330
1F
100
AcDbEntity
  8
0
  6
Continuous
 62
     1
370
    15
100
AcDbCircle
 10
-23.41562500000001
 20
-0.0000000000000071
 30
0.0
 40
1.984374999999983
100
AcDbArc
 50
180.0000000000001
 51
207.4359331029397
1001
PE_URL
1000

  0
LINE
  5
1D5
330
1F
100
AcDbEntity
  8
0
  6
Continuous
 62
     1
370
    15
100
AcDbLine
 10
-17.75737864358945
 20
1.984374999999986
 30
0.0
 11
-18.96828991226355
 21
1.984374999999984
 31
0.0
1001
PE_URL
1000

  0
LINE
  5
1D6
330
1F
100
AcDbEntity
  8
0
  6
Continuous
 62
     1
370
    15
100
AcDbLine
 10
-23.41562500000001
 20
-1.984375
 30
0.0
 11
-23.15690349933539
 21
-1.984375
 31
0.0
1001
PE_URL
1000

  0
LINE
  5
1D7
330
1F
100
AcDbEntity
  8
외형선
  6
Continuous
370
    15
100
AcDbLine
 10
-14.98134233574606
 20
2.381250000000005
 30
0.0
 11
-16.46249999999997
 21
1.984374999999998
 31
0.0
  0
LINE
  5
1D8
330
1F
100
AcDbEntity
  8
외형선
  6
Continuous
370
    15
100
AcDbLine
 10
-16.46249999999996
 20
-1.984375000000002
 30
0.0
 11
-14.98134233574605
 21
-2.381250000000005
 31
0.0
  0
LINE
  5
1D9
330
1F
100
AcDbEntity
  8
외형선
  6
Continuous
370
    15
100
AcDbLine
 10
-16.46249999999997
 20
1.984374999999998
 30
0.0
 11
-17.46249999999997
 21
1.984374999999996
 31
0.0
  0
LINE
  5
1DA
330
1F
100
AcDbEntity
  8
외형선
  6
Continuous
370
    15
100
AcDbLine
 10
-17.46249999999996
 20
-1.984375000000004
 30
0.0
 11
-16.46249999999996
 21
-1.984375000000002
 31
0.0
  0
SPLINE
  5
1DB
330
1F
100
AcDbEntity
  8
0
  6
Continuous
 62
     1
370
    15
100
AcDbSpline
210
0.0
220
0.0
230
1.0
 70
     8
 71
     3
 72
    10
 73
     6
 74
     0
 42
0.000000001
 43
0.00000001
 40
0.0
 40
0.0
 40
0.0
 40
0.0
 40
0.2563786650108519
 40
0.6284031533857659
 40
0.9999999999999999
 40
0.9999999999999999
 40
0.9999999999999999
 40
0.9999999999999999
 10
-21.06829383829245
 20
-1.617880341229341
 30
0.0
 10
-21.26897300375261
 20
-1.683387281961338
 30
0.0
 10
-21.76085254602521
 20
-1.843949659969267
 30
0.0
 10
-22.543259824359
 20
-1.977418659478406
 30
0.0
 10
-23.12494811388773
 20
-1.97829260674134
 30
0.0
 10
-23.41562500000001
 20
-1.978729329078009
 30
0.0
1001
PE_URL
1000

  0
SPLINE
  5
1DC
330
1F
100
AcDbEntity
  8
0
  6
Continuous
 62
     1
370
    15
100
AcDbSpline
210
0.0
220
0.0
230
1.0
 70
     8
 71
     3
 72
    36
 73
    32
 74
     0
 42
0.000000001
 43
0.00000001
 40
0.0
 40
0.0
 40
0.0
 40
0.0
 40
0.125
 40
0.125
 40
0.1875
 40
0.1875
 40
0.25
 40
0.25
 40
0.3125
 40
0.3125
 40
0.375
 40
0.375
 40
0.4375
 40
0.4375
 40
0.5
 40
0.5
 40
0.5625
 40
0.5625
 40
0.625
 40
0.625
 40
0.6875
 40
0.6875
 40
0.75
 40
0.75
 40
0.8125
 40
0.8125
 40
0.875
 40
0.875
 40
0.9375
 40
0.9375
 40
1.0
 40
1.0
 40
1.0
 40
1.0
 10
-23.41562500000001
 20
-1.978729329078
 30
0.0
 10
-23.61746476221897
 20
-1.969981219741202
 30
0.0
 10
-23.81938472389217
 20
-1.92174109385771
 30
0.0
 10
-24.12116007844632
 20
-1.794016264614356
 30
0.0
 10
-24.2191818881456
 20
-1.743192341361819
 30
0.0
 10
-24.40981162609651
 20
-1.625382148161115
 30
0.0
 10
-24.50327829471868
 20
-1.557603907364246
 30
0.0
 10
-24.67810679174174
 20
-1.408612461417029
 30
0.0
 10
-24.75947686403114
 20
-1.32767823677348
 30
0.0
 10
-24.90853287193691
 20
-1.151995454366062
 30
0.0
 10
-24.97646763610621
 20
-1.056548712357234
 30
0.0
 10
-25.09122930720478
 20
-0.8567444453909765
 30
0.0
 10
-25.13899952146476
 20
-0.7513427035022815
 30
0.0
 10
-25.2089942204414
 20
-0.5308108091729427
 30
0.0
 10
-25.23043658354438
 20
-0.4174837678154706
 30
0.0
 10
-25.23727451658086
 20
-0.1977249844941777
 30
0.0
 10
-25.22171163450788
 20
-0.0920388612341387
 30
0.0
 10
-25.15185462782706
 20
0.077501888130298
 30
0.0
 10
-25.09698645340335
 20
0.1419282852406187
 30
0.0
 10
-24.96356470158173
 20
0.2148646108888741
 30
0.0
 10
-24.88619682045321
 20
0.2245787846962664
 30
0.0
 10
-24.72408005918134
 20
0.2069182339199074
 30
0.0
 10
-24.63737652046784
 20
0.1794693099200249
 30
0.0
 10
-24.46212610733195
 20
0.1035664068180555
 30
0.0
 10
-24.37171614579901
 20
0.0544859504935786
 30
0.0
 10
-24.18785716509381
 20
-0.0550592915869146
 30
0.0
 10
-24.0955418803511
 20
-0.1147748236821347
 30
0.0
 10
-23.90715137048
 20
-0.2384501091084665
 30
0.0
 10
-23.81029409302927
 20
-0.3027930126933462
 30
0.0
 10
-23.61514309935866
 20
-0.4263591093193764
 30
0.0
 10
-23.51648900843497
 20
-0.4860668897300382
 30
0.0
 10
-23.41562500000002
 20
-0.5418580426847424
 30
0.0
1001
PE_URL
1000

  0
SPLINE
  5
1DD
330
1F
100
AcDbEntity
  8
0
  6
Continuous
 62
     1
370
    15
100
AcDbSpline
210
0.0
220
0.0
230
1.0
 70
     8
 71
     3
 72
    13
 73
     9
 74
     0
 42
0.000000001
 43
0.00000001
 40
0.0
 40
0.0
 40
0.0
 40
0.0
 40
0.1871808104902781
 40
0.3747392283338338
 40
0.5624442645439315
 40
0.7496912823590448
 40
0.9457694735682185
 40
1.0
 40
1.0
 40
1.0
 40
1.0
 10
-23.41562500000001
 20
-0.5418580426847512
 30
0.0
 10
-23.13822362023843
 20
-0.693073205748231
 30
0.0
 10
-22.58286124779051
 20
-0.9958085842860136
 30
0.0
 10
-21.74888163671218
 20
-1.382081460522576
 30
0.0
 10
-20.91454398456615
 20
-1.692040788578415
 30
0.0
 10
-20.06827948540092
 20
-1.896972740040413
 30
0.0
 10
-19.41974579224485
 20
-1.99266174689177
 30
0.0
 10
-19.04868247417012
 20
-1.975352345545003
 30
0.0
 10
-18.96828991226351
 20
-1.971602184719201
 30
0.0
1001
PE_URL
1000

  0
SPLINE
  5
1DE
330
1F
100
AcDbEntity
  8
0
  6
Continuous
 62
     1
370
    15
100
AcDbSpline
210
0.0
220
0.0
230
1.0
 70
     8
 71
     3
 72
    28
 73
    24
 74
     0
 42
0.000000001
 43
0.00000001
 40
0.0
 40
0.0
 40
0.0
 40
0.0
 40
0.125
 40
0.125
 40
0.25
 40
0.25
 40
0.375
 40
0.375
 40
0.5
 40
0.5
 40
0.5625
 40
0.5625
 40
0.625
 40
0.625
 40
0.6875
 40
0.6875
 40
0.75
 40
0.75
 40
0.875
 40
0.875
 40
0.9375
 40
0.9375
 40
1.0
 40
1.0
 40
1.0
 40
1.0
 10
-17.46249999999996
 20
-1.97707764256401
 30
0.0
 10
-17.70748937376158
 20
-1.989297483543474
 30
0.0
 10
-17.95879580503983
 20
-1.986121838019347
 30
0.0
 10
-18.45662948561153
 20
-1.948715444761751
 30
0.0
 10
-18.70068876169645
 20
-1.914806330677081
 30
0.0
 10
-19.19929874413543
 20
-1.817198377707644
 30
0.0
 10
-19.44802880323223
 20
-1.753727172669416
 30
0.0
 10
-19.94029968003769
 20
-1.601093906674958
 30
0.0
 10
-20.19191907692992
 20
-1.511026670156578
 30
0.0
 10
-20.56446118656431
 20
-1.359835973076652
 30
0.0
 10
-20.68679256798585
 20
-1.306944353477075
 30
0.0
 10
-20.93344077952295
 20
-1.196015497230476
 30
0.0
 10
-21.05802696085993
 20
-1.137920026989473
 30
0.0
 10
-21.30755194733558
 20
-1.017432159604869
 30
0.0
 10
-21.43248646482515
 20
-0.9550417883963487
 30
0.0
 10
-21.68050779815839
 20
-0.82708744068184
 30
0.0
 10
-21.80258120292838
 20
-0.7617121955881707
 30
0.0
 10
-22.1732618410317
 20
-0.5607440724950603
 30
0.0
 10
-22.42502087946014
 20
-0.4204629428589985
 30
0.0
 10
-22.7964807828898
 20
-0.2078958632907408
 30
0.0
 10
-22.91845658423247
 20
-0.1368505840443071
 30
0.0
 10
-23.16600840161377
 20
0.006185482818255
 30
0.0
 10
-23.29083683466889
 20
0.0780336397423209
 30
0.0
 10
-23.41562500000002
 20
0.1495806901691896
 30
0.0
1001
PE_URL
1000

  0
SPLINE
  5
1DF
330
1F
100
AcDbEntity
  8
0
  6
Continuous
 62
     1
370
    15
100
AcDbSpline
210
0.0
220
0.0
230
1.0
 70
     8
 71
     3
 72
    36
 73
    32
 74
     0
 42
0.000000001
 43
0.00000001
 40
0.0
 40
0.0
 40
0.0
 40
0.0
 40
0.125
 40
0.125
 40
0.1875
 40
0.1875
 40
0.25
 40
0.25
 40
0.3125
 40
0.3125
 40
0.375
 40
0.375
 40
0.4375000000000001
 40
0.4375000000000001
 40
0.5
 40
0.5
 40
0.5625
 40
0.5625
 40
0.625
 40
0.625
 40
0.6875
 40
0.6875
 40
0.75
 40
0.75
 40
0.8125000000000001
 40
0.8125000000000001
 40
0.8750000000000001
 40
0.8750000000000001
 40
0.9375000000000001
 40
0.9375000000000001
 40
1.0
 40
1.0
 40
1.0
 40
1.0
 10
-23.41562500000001
 20
0.1495806901691861
 30
0.0
 10
-23.61746476221896
 20
0.2653051229093126
 30
0.0
 10
-23.81938472389217
 20
0.3679826966198796
 30
0.0
 10
-24.12116007844629
 20
0.4846797950378399
 30
0.0
 10
-24.21918188814561
 20
0.516237563524534
 30
0.0
 10
-24.40981162609652
 20
0.5662598859114585
 30
0.0
 10
-24.50327829471868
 20
0.5847941712230273
 30
0.0
 10
-24.67810679174175
 20
0.6107818788293908
 30
0.0
 10
-24.75947686403114
 20
0.6183637131331228
 30
0.0
 10
-24.90853287193693
 20
0.628628327082378
 30
0.0
 10
-24.97646763610621
 20
0.6312768676658553
 30
0.0
 10
-25.09122930720481
 20
0.6398238514538388
 30
0.0
 10
-25.13899952146473
 20
0.6455884696389944
 30
0.0
 10
-25.2089942204414
 20
0.6733400296353498
 30
0.0
 10
-25.23043658354438
 20
0.6952782870647258
 30
0.0
 10
-25.23727451658087
 20
0.7705475623654507
 30
0.0
 10
-25.22171163450788
 20
0.8249882207838137
 30
0.0
 10
-25.15185462782706
 20
0.9646376441695814
 30
0.0
 10
-25.09698645340335
 20
1.05085251296321
 30
0.0
 10
-24.96356470158172
 20
1.228465245091511
 30
0.0
 10
-24.88619682045321
 20
1.31835774321009
 30
0.0
 10
-24.72408005918134
 20
1.48196303978977
 30
0.0
 10
-24.63737652046784
 20
1.557609151216282
 30
0.0
 10
-24.46212610733198
 20
1.68675478675863
 30
0.0
 10
-24.37171614579902
 20
1.741864865142816
 30
0.0
 10
-24.18785716509381
 20
1.830791676816323
 30
0.0
 10
-24.0955418803511
 20
1.864277355650001
 30
0.0
 10
-23.90715137048001
 20
1.911160290429855
 30
0.0
 10
-23.81029409302926
 20
1.924485958822292
 30
0.0
 10
-23.61514309935865
 20
1.931192363583007
 30
0.0
 10
-23.51648900843495
 20
1.924797797288065
 30
0.0
 10
-23.41562500000002
 20
1.908961498355266
 30
0.0
1001
PE_URL
1000

  0
SPLINE
  5
1E0
330
1F
100
AcDbEntity
  8
0
  6
Continuous
 62
     1
370
    15
100
AcDbSpline
210
0.0
220
0.0
230
1.0
 70
     8
 71
     3
 72
    28
 73
    24
 74
     0
 42
0.000000001
 43
0.00000001
 40
0.0
 40
0.0
 40
0.0
 40
0.0
 40
0.1249999999999977
 40
0.1249999999999977
 40
0.2499999999999953
 40
0.2499999999999953
 40
0.374999999999993
 40
0.374999999999993
 40
0.4999999999999907
 40
0.4999999999999907
 40
0.5624999999999908
 40
0.5624999999999908
 40
0.624999999999991
 40
0.624999999999991
 40
0.6874999999999911
 40
0.6874999999999911
 40
0.7499999999999913
 40
0.7499999999999913
 40
0.8749999999999943
 40
0.8749999999999943
 40
0.9374999999999971
 40
0.9374999999999971
 40
1.0
 40
1.0
 40
1.0
 40
1.0
 10
-17.46249999999998
 20
-0.8412937808769616
 30
0.0
 10
-17.70748937376159
 20
-0.7121258562106991
 30
0.0
 10
-17.95879580503983
 20
-0.5752634811938204
 30
0.0
 10
-18.45662948561157
 20
-0.2954986873824836
 30
0.0
 10
-18.70068876169645
 20
-0.1531325261770462
 30
0.0
 10
-19.19929874413542
 20
0.133764770301811
 30
0.0
 10
-19.44802880323225
 20
0.277165369646637
 30
0.0
 10
-19.94029968003768
 20
0.5564736612719638
 30
0.0
 10
-20.19191907692991
 20
0.6938744073978533
 30
0.0
 10
-20.56446118656434
 20
0.8893646927400507
 30
0.0
 10
-20.68679256798587
 20
0.9525996722207903
 30
0.0
 10
-20.93344077952295
 20
1.075467118362534
 30
0.0
 10
-21.05802696085993
 20
1.135131105601683
 30
0.0
 10
-21.30755194733555
 20
1.249824525224181
 30
0.0
 10
-21.43248646482515
 20
1.304851935150229
 30
0.0
 10
-21.68050779815837
 20
1.40933155958478
 30
0.0
 10
-21.80258120292839
 20
1.458662665452474
 30
0.0
 10
-22.17326184103167
 20
1.598462129503238
 30
0.0
 10
-22.42502087946013
 20
1.680367371240068
 30
0.0
 10
-22.79648078288982
 20
1.781970059188231
 30
0.0
 10
-22.91845658423247
 20
1.812278215675061
 30
0.0
 10
-23.16600840161374
 20
1.86601990678356
 30
0.0
 10
-23.29083683466888
 20
1.889368952707688
 30
0.0
 10
-23.41562500000001
 20
1.90896149835527
 30
0.0
1001
PE_URL
1000

  0
SPLINE
  5
1E1
330
1F
100
AcDbEntity
  8
0
  6
Continuous
 62
     1
370
    15
100
AcDbSpline
210
0.0
220
0.0
230
1.0
 70
     8
 71
     3
 72
    14
 73
    10
 74
     0
 42
0.000000001
 43
0.00000001
 40
0.0
 40
0.0
 40
0.0
 40
0.0
 40
0.1465510798413019
 40
0.2927703737697139
 40
0.4389360392291022
 40
0.5853275165919125
 40
0.7389243493791131
 40
0.8922715117957597
 40
0.9999999999999999
 40
0.9999999999999999
 40
0.9999999999999999
 40
0.9999999999999999
 10
-17.46249999999997
 20
-0.1700239274294013
 30
0.0
 10
-17.74076578009495
 20
-0.0092320778397266
 30
0.0
 10
-18.29666735744222
 20
0.3119875948810034
 30
0.0
 10
-19.12954138507175
 20
0.7790114415416216
 30
0.0
 10
-19.96209547419192
 20
1.199282123577232
 30
0.0
 10
-20.80891419411519
 20
1.556218457509067
 30
0.0
 10
-21.66990789195666
 20
1.818030974407721
 30
0.0
 10
-22.45700677915909
 20
1.968284192158604
 30
0.0
 10
-22.95246215059162
 20
1.970243867353201
 30
0.0
 10
-23.15690349933542
 20
1.9710524944526
 30
0.0
1001
PE_URL
1000

  0
SPLINE
  5
1E2
330
1F
100
AcDbEntity
  8
0
  6
Continuous
 62
     1
370
    15
100
AcDbSpline
210
0.0
220
0.0
230
1.0
 70
     8
 71
     3
 72
    12
 73
     8
 74
     0
 42
0.000000001
 43
0.00000001
 40
0.0
 40
0.0
 40
0.0
 40
0.0
 40
0.0427815276312277
 40
0.2737324168687043
 40
0.5155756950593772
 40
0.7575787826955694
 40
1.0
 40
1.0
 40
1.0
 40
1.0
 10
-21.06829383829248
 20
1.617880341229327
 30
0.0
 10
-21.01685421301536
 20
1.637069426869996
 30
0.0
 10
-20.68772400823866
 20
1.759848464477036
 30
0.0
 10
-20.06830837988855
 20
1.897802477939829
 30
0.0
 10
-19.20927063126892
 20
2.000945467393205
 30
0.0
 10
-18.33645986500395
 20
1.976860058744894
 30
0.0
 10
-17.75398754152749
 20
1.857128753130244
 30
0.0
 10
-17.46249999999998
 20
1.797211427429358
 30
0.0
1001
PE_URL
1000

  0
LINE
  5
1E3
330
1F
100
AcDbEntity
  8
외형선
  6
Continuous
370
    15
100
AcDbLine
 10
-17.46249999999997
 20
-0.1700239274294013
 30
0.0
 11
-17.46249999999998
 21
-0.8412937808769616
 31
0.0
  0
SPLINE
  5
1E4
330
1F
100
AcDbEntity
  8
0
  6
Continuous
 62
     1
370
    15
100
AcDbSpline
210
0.0
220
0.0
230
1.0
 70
     8
 71
     3
 72
    14
 73
    10
 74
     0
 42
0.000000001
 43
0.00000001
 40
0.0
 40
0.0
 40
0.0
 40
0.0
 40
0.0633612193743595
 40
0.224144745292059
 40
0.3869007620339435
 40
0.6268099089224937
 40
0.7896759839238422
 40
0.9571182980320833
 40
1.0
 40
1.0
 40
1.0
 40
1.0
 10
-25.17358328438037
 20
-0.912632167669388
 30
0.0
 10
-25.16617584782563
 20
-0.9290929278702968
 30
0.0
 10
-25.13997152290538
 20
-0.9873240184171461
 30
0.0
 10
-25.04451712959595
 20
-1.124542109605958
 30
0.0
 10
-24.88777742142452
 20
-1.320211144276897
 30
0.0
 10
-24.7024937043095
 20
-1.506022107495266
 30
0.0
 10
-24.5068910676534
 20
-1.655750499770528
 30
0.0
 10
-24.37565854356599
 20
-1.743068005476347
 30
0.0
 10
-24.29897014084243
 20
-1.774344432841696
 30
0.0
 10
-24.28333460244155
 20
-1.780721195999435
 30
0.0
1001
PE_URL
1000

  0
LINE
  5
1E5
330
1F
100
AcDbEntity
  8
0
  6
Continuous
 62
     1
370
    15
100
AcDbLine
 10
-17.46249999999997
 20
1.977077642564003
 30
0.0
 11
-17.75737864358945
 21
1.971053154463016
 31
0.0
1001
PE_URL
1000

  0
LINE
  5
1E6
330
1F
100
AcDbEntity
  8
외형선
  6
Continuous
370
    15
100
AcDbLine
 10
-17.46249999999997
 20
1.977077642564003
 30
0.0
 11
-17.46249999999998
 21
1.797211427429358
 31
0.0
  0
LINE
  5
1E7
330
1F
100
AcDbEntity
  8
외형선
  6
Continuous
370
    15
100
AcDbLine
 10
-14.98134233574605
 20
0.0
 30
0.0
 11
-14.98134233574605
 21
-2.381250000000003
 31
0.0
  0
LINE
  5
1E8
330
1F
100
AcDbEntity
  8
외형선
  6
Continuous
370
    15
100
AcDbLine
 10
-14.98134233574606
 20
2.381250000000003
 30
0.0
 11
-14.98134233574605
 21
0.0
 31
0.0
  0
LINE
  5
1E9
330
1F
100
AcDbEntity
  8
외형선
  6
Continuous
370
    15
100
AcDbLine
 10
-16.46249999999997
 20
-0.0000000000000018
 30
0.0
 11
-16.46249999999996
 21
-1.984375000000002
 31
0.0
  0
LINE
  5
1EA
330
1F
100
AcDbEntity
  8
외형선
  6
Continuous
370
    15
100
AcDbLine
 10
-16.46249999999997
 20
1.984374999999998
 30
0.0
 11
-16.46249999999997
 21
-0.0000000000000018
 31
0.0
  0
LINE
  5
1EB
330
1F
100
AcDbEntity
  8
외형선
  6
Continuous
370
    15
100
AcDbLine
 10
-17.46249999999997
 20
-0.0000000000000036
 30
0.0
 11
-17.46249999999996
 21
-1.984375000000004
 31
0.0
  0
LINE
  5
1EC
330
1F
100
AcDbEntity
  8
외형선
  6
Continuous
370
    15
100
AcDbLine
 10
-17.46249999999997
 20
1.984374999999996
 30
0.0
 11
-17.46249999999997
 21
-0.0000000000000036
 31
0.0
  0
ENDSEC
  0
SECTION
  2
OBJECTS
  0
DICTIONARY
  5
C
330
0
100
AcDbDictionary
281
     1
  3
ACAD_GROUP
350
D
  3
ACAD_LAYOUT
350
1A
  3
ACAD_MLINESTYLE
350
17
  3
ACAD_PLOTSETTINGS
350
19
  3
ACAD_PLOTSTYLENAME
350
E
  3
ACAD_SCALELIST
350
47
  3
APPDATA
350
14A
  3
DWGPROPS
350
1EE
  0
DICTIONARY
  5
183
330
2
100
AcDbDictionary
280
     1
281
     1
  3
ACAD_LAYERSTATES
360
184
  0
DICTIONARY
  5
D
102
{ACAD_REACTORS
330
C
102
}
330
C
100
AcDbDictionary
281
     1
  0
DICTIONARY
  5
1A
102
{ACAD_REACTORS
330
C
102
}
330
C
100
AcDbDictionary
281
     1
  3
Layout1
350
1E
  3
Layout2
350
26
  3
Model
350
22
  0
DICTIONARY
  5
17
102
{ACAD_REACTORS
330
C
102
}
330
C
100
AcDbDictionary
281
     1
  3
Standard
350
18
  0
DICTIONARY
  5
19
102
{ACAD_REACTORS
330
C
102
}
330
C
100
AcDbDictionary
281
     1
  0
ACDBDICTIONARYWDFLT
  5
E
102
{ACAD_REACTORS
330
C
102
}
330
C
100
AcDbDictionary
281
     1
  3
Normal
350
F
100
AcDbDictionaryWithDefault
340
F
  0
DICTIONARY
  5
47
102
{ACAD_REACTORS
330
C
102
}
330
C
100
AcDbDictionary
281
     1
  3
A0
350
48
  3
A1
350
49
  3
A2
350
4A
  3
A3
350
4B
  3
A4
350
4C
  3
A5
350
4D
  3
A6
350
4E
  3
A7
350
4F
  3
A8
350
50
  3
A9
350
51
  3
B0
350
52
  3
B1
350
53
  3
B2
350
54
  3
B3
350
55
  3
B4
350
56
  3
B5
350
57
  3
B6
350
58
  3
B7
350
59
  3
B8
350
5A
  3
B9
350
5B
  3
C0
350
5C
  3
C1
350
5D
  3
C2
350
5E
  3
C3
350
5F
  3
C4
350
60
  3
C5
350
61
  3
C6
350
62
  3
C7
350
63
  3
C8
350
64
  3
C9
350
65
  3
D0
350
66
  3
D1
350
67
  3
D2
350
68
  0
DICTIONARY
  5
14A
102
{ACAD_REACTORS
330
C
102
}
330
C
100
AcDbDictionary
281
     1
  0
XRECORD
  5
1EE
102
{ACAD_REACTORS
330
C
102
}
330
C
100
AcDbXrecord
280
     1
  1
DWGPROPS COOKIE
  2

  3

  4

  6

  7

  8
120170442
  9

300
=
301
=
302
=
303
=
304
=
305
=
306
=
307
=
308
=
309
=
 40
0.0
 41
2458319.999897164
 42
2458324.261243819
  1

 90
        0
  0
DICTIONARY
  5
184
102
{ACAD_REACTORS
330
183
102
}
330
183
100
AcDbDictionary
281
     1
  0
LAYOUT
  5
1E
102
{ACAD_REACTORS
330
1A
102
}
330
1A
100
AcDbPlotSettings
  1

  2
none_device
  4

  6

 40
0.0
 41
0.0
 42
0.0
 43
0.0
 44
0.0
 45
0.0
 46
0.0
 47
0.0
 48
0.0
 49
0.0
140
0.0
141
0.0
142
1.0
143
1.0
 70
   688
 72
     1
 73
     0
 74
     5
  7

 75
    16
147
1.0
148
0.0
149
0.0
100
AcDbLayout
  1
Layout1
 70
     1
 71
     1
 10
0.0
 20
0.0
 11
420.0
 21
297.0
 12
0.0
 22
0.0
 32
0.0
 14
1.000000000000000E+20
 24
1.000000000000000E+20
 34
1.000000000000000E+20
 15
-1.000000000000000E+20
 25
-1.000000000000000E+20
 35
-1.000000000000000E+20
146
0.0
 13
0.0
 23
0.0
 33
0.0
 16
1.0
 26
0.0
 36
0.0
 17
0.0
 27
1.0
 37
0.0
 76
     0
330
1B
  0
LAYOUT
  5
26
102
{ACAD_REACTORS
330
1A
102
}
330
1A
100
AcDbPlotSettings
  1

  2
none_device
  4

  6

 40
0.0
 41
0.0
 42
0.0
 43
0.0
 44
0.0
 45
0.0
 46
0.0
 47
0.0
 48
0.0
 49
0.0
140
0.0
141
0.0
142
1.0
143
1.0
 70
   688
 72
     1
 73
     0
 74
     5
  7

 75
    16
147
1.0
148
0.0
149
0.0
100
AcDbLayout
  1
Layout2
 70
     1
 71
     2
 10
0.0
 20
0.0
 11
0.0
 21
0.0
 12
0.0
 22
0.0
 32
0.0
 14
0.0
 24
0.0
 34
0.0
 15
0.0
 25
0.0
 35
0.0
146
0.0
 13
0.0
 23
0.0
 33
0.0
 16
1.0
 26
0.0
 36
0.0
 17
0.0
 27
1.0
 37
0.0
 76
     0
330
23
  0
LAYOUT
  5
22
102
{ACAD_REACTORS
330
1A
102
}
330
1A
100
AcDbPlotSettings
  1

  2
none_device
  4
ANSI_A_(11.00_x_8.50_Inches)
  6

 40
6.35
 41
19.05
 42
6.35000508
 43
19.05000254
 44
279.4
 45
215.9
 46
130.4635711599334
 47
92.5327765161144
 48
0.0
 49
0.0
140
0.0
141
0.0
142
0.0686302585991976
143
1.0
 70
  1696
 72
     0
 73
     0
 74
     0
  7

 75
     0
147
0.0235690232323232
148
0.0
149
0.0
100
AcDbLayout
  1
Model
 70
     1
 71
     0
 10
0.0
 20
0.0
 11
420.0
 21
297.0
 12
0.0
 22
0.0
 32
0.0
 14
-39.77500000000013
 24
-49.97180738881175
 34
0.0
 15
109.0072338153456
 25
37.46337500000016
 35
0.0
146
0.0
 13
0.0
 23
0.0
 33
0.0
 16
1.0
 26
0.0
 36
0.0
 17
0.0
 27
1.0
 37
0.0
 76
     0
330
1F
331
29
  0
MLINESTYLE
  5
18
102
{ACAD_REACTORS
330
17
102
}
330
17
100
AcDbMlineStyle
  2
Standard
 70
     0
  3

 62
   256
 51
90.0
 52
90.0
 71
     2
 49
0.5
 62
   256
  6
BYLAYER
 49
-0.5
 62
   256
  6
BYLAYER
  0
ACDBPLACEHOLDER
  5
F
102
{ACAD_REACTORS
330
E
102
}
330
E
  0
SCALE
  5
48
102
{ACAD_REACTORS
330
47
102
}
330
47
100
AcDbScale
 70
     0
300
1:1
140
1.0
141
1.0
290
     1
  0
SCALE
  5
49
102
{ACAD_REACTORS
330
47
102
}
330
47
100
AcDbScale
 70
     0
300
1:2
140
1.0
141
2.0
290
     0
  0
SCALE
  5
4A
102
{ACAD_REACTORS
330
47
102
}
330
47
100
AcDbScale
 70
     0
300
1:4
140
1.0
141
4.0
290
     0
  0
SCALE
  5
4B
102
{ACAD_REACTORS
330
47
102
}
330
47
100
AcDbScale
 70
     0
300
1:5
140
1.0
141
5.0
290
     0
  0
SCALE
  5
4C
102
{ACAD_REACTORS
330
47
102
}
330
47
100
AcDbScale
 70
     0
300
1:8
140
1.0
141
8.0
290
     0
  0
SCALE
  5
4D
102
{ACAD_REACTORS
330
47
102
}
330
47
100
AcDbScale
 70
     0
300
1:10
140
1.0
141
10.0
290
     0
  0
SCALE
  5
4E
102
{ACAD_REACTORS
330
47
102
}
330
47
100
AcDbScale
 70
     0
300
1:16
140
1.0
141
16.0
290
     0
  0
SCALE
  5
4F
102
{ACAD_REACTORS
330
47
102
}
330
47
100
AcDbScale
 70
     0
300
1:20
140
1.0
141
20.0
290
     0
  0
SCALE
  5
50
102
{ACAD_REACTORS
330
47
102
}
330
47
100
AcDbScale
 70
     0
300
1:30
140
1.0
141
30.0
290
     0
  0
SCALE
  5
51
102
{ACAD_REACTORS
330
47
102
}
330
47
100
AcDbScale
 70
     0
300
1:40
140
1.0
141
40.0
290
     0
  0
SCALE
  5
52
102
{ACAD_REACTORS
330
47
102
}
330
47
100
AcDbScale
 70
     0
300
1:50
140
1.0
141
50.0
290
     0
  0
SCALE
  5
53
102
{ACAD_REACTORS
330
47
102
}
330
47
100
AcDbScale
 70
     0
300
1:100
140
1.0
141
100.0
290
     0
  0
SCALE
  5
54
102
{ACAD_REACTORS
330
47
102
}
330
47
100
AcDbScale
 70
     0
300
2:1
140
2.0
141
1.0
290
     0
  0
SCALE
  5
55
102
{ACAD_REACTORS
330
47
102
}
330
47
100
AcDbScale
 70
     0
300
4:1
140
4.0
141
1.0
290
     0
  0
SCALE
  5
56
102
{ACAD_REACTORS
330
47
102
}
330
47
100
AcDbScale
 70
     0
300
8:1
140
8.0
141
1.0
290
     0
  0
SCALE
  5
57
102
{ACAD_REACTORS
330
47
102
}
330
47
100
AcDbScale
 70
     0
300
10:1
140
10.0
141
1.0
290
     0
  0
SCALE
  5
58
102
{ACAD_REACTORS
330
47
102
}
330
47
100
AcDbScale
 70
     0
300
100:1
140
100.0
141
1.0
290
     0
  0
SCALE
  5
59
102
{ACAD_REACTORS
330
47
102
}
330
47
100
AcDbScale
 70
     0
300
1/128" = 1'-0"
140
0.0078125
141
12.0
290
     0
  0
SCALE
  5
5A
102
{ACAD_REACTORS
330
47
102
}
330
47
100
AcDbScale
 70
     0
300
1/64" = 1'-0"
140
0.015625
141
12.0
290
     0
  0
SCALE
  5
5B
102
{ACAD_REACTORS
330
47
102
}
330
47
100
AcDbScale
 70
     0
300
1/32" = 1'-0"
140
0.03125
141
12.0
290
     0
  0
SCALE
  5
5C
102
{ACAD_REACTORS
330
47
102
}
330
47
100
AcDbScale
 70
     0
300
1/16" = 1'-0"
140
0.0625
141
12.0
290
     0
  0
SCALE
  5
5D
102
{ACAD_REACTORS
330
47
102
}
330
47
100
AcDbScale
 70
     0
300
3/32" = 1'-0"
140
0.09375
141
12.0
290
     0
  0
SCALE
  5
5E
102
{ACAD_REACTORS
330
47
102
}
330
47
100
AcDbScale
 70
     0
300
1/8" = 1'-0"
140
0.125
141
12.0
290
     0
  0
SCALE
  5
5F
102
{ACAD_REACTORS
330
47
102
}
330
47
100
AcDbScale
 70
     0
300
3/16" = 1'-0"
140
0.1875
141
12.0
290
     0
  0
SCALE
  5
60
102
{ACAD_REACTORS
330
47
102
}
330
47
100
AcDbScale
 70
     0
300
1/4" = 1'-0"
140
0.25
141
12.0
290
     0
  0
SCALE
  5
61
102
{ACAD_REACTORS
330
47
102
}
330
47
100
AcDbScale
 70
     0
300
3/8" = 1'-0"
140
0.375
141
12.0
290
     0
  0
SCALE
  5
62
102
{ACAD_REACTORS
330
47
102
}
330
47
100
AcDbScale
 70
     0
300
1/2" = 1'-0"
140
0.5
141
12.0
290
     0
  0
SCALE
  5
63
102
{ACAD_REACTORS
330
47
102
}
330
47
100
AcDbScale
 70
     0
300
3/4" = 1'-0"
140
0.75
141
12.0
290
     0
  0
SCALE
  5
64
102
{ACAD_REACTORS
330
47
102
}
330
47
100
AcDbScale
 70
     0
300
1" = 1'-0"
140
1.0
141
12.0
290
     0
  0
SCALE
  5
65
102
{ACAD_REACTORS
330
47
102
}
330
47
100
AcDbScale
 70
     0
300
1-1/2" = 1'-0"
140
1.5
141
12.0
290
     0
  0
SCALE
  5
66
102
{ACAD_REACTORS
330
47
102
}
330
47
100
AcDbScale
 70
     0
300
3" = 1'-0"
140
3.0
141
12.0
290
     0
  0
SCALE
  5
67
102
{ACAD_REACTORS
330
47
102
}
330
47
100
AcDbScale
 70
     0
300
6" = 1'-0"
140
6.0
141
12.0
290
     0
  0
SCALE
  5
68
102
{ACAD_REACTORS
330
47
102
}
330
47
100
AcDbScale
 70
     0
300
1'-0" = 1'-0"
140
12.0
141
12.0
290
     0
  0
ENDSEC
  0
EOF
