  0
SECTION
  2
HEADER
  9
$ACADVER
  1
AC1015
  9
$ACADMAINTVER
 70
     6
  9
$DWGCODEPAGE
  3
ANSI_949
  9
$INSBASE
 10
0.0
 20
0.0
 30
0.0
  9
$EXTMIN
 10
-46.12500000000008
 20
-49.97180738881175
 30
0.0
  9
$EXTMAX
 10
102.6572338153456
 20
38.25712500000012
 30
0.0
  9
$LIMMIN
 10
0.0
 20
0.0
  9
$LIMMAX
 10
420.0
 20
297.0
  9
$ORTHOMODE
 70
     1
  9
$REGENMODE
 70
     1
  9
$FILLMODE
 70
     1
  9
$QTEXTMODE
 70
     0
  9
$MIRRTEXT
 70
     1
  9
$LTSCALE
 40
1.0
  9
$ATTMODE
 70
     1
  9
$TEXTSIZE
 40
3.5
  9
$TRACEWID
 40
1.0
  9
$TEXTSTYLE
  7
Standard
  9
$CLAYER
  8
0
  9
$CELTYPE
  6
ByLayer
  9
$CECOLOR
 62
   256
  9
$CELTSCALE
 40
1.0
  9
$DISPSILH
 70
     0
  9
$DIMSCALE
 40
1.0
  9
$DIMASZ
 40
3.302
  9
$DIMEXO
 40
1.0
  9
$DIMDLI
 40
3.75
  9
$DIMRND
 40
0.0
  9
$DIMDLE
 40
0.0
  9
$DIMEXE
 40
1.0
  9
$DIMTP
 40
0.0
  9
$DIMTM
 40
0.0
  9
$DIMTXT
 40
3.5
  9
$DIMCEN
 40
2.5
  9
$DIMTSZ
 40
0.0
  9
$DIMTOL
 70
     0
  9
$DIMLIM
 70
     0
  9
$DIMTIH
 70
     1
  9
$DIMTOH
 70
     1
  9
$DIMSE1
 70
     0
  9
$DIMSE2
 70
     0
  9
$DIMTAD
 70
     1
  9
$DIMZIN
 70
     0
  9
$DIMBLK
  1

  9
$DIMASO
 70
     1
  9
$DIMSHO
 70
     1
  9
$DIMPOST
  1

  9
$DIMAPOST
  1

  9
$DIMALT
 70
     0
  9
$DIMALTD
 70
     3
  9
$DIMALTF
 40
0.0393700787401575
  9
$DIMLFAC
 40
1.0
  9
$DIMTOFL
 70
     1
  9
$DIMTVP
 40
0.0
  9
$DIMTIX
 70
     0
  9
$DIMSOXD
 70
     0
  9
$DIMSAH
 70
     0
  9
$DIMBLK1
  1

  9
$DIMBLK2
  1

  9
$DIMSTYLE
  2
ISO-25
  9
$DIMCLRD
 70
     0
  9
$DIMCLRE
 70
     0
  9
$DIMCLRT
 70
     0
  9
$DIMTFAC
 40
1.0
  9
$DIMGAP
 40
1.524
  9
$DIMJUST
 70
     0
  9
$DIMSD1
 70
     0
  9
$DIMSD2
 70
     0
  9
$DIMTOLJ
 70
     0
  9
$DIMTZIN
 70
     0
  9
$DIMALTZ
 70
     0
  9
$DIMALTTZ
 70
     0
  9
$DIMUPT
 70
     0
  9
$DIMDEC
 70
     2
  9
$DIMTDEC
 70
     2
  9
$DIMALTU
 70
     2
  9
$DIMALTTD
 70
     3
  9
$DIMTXSTY
  7
Standard
  9
$DIMAUNIT
 70
     0
  9
$DIMADEC
 70
     2
  9
$DIMALTRND
 40
0.0
  9
$DIMAZIN
 70
     0
  9
$DIMDSEP
 70
    44
  9
$DIMATFIT
 70
     3
  9
$DIMFRAC
 70
     0
  9
$DIMLDRBLK
  1

  9
$DIMLUNIT
 70
     2
  9
$DIMLWD
 70
    -2
  9
$DIMLWE
 70
    -2
  9
$DIMTMOVE
 70
     0
  9
$LUNITS
 70
     2
  9
$LUPREC
 70
     2
  9
$SKETCHINC
 40
1.0
  9
$FILLETRAD
 40
10.0
  9
$AUNITS
 70
     0
  9
$AUPREC
 70
     2
  9
$MENU
  1
.
  9
$ELEVATION
 40
0.0
  9
$PELEVATION
 40
0.0
  9
$THICKNESS
 40
0.0
  9
$LIMCHECK
 70
     0
  9
$CHAMFERA
 40
0.0
  9
$CHAMFERB
 40
0.0
  9
$CHAMFERC
 40
0.0
  9
$CHAMFERD
 40
0.0
  9
$SKPOLY
 70
     0
  9
$TDCREATE
 40
2458320.375320023
  9
$TDUCREATE
 40
2458320.000320023
  9
$TDUPDATE
 40
2458324.639316852
  9
$TDUUPDATE
 40
2458324.264316852
  9
$TDINDWG
 40
0.0024025694
  9
$TDUSRTIMER
 40
0.0024025579
  9
$USRTIMER
 70
     1
  9
$ANGBASE
 50
0.0
  9
$ANGDIR
 70
     0
  9
$PDMODE
 70
     0
  9
$PDSIZE
 40
-1.0
  9
$PLINEWID
 40
0.0
  9
$SPLFRAME
 70
     0
  9
$SPLINETYPE
 70
     6
  9
$SPLINESEGS
 70
     8
  9
$HANDSEED
  5
1EB
  9
$SURFTAB1
 70
     6
  9
$SURFTAB2
 70
     6
  9
$SURFTYPE
 70
     6
  9
$SURFU
 70
     6
  9
$SURFV
 70
     6
  9
$UCSBASE
  2

  9
$UCSNAME
  2

  9
$UCSORG
 10
0.0
 20
0.0
 30
0.0
  9
$UCSXDIR
 10
1.0
 20
0.0
 30
0.0
  9
$UCSYDIR
 10
0.0
 20
1.0
 30
0.0
  9
$UCSORTHOREF
  2

  9
$UCSORTHOVIEW
 70
     0
  9
$UCSORGTOP
 10
0.0
 20
0.0
 30
0.0
  9
$UCSORGBOTTOM
 10
0.0
 20
0.0
 30
0.0
  9
$UCSORGLEFT
 10
0.0
 20
0.0
 30
0.0
  9
$UCSORGRIGHT
 10
0.0
 20
0.0
 30
0.0
  9
$UCSORGFRONT
 10
0.0
 20
0.0
 30
0.0
  9
$UCSORGBACK
 10
0.0
 20
0.0
 30
0.0
  9
$PUCSBASE
  2

  9
$PUCSNAME
  2

  9
$PUCSORG
 10
0.0
 20
0.0
 30
0.0
  9
$PUCSXDIR
 10
1.0
 20
0.0
 30
0.0
  9
$PUCSYDIR
 10
0.0
 20
1.0
 30
0.0
  9
$PUCSORTHOREF
  2

  9
$PUCSORTHOVIEW
 70
     0
  9
$PUCSORGTOP
 10
0.0
 20
0.0
 30
0.0
  9
$PUCSORGBOTTOM
 10
0.0
 20
0.0
 30
0.0
  9
$PUCSORGLEFT
 10
0.0
 20
0.0
 30
0.0
  9
$PUCSORGRIGHT
 10
0.0
 20
0.0
 30
0.0
  9
$PUCSORGFRONT
 10
0.0
 20
0.0
 30
0.0
  9
$PUCSORGBACK
 10
0.0
 20
0.0
 30
0.0
  9
$USERI1
 70
     0
  9
$USERI2
 70
     0
  9
$USERI3
 70
     0
  9
$USERI4
 70
     0
  9
$USERI5
 70
     0
  9
$USERR1
 40
0.0
  9
$USERR2
 40
0.0
  9
$USERR3
 40
0.0
  9
$USERR4
 40
0.0
  9
$USERR5
 40
0.0
  9
$WORLDVIEW
 70
     1
  9
$SHADEDGE
 70
     3
  9
$SHADEDIF
 70
    70
  9
$TILEMODE
 70
     1
  9
$MAXACTVP
 70
    64
  9
$PINSBASE
 10
0.0
 20
0.0
 30
0.0
  9
$PLIMCHECK
 70
     0
  9
$PEXTMIN
 10
1.000000000000000E+20
 20
1.000000000000000E+20
 30
1.000000000000000E+20
  9
$PEXTMAX
 10
-1.000000000000000E+20
 20
-1.000000000000000E+20
 30
-1.000000000000000E+20
  9
$PLIMMIN
 10
0.0
 20
0.0
  9
$PLIMMAX
 10
0.0
 20
0.0
  9
$UNITMODE
 70
     0
  9
$VISRETAIN
 70
     1
  9
$PLINEGEN
 70
     0
  9
$PSLTSCALE
 70
     1
  9
$TREEDEPTH
 70
  3020
  9
$CMLSTYLE
  2
Standard
  9
$CMLJUST
 70
     0
  9
$CMLSCALE
 40
20.0
  9
$PROXYGRAPHICS
 70
     1
  9
$MEASUREMENT
 70
     1
  9
$CELWEIGHT
370
    -1
  9
$ENDCAPS
280
     0
  9
$JOINSTYLE
280
     0
  9
$LWDISPLAY
290
     1
  9
$INSUNITS
 70
     4
  9
$HYPERLINKBASE
  1

  9
$STYLESHEET
  1

  9
$XEDIT
290
     1
  9
$CEPSNTYPE
380
     0
  9
$PSTYLEMODE
290
     1
  9
$FINGERPRINTGUID
  2
{5C5F6F4D-B810-43C6-84B1-6D2B30811CF1}
  9
$VERSIONGUID
  2
{FAEB1C32-E019-11D5-929B-00C0DF256EC4}
  9
$EXTNAMES
290
     1
  9
$PSVPSCALE
 40
0.0
  9
$OLESTARTUP
290
     0
  0
ENDSEC
  0
SECTION
  2
CLASSES
  0
CLASS
  1
ACDBDICTIONARYWDFLT
  2
AcDbDictionaryWithDefault
  3
ObjectDBX Classes
 90
        0
280
     0
281
     0
  0
CLASS
  1
VISUALSTYLE
  2
AcDbVisualStyle
  3
ObjectDBX Classes
 90
     4095
280
     0
281
     0
  0
CLASS
  1
MATERIAL
  2
AcDbMaterial
  3
ObjectDBX Classes
 90
     1153
280
     0
281
     0
  0
CLASS
  1
SCALE
  2
AcDbScale
  3
ObjectDBX Classes
 90
     1153
280
     0
281
     0
  0
CLASS
  1
SUN
  2
AcDbSun
  3
SCENEOE
 90
     1153
280
     0
281
     0
  0
CLASS
  1
ACDBPLACEHOLDER
  2
AcDbPlaceHolder
  3
ObjectDBX Classes
 90
        0
280
     0
281
     0
  0
CLASS
  1
LAYOUT
  2
AcDbLayout
  3
ObjectDBX Classes
 90
        0
280
     0
281
     0
  0
CLASS
  1
TABLESTYLE
  2
AcDbTableStyle
  3
ObjectDBX Classes
 90
     4095
280
     0
281
     0
  0
CLASS
  1
MLEADERSTYLE
  2
AcDbMLeaderStyle
  3
ACDB_MLEADERSTYLE_CLASS
 90
     4095
280
     0
281
     0
  0
ENDSEC
  0
SECTION
  2
TABLES
  0
TABLE
  2
VPORT
  5
8
330
0
100
AcDbSymbolTable
 70
     1
  0
VPORT
  5
29
330
8
100
AcDbSymbolTableRecord
100
AcDbViewportTableRecord
  2
*Active
 70
     0
 10
0.0
 20
0.0
 11
1.0
 21
1.0
 12
28.26611690767277
 22
-5.857341194405805
 13
0.0
 23
0.0
 14
10.0
 24
10.0
 15
10.0
 25
10.0
 16
0.0
 26
0.0
 36
1.0
 17
0.0
 27
0.0
 37
0.0
 40
89.9935110365881
 41
1.782762691853601
 42
50.0
 43
0.0
 44
0.0
 50
0.0
 51
0.0
 71
    16
 72
  2000
 73
     1
 74
     3
 75
     0
 76
     0
 77
     0
 78
     0
281
     0
 65
     1
110
0.0
120
0.0
130
0.0
111
1.0
121
0.0
131
0.0
112
0.0
122
1.0
132
0.0
 79
     0
146
0.0
  0
ENDTAB
  0
TABLE
  2
LTYPE
  5
5
330
0
100
AcDbSymbolTable
 70
     6
  0
LTYPE
  5
14
330
5
100
AcDbSymbolTableRecord
100
AcDbLinetypeTableRecord
  2
ByBlock
 70
     0
  3

 72
    65
 73
     0
 40
0.0
  0
LTYPE
  5
15
330
5
100
AcDbSymbolTableRecord
100
AcDbLinetypeTableRecord
  2
ByLayer
 70
     0
  3

 72
    65
 73
     0
 40
0.0
  0
LTYPE
  5
16
330
5
100
AcDbSymbolTableRecord
100
AcDbLinetypeTableRecord
  2
Continuous
 70
     0
  3
Solid line
 72
    65
 73
     0
 40
0.0
  0
LTYPE
  5
6A
330
5
100
AcDbSymbolTableRecord
100
AcDbLinetypeTableRecord
  2
HIDDEN
 70
     0
  3
Hidden __ __ __ __ __ __ __ __ __ __ __ __ __ __
 72
    65
 73
     2
 40
1.905
 49
1.27
 74
     0
 49
-0.635
 74
     0
  0
LTYPE
  5
6B
330
5
100
AcDbSymbolTableRecord
100
AcDbLinetypeTableRecord
  2
PHANTOM
 70
     0
  3
Phantom ______  __  __  ______  __  __  ______
 72
    65
 73
     6
 40
12.7
 49
6.35
 74
     0
 49
-1.27
 74
     0
 49
1.27
 74
     0
 49
-1.27
 74
     0
 49
1.27
 74
     0
 49
-1.27
 74
     0
  0
LTYPE
  5
6C
330
5
100
AcDbSymbolTableRecord
100
AcDbLinetypeTableRecord
  2
CENTER
 70
     0
  3
Center ____ _ ____ _ ____ _ ____ _ ____ _ ____
 72
    65
 73
     4
 40
10.16
 49
6.35
 74
     0
 49
-1.27
 74
     0
 49
1.27
 74
     0
 49
-1.27
 74
     0
  0
LTYPE
  5
6D
330
5
100
AcDbSymbolTableRecord
100
AcDbLinetypeTableRecord
  2
CENTERX2
 70
     0
  3
Center (2x) ________  __  ________  __  _____
 72
    65
 73
     4
 40
20.32
 49
12.7
 74
     0
 49
-2.54
 74
     0
 49
2.54
 74
     0
 49
-2.54
 74
     0
  0
LTYPE
  5
6E
330
5
100
AcDbSymbolTableRecord
100
AcDbLinetypeTableRecord
  2
DOT2
 70
     0
  3
Dot (.5x) ........................................
 72
    65
 73
     2
 40
0.635
 49
0.0
 74
     0
 49
-0.635
 74
     0
  0
ENDTAB
  0
TABLE
  2
LAYER
  5
2
102
{ACAD_XDICTIONARY
360
181
102
}
330
0
100
AcDbSymbolTable
 70
    18
  0
LAYER
  5
10
330
2
100
AcDbSymbolTableRecord
100
AcDbLayerTableRecord
  2
0
 70
     0
 62
     7
  6
Continuous
370
    -3
390
F
  0
LAYER
  5
6F
330
2
100
AcDbSymbolTableRecord
100
AcDbLayerTableRecord
  2
FORMAT
 70
     0
 62
     2
  6
Continuous
370
    -3
390
F
  0
LAYER
  5
70
330
2
100
AcDbSymbolTableRecord
100
AcDbLayerTableRecord
  2
외형선
 70
     0
 62
     4
  6
Continuous
370
    30
390
F
  0
LAYER
  5
71
330
2
100
AcDbSymbolTableRecord
100
AcDbLayerTableRecord
  2
숨은선
 70
     0
 62
     2
  6
HIDDEN
370
    15
390
F
  0
LAYER
  5
72
330
2
100
AcDbSymbolTableRecord
100
AcDbLayerTableRecord
  2
중심선
 70
     0
 62
     1
  6
CENTERX2
370
    -3
390
F
  0
LAYER
  5
73
330
2
100
AcDbSymbolTableRecord
100
AcDbLayerTableRecord
  2
파단선
 70
     0
 62
     4
  6
Continuous
370
    -3
390
F
  0
LAYER
  5
74
330
2
100
AcDbSymbolTableRecord
100
AcDbLayerTableRecord
  2
해칭선
 70
     0
 62
   100
  6
Continuous
370
    -3
390
F
  0
LAYER
  5
75
330
2
100
AcDbSymbolTableRecord
100
AcDbLayerTableRecord
  2
가는실선
 70
     0
 62
     4
  6
Continuous
370
    -3
390
F
  0
LAYER
  5
76
330
2
100
AcDbSymbolTableRecord
100
AcDbLayerTableRecord
  2
치수_보조선
 70
     0
 62
     4
  6
Continuous
370
    -3
390
F
  0
LAYER
  5
77
330
2
100
AcDbSymbolTableRecord
100
AcDbLayerTableRecord
  2
치수문자_일반주서
 70
     0
 62
     7
  6
Continuous
370
    15
390
F
  0
LAYER
  5
78
330
2
100
AcDbSymbolTableRecord
100
AcDbLayerTableRecord
  2
개별주서
 70
     0
 62
   100
  6
Continuous
370
    30
390
F
  0
LAYER
  5
79
330
2
100
AcDbSymbolTableRecord
100
AcDbLayerTableRecord
  2
중간선
 70
     0
 62
     2
  6
Continuous
370
    15
390
F
  0
LAYER
  5
7A
330
2
100
AcDbSymbolTableRecord
100
AcDbLayerTableRecord
  2
윤곽선
 70
     0
 62
     3
  6
Continuous
370
    40
390
F
  0
LAYER
  5
7B
330
2
100
AcDbSymbolTableRecord
100
AcDbLayerTableRecord
  2
중심마크
 70
     0
 62
   100
  6
Continuous
370
    30
390
F
  0
LAYER
  5
7C
330
2
100
AcDbSymbolTableRecord
100
AcDbLayerTableRecord
  2
가상선
 70
     0
 62
     4
  6
PHANTOM
370
    -3
390
F
  0
LAYER
  5
7D
330
2
100
AcDbSymbolTableRecord
100
AcDbLayerTableRecord
  2
특수지정선
 70
     0
 62
     5
  6
CENTERX2
370
    60
390
F
  0
LAYER
  5
7E
330
2
100
AcDbSymbolTableRecord
100
AcDbLayerTableRecord
  2
참조1
 70
     0
 62
    -4
  6
Continuous
370
    -3
390
F
  0
LAYER
  5
14A
330
2
100
AcDbSymbolTableRecord
100
AcDbLayerTableRecord
  2
Defpoints
 70
     0
 62
     7
  6
Continuous
290
     0
370
    -3
390
F
  0
ENDTAB
  0
TABLE
  2
STYLE
  5
3
330
0
100
AcDbSymbolTable
 70
     2
  0
STYLE
  5
11
330
3
100
AcDbSymbolTableRecord
100
AcDbTextStyleTableRecord
  2
Standard
 70
     0
 40
0.0
 41
1.0
 50
0.0
 71
     0
 42
3.5
  3
txt
  4

  0
STYLE
  5
94
330
3
100
AcDbSymbolTableRecord
100
AcDbTextStyleTableRecord
  2
SLDTEXTSTYLE0
 70
     0
 40
0.0
 41
0.75
 50
0.0
 71
     0
 42
3.5
  3
TXT
  4

  0
ENDTAB
  0
TABLE
  2
VIEW
  5
6
330
0
100
AcDbSymbolTable
 70
     0
  0
ENDTAB
  0
TABLE
  2
UCS
  5
7
330
0
100
AcDbSymbolTable
 70
     0
  0
ENDTAB
  0
TABLE
  2
APPID
  5
9
330
0
100
AcDbSymbolTable
 70
     2
  0
APPID
  5
12
330
9
100
AcDbSymbolTableRecord
100
AcDbRegAppTableRecord
  2
ACAD
 70
     0
  0
APPID
  5
151
330
9
100
AcDbSymbolTableRecord
100
AcDbRegAppTableRecord
  2
PE_URL
 70
     0
  0
ENDTAB
  0
TABLE
  2
DIMSTYLE
  5
A
330
0
100
AcDbSymbolTable
 70
     4
100
AcDbDimStyleTable
  0
DIMSTYLE
105
27
330
A
100
AcDbSymbolTableRecord
100
AcDbDimStyleTableRecord
  2
ISO-25
 70
     0
 41
2.5
 42
0.625
 43
3.75
 44
1.25
 73
     0
 74
     0
 77
     1
 78
     8
140
2.5
141
2.5
143
0.03937007874016
147
0.625
171
     3
172
     1
178
     0
271
     2
272
     2
274
     3
278
    44
283
     0
284
     8
340
11
  0
DIMSTYLE
105
C9
330
A
100
AcDbSymbolTableRecord
100
AcDbDimStyleTableRecord
  2
SLDDIMSTYLE0
 70
     0
 41
3.302
 44
0.0
 45
0.000000001
 73
     0
 74
     0
 77
     1
 78
     4
 79
     1
140
3.5
143
0.0393700787401575
147
0.875
148
0.000000001
170
     1
173
     1
178
     0
271
     2
272
     2
276
     2
284
    12
340
94
  0
DIMSTYLE
105
F1
330
A
100
AcDbSymbolTableRecord
100
AcDbDimStyleTableRecord
  2
SLDDIMSTYLE1
 70
     0
 41
3.302
 44
0.0
 45
0.000000001
 73
     0
 74
     0
 77
     1
 78
    12
 79
     3
140
3.5
143
0.0393700787401575
147
0.875
148
0.000000001
170
     1
172
     1
173
     1
178
     0
271
     2
272
     2
276
     2
284
    12
289
     0
340
94
  0
DIMSTYLE
105
14F
102
{ACAD_REACTORS
330
170
330
C8
330
DD
330
F0
330
105
102
}
330
A
100
AcDbSymbolTableRecord
100
AcDbDimStyleTableRecord
  2
SLDDIMSTYLE2
 70
     0
 41
3.302
 44
0.0
 45
0.000000001
 73
     0
 74
     0
 77
     1
 78
     4
 79
     1
140
3.5
143
0.0393700787401575
147
0.875
148
0.000000001
170
     1
172
     1
173
     1
178
     0
271
     2
272
     2
276
     2
284
    12
289
     0
340
94
  0
ENDTAB
  0
TABLE
  2
BLOCK_RECORD
  5
1
330
0
100
AcDbSymbolTable
 70
    10
  0
BLOCK_RECORD
  5
1F
330
1
100
AcDbSymbolTableRecord
100
AcDbBlockTableRecord
  2
*Model_Space
340
22
  0
BLOCK_RECORD
  5
1B
330
1
100
AcDbSymbolTableRecord
100
AcDbBlockTableRecord
  2
*Paper_Space
340
1E
  0
BLOCK_RECORD
  5
23
330
1
100
AcDbSymbolTableRecord
100
AcDbBlockTableRecord
  2
*Paper_Space0
340
26
  0
BLOCK_RECORD
  5
7F
330
1
100
AcDbSymbolTableRecord
100
AcDbBlockTableRecord
  2
블럭10
340
0
102
{BLKREFS
331
C1
102
}
  0
BLOCK_RECORD
  5
CA
330
1
100
AcDbSymbolTableRecord
100
AcDbBlockTableRecord
  2
_D
340
0
  0
BLOCK_RECORD
  5
DE
330
1
100
AcDbSymbolTableRecord
100
AcDbBlockTableRecord
  2
_D_1
340
0
  0
BLOCK_RECORD
  5
F2
330
1
100
AcDbSymbolTableRecord
100
AcDbBlockTableRecord
  2
_D_2
340
0
  0
BLOCK_RECORD
  5
106
330
1
100
AcDbSymbolTableRecord
100
AcDbBlockTableRecord
  2
_D_3
340
0
  0
BLOCK_RECORD
  5
120
330
1
100
AcDbSymbolTableRecord
100
AcDbBlockTableRecord
  2
SW_DOWELSYMBOL_0
340
0
102
{BLKREFS
331
126
102
}
  0
BLOCK_RECORD
  5
185
330
1
100
AcDbSymbolTableRecord
100
AcDbBlockTableRecord
  2
*D8
340
0
  0
BLOCK_RECORD
  5
197
330
1
100
AcDbSymbolTableRecord
100
AcDbBlockTableRecord
  2
*D9
340
0
  0
ENDTAB
  0
ENDSEC
  0
SECTION
  2
BLOCKS
  0
BLOCK
  5
20
330
1F
100
AcDbEntity
  8
0
100
AcDbBlockBegin
  2
*Model_Space
 70
     0
 10
0.0
 20
0.0
 30
0.0
  3
*Model_Space
  1

  0
ENDBLK
  5
21
330
1F
100
AcDbEntity
  8
0
100
AcDbBlockEnd
  0
BLOCK
  5
1C
330
1B
100
AcDbEntity
 67
     1
  8
0
100
AcDbBlockBegin
  2
*Paper_Space
 70
     0
 10
0.0
 20
0.0
 30
0.0
  3
*Paper_Space
  1

  0
ENDBLK
  5
1D
330
1B
100
AcDbEntity
 67
     1
  8
0
100
AcDbBlockEnd
  0
BLOCK
  5
24
330
23
100
AcDbEntity
  8
0
100
AcDbBlockBegin
  2
*Paper_Space0
 70
     0
 10
0.0
 20
0.0
 30
0.0
  3
*Paper_Space0
  1

  0
ENDBLK
  5
25
330
23
100
AcDbEntity
  8
0
100
AcDbBlockEnd
  0
BLOCK
  5
80
330
7F
100
AcDbEntity
  8
0
100
AcDbBlockBegin
  2
블럭10
 70
     2
 10
0.0
 20
0.0
 30
0.0
  3
블럭10
  1

  0
ELLIPSE
  5
82
330
7F
100
AcDbEntity
  8
중심선
100
AcDbEllipse
 10
20.54032771741204
 20
12.0471743016438
 30
0.0
 11
6.600054785286829
 21
-1.261213355974178E-13
 31
0.0
210
0.0
220
0.0
230
1.0
 40
0.636358354079598
 41
0.9219305317359503
 42
6.513795318482858
  0
ELLIPSE
  5
83
330
7F
100
AcDbEntity
  8
중심선
100
AcDbEllipse
 10
20.54032771746488
 20
12.04717430159265
 30
0.0
 11
3.960054785062283
 21
1.540847449632565E-10
 31
0.0
210
0.0
220
0.0
230
1.0
 40
0.3939339440162632
 41
1.131841032648279
 42
5.62031148352944
  0
LINE
  5
84
330
7F
100
AcDbEntity
  8
중심선
100
AcDbLine
 10
2.268634060543552
 20
16.24717430164393
 30
0.0
 11
5.714909304380834
 21
16.24717430164393
 31
0.0
  0
LINE
  5
85
330
7F
100
AcDbEntity
  8
중심선
100
AcDbLine
 10
5.245725140726316
 20
7.84717430164391
 30
0.0
 11
8.692000384563599
 21
7.84717430164391
 31
0.0
  0
LINE
  5
86
330
7F
100
AcDbEntity
  8
중심선
100
AcDbLine
 10
15.74043728645272
 20
16.24717430164393
 30
0.0
 11
8.692000384563599
 21
7.84717430164391
 31
0.0
  0
LINE
  5
87
330
7F
100
AcDbEntity
  8
중심선
100
AcDbLine
 10
0.1404042013395286
 20
13.71084872107135
 30
0.0
 11
3.58671253028996
 21
13.71088815037384
 31
0.0
  0
LINE
  5
88
330
7F
100
AcDbEntity
  8
중심선
100
AcDbLine
 10
2.750260043222114
 20
10.84717430164391
 30
0.0
 11
6.196535287059397
 21
10.84717430164391
 31
0.0
  0
LINE
  5
89
330
7F
100
AcDbEntity
  8
중심선
100
AcDbLine
 10
12.29416204261559
 20
16.24717430164393
 30
0.0
 11
5.245725140726316
 21
7.84717430164391
 31
0.0
  0
LINE
  5
8A
330
7F
100
AcDbEntity
  8
중심선
100
AcDbLine
 10
10.72767329541681
 20
16.24717430164393
 30
0.0
 11
6.196535287059397
 21
10.84717430164391
 31
0.0
  0
LINE
  5
8B
330
7F
100
AcDbEntity
  8
중심선
100
AcDbLine
 10
7.28139805157953
 20
16.24717430164393
 30
0.0
 11
2.750260043222114
 21
10.84717430164391
 31
0.0
  0
LINE
  5
8C
330
7F
100
AcDbEntity
  8
중심선
100
AcDbLine
 10
5.714909304380834
 20
16.24717430164393
 30
0.0
 11
3.58671253028996
 21
13.71088815037384
 31
0.0
  0
LINE
  5
8D
330
7F
100
AcDbEntity
  8
중심선
100
AcDbLine
 10
2.268634060543552
 20
16.24717430164393
 30
0.0
 11
0.1404042013395286
 21
13.71084872107135
 31
0.0
  0
LINE
  5
8E
330
7F
100
AcDbEntity
  8
중심선
100
AcDbLine
 10
7.28139805157953
 20
16.24717430164393
 30
0.0
 11
10.72767329541681
 21
16.24717430164393
 31
0.0
  0
LINE
  5
8F
330
7F
100
AcDbEntity
  8
중심선
100
AcDbLine
 10
12.29416204261559
 20
16.24717430164393
 30
0.0
 11
15.74043728645272
 21
16.24717430164393
 31
0.0
  0
LINE
  5
90
330
7F
100
AcDbEntity
  8
중심선
100
AcDbLine
 10
19.22036997980202
 20
11.08717430171403
 30
0.0
 11
23.66174974927406
 21
11.08717430171406
 31
0.0
  0
LINE
  5
91
330
7F
100
AcDbEntity
  8
중심선
100
AcDbLine
 10
19.22039502424796
 20
13.00717430171391
 30
0.0
 11
19.22036997980202
 21
11.08717430171403
 31
0.0
  0
LINE
  5
92
330
7F
100
AcDbEntity
  8
중심선
100
AcDbLine
 10
19.22039502424796
 20
13.00717430171391
 30
0.0
 11
26.96566020931264
 21
13.00717430171391
 31
0.0
  0
LINE
  5
93
330
7F
100
AcDbEntity
  8
중심선
100
AcDbLine
 10
22.22332737316547
 20
13.45928029700563
 30
0.0
 11
24.52862924686651
 21
15.39360700705356
 31
0.0
  0
ATTDEF
  5
95
330
7F
100
AcDbEntity
  8
FORMAT
 62
     2
100
AcDbText
 10
4.408487351596664
 20
2.075366912832191
 30
0.0
 40
4.233333333333333
  1
E5252014
 41
0.75
  7
SLDTEXTSTYLE0
 11
4.408487351596664
 21
-0.0412997538344756
 31
0.0
100
AcDbAttributeDefinition
  3

  2
AUTOATTR0
 70
     0
 74
     1
  0
ENDBLK
  5
81
330
7F
100
AcDbEntity
  8
0
100
AcDbBlockEnd
  0
BLOCK
  5
CB
330
CA
100
AcDbEntity
  8
0
100
AcDbBlockBegin
  2
_D
 70
     0
 10
0.0
 20
0.0
 30
0.0
  3
_D
  1

  0
LINE
  5
CD
330
CA
100
AcDbEntity
  8
치수문자_일반주서
 62
     0
370
    -2
100
AcDbLine
 10
31.74999999999998
 20
2.840624999999998
 30
0.0
 11
31.74999999999998
 21
13.175
 31
0.0
  0
LINE
  5
CE
330
CA
100
AcDbEntity
  8
치수문자_일반주서
 62
     0
370
    -2
100
AcDbLine
 10
19.05000000000003
 20
2.840624999999992
 30
0.0
 11
19.05000000000003
 21
13.175
 31
0.0
  0
LINE
  5
CF
330
CA
100
AcDbEntity
  8
치수문자_일반주서
 62
     0
370
    -2
100
AcDbLine
 10
31.74999999999998
 20
13.175
 30
0.0
 11
62.41649999999999
 21
13.175
 31
0.0
  0
LINE
  5
D0
330
CA
100
AcDbEntity
  8
치수문자_일반주서
 62
     0
370
    -2
100
AcDbLine
 10
31.74999999999998
 20
13.175
 30
0.0
 11
19.05000000000003
 21
13.175
 31
0.0
  0
LINE
  5
D1
330
CA
100
AcDbEntity
  8
치수문자_일반주서
 62
     0
370
    -2
100
AcDbLine
 10
35.05199999999998
 20
13.175
 30
0.0
 11
38.35399999999998
 21
13.175
 31
0.0
  0
LINE
  5
D2
330
CA
100
AcDbEntity
  8
치수문자_일반주서
 62
     0
370
    -2
100
AcDbLine
 10
15.74800000000003
 20
13.175
 30
0.0
 11
12.44600000000003
 21
13.175
 31
0.0
  0
SOLID
  5
D3
330
CA
100
AcDbEntity
  8
치수문자_일반주서
 62
     0
100
AcDbTrace
 10
35.05199999999998
 20
13.72533333333333
 30
0.0
 11
35.05199999999998
 21
12.62466666666666
 31
0.0
 12
31.74999999999998
 22
13.175
 32
0.0
 13
31.74999999999998
 23
13.175
 33
0.0
  0
SOLID
  5
D4
330
CA
100
AcDbEntity
  8
치수문자_일반주서
 62
     0
100
AcDbTrace
 10
15.74800000000003
 20
12.62466666666666
 30
0.0
 11
15.74800000000003
 21
13.72533333333333
 31
0.0
 12
19.05000000000003
 22
13.175
 32
0.0
 13
19.05000000000003
 23
13.175
 33
0.0
  0
MTEXT
  5
D5
330
CA
100
AcDbEntity
  8
치수문자_일반주서
 62
     0
100
AcDbMText
 10
50.38524999999999
 20
17.55
 30
0.0
 40
3.5
 41
0.0
 71
     2
 72
     1
  1
\A1;12.70 [1/2]
  7
SLDTEXTSTYLE0
 73
     1
 44
1.0
  0
POINT
  5
D6
330
CA
100
AcDbEntity
  8
Defpoints
 62
     0
100
AcDbPoint
 10
31.74999999999998
 20
2.778124999999998
 30
0.0
  0
POINT
  5
D7
330
CA
100
AcDbEntity
  8
Defpoints
 62
     0
100
AcDbPoint
 10
19.05000000000003
 20
2.778124999999992
 30
0.0
  0
POINT
  5
D8
330
CA
100
AcDbEntity
  8
Defpoints
 62
     0
100
AcDbPoint
 10
19.05000000000003
 20
13.175
 30
0.0
  0
ENDBLK
  5
CC
330
CA
100
AcDbEntity
  8
0
100
AcDbBlockEnd
  0
BLOCK
  5
DF
330
DE
100
AcDbEntity
  8
0
100
AcDbBlockBegin
  2
_D_1
 70
     0
 10
0.0
 20
0.0
 30
0.0
  3
_D_1
  1

  0
LINE
  5
E1
330
DE
100
AcDbEntity
  8
치수문자_일반주서
 62
     0
370
    -2
100
AcDbLine
 10
31.74999999999998
 20
2.840624999999998
 30
0.0
 11
31.74999999999998
 21
23.175
 31
0.0
  0
LINE
  5
E2
330
DE
100
AcDbEntity
  8
치수문자_일반주서
 62
     0
370
    -2
100
AcDbLine
 10
-31.74999999999999
 20
2.602500000000014
 30
0.0
 11
-31.74999999999999
 21
23.175
 31
0.0
  0
LINE
  5
E3
330
DE
100
AcDbEntity
  8
치수문자_일반주서
 62
     0
370
    -2
100
AcDbLine
 10
28.44799999999998
 20
23.175
 30
0.0
 11
-28.44799999999999
 21
23.175
 31
0.0
  0
SOLID
  5
E4
330
DE
100
AcDbEntity
  8
치수문자_일반주서
 62
     0
100
AcDbTrace
 10
28.44799999999998
 20
22.62466666666666
 30
0.0
 11
28.44799999999998
 21
23.72533333333333
 31
0.0
 12
31.74999999999998
 22
23.175
 32
0.0
 13
31.74999999999998
 23
23.175
 33
0.0
  0
SOLID
  5
E5
330
DE
100
AcDbEntity
  8
치수문자_일반주서
 62
     0
100
AcDbTrace
 10
-28.44799999999999
 20
23.72533333333333
 30
0.0
 11
-28.44799999999999
 21
22.62466666666666
 31
0.0
 12
-31.74999999999999
 22
23.175
 32
0.0
 13
-31.74999999999999
 23
23.175
 33
0.0
  0
MTEXT
  5
E6
330
DE
100
AcDbEntity
  8
치수문자_일반주서
 62
     0
100
AcDbMText
 10
0.0000000000000036
 20
27.55
 30
0.0
 40
3.5
 41
0.0
 71
     2
 72
     1
  1
\A1;63.50 [2 1/2]
  7
SLDTEXTSTYLE0
 73
     1
 44
1.0
  0
POINT
  5
E7
330
DE
100
AcDbEntity
  8
Defpoints
 62
     0
100
AcDbPoint
 10
31.74999999999998
 20
2.778124999999998
 30
0.0
  0
POINT
  5
E8
330
DE
100
AcDbEntity
  8
Defpoints
 62
     0
100
AcDbPoint
 10
-31.74999999999999
 20
2.540000000000014
 30
0.0
  0
POINT
  5
E9
330
DE
100
AcDbEntity
  8
Defpoints
 62
     0
100
AcDbPoint
 10
-31.74999999999999
 20
23.175
 30
0.0
  0
ENDBLK
  5
E0
330
DE
100
AcDbEntity
  8
0
100
AcDbBlockEnd
  0
BLOCK
  5
F3
330
F2
100
AcDbEntity
  8
0
100
AcDbBlockBegin
  2
_D_2
 70
     0
 10
0.0
 20
0.0
 30
0.0
  3
_D_2
  1

  0
LINE
  5
F5
330
F2
100
AcDbEntity
  8
치수문자_일반주서
 62
     0
370
    -2
100
AcDbLine
 10
31.81249999999998
 20
2.778124999999999
 30
0.0
 11
68.65305803180048
 21
2.778125000000138
 31
0.0
  0
LINE
  5
F6
330
F2
100
AcDbEntity
  8
치수문자_일반주서
 62
     0
370
    -2
100
AcDbLine
 10
31.81249999999998
 20
-2.778125000000002
 30
0.0
 11
68.6530580318005
 21
-2.778124999999864
 31
0.0
  0
LINE
  5
F7
330
F2
100
AcDbEntity
  8
치수문자_일반주서
 62
     0
370
    -2
100
AcDbLine
 10
68.65305803180048
 20
2.778125000000138
 30
0.0
 11
68.65305803180038
 21
38.25712500000014
 31
0.0
  0
LINE
  5
F8
330
F2
100
AcDbEntity
  8
치수문자_일반주서
 62
     0
370
    -2
100
AcDbLine
 10
68.65305803180048
 20
2.778125000000138
 30
0.0
 11
68.6530580318005
 21
-2.778124999999864
 31
0.0
  0
LINE
  5
F9
330
F2
100
AcDbEntity
  8
치수문자_일반주서
 62
     0
370
    -2
100
AcDbLine
 10
68.65305803180047
 20
6.080125000000137
 30
0.0
 11
68.65305803180046
 21
9.382125000000137
 31
0.0
  0
LINE
  5
FA
330
F2
100
AcDbEntity
  8
치수문자_일반주서
 62
     0
370
    -2
100
AcDbLine
 10
68.65305803180051
 20
-6.080124999999864
 30
0.0
 11
68.65305803180053
 21
-9.382124999999863
 31
0.0
  0
SOLID
  5
FB
330
F2
100
AcDbEntity
  8
치수문자_일반주서
 62
     0
100
AcDbTrace
 10
68.10272469846714
 20
6.080125000000136
 30
0.0
 11
69.2033913651338
 21
6.080125000000139
 31
0.0
 12
68.65305803180048
 22
2.778125000000138
 32
0.0
 13
68.65305803180048
 23
2.778125000000138
 33
0.0
  0
SOLID
  5
FC
330
F2
100
AcDbEntity
  8
치수문자_일반주서
 62
     0
100
AcDbTrace
 10
69.20339136513384
 20
-6.080124999999862
 30
0.0
 11
68.10272469846718
 21
-6.080124999999866
 31
0.0
 12
68.6530580318005
 22
-2.778124999999864
 32
0.0
 13
68.6530580318005
 23
-2.778124999999864
 33
0.0
  0
MTEXT
  5
FD
330
F2
100
AcDbEntity
  8
치수문자_일반주서
 62
     0
100
AcDbMText
 10
64.27805803180043
 20
23.81962500000013
 30
0.0
 40
3.5
 41
0.0
 71
     2
 72
     1
  1
\A1;%%c5.56 [7/32]
  7
SLDTEXTSTYLE0
 11
-2.557634144468302E-15
 21
1.0
 31
0.0
 73
     1
 44
1.0
  0
POINT
  5
FE
330
F2
100
AcDbEntity
  8
Defpoints
 62
     0
100
AcDbPoint
 10
31.74999999999998
 20
2.778124999999998
 30
0.0
  0
POINT
  5
FF
330
F2
100
AcDbEntity
  8
Defpoints
 62
     0
100
AcDbPoint
 10
31.74999999999998
 20
-2.778125000000002
 30
0.0
  0
POINT
  5
100
330
F2
100
AcDbEntity
  8
Defpoints
 62
     0
100
AcDbPoint
 10
68.6530580318005
 20
-2.778124999999864
 30
0.0
  0
ENDBLK
  5
F4
330
F2
100
AcDbEntity
  8
0
100
AcDbBlockEnd
  0
BLOCK
  5
107
330
106
100
AcDbEntity
  8
0
100
AcDbBlockBegin
  2
_D_3
 70
     0
 10
0.0
 20
0.0
 30
0.0
  3
_D_3
  1

  0
LINE
  5
109
330
106
100
AcDbEntity
  8
치수문자_일반주서
 62
     0
370
    -2
100
AcDbLine
 10
-31.1775
 20
3.17500000000001
 30
0.0
 11
-41.74999999999997
 21
3.174999999999972
 31
0.0
  0
LINE
  5
10A
330
106
100
AcDbEntity
  8
치수문자_일반주서
 62
     0
370
    -2
100
AcDbLine
 10
-31.1775
 20
-3.175000000000012
 30
0.0
 11
-41.74999999999995
 21
-3.17500000000005
 31
0.0
  0
LINE
  5
10B
330
106
100
AcDbEntity
  8
치수문자_일반주서
 62
     0
370
    -2
100
AcDbLine
 10
-41.74999999999997
 20
3.174999999999972
 30
0.0
 11
-41.75000000000008
 21
35.15399999999997
 31
0.0
  0
LINE
  5
10C
330
106
100
AcDbEntity
  8
치수문자_일반주서
 62
     0
370
    -2
100
AcDbLine
 10
-41.74999999999997
 20
3.174999999999972
 30
0.0
 11
-41.74999999999995
 21
-3.17500000000005
 31
0.0
  0
LINE
  5
10D
330
106
100
AcDbEntity
  8
치수문자_일반주서
 62
     0
370
    -2
100
AcDbLine
 10
-41.74999999999999
 20
6.476999999999972
 30
0.0
 11
-41.75
 21
9.778999999999971
 31
0.0
  0
LINE
  5
10E
330
106
100
AcDbEntity
  8
치수문자_일반주서
 62
     0
370
    -2
100
AcDbLine
 10
-41.74999999999994
 20
-6.47700000000005
 30
0.0
 11
-41.74999999999992
 21
-9.77900000000005
 31
0.0
  0
SOLID
  5
10F
330
106
100
AcDbEntity
  8
치수문자_일반주서
 62
     0
100
AcDbTrace
 10
-42.30033333333332
 20
6.47699999999997
 30
0.0
 11
-41.19966666666665
 21
6.476999999999974
 31
0.0
 12
-41.74999999999997
 22
3.174999999999972
 32
0.0
 13
-41.74999999999997
 23
3.174999999999972
 33
0.0
  0
SOLID
  5
110
330
106
100
AcDbEntity
  8
치수문자_일반주서
 62
     0
100
AcDbTrace
 10
-41.1996666666666
 20
-6.477000000000048
 30
0.0
 11
-42.30033333333327
 21
-6.477000000000052
 31
0.0
 12
-41.74999999999995
 22
-3.17500000000005
 32
0.0
 13
-41.74999999999995
 23
-3.17500000000005
 33
0.0
  0
MTEXT
  5
111
330
106
100
AcDbEntity
  8
치수문자_일반주서
 62
     0
100
AcDbMText
 10
-46.12500000000004
 20
22.46649999999996
 30
0.0
 40
3.5
 41
0.0
 71
     2
 72
     1
  1
\A1;%%c6.35 [1/4]
  7
SLDTEXTSTYLE0
 11
-3.356894814614635E-15
 21
1.0
 31
0.0
 73
     1
 44
1.0
  0
POINT
  5
1E7
330
106
100
AcDbEntity
  8
Defpoints
 62
     0
100
AcDbPoint
 10
-31.115
 20
3.175000000000011
 30
0.0
  0
POINT
  5
1E8
330
106
100
AcDbEntity
  8
Defpoints
 62
     0
100
AcDbPoint
 10
-31.115
 20
-3.175000000000011
 30
0.0
  0
POINT
  5
1E9
330
106
100
AcDbEntity
  8
Defpoints
 62
     0
100
AcDbPoint
 10
-41.74999999999995
 20
-3.175000000000051
 30
0.0
  0
ENDBLK
  5
108
330
106
100
AcDbEntity
  8
0
100
AcDbBlockEnd
  0
BLOCK
  5
121
330
120
100
AcDbEntity
  8
0
100
AcDbBlockBegin
  2
SW_DOWELSYMBOL_0
 70
     0
 10
0.0
 20
0.0
 30
0.0
  3
SW_DOWELSYMBOL_0
  1

  0
CIRCLE
  5
123
330
120
100
AcDbEntity
  8
해칭선
 62
     0
100
AcDbCircle
 10
0.0
 20
0.0
 30
0.0
 40
3.000000000000001
  0
HATCH
  5
124
330
120
100
AcDbEntity
  8
0
  6
Continuous
 62
     0
370
     0
100
AcDbHatch
 10
0.0
 20
0.0
 30
0.0
210
0.0
220
0.0
230
1.0
  2
SOLID
 70
     1
 71
     0
 91
        1
 92
        0
 93
        3
 72
     2
 10
0.0
 20
0.0
 40
3.000000000000001
 50
0.0
 51
90.0
 73
     1
 72
     1
 10
0.0
 20
3.000000000000001
 11
0.0
 21
0.0
 72
     1
 10
0.0
 20
0.0
 11
3.000000000000001
 21
0.0
 97
        0
 75
     0
 76
     1
 98
        1
 10
0.0
 20
0.0
  0
HATCH
  5
125
330
120
100
AcDbEntity
  8
0
  6
Continuous
 62
     0
370
     0
100
AcDbHatch
 10
0.0
 20
0.0
 30
0.0
210
0.0
220
0.0
230
1.0
  2
SOLID
 70
     1
 71
     0
 91
        1
 92
        0
 93
        3
 72
     2
 10
0.0
 20
0.0
 40
3.000000000000001
 50
180.0
 51
270.0000000000008
 73
     1
 72
     1
 10
0.0
 20
-3.000000000000001
 11
0.0
 21
0.0
 72
     1
 10
0.0
 20
0.0
 11
-3.000000000000001
 21
0.0
 97
        0
 75
     0
 76
     1
 98
        1
 10
0.0
 20
0.0
  0
ENDBLK
  5
122
330
120
100
AcDbEntity
  8
0
100
AcDbBlockEnd
  0
BLOCK
  5
186
330
185
100
AcDbEntity
  8
0
100
AcDbBlockBegin
  2
*D8
 70
     1
 10
0.0
 20
0.0
 30
0.0
  3
*D8
  1

  0
LINE
  5
188
330
185
100
AcDbEntity
  8
치수문자_일반주서
 62
     0
370
    -2
100
AcDbLine
 10
12.95400000000005
 20
1.216513565852266
 30
0.0
 11
12.95400000000005
 21
11.15401356585227
 31
0.0
  0
LINE
  5
189
330
185
100
AcDbEntity
  8
치수문자_일반주서
 62
     0
370
    -2
100
AcDbLine
 10
6.604000000000003
 20
1.210675679903457
 30
0.0
 11
6.604000000000003
 21
11.15401356585227
 31
0.0
  0
LINE
  5
18A
330
185
100
AcDbEntity
  8
치수문자_일반주서
 62
     0
370
    -2
100
AcDbLine
 10
12.95400000000005
 20
11.15401356585227
 30
0.0
 11
42.30800000000006
 21
11.15401356585227
 31
0.0
  0
LINE
  5
18B
330
185
100
AcDbEntity
  8
치수문자_일반주서
 62
     0
370
    -2
100
AcDbLine
 10
12.95400000000005
 20
11.15401356585227
 30
0.0
 11
6.604000000000003
 21
11.15401356585227
 31
0.0
  0
LINE
  5
18C
330
185
100
AcDbEntity
  8
치수문자_일반주서
 62
     0
370
    -2
100
AcDbLine
 10
16.25600000000005
 20
11.15401356585227
 30
0.0
 11
19.55800000000005
 21
11.15401356585227
 31
0.0
  0
LINE
  5
18D
330
185
100
AcDbEntity
  8
치수문자_일반주서
 62
     0
370
    -2
100
AcDbLine
 10
3.302000000000003
 20
11.15401356585227
 30
0.0
 11
0.0000000000000027
 21
11.15401356585227
 31
0.0
  0
SOLID
  5
18E
330
185
100
AcDbEntity
  8
치수문자_일반주서
 62
     0
100
AcDbTrace
 10
16.25600000000005
 20
11.7043468991856
 30
0.0
 11
16.25600000000005
 21
10.60368023251894
 31
0.0
 12
12.95400000000005
 22
11.15401356585227
 32
0.0
 13
12.95400000000005
 23
11.15401356585227
 33
0.0
  0
SOLID
  5
18F
330
185
100
AcDbEntity
  8
치수문자_일반주서
 62
     0
100
AcDbTrace
 10
3.302000000000003
 20
10.60368023251894
 30
0.0
 11
3.302000000000003
 21
11.7043468991856
 31
0.0
 12
6.604000000000003
 22
11.15401356585227
 32
0.0
 13
6.604000000000003
 23
11.15401356585227
 33
0.0
  0
MTEXT
  5
190
330
185
100
AcDbEntity
  8
치수문자_일반주서
 62
     0
100
AcDbMText
 10
30.93300000000006
 20
15.52901356585227
 30
0.0
 40
3.5
 41
0.0
 71
     2
 72
     1
  1
\A1;6.35 [1/4]
  7
SLDTEXTSTYLE0
 73
     1
 44
1.0
  0
POINT
  5
191
330
185
100
AcDbEntity
  8
Defpoints
 62
     0
100
AcDbPoint
 10
12.95400000000005
 20
1.154013565852266
 30
0.0
  0
POINT
  5
192
330
185
100
AcDbEntity
  8
Defpoints
 62
     0
100
AcDbPoint
 10
6.604000000000003
 20
1.148175679903457
 30
0.0
  0
POINT
  5
193
330
185
100
AcDbEntity
  8
Defpoints
 62
     0
100
AcDbPoint
 10
6.604000000000003
 20
11.15401356585227
 30
0.0
  0
ENDBLK
  5
187
330
185
100
AcDbEntity
  8
0
100
AcDbBlockEnd
  0
BLOCK
  5
198
330
197
100
AcDbEntity
  8
0
100
AcDbBlockBegin
  2
*D9
 70
     1
 10
0.0
 20
0.0
 30
0.0
  3
*D9
  1

  0
LINE
  5
19A
330
197
100
AcDbEntity
  8
치수문자_일반주서
 62
     0
370
    -2
100
AcDbLine
 10
19.91551774639861
 20
-29.88288366970571
 30
0.0
 11
19.91551774639861
 21
-19.94538366970571
 31
0.0
  0
LINE
  5
19B
330
197
100
AcDbEntity
  8
치수문자_일반주서
 62
     0
370
    -2
100
AcDbLine
 10
13.56551774639856
 20
-29.88872155565452
 30
0.0
 11
13.56551774639856
 21
-19.94538366970571
 31
0.0
  0
LINE
  5
19C
330
197
100
AcDbEntity
  8
치수문자_일반주서
 62
     0
370
    -2
100
AcDbLine
 10
19.91551774639861
 20
-19.94538366970571
 30
0.0
 11
49.26951774639861
 21
-19.94538366970571
 31
0.0
  0
LINE
  5
19D
330
197
100
AcDbEntity
  8
치수문자_일반주서
 62
     0
370
    -2
100
AcDbLine
 10
19.91551774639861
 20
-19.94538366970571
 30
0.0
 11
13.56551774639856
 21
-19.94538366970571
 31
0.0
  0
LINE
  5
19E
330
197
100
AcDbEntity
  8
치수문자_일반주서
 62
     0
370
    -2
100
AcDbLine
 10
23.21751774639861
 20
-19.94538366970571
 30
0.0
 11
26.51951774639861
 21
-19.94538366970571
 31
0.0
  0
LINE
  5
19F
330
197
100
AcDbEntity
  8
치수문자_일반주서
 62
     0
370
    -2
100
AcDbLine
 10
10.26351774639856
 20
-19.94538366970571
 30
0.0
 11
6.96151774639856
 21
-19.94538366970571
 31
0.0
  0
SOLID
  5
1A0
330
197
100
AcDbEntity
  8
치수문자_일반주서
 62
     0
100
AcDbTrace
 10
23.21751774639861
 20
-19.39505033637237
 30
0.0
 11
23.21751774639861
 21
-20.49571700303904
 31
0.0
 12
19.91551774639861
 22
-19.94538366970571
 32
0.0
 13
19.91551774639861
 23
-19.94538366970571
 33
0.0
  0
SOLID
  5
1A1
330
197
100
AcDbEntity
  8
치수문자_일반주서
 62
     0
100
AcDbTrace
 10
10.26351774639856
 20
-20.49571700303904
 30
0.0
 11
10.26351774639856
 21
-19.39505033637237
 31
0.0
 12
13.56551774639856
 22
-19.94538366970571
 32
0.0
 13
13.56551774639856
 23
-19.94538366970571
 33
0.0
  0
MTEXT
  5
1A2
330
197
100
AcDbEntity
  8
치수문자_일반주서
 62
     0
100
AcDbMText
 10
37.89451774639861
 20
-15.57038366970571
 30
0.0
 40
3.5
 41
0.0
 71
     2
 72
     1
  1
\A1;6.35 [1/4]
  7
SLDTEXTSTYLE0
 73
     1
 44
1.0
  0
POINT
  5
1A3
330
197
100
AcDbEntity
  8
Defpoints
 62
     0
100
AcDbPoint
 10
19.91551774639861
 20
-29.94538366970571
 30
0.0
  0
POINT
  5
1A4
330
197
100
AcDbEntity
  8
Defpoints
 62
     0
100
AcDbPoint
 10
13.56551774639856
 20
-29.95122155565452
 30
0.0
  0
POINT
  5
1A5
330
197
100
AcDbEntity
  8
Defpoints
 62
     0
100
AcDbPoint
 10
13.56551774639856
 20
-19.94538366970571
 30
0.0
  0
ENDBLK
  5
199
330
197
100
AcDbEntity
  8
0
100
AcDbBlockEnd
  0
ENDSEC
  0
SECTION
  2
ENTITIES
  0
LINE
  5
96
330
1F
100
AcDbEntity
  8
0
  6
Continuous
 62
     1
370
    15
100
AcDbLine
 10
27.02116730229725
 20
-2.778125000000013
 30
0.0
 11
28.71481899106937
 21
-2.778125000000013
 31
0.0
1001
PE_URL
1000

  0
ARC
  5
97
330
1F
100
AcDbEntity
  8
0
  6
Continuous
 62
     1
370
    15
100
AcDbCircle
 10
28.97187499999995
 20
-0.0000000000000016
 30
0.0
 40
2.778125000000021
100
AcDbArc
 50
336.1370591320724
 51
0.0
1001
PE_URL
1000

  0
ARC
  5
98
330
1F
100
AcDbEntity
  8
0
  6
Continuous
 62
     1
370
    15
100
AcDbCircle
 10
28.97187499999995
 20
-0.0000000000000016
 30
0.0
 40
2.778125000000024
100
AcDbArc
 50
0.0
 51
23.86292623037352
1001
PE_URL
1000

  0
LINE
  5
99
330
1F
100
AcDbEntity
  8
0
  6
Continuous
 62
     1
370
    15
100
AcDbLine
 10
21.15738828005939
 20
2.778125000000012
 30
0.0
 11
19.4628260681477
 21
2.778125000000012
 31
0.0
1001
PE_URL
1000

  0
LINE
  5
9A
330
1F
100
AcDbEntity
  8
0
  6
Continuous
 62
     1
370
    15
100
AcDbLine
 10
19.4628260681477
 20
-2.778125000000013
 30
0.0
 11
21.15738828005943
 21
-2.778125000000013
 31
0.0
1001
PE_URL
1000

  0
LINE
  5
9B
330
1F
100
AcDbEntity
  8
0
  6
Continuous
 62
     1
370
    15
100
AcDbLine
 10
28.71481899106936
 20
2.778125000000012
 30
0.0
 11
27.02116730229721
 21
2.778125000000012
 31
0.0
1001
PE_URL
1000

  0
LINE
  5
9C
330
1F
100
AcDbEntity
  8
외형선
  6
Continuous
370
    15
100
AcDbLine
 10
-16.56884233574604
 20
-3.175000000000003
 30
0.0
 11
16.56884233574608
 21
-3.175000000000003
 31
0.0
  0
LINE
  5
9D
330
1F
100
AcDbEntity
  8
외형선
  6
Continuous
370
    15
100
AcDbLine
 10
16.56884233574608
 20
3.175000000000002
 30
0.0
 11
-16.56884233574606
 21
3.175000000000002
 31
0.0
  0
LINE
  5
9E
330
1F
100
AcDbEntity
  8
외형선
  6
Continuous
370
    15
100
AcDbLine
 10
16.56884233574608
 20
-3.175000000000006
 30
0.0
 11
18.05
 21
-2.778125000000001
 31
0.0
  0
LINE
  5
9F
330
1F
100
AcDbEntity
  8
외형선
  6
Continuous
370
    15
100
AcDbLine
 10
18.05
 20
2.778125
 30
0.0
 11
16.56884233574608
 21
3.175000000000006
 31
0.0
  0
LINE
  5
A2
330
1F
100
AcDbEntity
  8
외형선
  6
Continuous
370
    15
100
AcDbLine
 10
18.05
 20
-2.778125000000001
 30
0.0
 11
19.05
 21
-2.778125000000001
 31
0.0
  0
LINE
  5
A3
330
1F
100
AcDbEntity
  8
외형선
  6
Continuous
370
    15
100
AcDbLine
 10
19.05
 20
2.778125
 30
0.0
 11
18.05
 21
2.778125
 31
0.0
  0
SPLINE
  5
A4
330
1F
100
AcDbEntity
  8
0
  6
Continuous
 62
     1
370
    15
100
AcDbSpline
210
0.0
220
0.0
230
1.0
 70
     8
 71
     3
 72
    34
 73
    30
 74
     0
 42
0.000000001
 43
0.00000001
 40
0.0
 40
0.0
 40
0.0
 40
0.0
 40
0.1250000000000004
 40
0.1250000000000004
 40
0.1874999999999998
 40
0.1874999999999998
 40
0.2499999999999992
 40
0.2499999999999992
 40
0.3124999999999986
 40
0.3124999999999986
 40
0.3749999999999981
 40
0.3749999999999981
 40
0.4374999999999974
 40
0.4374999999999974
 40
0.4999999999999969
 40
0.4999999999999969
 40
0.5624999999999963
 40
0.5624999999999963
 40
0.6249999999999957
 40
0.6249999999999957
 40
0.7499999999999961
 40
0.7499999999999961
 40
0.8124999999999971
 40
0.8124999999999971
 40
0.874999999999998
 40
0.874999999999998
 40
0.937499999999999
 40
0.937499999999999
 40
1.0
 40
1.0
 40
1.0
 40
1.0
 10
19.05000000000001
 20
2.767908699589636
 30
0.0
 10
19.45925914483626
 20
2.788292736462467
 30
0.0
 10
19.87992426359136
 20
2.777908282109667
 30
0.0
 10
20.49713026650691
 20
2.716699287288844
 30
0.0
 10
20.7021461892502
 20
2.688781304930401
 30
0.0
 10
21.11718468450909
 20
2.617959623209812
 30
0.0
 10
21.32554237409237
 20
2.575105861885492
 30
0.0
 10
21.73875652190277
 20
2.475641104490951
 30
0.0
 10
21.942666635453
 20
2.419169185369447
 30
0.0
 10
22.35673967015154
 20
2.292593226401647
 30
0.0
 10
22.56517476721856
 20
2.222607021317768
 30
0.0
 10
22.9796576494769
 20
2.070966678304766
 30
0.0
 10
23.18381618724491
 20
1.989594518846531
 30
0.0
 10
23.59644570319211
 20
1.81577014054997
 30
0.0
 10
23.80471376562674
 20
1.723301628056075
 30
0.0
 10
24.21998574005589
 20
1.529487956125431
 30
0.0
 10
24.42574598104228
 20
1.428359762892398
 30
0.0
 10
24.83645948408465
 20
1.218947162764494
 30
0.0
 10
25.04431672477036
 20
1.110153197014232
 30
0.0
 10
25.66768427832978
 20
0.7754432806851919
 30
0.0
 10
26.0764403150399
 20
0.54245218553514
 30
0.0
 10
26.69954163181238
 20
0.1859863939372504
 30
0.0
 10
26.90772399814132
 20
0.066224713699487
 30
0.0
 10
27.31988885598438
 20
-0.1721973227164808
 30
0.0
 10
27.52434210512409
 20
-0.2909505125669316
 30
0.0
 10
27.93908229444562
 20
-0.5273055314757602
 30
0.0
 10
28.1474967614269
 20
-0.6445398815317485
 30
0.0
 10
28.56123166296284
 20
-0.8742143047117138
 30
0.0
 10
28.76507556848433
 20
-0.9863997916980076
 30
0.0
 10
28.97187499999995
 20
-1.096086824440544
 30
0.0
1001
PE_URL
1000

  0
SPLINE
  5
A5
330
1F
100
AcDbEntity
  8
0
  6
Continuous
 62
     1
370
    15
100
AcDbSpline
210
0.0
220
0.0
230
1.0
 70
     8
 71
     3
 72
    17
 73
    13
 74
     0
 42
0.000000001
 43
0.00000001
 40
0.0
 40
0.0
 40
0.0
 40
0.0
 40
0.1112271772414776
 40
0.2257076422098794
 40
0.3359661670855152
 40
0.4496139532665102
 40
0.5573777054009564
 40
0.6678122236358466
 40
0.7575224538255141
 40
0.8492640253208349
 40
0.9615100300022104
 40
1.0
 40
1.0
 40
1.0
 40
1.0
 10
28.97187499999995
 20
-1.096086824440545
 30
0.0
 10
29.09964529668664
 20
-1.159596729349256
 30
0.0
 10
29.35892304808549
 20
-1.288474142670624
 30
0.0
 10
29.74940825363037
 20
-1.415334627455749
 30
0.0
 10
30.13420459989997
 20
-1.484495867149424
 30
0.0
 10
30.49344270281585
 20
-1.487385368686648
 30
0.0
 10
30.82131208883636
 20
-1.434608527855588
 30
0.0
 10
31.08479319563795
 20
-1.348844248581502
 30
0.0
 10
31.29016372258038
 20
-1.251556276104026
 30
0.0
 10
31.44066671855127
 20
-1.162927494244738
 30
0.0
 10
31.52393556609207
 20
-1.099489771689451
 30
0.0
 10
31.51084430190611
 20
-1.11712349327114
 30
0.0
 10
31.50750148764548
 20
-1.121626210131354
 30
0.0
1001
PE_URL
1000

  0
SPLINE
  5
A6
330
1F
100
AcDbEntity
  8
0
  6
Continuous
 62
     1
370
    15
100
AcDbSpline
210
0.0
220
0.0
230
1.0
 70
     8
 71
     3
 72
    24
 73
    20
 74
     0
 42
0.000000001
 43
0.00000001
 40
0.0
 40
0.0
 40
0.0
 40
0.0
 40
0.0625000000000013
 40
0.0625000000000013
 40
0.1250000000000026
 40
0.1250000000000026
 40
0.2500000000000052
 40
0.2500000000000052
 40
0.3750000000000079
 40
0.3750000000000079
 40
0.5000000000000063
 40
0.5000000000000063
 40
0.6250000000000048
 40
0.6250000000000048
 40
0.7500000000000032
 40
0.7500000000000032
 40
0.8750000000000017
 40
0.8750000000000017
 40
1.0
 40
1.0
 40
1.0
 40
1.0
 10
31.49984435137193
 20
-1.134547649608099
 30
0.0
 10
31.48775180821354
 20
-1.148414195423345
 30
0.0
 10
31.46989717080464
 20
-1.168215264078379
 30
0.0
 10
31.42275667111511
 20
-1.220314482163933
 30
0.0
 10
31.392877377287
 20
-1.253267816170847
 30
0.0
 10
31.29007246214383
 20
-1.366259196334823
 30
0.0
 10
31.20243639982915
 20
-1.462232350569383
 30
0.0
 10
31.00851892226985
 20
-1.666089156458858
 30
0.0
 10
30.90321002526754
 20
-1.772757276567505
 30
0.0
 10
30.68345718748902
 20
-1.979527881452078
 30
0.0
 10
30.56956062795702
 20
-2.079076161691396
 30
0.0
 10
30.33856659250248
 20
-2.260989454245737
 30
0.0
 10
30.21904219731616
 20
-2.34516693445827
 30
0.0
 10
29.97978304181522
 20
-2.490926416821507
 30
0.0
 10
29.85919944023463
 20
-2.553277854852139
 30
0.0
 10
29.61236963514359
 20
-2.656398328439641
 30
0.0
 10
29.48565372916993
 20
-2.697119367311913
 30
0.0
 10
29.23134231478355
 20
-2.753730105383719
 30
0.0
 10
29.10288318825368
 20
-2.770096502469521
 30
0.0
 10
28.97187499999998
 20
-2.774143626279323
 30
0.0
1001
PE_URL
1000

  0
SPLINE
  5
A7
330
1F
100
AcDbEntity
  8
0
  6
Continuous
 62
     1
370
    15
100
AcDbSpline
210
0.0
220
0.0
230
1.0
 70
     8
 71
     3
 72
    34
 73
    30
 74
     0
 42
0.000000001
 43
0.00000001
 40
0.0
 40
0.0
 40
0.0
 40
0.0
 40
0.1250000000000002
 40
0.1250000000000002
 40
0.1875000000000003
 40
0.1875000000000003
 40
0.2500000000000004
 40
0.2500000000000004
 40
0.3125000000000005
 40
0.3125000000000005
 40
0.3750000000000006
 40
0.3750000000000006
 40
0.4375000000000007
 40
0.4375000000000007
 40
0.5000000000000008
 40
0.5000000000000008
 40
0.5625000000000009
 40
0.5625000000000009
 40
0.625000000000001
 40
0.625000000000001
 40
0.7499999999999996
 40
0.7499999999999996
 40
0.8124999999999997
 40
0.8124999999999997
 40
0.8749999999999998
 40
0.8749999999999998
 40
0.9374999999999999
 40
0.9374999999999999
 40
1.0
 40
1.0
 40
1.0
 40
1.0
 10
19.05000000000001
 20
1.177811293227758
 30
0.0
 10
19.45925914483625
 20
0.9623450082237742
 30
0.0
 10
19.87992426359137
 20
0.7317477184530816
 30
0.0
 10
20.49713026650692
 20
0.3800235851119745
 30
0.0
 10
20.70214618925017
 20
0.2615472311727823
 30
0.0
 10
21.11718468450907
 20
0.022842784157535
 30
0.0
 10
21.32554237409235
 20
-0.0970646136020619
 30
0.0
 10
21.73875652190277
 20
-0.3350091776030137
 30
0.0
 10
21.94266663545298
 20
-0.4528701920146452
 30
0.0
 10
22.35673967015149
 20
-0.6866260403648526
 30
0.0
 10
22.56517476721855
 20
-0.8021800558343801
 30
0.0
 10
22.9796576494769
 20
-1.027761922667109
 30
0.0
 10
23.18381618724494
 20
-1.137466067314048
 30
0.0
 10
23.59644570319209
 20
-1.350762982258336
 30
0.0
 10
23.80471376562674
 20
-1.454292474305068
 30
0.0
 10
24.21998574005587
 20
-1.652491036876967
 30
0.0
 10
24.42574598104228
 20
-1.746977147038078
 30
0.0
 10
24.83645948408464
 20
-1.925708260921357
 30
0.0
 10
25.04431672477033
 20
-2.010352525923571
 30
0.0
 10
25.66768427832981
 20
-2.246780694701798
 30
0.0
 10
26.07644031503988
 20
-2.380355399269376
 30
0.0
 10
26.69954163181238
 20
-2.540199842048026
 30
0.0
 10
26.90772399814132
 20
-2.586585745251174
 30
0.0
 10
27.31988885598441
 20
-2.664524399110456
 30
0.0
 10
27.52434210512413
 20
-2.696162778358691
 30
0.0
 10
27.9390822944456
 20
-2.744624889378966
 30
0.0
 10
28.14749676142691
 20
-2.76131724551778
 30
0.0
 10
28.56123166296283
 20
-2.779246231544759
 30
0.0
 10
28.76507556848435
 20
-2.780532104085905
 30
0.0
 10
28.97187499999996
 20
-2.774143626279313
 30
0.0
1001
PE_URL
1000

  0
SPLINE
  5
A8
330
1F
100
AcDbEntity
  8
0
  6
Continuous
 62
     1
370
    15
100
AcDbSpline
210
0.0
220
0.0
230
1.0
 70
     8
 71
     3
 72
    15
 73
    11
 74
     0
 42
0.000000001
 43
0.00000001
 40
0.0
 40
0.0
 40
0.0
 40
0.0
 40
0.1395686269099179
 40
0.2789385094847205
 40
0.4182323871095109
 40
0.5575740626013557
 40
0.6970866696239896
 40
0.8342184375264304
 40
0.971115527237504
 40
1.0
 40
1.0
 40
1.0
 40
1.0
 10
19.05000000000001
 20
0.2380334984011502
 30
0.0
 10
19.42093901091948
 20
0.0236599785943322
 30
0.0
 10
20.16228881930008
 20
-0.4047817952614921
 30
0.0
 10
21.27339382044656
 20
-1.029774156386285
 30
0.0
 10
22.38381324779767
 20
-1.599204614152069
 30
0.0
 10
23.49466741931483
 20
-2.083148309784291
 30
0.0
 10
24.60009468865781
 20
-2.457416193022616
 30
0.0
 10
25.69932312933431
 20
-2.689151049368613
 30
0.0
 10
26.50405274267446
 20
-2.790978370016618
 30
0.0
 10
26.94443803930896
 20
-2.769922841619783
 30
0.0
 10
27.02116730229724
 20
-2.766254292310655
 30
0.0
1001
PE_URL
1000

  0
SPLINE
  5
A9
330
1F
100
AcDbEntity
  8
0
  6
Continuous
 62
     1
370
    15
100
AcDbSpline
210
0.0
220
0.0
230
1.0
 70
     8
 71
     3
 72
    12
 73
     8
 74
     0
 42
0.000000001
 43
0.00000001
 40
0.0
 40
0.0
 40
0.0
 40
0.0
 40
0.1337603476733124
 40
0.3502851371679461
 40
0.5666712457600755
 40
0.7831622417750687
 40
0.9999999999999999
 40
0.9999999999999999
 40
0.9999999999999999
 40
0.9999999999999999
 10
24.08910283957895
 20
-2.263256342167911
 30
0.0
 10
23.86435417139449
 20
-2.338899752725184
 30
0.0
 10
23.27579321568001
 20
-2.536991062323298
 30
0.0
 10
22.32410856327707
 20
-2.717109758112937
 30
0.0
 10
21.2335437091818
 20
-2.801006774143361
 30
0.0
 10
20.14240714469513
 20
-2.74546844406077
 30
0.0
 10
19.41432992438593
 20
-2.592594258403554
 30
0.0
 10
19.05000000000001
 20
-2.516095998401128
 30
0.0
1001
PE_URL
1000

  0
SPLINE
  5
AA
330
1F
100
AcDbEntity
  8
0
  6
Continuous
 62
     1
370
    15
100
AcDbSpline
210
0.0
220
0.0
230
1.0
 70
     8
 71
     3
 72
    12
 73
     8
 74
     0
 42
0.000000001
 43
0.00000001
 40
0.0
 40
0.0
 40
0.0
 40
0.0
 40
0.1059418593063366
 40
0.3298019856520591
 40
0.5532790126592856
 40
0.77659457261323
 40
1.0
 40
1.0
 40
1.0
 40
1.0
 10
24.08910283957892
 20
2.263256342167911
 30
0.0
 10
24.26155262978044
 20
2.323437766274708
 30
0.0
 10
24.79839692915496
 20
2.510785367116779
 30
0.0
 10
25.69933445469292
 20
2.693107265857882
 30
0.0
 10
26.79073415831116
 20
2.798344375462568
 30
0.0
 10
27.88128304082018
 20
2.762965555375605
 30
0.0
 10
28.60829559559129
 20
2.622836422779411
 30
0.0
 10
28.97187499999995
 20
2.552757761502829
 30
0.0
1001
PE_URL
1000

  0
SPLINE
  5
AB
330
1F
100
AcDbEntity
  8
0
  6
Continuous
 62
     1
370
    15
100
AcDbSpline
210
0.0
220
0.0
230
1.0
 70
     8
 71
     3
 72
    40
 73
    36
 74
     0
 42
0.000000001
 43
0.00000001
 40
0.0
 40
0.0
 40
0.0
 40
0.0
 40
0.0625000000000004
 40
0.0625000000000004
 40
0.1250000000000008
 40
0.1250000000000008
 40
0.1875000000000012
 40
0.1875000000000012
 40
0.2500000000000016
 40
0.2500000000000016
 40
0.312500000000002
 40
0.312500000000002
 40
0.3750000000000024
 40
0.3750000000000024
 40
0.4375000000000028
 40
0.4375000000000028
 40
0.5000000000000032
 40
0.5000000000000032
 40
0.5625000000000037
 40
0.5625000000000037
 40
0.5937500000000046
 40
0.5937500000000046
 40
0.6250000000000056
 40
0.6250000000000056
 40
0.6875000000000047
 40
0.6875000000000047
 40
0.7500000000000037
 40
0.7500000000000037
 40
0.8125000000000028
 40
0.8125000000000028
 40
0.8750000000000019
 40
0.8750000000000019
 40
0.9375000000000009
 40
0.9375000000000009
 40
1.0
 40
1.0
 40
1.0
 40
1.0
 10
28.97187499999995
 20
2.552757761502843
 30
0.0
 10
29.1129807399664
 20
2.520622193534477
 30
0.0
 10
29.25356986169383
 20
2.47702197472303
 30
0.0
 10
29.53563217299539
 20
2.369307385192215
 30
0.0
 10
29.67823263783093
 20
2.304593413385784
 30
0.0
 10
29.95995443568636
 20
2.156792989412883
 30
0.0
 10
30.09693534914601
 20
2.074886727771601
 30
0.0
 10
30.36365111742842
 20
1.895864443550209
 30
0.0
 10
30.49452790302544
 20
1.797572095623071
 30
0.0
 10
30.73918274479689
 20
1.588523422398221
 30
0.0
 10
30.85311403211436
 20
1.477965700961467
 30
0.0
 10
31.06188230028397
 20
1.24075688642597
 30
0.0
 10
31.15704065344745
 20
1.113245032061706
 30
0.0
 10
31.3177501883723
 20
0.8448745507040817
 30
0.0
 10
31.38462971524611
 20
0.7025502162435041
 30
0.0
 10
31.48256662470739
 20
0.3979257521334893
 30
0.0
 10
31.51259909454262
 20
0.2378308048504998
 30
0.0
 10
31.52219059270993
 20
-0.0873066631955444
 30
0.0
 10
31.50042329513018
 20
-0.2519855425065755
 30
0.0
 10
31.42707202421212
 20
-0.4678724939148853
 30
0.0
 10
31.39532862882799
 20
-0.536203471658497
 30
0.0
 10
31.32149307350284
 20
-0.6560350838069144
 30
0.0
 10
31.27908410136502
 20
-0.7085390050051843
 30
0.0
 10
31.13906313349877
 20
-0.8415683809430052
 30
0.0
 10
31.03074577002918
 20
-0.8954512103890695
 30
0.0
 10
30.80376147238999
 20
-0.9465620030357987
 30
0.0
 10
30.68235590275134
 20
-0.9446006496666165
 30
0.0
 10
30.4370632879902
 20
-0.9025808680669394
 30
0.0
 10
30.31048465277444
 20
-0.8623990590129128
 30
0.0
 10
30.05344936793862
 20
-0.7571103161328295
 30
0.0
 10
29.92446709332831
 20
-0.6927590760228383
 30
0.0
 10
29.66042601531688
 20
-0.5507559949564745
 30
0.0
 10
29.52447529821814
 20
-0.4721862133716066
 30
0.0
 10
29.25105029806843
 20
-0.3119707012429297
 30
0.0
 10
29.11294131525841
 20
-0.2299905805772808
 30
0.0
 10
28.97187499999998
 20
-0.1486797107844195
 30
0.0
1001
PE_URL
1000

  0
SPLINE
  5
AC
330
1F
100
AcDbEntity
  8
0
  6
Continuous
 62
     1
370
    15
100
AcDbSpline
210
0.0
220
0.0
230
1.0
 70
     8
 71
     3
 72
    15
 73
    11
 74
     0
 42
0.000000001
 43
0.00000001
 40
0.0
 40
0.0
 40
0.0
 40
0.0
 40
0.1421363476219049
 40
0.2842146132902008
 40
0.4263610852904116
 40
0.5687010973864328
 40
0.7110784343437543
 40
0.8507000267511691
 40
0.990232193608328
 40
1.0
 40
1.0
 40
1.0
 40
1.0
 10
28.97187499999996
 20
-0.1486797107844065
 30
0.0
 10
28.60164881979819
 20
0.0656070100725475
 30
0.0
 10
27.8613477469448
 20
0.4940928866309686
 30
0.0
 10
26.75095587668728
 20
1.112962549597944
 30
0.0
 10
25.6399320993128
 20
1.672564394255498
 30
0.0
 10
24.5277320844371
 20
2.142134193109089
 30
0.0
 10
23.42198897983149
 20
2.499984972154395
 30
0.0
 10
22.32408940297366
 20
2.710202424485972
 30
0.0
 10
21.57169900988397
 20
2.798331195064138
 30
0.0
 10
21.1828296799712
 20
2.775016887723604
 30
0.0
 10
21.1573882800594
 20
2.773491571708452
 30
0.0
1001
PE_URL
1000

  0
LINE
  5
AD
330
1F
100
AcDbEntity
  8
외형선
  6
Continuous
370
    15
100
AcDbLine
 10
19.05
 20
0.2380334984011502
 30
0.0
 11
19.05000000000001
 21
1.177811293227758
 31
0.0
  0
SPLINE
  5
AE
330
1F
100
AcDbEntity
  8
0
  6
Continuous
 62
     1
370
    15
100
AcDbSpline
210
0.0
220
0.0
230
1.0
 70
     8
 71
     3
 72
    19
 73
    15
 74
     0
 42
0.000000001
 43
0.00000001
 40
0.0
 40
0.0
 40
0.0
 40
0.0
 40
0.0527351842776628
 40
0.1460134533593443
 40
0.2265416312841103
 40
0.3083395732625641
 40
0.3676618131494849
 40
0.428681887313647
 40
0.5098461427295976
 40
0.5932932042202596
 40
0.7025110301381245
 40
0.8148222022935373
 40
0.9066633129294279
 40
1.0
 40
1.0
 40
1.0
 40
1.0
 10
31.50750150784354
 20
1.121626176047046
 30
0.0
 10
31.50755091392788
 20
1.123323514314055
 30
0.0
 10
31.50768770975192
 20
1.128023113363145
 30
0.0
 10
31.41506025237375
 20
1.228440759079954
 30
0.0
 10
31.2567623337435
 20
1.403230513609124
 30
0.0
 10
31.08051764962017
 20
1.591949350163757
 30
0.0
 10
30.90440124110311
 20
1.770808823366214
 30
0.0
 10
30.71906186064502
 20
1.94774074381951
 30
0.0
 10
30.50278102173413
 20
2.135718957031529
 30
0.0
 10
30.2322062505382
 20
2.339648732697708
 30
0.0
 10
29.92273558395839
 20
2.528080016062161
 30
0.0
 10
29.59523852612314
 20
2.666855342369478
 30
0.0
 10
29.27695923835027
 20
2.75149598968773
 30
0.0
 10
29.07411582998002
 20
2.766553876068918
 30
0.0
 10
28.97187499999998
 20
2.774143626279323
 30
0.0
1001
PE_URL
1000

  0
LINE
  5
AF
330
1F
100
AcDbEntity
  8
0
  6
Continuous
 62
     1
370
    15
100
AcDbLine
 10
19.05000000000001
 20
-2.767908699589636
 30
0.0
 11
19.4628260681477
 21
-2.760841460260319
 31
0.0
1001
PE_URL
1000

  0
LINE
  5
B0
330
1F
100
AcDbEntity
  8
0
  6
Continuous
 62
     1
370
    15
100
AcDbLine
 10
28.97187499999997
 20
2.774143626279312
 30
0.0
 11
28.71481899106936
 21
2.764976695043085
 31
0.0
1001
PE_URL
1000

  0
LINE
  5
B1
330
1F
100
AcDbEntity
  8
외형선
  6
Continuous
370
    15
100
AcDbLine
 10
19.05
 20
-2.767908699589636
 30
0.0
 11
19.05000000000001
 21
-2.516095998401129
 31
0.0
  0
LINE
  5
B2
330
1F
100
AcDbEntity
  8
외형선
  6
Continuous
370
    15
100
AcDbLine
 10
16.56884233574608
 20
-0.0000000000000004
 30
0.0
 11
16.56884233574608
 21
3.175000000000002
 31
0.0
  0
LINE
  5
B3
330
1F
100
AcDbEntity
  8
외형선
  6
Continuous
370
    15
100
AcDbLine
 10
16.56884233574608
 20
-3.175000000000003
 30
0.0
 11
16.56884233574608
 21
-0.0000000000000004
 31
0.0
  0
LINE
  5
B6
330
1F
100
AcDbEntity
  8
외형선
  6
Continuous
370
    15
100
AcDbLine
 10
18.05
 20
-0.0000000000000004
 30
0.0
 11
18.05
 21
2.778125
 31
0.0
  0
LINE
  5
B7
330
1F
100
AcDbEntity
  8
외형선
  6
Continuous
370
    15
100
AcDbLine
 10
18.05
 20
-2.778125000000001
 30
0.0
 11
18.05
 21
-0.0000000000000004
 31
0.0
  0
LINE
  5
BA
330
1F
100
AcDbEntity
  8
외형선
  6
Continuous
370
    15
100
AcDbLine
 10
19.05
 20
-0.0000000000000004
 30
0.0
 11
19.05
 21
2.778125
 31
0.0
  0
LINE
  5
BB
330
1F
100
AcDbEntity
  8
외형선
  6
Continuous
370
    15
100
AcDbLine
 10
19.05
 20
-2.778125000000001
 30
0.0
 11
19.05
 21
-0.0000000000000004
 31
0.0
  0
LINE
  5
BC
330
1F
100
AcDbEntity
  8
중심선
 62
     1
100
AcDbLine
 10
-34.74999999999999
 20
-0.0000000000000043
 30
0.0
 11
34.74999999999999
 21
0.0000000000000043
 31
0.0
  0
LINE
  5
BE
330
1F
100
AcDbEntity
  8
참조1
100
AcDbLine
 10
0.0000000000000036
 20
-0.0000000000000043
 30
0.0
 11
0.0000000000000107
 21
-40.00000000000001
 31
0.0
  0
LINE
  5
BF
330
1F
100
AcDbEntity
  8
참조1
100
AcDbLine
 10
0.0000000000000107
 20
-40.00000000000001
 30
0.0
 11
-8.015106814308652
 21
-40.0
 31
0.0
  0
CIRCLE
  5
C0
330
1F
100
AcDbEntity
  8
해칭선
100
AcDbCircle
 10
0.0
 20
0.0
 30
0.0
 40
3.000000000000002
  0
INSERT
  5
C1
330
1F
100
AcDbEntity
  8
0
  6
Continuous
 62
     7
100
AcDbBlockReference
 66
     1
  2
블럭10
 10
-13.9402729321252
 20
-52.04717430164393
 30
0.0
  0
ATTRIB
  5
C2
330
C1
100
AcDbEntity
  8
FORMAT
 62
     2
100
AcDbText
 10
-23.12156822086649
 20
-49.97180738881175
 30
0.0
 40
4.233333333333333
  1
E5252014 [ 4 FLUTE ]
 41
0.75
  7
SLDTEXTSTYLE0
 11
-23.12156822086649
 21
-52.08847405547841
 31
0.0
100
AcDbAttribute
  2
AUTOATTR0
 70
     0
 74
     1
  0
SEQEND
  5
C3
330
C1
100
AcDbEntity
  8
0
  6
Continuous
 62
     7
  0
HATCH
  5
C4
330
1F
100
AcDbEntity
  8
중심선
100
AcDbHatch
 10
0.0
 20
0.0
 30
0.0
210
0.0
220
0.0
230
1.0
  2
SOLID
 70
     1
 71
     0
 91
        1
 92
        0
 93
        4
 72
     1
 10
-8.225363627744354
 20
-35.8
 11
-11.67163887158164
 21
-35.8
 72
     1
 10
-11.67163887158164
 20
-35.8
 11
-13.79986873078565
 21
-38.3363255805726
 72
     1
 10
-13.79986873078565
 20
-38.3363255805726
 11
-10.35356040183522
 21
-38.33628615127011
 72
     1
 10
-10.35356040183522
 20
-38.33628615127011
 11
-8.225363627744354
 21
-35.8
 97
        0
 75
     0
 76
     1
 98
        1
 10
21.66323868596883
 20
-0.0010749287238935
  0
HATCH
  5
C5
330
1F
100
AcDbEntity
  8
중심선
100
AcDbHatch
 10
0.0
 20
0.0
 30
0.0
210
0.0
220
0.0
230
1.0
  2
SOLID
 70
     1
 71
     0
 91
        1
 92
        0
 93
        4
 72
     1
 10
-3.212599636708401
 20
-35.80000000000003
 11
-6.658874880545685
 21
-35.8
 72
     1
 10
-6.658874880545685
 20
-35.8
 11
-11.19001288890307
 21
-41.20000000000002
 72
     1
 10
-11.19001288890307
 20
-41.20000000000002
 11
-7.743737645065789
 21
-41.20000000000002
 72
     1
 10
-7.743737645065789
 20
-41.20000000000002
 11
-3.212599636708401
 21
-35.80000000000003
 97
        0
 75
     0
 76
     1
 98
        1
 10
21.66323868596883
 20
-0.0010749287238935
  0
HATCH
  5
C6
330
1F
100
AcDbEntity
  8
중심선
100
AcDbHatch
 10
0.0
 20
0.0
 30
0.0
210
0.0
220
0.0
230
1.0
  2
SOLID
 70
     1
 71
     0
 91
        1
 92
        0
 93
        4
 72
     1
 10
1.800164354327467
 20
-35.8
 11
-1.646110889509593
 21
-35.79999999999998
 72
     1
 10
-1.646110889509593
 20
-35.79999999999998
 11
-8.694547791398872
 21
-44.20000000000002
 72
     1
 10
-8.694547791398872
 20
-44.20000000000002
 11
-5.248272547561587
 21
-44.20000000000002
 72
     1
 10
-5.248272547561587
 20
-44.20000000000002
 11
1.800164354327467
 21
-35.8
 97
        0
 75
     0
 76
     1
 98
        1
 10
21.66323868596883
 20
-0.0010749287238935
  0
HATCH
  5
C7
330
1F
100
AcDbEntity
  8
중심선
100
AcDbHatch
 10
0.0
 20
0.0
 30
0.0
210
0.0
220
0.0
230
1.0
  2
SOLID
 70
     1
 71
     0
 91
        1
 92
        0
 93
        6
 72
     3
 10
6.600054785339694
 20
-40.00000000005127
 11
3.960054785062283
 21
1.540882976769353E-10
 40
0.3939339440162628
 50
17.09539180608437
 51
320.0019657685071
 73
     0
 72
     1
 10
8.283054441040234
 20
-38.5878940046383
 11
10.58835631474133
 21
-36.65356729459038
 72
     3
 10
6.600054785286847
 20
-40.00000000000015
 11
6.600054785286829
 21
-1.278976924368180E-13
 40
0.636358354079598
 50
39.9987384933741
 51
368.4976242363725
 73
     1
 72
     1
 10
13.02538727718746
 20
-39.03999999993002
 11
5.28012209212277
 21
-39.03999999993002
 72
     1
 10
5.28012209212277
 20
-39.03999999993002
 11
5.280097047676836
 21
-40.95999999992991
 72
     1
 10
5.280097047676836
 20
-40.95999999992991
 11
9.721476817148872
 21
-40.95999999992988
 97
        0
 75
     0
 76
     1
 98
        1
 10
21.66323868596883
 20
-0.0010749287238935
  0
DIMENSION
  5
C8
330
1F
100
AcDbEntity
  8
치수문자_일반주서
100
AcDbDimension
  2
_D
 10
19.05000000000003
 20
13.175
 30
0.0
 11
50.38524999999999
 21
13.175
 31
0.0
 70
   160
  1
<>
 71
     2
 42
12.69999999999995
  3
SLDDIMSTYLE2
100
AcDbAlignedDimension
 13
31.74999999999998
 23
2.778124999999998
 33
0.0
 14
19.05000000000003
 24
2.778124999999992
 34
0.0
100
AcDbRotatedDimension
1001
PE_URL
1000

1001
ACAD
1000
DSTYLE
1002
{
1070
   171
1070
     8
1070
   273
1070
     7
1002
}
  0
DIMENSION
  5
DD
330
1F
100
AcDbEntity
  8
치수문자_일반주서
100
AcDbDimension
  2
_D_1
 10
-31.74999999999999
 20
23.175
 30
0.0
 11
0.0000000000000036
 21
23.175
 31
0.0
 70
   160
  1
<>
 71
     2
 42
63.49999999999996
  3
SLDDIMSTYLE2
100
AcDbAlignedDimension
 13
31.74999999999998
 23
2.778124999999998
 33
0.0
 14
-31.74999999999999
 24
2.540000000000014
 34
0.0
100
AcDbRotatedDimension
1001
PE_URL
1000

1001
ACAD
1000
DSTYLE
1002
{
1070
   171
1070
     8
1070
   273
1070
     7
1002
}
  0
DIMENSION
  5
F0
330
1F
100
AcDbEntity
  8
치수문자_일반주서
100
AcDbDimension
  2
_D_2
 10
68.6530580318005
 20
-2.778124999999864
 30
0.0
 11
68.65305803180043
 21
23.81962500000014
 31
0.0
 70
   160
  1
%%c<>
 71
     2
 42
5.55625
 52
-270.0
  3
SLDDIMSTYLE2
100
AcDbAlignedDimension
 13
31.74999999999998
 23
2.778124999999998
 33
0.0
 14
31.74999999999998
 24
-2.778125000000002
 34
0.0
 50
90.0000000000002
100
AcDbRotatedDimension
1001
PE_URL
1000

1001
ACAD
1000
DSTYLE
1002
{
1070
   171
1070
     8
1070
   273
1070
     7
1002
}
  0
DIMENSION
  5
105
330
1F
100
AcDbEntity
  8
치수문자_일반주서
100
AcDbDimension
  2
_D_3
 10
-41.74999999999995
 20
-3.17500000000005
 30
0.0
 11
-41.75000000000004
 21
22.46649999999997
 31
0.0
 70
   160
  1
%%c<>
 71
     2
 42
6.350000000000023
 52
-270.0
  3
SLDDIMSTYLE2
100
AcDbAlignedDimension
 13
-31.115
 23
3.175000000000011
 33
0.0
 14
-31.115
 24
-3.175000000000011
 34
0.0
 50
90.0000000000002
100
AcDbRotatedDimension
1001
PE_URL
1000

1001
ACAD
1000
DSTYLE
1002
{
1070
   171
1070
     8
1070
   273
1070
     7
1002
}
  0
LINE
  5
119
330
1F
100
AcDbEntity
  8
참조1
100
AcDbLine
 10
89.9572338153456
 20
7.440000000000002
 30
0.0
 11
89.9572338153456
 21
-7.440000000000002
 31
0.0
  0
LINE
  5
11A
330
1F
100
AcDbEntity
  8
참조1
100
AcDbLine
 10
102.6572338153456
 20
5.440000000000002
 30
0.0
 11
89.9572338153456
 21
5.440000000000002
 31
0.0
  0
SOLID
  5
11B
330
1F
100
AcDbEntity
  8
참조1
100
AcDbTrace
 10
89.9572338153456
 20
5.440000000000002
 30
0.0
 11
96.3072338153456
 21
4.424000000000002
 31
0.0
 12
96.3072338153456
 22
6.456000000000002
 32
0.0
 13
96.3072338153456
 23
6.456000000000002
 33
0.0
  0
LINE
  5
11C
330
1F
100
AcDbEntity
  8
참조1
100
AcDbLine
 10
102.6572338153456
 20
-5.440000000000002
 30
0.0
 11
89.9572338153456
 21
-5.440000000000002
 31
0.0
  0
SOLID
  5
11D
330
1F
100
AcDbEntity
  8
참조1
100
AcDbTrace
 10
89.9572338153456
 20
-5.440000000000002
 30
0.0
 11
96.3072338153456
 21
-6.456000000000002
 31
0.0
 12
96.3072338153456
 22
-4.424000000000002
 32
0.0
 13
96.3072338153456
 23
-4.424000000000002
 33
0.0
  0
MTEXT
  5
11E
330
1F
100
AcDbEntity
  8
참조1
100
AcDbMText
 10
99.3547239078159
 20
10.98821664464994
 30
0.0
 40
3.5
 41
0.0
 71
     1
 72
     1
  1
A
  7
SLDTEXTSTYLE0
 73
     1
 44
1.0
  0
MTEXT
  5
11F
330
1F
100
AcDbEntity
  8
참조1
100
AcDbMText
 10
99.3547239078159
 20
0.1082166446499324
 30
0.0
 40
3.5
 41
0.0
 71
     1
 72
     1
  1
A
  7
SLDTEXTSTYLE0
 73
     1
 44
1.0
  0
INSERT
  5
126
330
1F
100
AcDbEntity
  8
해칭선
100
AcDbBlockReference
  2
SW_DOWELSYMBOL_0
 10
0.0
 20
0.0
 30
0.0
  0
LINE
  5
1C5
330
1F
100
AcDbEntity
  8
0
  6
Continuous
 62
     1
370
    15
100
AcDbLine
 10
-27.02116730229723
 20
2.778124999999974
 30
0.0
 11
-28.71481899106935
 21
2.778124999999969
 31
0.0
1001
PE_URL
1000

  0
ARC
  5
1C6
330
1F
100
AcDbEntity
  8
0
  6
Continuous
 62
     1
370
    15
100
AcDbCircle
 10
-28.97187499999992
 20
-0.0000000000000444
 30
0.0
 40
2.778125000000021
100
AcDbArc
 50
156.1370591320726
 51
180.0000000000002
1001
PE_URL
1000

  0
ARC
  5
1C7
330
1F
100
AcDbEntity
  8
0
  6
Continuous
 62
     1
370
    15
100
AcDbCircle
 10
-28.97187499999992
 20
-0.0000000000000444
 30
0.0
 40
2.778125000000024
100
AcDbArc
 50
180.0000000000002
 51
203.8629262303737
1001
PE_URL
1000

  0
LINE
  5
1C8
330
1F
100
AcDbEntity
  8
0
  6
Continuous
 62
     1
370
    15
100
AcDbLine
 10
-21.15738828005935
 20
-2.778125000000031
 30
0.0
 11
-19.46282606814766
 21
-2.778125000000024
 31
0.0
1001
PE_URL
1000

  0
LINE
  5
1C9
330
1F
100
AcDbEntity
  8
0
  6
Continuous
 62
     1
370
    15
100
AcDbLine
 10
-19.46282606814768
 20
2.778125000000001
 30
0.0
 11
-21.15738828005941
 21
2.778124999999994
 31
0.0
1001
PE_URL
1000

  0
LINE
  5
1CA
330
1F
100
AcDbEntity
  8
0
  6
Continuous
 62
     1
370
    15
100
AcDbLine
 10
-28.71481899106932
 20
-2.778125000000056
 30
0.0
 11
-27.02116730229717
 21
-2.778125000000051
 31
0.0
1001
PE_URL
1000

  0
LINE
  5
1CB
330
1F
100
AcDbEntity
  8
외형선
  6
Continuous
370
    15
100
AcDbLine
 10
-16.56884233574606
 20
3.175000000000002
 30
0.0
 11
-18.04999999999998
 21
2.778124999999992
 31
0.0
  0
LINE
  5
1CC
330
1F
100
AcDbEntity
  8
외형선
  6
Continuous
370
    15
100
AcDbLine
 10
-18.04999999999996
 20
-2.778125000000008
 30
0.0
 11
-16.56884233574604
 21
-3.17500000000001
 31
0.0
  0
LINE
  5
1CD
330
1F
100
AcDbEntity
  8
외형선
  6
Continuous
370
    15
100
AcDbLine
 10
-18.04999999999998
 20
2.778124999999992
 30
0.0
 11
-19.04999999999998
 21
2.778124999999989
 31
0.0
  0
LINE
  5
1CE
330
1F
100
AcDbEntity
  8
외형선
  6
Continuous
370
    15
100
AcDbLine
 10
-19.04999999999996
 20
-2.778125000000012
 30
0.0
 11
-18.04999999999996
 21
-2.778125000000008
 31
0.0
  0
SPLINE
  5
1CF
330
1F
100
AcDbEntity
  8
0
  6
Continuous
 62
     1
370
    15
100
AcDbSpline
210
0.0
220
0.0
230
1.0
 70
     8
 71
     3
 72
    34
 73
    30
 74
     0
 42
0.000000001
 43
0.00000001
 40
0.0
 40
0.0
 40
0.0
 40
0.0
 40
0.1250000000000004
 40
0.1250000000000004
 40
0.1874999999999998
 40
0.1874999999999998
 40
0.2499999999999992
 40
0.2499999999999992
 40
0.3124999999999986
 40
0.3124999999999986
 40
0.3749999999999981
 40
0.3749999999999981
 40
0.4374999999999974
 40
0.4374999999999974
 40
0.4999999999999969
 40
0.4999999999999969
 40
0.5624999999999963
 40
0.5624999999999963
 40
0.6249999999999957
 40
0.6249999999999957
 40
0.7499999999999961
 40
0.7499999999999961
 40
0.8124999999999971
 40
0.8124999999999971
 40
0.874999999999998
 40
0.874999999999998
 40
0.937499999999999
 40
0.937499999999999
 40
1.0
 40
1.0
 40
1.0
 40
1.0
 10
-19.04999999999997
 20
-2.767908699589649
 30
0.0
 10
-19.45925914483621
 20
-2.788292736462479
 30
0.0
 10
-19.87992426359132
 20
-2.777908282109681
 30
0.0
 10
-20.49713026650687
 20
-2.71669928728886
 30
0.0
 10
-20.70214618925016
 20
-2.688781304930419
 30
0.0
 10
-21.11718468450905
 20
-2.617959623209829
 30
0.0
 10
-21.32554237409233
 20
-2.575105861885511
 30
0.0
 10
-21.73875652190273
 20
-2.475641104490972
 30
0.0
 10
-21.94266663545296
 20
-2.419169185369469
 30
0.0
 10
-22.3567396701515
 20
-2.292593226401671
 30
0.0
 10
-22.56517476721852
 20
-2.22260702131779
 30
0.0
 10
-22.97965764947686
 20
-2.07096667830479
 30
0.0
 10
-23.18381618724488
 20
-1.989594518846555
 30
0.0
 10
-23.59644570319207
 20
-1.815770140549997
 30
0.0
 10
-23.8047137656267
 20
-1.723301628056104
 30
0.0
 10
-24.21998574005586
 20
-1.529487956125459
 30
0.0
 10
-24.42574598104225
 20
-1.428359762892429
 30
0.0
 10
-24.83645948408461
 20
-1.218947162764525
 30
0.0
 10
-25.04431672477033
 20
-1.110153197014263
 30
0.0
 10
-25.66768427832975
 20
-0.7754432806852254
 30
0.0
 10
-26.07644031503987
 20
-0.5424521855351756
 30
0.0
 10
-26.69954163181235
 20
-0.1859863939372879
 30
0.0
 10
-26.90772399814129
 20
-0.0662247136995262
 30
0.0
 10
-27.31988885598435
 20
0.1721973227164408
 30
0.0
 10
-27.52434210512406
 20
0.2909505125668908
 30
0.0
 10
-27.93908229444559
 20
0.5273055314757169
 30
0.0
 10
-28.14749676142688
 20
0.6445398815317063
 30
0.0
 10
-28.56123166296281
 20
0.8742143047116695
 30
0.0
 10
-28.7650755684843
 20
0.9863997916979628
 30
0.0
 10
-28.97187499999993
 20
1.096086824440498
 30
0.0
1001
PE_URL
1000

  0
SPLINE
  5
1D0
330
1F
100
AcDbEntity
  8
0
  6
Continuous
 62
     1
370
    15
100
AcDbSpline
210
0.0
220
0.0
230
1.0
 70
     8
 71
     3
 72
    17
 73
    13
 74
     0
 42
0.000000001
 43
0.00000001
 40
0.0
 40
0.0
 40
0.0
 40
0.0
 40
0.1112271772414776
 40
0.2257076422098794
 40
0.3359661670855152
 40
0.4496139532665102
 40
0.5573777054009564
 40
0.6678122236358466
 40
0.7575224538255141
 40
0.8492640253208349
 40
0.9615100300022104
 40
1.0
 40
1.0
 40
1.0
 40
1.0
 10
-28.97187499999992
 20
1.096086824440498
 30
0.0
 10
-29.09964529668661
 20
1.159596729349211
 30
0.0
 10
-29.35892304808546
 20
1.288474142670578
 30
0.0
 10
-29.74940825363035
 20
1.415334627455701
 30
0.0
 10
-30.13420459989994
 20
1.484495867149375
 30
0.0
 10
-30.49344270281582
 20
1.487385368686597
 30
0.0
 10
-30.82131208883633
 20
1.434608527855536
 30
0.0
 10
-31.08479319563792
 20
1.348844248581448
 30
0.0
 10
-31.29016372258036
 20
1.251556276103972
 30
0.0
 10
-31.44066671855124
 20
1.162927494244684
 30
0.0
 10
-31.52393556609204
 20
1.099489771689397
 30
0.0
 10
-31.51084430190608
 20
1.117123493271087
 30
0.0
 10
-31.50750148764545
 20
1.1216262101313
 30
0.0
1001
PE_URL
1000

  0
SPLINE
  5
1D1
330
1F
100
AcDbEntity
  8
0
  6
Continuous
 62
     1
370
    15
100
AcDbSpline
210
0.0
220
0.0
230
1.0
 70
     8
 71
     3
 72
    24
 73
    20
 74
     0
 42
0.000000001
 43
0.00000001
 40
0.0
 40
0.0
 40
0.0
 40
0.0
 40
0.0625000000000013
 40
0.0625000000000013
 40
0.1250000000000026
 40
0.1250000000000026
 40
0.2500000000000052
 40
0.2500000000000052
 40
0.3750000000000079
 40
0.3750000000000079
 40
0.5000000000000063
 40
0.5000000000000063
 40
0.6250000000000048
 40
0.6250000000000048
 40
0.7500000000000032
 40
0.7500000000000032
 40
0.8750000000000017
 40
0.8750000000000017
 40
1.0
 40
1.0
 40
1.0
 40
1.0
 10
-31.49984435137191
 20
1.134547649608045
 30
0.0
 10
-31.48775180821351
 20
1.148414195423292
 30
0.0
 10
-31.46989717080461
 20
1.168215264078325
 30
0.0
 10
-31.42275667111508
 20
1.220314482163879
 30
0.0
 10
-31.39287737728697
 20
1.253267816170794
 30
0.0
 10
-31.2900724621438
 20
1.36625919633477
 30
0.0
 10
-31.20243639982912
 20
1.46223235056933
 30
0.0
 10
-31.00851892226982
 20
1.666089156458806
 30
0.0
 10
-30.90321002526752
 20
1.772757276567454
 30
0.0
 10
-30.68345718748899
 20
1.979527881452027
 30
0.0
 10
-30.569560627957
 20
2.079076161691345
 30
0.0
 10
-30.33856659250246
 20
2.260989454245687
 30
0.0
 10
-30.21904219731613
 20
2.34516693445822
 30
0.0
 10
-29.9797830418152
 20
2.490926416821459
 30
0.0
 10
-29.8591994402346
 20
2.553277854852091
 30
0.0
 10
-29.61236963514357
 20
2.656398328439593
 30
0.0
 10
-29.48565372916991
 20
2.697119367311865
 30
0.0
 10
-29.23134231478353
 20
2.753730105383672
 30
0.0
 10
-29.10288318825366
 20
2.770096502469475
 30
0.0
 10
-28.97187499999995
 20
2.774143626279276
 30
0.0
1001
PE_URL
1000

  0
SPLINE
  5
1D2
330
1F
100
AcDbEntity
  8
0
  6
Continuous
 62
     1
370
    15
100
AcDbSpline
210
0.0
220
0.0
230
1.0
 70
     8
 71
     3
 72
    34
 73
    30
 74
     0
 42
0.000000001
 43
0.00000001
 40
0.0
 40
0.0
 40
0.0
 40
0.0
 40
0.1250000000000002
 40
0.1250000000000002
 40
0.1875000000000003
 40
0.1875000000000003
 40
0.2500000000000004
 40
0.2500000000000004
 40
0.3125000000000005
 40
0.3125000000000005
 40
0.3750000000000006
 40
0.3750000000000006
 40
0.4375000000000007
 40
0.4375000000000007
 40
0.5000000000000008
 40
0.5000000000000008
 40
0.5625000000000009
 40
0.5625000000000009
 40
0.625000000000001
 40
0.625000000000001
 40
0.7499999999999996
 40
0.7499999999999996
 40
0.8124999999999997
 40
0.8124999999999997
 40
0.8749999999999998
 40
0.8749999999999998
 40
0.9374999999999999
 40
0.9374999999999999
 40
1.0
 40
1.0
 40
1.0
 40
1.0
 10
-19.04999999999997
 20
-1.177811293227771
 30
0.0
 10
-19.45925914483621
 20
-0.962345008223787
 30
0.0
 10
-19.87992426359133
 20
-0.7317477184530965
 30
0.0
 10
-20.49713026650689
 20
-0.3800235851119904
 30
0.0
 10
-20.70214618925014
 20
-0.2615472311728002
 30
0.0
 10
-21.11718468450904
 20
-0.022842784157552
 30
0.0
 10
-21.32554237409232
 20
0.0970646136020417
 30
0.0
 10
-21.73875652190274
 20
0.3350091776029931
 30
0.0
 10
-21.94266663545296
 20
0.4528701920146236
 30
0.0
 10
-22.35673967015147
 20
0.6866260403648301
 30
0.0
 10
-22.56517476721852
 20
0.8021800558343575
 30
0.0
 10
-22.97965764947687
 20
1.027761922667084
 30
0.0
 10
-23.18381618724491
 20
1.137466067314023
 30
0.0
 10
-23.59644570319206
 20
1.35076298225831
 30
0.0
 10
-23.80471376562671
 20
1.45429247430504
 30
0.0
 10
-24.21998574005584
 20
1.652491036876938
 30
0.0
 10
-24.42574598104226
 20
1.746977147038049
 30
0.0
 10
-24.83645948408461
 20
1.925708260921326
 30
0.0
 10
-25.0443167247703
 20
2.010352525923539
 30
0.0
 10
-25.66768427832978
 20
2.246780694701764
 30
0.0
 10
-26.07644031503985
 20
2.380355399269341
 30
0.0
 10
-26.69954163181236
 20
2.540199842047988
 30
0.0
 10
-26.9077239981413
 20
2.586585745251135
 30
0.0
 10
-27.31988885598438
 20
2.664524399110418
 30
0.0
 10
-27.52434210512411
 20
2.69616277835865
 30
0.0
 10
-27.93908229444558
 20
2.744624889378922
 30
0.0
 10
-28.14749676142689
 20
2.761317245517738
 30
0.0
 10
-28.5612316629628
 20
2.779246231544715
 30
0.0
 10
-28.76507556848433
 20
2.780532104085861
 30
0.0
 10
-28.97187499999994
 20
2.774143626279267
 30
0.0
1001
PE_URL
1000

  0
SPLINE
  5
1D3
330
1F
100
AcDbEntity
  8
0
  6
Continuous
 62
     1
370
    15
100
AcDbSpline
210
0.0
220
0.0
230
1.0
 70
     8
 71
     3
 72
    15
 73
    11
 74
     0
 42
0.000000001
 43
0.00000001
 40
0.0
 40
0.0
 40
0.0
 40
0.0
 40
0.1395686269099179
 40
0.2789385094847205
 40
0.4182323871095109
 40
0.5575740626013557
 40
0.6970866696239896
 40
0.8342184375264304
 40
0.971115527237504
 40
1.0
 40
1.0
 40
1.0
 40
1.0
 10
-19.04999999999998
 20
-0.2380334984011618
 30
0.0
 10
-19.42093901091944
 20
-0.0236599785943454
 30
0.0
 10
-20.16228881930005
 20
0.4047817952614761
 30
0.0
 10
-21.27339382044654
 20
1.029774156386265
 30
0.0
 10
-22.38381324779764
 20
1.599204614152045
 30
0.0
 10
-23.4946674193148
 20
2.083148309784265
 30
0.0
 10
-24.60009468865779
 20
2.457416193022587
 30
0.0
 10
-25.69932312933429
 20
2.689151049368579
 30
0.0
 10
-26.50405274267444
 20
2.79097837001658
 30
0.0
 10
-26.94443803930893
 20
2.769922841619744
 30
0.0
 10
-27.02116730229722
 20
2.766254292310617
 30
0.0
1001
PE_URL
1000

  0
SPLINE
  5
1D4
330
1F
100
AcDbEntity
  8
0
  6
Continuous
 62
     1
370
    15
100
AcDbSpline
210
0.0
220
0.0
230
1.0
 70
     8
 71
     3
 72
    12
 73
     8
 74
     0
 42
0.000000001
 43
0.00000001
 40
0.0
 40
0.0
 40
0.0
 40
0.0
 40
0.1337603476733124
 40
0.3502851371679461
 40
0.5666712457600755
 40
0.7831622417750687
 40
0.9999999999999999
 40
0.9999999999999999
 40
0.9999999999999999
 40
0.9999999999999999
 10
-24.08910283957893
 20
2.263256342167882
 30
0.0
 10
-23.86435417139446
 20
2.338899752725155
 30
0.0
 10
-23.27579321567999
 20
2.536991062323272
 30
0.0
 10
-22.32410856327705
 20
2.717109758112914
 30
0.0
 10
-21.23354370918177
 20
2.801006774143341
 30
0.0
 10
-20.14240714469511
 20
2.745468444060753
 30
0.0
 10
-19.41432992438591
 20
2.592594258403542
 30
0.0
 10
-19.04999999999999
 20
2.516095998401116
 30
0.0
1001
PE_URL
1000

  0
SPLINE
  5
1D5
330
1F
100
AcDbEntity
  8
0
  6
Continuous
 62
     1
370
    15
100
AcDbSpline
210
0.0
220
0.0
230
1.0
 70
     8
 71
     3
 72
    12
 73
     8
 74
     0
 42
0.000000001
 43
0.00000001
 40
0.0
 40
0.0
 40
0.0
 40
0.0
 40
0.1059418593063366
 40
0.3298019856520591
 40
0.5532790126592856
 40
0.77659457261323
 40
1.0
 40
1.0
 40
1.0
 40
1.0
 10
-24.08910283957889
 20
-2.26325634216794
 30
0.0
 10
-24.2615526297804
 20
-2.323437766274736
 30
0.0
 10
-24.79839692915493
 20
-2.51078536711681
 30
0.0
 10
-25.69933445469288
 20
-2.693107265857916
 30
0.0
 10
-26.79073415831111
 20
-2.798344375462605
 30
0.0
 10
-27.88128304082014
 20
-2.762965555375645
 30
0.0
 10
-28.60829559559125
 20
-2.622836422779455
 30
0.0
 10
-28.97187499999992
 20
-2.552757761502875
 30
0.0
1001
PE_URL
1000

  0
SPLINE
  5
1D6
330
1F
100
AcDbEntity
  8
0
  6
Continuous
 62
     1
370
    15
100
AcDbSpline
210
0.0
220
0.0
230
1.0
 70
     8
 71
     3
 72
    40
 73
    36
 74
     0
 42
0.000000001
 43
0.00000001
 40
0.0
 40
0.0
 40
0.0
 40
0.0
 40
0.0625000000000004
 40
0.0625000000000004
 40
0.1250000000000008
 40
0.1250000000000008
 40
0.1875000000000012
 40
0.1875000000000012
 40
0.2500000000000016
 40
0.2500000000000016
 40
0.312500000000002
 40
0.312500000000002
 40
0.3750000000000024
 40
0.3750000000000024
 40
0.4375000000000028
 40
0.4375000000000028
 40
0.5000000000000032
 40
0.5000000000000032
 40
0.5625000000000037
 40
0.5625000000000037
 40
0.5937500000000046
 40
0.5937500000000046
 40
0.6250000000000056
 40
0.6250000000000056
 40
0.6875000000000047
 40
0.6875000000000047
 40
0.7500000000000037
 40
0.7500000000000037
 40
0.8125000000000028
 40
0.8125000000000028
 40
0.8750000000000019
 40
0.8750000000000019
 40
0.9375000000000009
 40
0.9375000000000009
 40
1.0
 40
1.0
 40
1.0
 40
1.0
 10
-28.97187499999991
 20
-2.552757761502889
 30
0.0
 10
-29.11298073996636
 20
-2.520622193534523
 30
0.0
 10
-29.25356986169379
 20
-2.477021974723076
 30
0.0
 10
-29.53563217299535
 20
-2.369307385192263
 30
0.0
 10
-29.67823263783089
 20
-2.304593413385833
 30
0.0
 10
-29.95995443568632
 20
-2.156792989412931
 30
0.0
 10
-30.09693534914597
 20
-2.07488672777165
 30
0.0
 10
-30.36365111742838
 20
-1.895864443550259
 30
0.0
 10
-30.4945279030254
 20
-1.797572095623121
 30
0.0
 10
-30.73918274479686
 20
-1.588523422398273
 30
0.0
 10
-30.85311403211432
 20
-1.477965700961519
 30
0.0
 10
-31.06188230028393
 20
-1.240756886426023
 30
0.0
 10
-31.15704065344741
 20
-1.113245032061759
 30
0.0
 10
-31.31775018837227
 20
-0.8448745507041355
 30
0.0
 10
-31.38462971524608
 20
-0.7025502162435568
 30
0.0
 10
-31.48256662470736
 20
-0.397925752133542
 30
0.0
 10
-31.51259909454258
 20
-0.2378308048505531
 30
0.0
 10
-31.5221905927099
 20
0.0873066631954913
 30
0.0
 10
-31.50042329513014
 20
0.2519855425065227
 30
0.0
 10
-31.42707202421209
 20
0.4678724939148324
 30
0.0
 10
-31.39532862882796
 20
0.5362034716584443
 30
0.0
 10
-31.32149307350281
 20
0.6560350838068612
 30
0.0
 10
-31.27908410136499
 20
0.7085390050051306
 30
0.0
 10
-31.13906313349874
 20
0.8415683809429524
 30
0.0
 10
-31.03074577002915
 20
0.8954512103890178
 30
0.0
 10
-30.80376147238996
 20
0.9465620030357478
 30
0.0
 10
-30.68235590275131
 20
0.9446006496665653
 30
0.0
 10
-30.43706328799017
 20
0.9025808680668899
 30
0.0
 10
-30.31048465277441
 20
0.8623990590128638
 30
0.0
 10
-30.05344936793859
 20
0.7571103161327795
 30
0.0
 10
-29.92446709332828
 20
0.6927590760227904
 30
0.0
 10
-29.66042601531685
 20
0.5507559949564271
 30
0.0
 10
-29.52447529821811
 20
0.4721862133715593
 30
0.0
 10
-29.2510502980684
 20
0.311970701242883
 30
0.0
 10
-29.11294131525838
 20
0.2299905805772351
 30
0.0
 10
-28.97187499999994
 20
0.1486797107843731
 30
0.0
1001
PE_URL
1000

  0
SPLINE
  5
1D7
330
1F
100
AcDbEntity
  8
0
  6
Continuous
 62
     1
370
    15
100
AcDbSpline
210
0.0
220
0.0
230
1.0
 70
     8
 71
     3
 72
    15
 73
    11
 74
     0
 42
0.000000001
 43
0.00000001
 40
0.0
 40
0.0
 40
0.0
 40
0.0
 40
0.1421363476219049
 40
0.2842146132902008
 40
0.4263610852904116
 40
0.5687010973864328
 40
0.7110784343437543
 40
0.8507000267511691
 40
0.990232193608328
 40
1.0
 40
1.0
 40
1.0
 40
1.0
 10
-28.97187499999993
 20
0.1486797107843607
 30
0.0
 10
-28.60164881979815
 20
-0.0656070100725916
 30
0.0
 10
-27.86134774694477
 20
-0.4940928866310088
 30
0.0
 10
-26.75095587668725
 20
-1.112962549597981
 30
0.0
 10
-25.63993209931276
 20
-1.672564394255533
 30
0.0
 10
-24.52773208443706
 20
-2.14213419310912
 30
0.0
 10
-23.42198897983145
 20
-2.499984972154422
 30
0.0
 10
-22.32408940297362
 20
-2.710202424485995
 30
0.0
 10
-21.57169900988393
 20
-2.798331195064158
 30
0.0
 10
-21.18282967997115
 20
-2.775016887723623
 30
0.0
 10
-21.15738828005936
 20
-2.773491571708471
 30
0.0
1001
PE_URL
1000

  0
LINE
  5
1D8
330
1F
100
AcDbEntity
  8
외형선
  6
Continuous
370
    15
100
AcDbLine
 10
-19.04999999999997
 20
-0.2380334984011618
 30
0.0
 11
-19.04999999999997
 21
-1.177811293227771
 31
0.0
  0
SPLINE
  5
1D9
330
1F
100
AcDbEntity
  8
0
  6
Continuous
 62
     1
370
    15
100
AcDbSpline
210
0.0
220
0.0
230
1.0
 70
     8
 71
     3
 72
    19
 73
    15
 74
     0
 42
0.000000001
 43
0.00000001
 40
0.0
 40
0.0
 40
0.0
 40
0.0
 40
0.0527351842776628
 40
0.1460134533593443
 40
0.2265416312841103
 40
0.3083395732625641
 40
0.3676618131494849
 40
0.428681887313647
 40
0.5098461427295976
 40
0.5932932042202596
 40
0.7025110301381245
 40
0.8148222022935373
 40
0.9066633129294279
 40
1.0
 40
1.0
 40
1.0
 40
1.0
 10
-31.50750150784351
 20
-1.1216261760471
 30
0.0
 10
-31.50755091392784
 20
-1.123323514314109
 30
0.0
 10
-31.50768770975188
 20
-1.128023113363199
 30
0.0
 10
-31.41506025237371
 20
-1.228440759080009
 30
0.0
 10
-31.25676233374347
 20
-1.403230513609177
 30
0.0
 10
-31.08051764962013
 20
-1.59194935016381
 30
0.0
 10
-30.90440124110307
 20
-1.770808823366265
 30
0.0
 10
-30.71906186064498
 20
-1.947740743819562
 30
0.0
 10
-30.50278102173409
 20
-2.135718957031578
 30
0.0
 10
-30.23220625053816
 20
-2.339648732697757
 30
0.0
 10
-29.92273558395835
 20
-2.52808001606221
 30
0.0
 10
-29.5952385261231
 20
-2.666855342369526
 30
0.0
 10
-29.27695923835022
 20
-2.751495989687776
 30
0.0
 10
-29.07411582997998
 20
-2.766553876068965
 30
0.0
 10
-28.97187499999994
 20
-2.774143626279368
 30
0.0
1001
PE_URL
1000

  0
LINE
  5
1DA
330
1F
100
AcDbEntity
  8
0
  6
Continuous
 62
     1
370
    15
100
AcDbLine
 10
-19.04999999999999
 20
2.767908699589624
 30
0.0
 11
-19.46282606814768
 21
2.760841460260307
 31
0.0
1001
PE_URL
1000

  0
LINE
  5
1DB
330
1F
100
AcDbEntity
  8
0
  6
Continuous
 62
     1
370
    15
100
AcDbLine
 10
-28.97187499999993
 20
-2.774143626279358
 30
0.0
 11
-28.71481899106931
 21
-2.76497669504313
 31
0.0
1001
PE_URL
1000

  0
LINE
  5
1DC
330
1F
100
AcDbEntity
  8
외형선
  6
Continuous
370
    15
100
AcDbLine
 10
-19.04999999999998
 20
2.767908699589624
 30
0.0
 11
-19.04999999999999
 21
2.516095998401116
 31
0.0
  0
LINE
  5
1DD
330
1F
100
AcDbEntity
  8
외형선
  6
Continuous
370
    15
100
AcDbLine
 10
-16.56884233574605
 20
-0.0000000000000036
 30
0.0
 11
-16.56884233574604
 21
-3.175000000000006
 31
0.0
  0
LINE
  5
1DE
330
1F
100
AcDbEntity
  8
외형선
  6
Continuous
370
    15
100
AcDbLine
 10
-16.56884233574606
 20
3.174999999999999
 30
0.0
 11
-16.56884233574605
 21
-0.0000000000000036
 31
0.0
  0
LINE
  5
1DF
330
1F
100
AcDbEntity
  8
외형선
  6
Continuous
370
    15
100
AcDbLine
 10
-18.04999999999997
 20
-0.0000000000000089
 30
0.0
 11
-18.04999999999996
 21
-2.778125000000008
 31
0.0
  0
LINE
  5
1E0
330
1F
100
AcDbEntity
  8
외형선
  6
Continuous
370
    15
100
AcDbLine
 10
-18.04999999999998
 20
2.778124999999992
 30
0.0
 11
-18.04999999999997
 21
-0.0000000000000089
 31
0.0
  0
LINE
  5
1E1
330
1F
100
AcDbEntity
  8
외형선
  6
Continuous
370
    15
100
AcDbLine
 10
-19.04999999999997
 20
-0.0000000000000124
 30
0.0
 11
-19.04999999999996
 21
-2.778125000000012
 31
0.0
  0
LINE
  5
1E2
330
1F
100
AcDbEntity
  8
외형선
  6
Continuous
370
    15
100
AcDbLine
 10
-19.04999999999998
 20
2.778124999999989
 30
0.0
 11
-19.04999999999997
 21
-0.0000000000000124
 31
0.0
  0
ENDSEC
  0
SECTION
  2
OBJECTS
  0
DICTIONARY
  5
C
330
0
100
AcDbDictionary
281
     1
  3
ACAD_GROUP
350
D
  3
ACAD_LAYOUT
350
1A
  3
ACAD_MLINESTYLE
350
17
  3
ACAD_PLOTSETTINGS
350
19
  3
ACAD_PLOTSTYLENAME
350
E
  3
ACAD_SCALELIST
350
47
  3
APPDATA
350
148
  3
DWGPROPS
350
1EA
  0
DICTIONARY
  5
181
330
2
100
AcDbDictionary
280
     1
281
     1
  3
ACAD_LAYERSTATES
360
182
  0
DICTIONARY
  5
D
102
{ACAD_REACTORS
330
C
102
}
330
C
100
AcDbDictionary
281
     1
  0
DICTIONARY
  5
1A
102
{ACAD_REACTORS
330
C
102
}
330
C
100
AcDbDictionary
281
     1
  3
Layout1
350
1E
  3
Layout2
350
26
  3
Model
350
22
  0
DICTIONARY
  5
17
102
{ACAD_REACTORS
330
C
102
}
330
C
100
AcDbDictionary
281
     1
  3
Standard
350
18
  0
DICTIONARY
  5
19
102
{ACAD_REACTORS
330
C
102
}
330
C
100
AcDbDictionary
281
     1
  0
ACDBDICTIONARYWDFLT
  5
E
102
{ACAD_REACTORS
330
C
102
}
330
C
100
AcDbDictionary
281
     1
  3
Normal
350
F
100
AcDbDictionaryWithDefault
340
F
  0
DICTIONARY
  5
47
102
{ACAD_REACTORS
330
C
102
}
330
C
100
AcDbDictionary
281
     1
  3
A0
350
48
  3
A1
350
49
  3
A2
350
4A
  3
A3
350
4B
  3
A4
350
4C
  3
A5
350
4D
  3
A6
350
4E
  3
A7
350
4F
  3
A8
350
50
  3
A9
350
51
  3
B0
350
52
  3
B1
350
53
  3
B2
350
54
  3
B3
350
55
  3
B4
350
56
  3
B5
350
57
  3
B6
350
58
  3
B7
350
59
  3
B8
350
5A
  3
B9
350
5B
  3
C0
350
5C
  3
C1
350
5D
  3
C2
350
5E
  3
C3
350
5F
  3
C4
350
60
  3
C5
350
61
  3
C6
350
62
  3
C7
350
63
  3
C8
350
64
  3
C9
350
65
  3
D0
350
66
  3
D1
350
67
  3
D2
350
68
  0
DICTIONARY
  5
148
102
{ACAD_REACTORS
330
C
102
}
330
C
100
AcDbDictionary
281
     1
  0
XRECORD
  5
1EA
102
{ACAD_REACTORS
330
C
102
}
330
C
100
AcDbXrecord
280
     1
  1
DWGPROPS COOKIE
  2

  3

  4

  6

  7

  8
120170442
  9

300
=
301
=
302
=
303
=
304
=
305
=
306
=
307
=
308
=
309
=
 40
0.0
 41
2458320.000320023
 42
2458324.264316852
  1

 90
        0
  0
DICTIONARY
  5
182
102
{ACAD_REACTORS
330
181
102
}
330
181
100
AcDbDictionary
281
     1
  0
LAYOUT
  5
1E
102
{ACAD_REACTORS
330
1A
102
}
330
1A
100
AcDbPlotSettings
  1

  2
none_device
  4

  6

 40
0.0
 41
0.0
 42
0.0
 43
0.0
 44
0.0
 45
0.0
 46
0.0
 47
0.0
 48
0.0
 49
0.0
140
0.0
141
0.0
142
1.0
143
1.0
 70
   688
 72
     1
 73
     0
 74
     5
  7

 75
    16
147
1.0
148
0.0
149
0.0
100
AcDbLayout
  1
Layout1
 70
     1
 71
     1
 10
0.0
 20
0.0
 11
420.0
 21
297.0
 12
0.0
 22
0.0
 32
0.0
 14
1.000000000000000E+20
 24
1.000000000000000E+20
 34
1.000000000000000E+20
 15
-1.000000000000000E+20
 25
-1.000000000000000E+20
 35
-1.000000000000000E+20
146
0.0
 13
0.0
 23
0.0
 33
0.0
 16
1.0
 26
0.0
 36
0.0
 17
0.0
 27
1.0
 37
0.0
 76
     0
330
1B
  0
LAYOUT
  5
26
102
{ACAD_REACTORS
330
1A
102
}
330
1A
100
AcDbPlotSettings
  1

  2
none_device
  4

  6

 40
0.0
 41
0.0
 42
0.0
 43
0.0
 44
0.0
 45
0.0
 46
0.0
 47
0.0
 48
0.0
 49
0.0
140
0.0
141
0.0
142
1.0
143
1.0
 70
   688
 72
     1
 73
     0
 74
     5
  7

 75
    16
147
1.0
148
0.0
149
0.0
100
AcDbLayout
  1
Layout2
 70
     1
 71
     2
 10
0.0
 20
0.0
 11
0.0
 21
0.0
 12
0.0
 22
0.0
 32
0.0
 14
0.0
 24
0.0
 34
0.0
 15
0.0
 25
0.0
 35
0.0
146
0.0
 13
0.0
 23
0.0
 33
0.0
 16
1.0
 26
0.0
 36
0.0
 17
0.0
 27
1.0
 37
0.0
 76
     0
330
23
  0
LAYOUT
  5
22
102
{ACAD_REACTORS
330
1A
102
}
330
1A
100
AcDbPlotSettings
  1

  2
none_device
  4
ANSI_A_(11.00_x_8.50_Inches)
  6

 40
6.35
 41
19.05
 42
6.35000508
 43
19.05000254
 44
279.4
 45
215.9
 46
130.3221747520326
 47
92.53641461949876
 48
0.0
 49
0.0
140
0.0
141
0.0
142
0.068698989468736
143
1.0
 70
  1696
 72
     0
 73
     0
 74
     0
  7

 75
     0
147
0.0235690232323232
148
0.0
149
0.0
100
AcDbLayout
  1
Model
 70
     1
 71
     0
 10
0.0
 20
0.0
 11
420.0
 21
297.0
 12
0.0
 22
0.0
 32
0.0
 14
-46.12500000000008
 24
-49.97180738881175
 34
0.0
 15
102.6572338153456
 25
38.25712500000012
 35
0.0
146
0.0
 13
0.0
 23
0.0
 33
0.0
 16
1.0
 26
0.0
 36
0.0
 17
0.0
 27
1.0
 37
0.0
 76
     0
330
1F
331
29
  0
MLINESTYLE
  5
18
102
{ACAD_REACTORS
330
17
102
}
330
17
100
AcDbMlineStyle
  2
Standard
 70
     0
  3

 62
   256
 51
90.0
 52
90.0
 71
     2
 49
0.5
 62
   256
  6
BYLAYER
 49
-0.5
 62
   256
  6
BYLAYER
  0
ACDBPLACEHOLDER
  5
F
102
{ACAD_REACTORS
330
E
102
}
330
E
  0
SCALE
  5
48
102
{ACAD_REACTORS
330
47
102
}
330
47
100
AcDbScale
 70
     0
300
1:1
140
1.0
141
1.0
290
     1
  0
SCALE
  5
49
102
{ACAD_REACTORS
330
47
102
}
330
47
100
AcDbScale
 70
     0
300
1:2
140
1.0
141
2.0
290
     0
  0
SCALE
  5
4A
102
{ACAD_REACTORS
330
47
102
}
330
47
100
AcDbScale
 70
     0
300
1:4
140
1.0
141
4.0
290
     0
  0
SCALE
  5
4B
102
{ACAD_REACTORS
330
47
102
}
330
47
100
AcDbScale
 70
     0
300
1:5
140
1.0
141
5.0
290
     0
  0
SCALE
  5
4C
102
{ACAD_REACTORS
330
47
102
}
330
47
100
AcDbScale
 70
     0
300
1:8
140
1.0
141
8.0
290
     0
  0
SCALE
  5
4D
102
{ACAD_REACTORS
330
47
102
}
330
47
100
AcDbScale
 70
     0
300
1:10
140
1.0
141
10.0
290
     0
  0
SCALE
  5
4E
102
{ACAD_REACTORS
330
47
102
}
330
47
100
AcDbScale
 70
     0
300
1:16
140
1.0
141
16.0
290
     0
  0
SCALE
  5
4F
102
{ACAD_REACTORS
330
47
102
}
330
47
100
AcDbScale
 70
     0
300
1:20
140
1.0
141
20.0
290
     0
  0
SCALE
  5
50
102
{ACAD_REACTORS
330
47
102
}
330
47
100
AcDbScale
 70
     0
300
1:30
140
1.0
141
30.0
290
     0
  0
SCALE
  5
51
102
{ACAD_REACTORS
330
47
102
}
330
47
100
AcDbScale
 70
     0
300
1:40
140
1.0
141
40.0
290
     0
  0
SCALE
  5
52
102
{ACAD_REACTORS
330
47
102
}
330
47
100
AcDbScale
 70
     0
300
1:50
140
1.0
141
50.0
290
     0
  0
SCALE
  5
53
102
{ACAD_REACTORS
330
47
102
}
330
47
100
AcDbScale
 70
     0
300
1:100
140
1.0
141
100.0
290
     0
  0
SCALE
  5
54
102
{ACAD_REACTORS
330
47
102
}
330
47
100
AcDbScale
 70
     0
300
2:1
140
2.0
141
1.0
290
     0
  0
SCALE
  5
55
102
{ACAD_REACTORS
330
47
102
}
330
47
100
AcDbScale
 70
     0
300
4:1
140
4.0
141
1.0
290
     0
  0
SCALE
  5
56
102
{ACAD_REACTORS
330
47
102
}
330
47
100
AcDbScale
 70
     0
300
8:1
140
8.0
141
1.0
290
     0
  0
SCALE
  5
57
102
{ACAD_REACTORS
330
47
102
}
330
47
100
AcDbScale
 70
     0
300
10:1
140
10.0
141
1.0
290
     0
  0
SCALE
  5
58
102
{ACAD_REACTORS
330
47
102
}
330
47
100
AcDbScale
 70
     0
300
100:1
140
100.0
141
1.0
290
     0
  0
SCALE
  5
59
102
{ACAD_REACTORS
330
47
102
}
330
47
100
AcDbScale
 70
     0
300
1/128" = 1'-0"
140
0.0078125
141
12.0
290
     0
  0
SCALE
  5
5A
102
{ACAD_REACTORS
330
47
102
}
330
47
100
AcDbScale
 70
     0
300
1/64" = 1'-0"
140
0.015625
141
12.0
290
     0
  0
SCALE
  5
5B
102
{ACAD_REACTORS
330
47
102
}
330
47
100
AcDbScale
 70
     0
300
1/32" = 1'-0"
140
0.03125
141
12.0
290
     0
  0
SCALE
  5
5C
102
{ACAD_REACTORS
330
47
102
}
330
47
100
AcDbScale
 70
     0
300
1/16" = 1'-0"
140
0.0625
141
12.0
290
     0
  0
SCALE
  5
5D
102
{ACAD_REACTORS
330
47
102
}
330
47
100
AcDbScale
 70
     0
300
3/32" = 1'-0"
140
0.09375
141
12.0
290
     0
  0
SCALE
  5
5E
102
{ACAD_REACTORS
330
47
102
}
330
47
100
AcDbScale
 70
     0
300
1/8" = 1'-0"
140
0.125
141
12.0
290
     0
  0
SCALE
  5
5F
102
{ACAD_REACTORS
330
47
102
}
330
47
100
AcDbScale
 70
     0
300
3/16" = 1'-0"
140
0.1875
141
12.0
290
     0
  0
SCALE
  5
60
102
{ACAD_REACTORS
330
47
102
}
330
47
100
AcDbScale
 70
     0
300
1/4" = 1'-0"
140
0.25
141
12.0
290
     0
  0
SCALE
  5
61
102
{ACAD_REACTORS
330
47
102
}
330
47
100
AcDbScale
 70
     0
300
3/8" = 1'-0"
140
0.375
141
12.0
290
     0
  0
SCALE
  5
62
102
{ACAD_REACTORS
330
47
102
}
330
47
100
AcDbScale
 70
     0
300
1/2" = 1'-0"
140
0.5
141
12.0
290
     0
  0
SCALE
  5
63
102
{ACAD_REACTORS
330
47
102
}
330
47
100
AcDbScale
 70
     0
300
3/4" = 1'-0"
140
0.75
141
12.0
290
     0
  0
SCALE
  5
64
102
{ACAD_REACTORS
330
47
102
}
330
47
100
AcDbScale
 70
     0
300
1" = 1'-0"
140
1.0
141
12.0
290
     0
  0
SCALE
  5
65
102
{ACAD_REACTORS
330
47
102
}
330
47
100
AcDbScale
 70
     0
300
1-1/2" = 1'-0"
140
1.5
141
12.0
290
     0
  0
SCALE
  5
66
102
{ACAD_REACTORS
330
47
102
}
330
47
100
AcDbScale
 70
     0
300
3" = 1'-0"
140
3.0
141
12.0
290
     0
  0
SCALE
  5
67
102
{ACAD_REACTORS
330
47
102
}
330
47
100
AcDbScale
 70
     0
300
6" = 1'-0"
140
6.0
141
12.0
290
     0
  0
SCALE
  5
68
102
{ACAD_REACTORS
330
47
102
}
330
47
100
AcDbScale
 70
     0
300
1'-0" = 1'-0"
140
12.0
141
12.0
290
     0
  0
ENDSEC
  0
EOF
