  0
SECTION
  2
HEADER
  9
$ACADVER
  1
AC1015
  9
$ACADMAINTVER
 70
     6
  9
$DWGCODEPAGE
  3
ANSI_949
  9
$INSBASE
 10
0.0
 20
0.0
 30
0.0
  9
$EXTMIN
 10
-46.12500000000008
 20
-49.97180738881175
 30
0.0
  9
$EXTMAX
 10
102.6572338153456
 20
35.15400000000015
 30
0.0
  9
$LIMMIN
 10
0.0
 20
0.0
  9
$LIMMAX
 10
420.0
 20
297.0
  9
$ORTHOMODE
 70
     1
  9
$REGENMODE
 70
     1
  9
$FILLMODE
 70
     1
  9
$QTEXTMODE
 70
     0
  9
$MIRRTEXT
 70
     1
  9
$LTSCALE
 40
1.0
  9
$ATTMODE
 70
     1
  9
$TEXTSIZE
 40
3.5
  9
$TRACEWID
 40
1.0
  9
$TEXTSTYLE
  7
Standard
  9
$CLAYER
  8
0
  9
$CELTYPE
  6
ByLayer
  9
$CECOLOR
 62
   256
  9
$CELTSCALE
 40
1.0
  9
$DISPSILH
 70
     0
  9
$DIMSCALE
 40
1.0
  9
$DIMASZ
 40
3.302
  9
$DIMEXO
 40
1.0
  9
$DIMDLI
 40
3.75
  9
$DIMRND
 40
0.0
  9
$DIMDLE
 40
0.0
  9
$DIMEXE
 40
1.0
  9
$DIMTP
 40
0.0
  9
$DIMTM
 40
0.0
  9
$DIMTXT
 40
3.5
  9
$DIMCEN
 40
2.5
  9
$DIMTSZ
 40
0.0
  9
$DIMTOL
 70
     0
  9
$DIMLIM
 70
     0
  9
$DIMTIH
 70
     1
  9
$DIMTOH
 70
     1
  9
$DIMSE1
 70
     0
  9
$DIMSE2
 70
     0
  9
$DIMTAD
 70
     1
  9
$DIMZIN
 70
     0
  9
$DIMBLK
  1

  9
$DIMASO
 70
     1
  9
$DIMSHO
 70
     1
  9
$DIMPOST
  1

  9
$DIMAPOST
  1

  9
$DIMALT
 70
     0
  9
$DIMALTD
 70
     3
  9
$DIMALTF
 40
0.0393700787401575
  9
$DIMLFAC
 40
1.0
  9
$DIMTOFL
 70
     1
  9
$DIMTVP
 40
0.0
  9
$DIMTIX
 70
     0
  9
$DIMSOXD
 70
     0
  9
$DIMSAH
 70
     0
  9
$DIMBLK1
  1

  9
$DIMBLK2
  1

  9
$DIMSTYLE
  2
ISO-25
  9
$DIMCLRD
 70
     0
  9
$DIMCLRE
 70
     0
  9
$DIMCLRT
 70
     0
  9
$DIMTFAC
 40
1.0
  9
$DIMGAP
 40
1.524
  9
$DIMJUST
 70
     0
  9
$DIMSD1
 70
     0
  9
$DIMSD2
 70
     0
  9
$DIMTOLJ
 70
     0
  9
$DIMTZIN
 70
     0
  9
$DIMALTZ
 70
     0
  9
$DIMALTTZ
 70
     0
  9
$DIMUPT
 70
     0
  9
$DIMDEC
 70
     2
  9
$DIMTDEC
 70
     2
  9
$DIMALTU
 70
     2
  9
$DIMALTTD
 70
     3
  9
$DIMTXSTY
  7
Standard
  9
$DIMAUNIT
 70
     0
  9
$DIMADEC
 70
     2
  9
$DIMALTRND
 40
0.0
  9
$DIMAZIN
 70
     0
  9
$DIMDSEP
 70
    44
  9
$DIMATFIT
 70
     3
  9
$DIMFRAC
 70
     0
  9
$DIMLDRBLK
  1

  9
$DIMLUNIT
 70
     2
  9
$DIMLWD
 70
    -2
  9
$DIMLWE
 70
    -2
  9
$DIMTMOVE
 70
     0
  9
$LUNITS
 70
     2
  9
$LUPREC
 70
     2
  9
$SKETCHINC
 40
1.0
  9
$FILLETRAD
 40
10.0
  9
$AUNITS
 70
     0
  9
$AUPREC
 70
     2
  9
$MENU
  1
.
  9
$ELEVATION
 40
0.0
  9
$PELEVATION
 40
0.0
  9
$THICKNESS
 40
0.0
  9
$LIMCHECK
 70
     0
  9
$CHAMFERA
 40
0.0
  9
$CHAMFERB
 40
0.0
  9
$CHAMFERC
 40
0.0
  9
$CHAMFERD
 40
0.0
  9
$SKPOLY
 70
     0
  9
$TDCREATE
 40
2458320.375532002
  9
$TDUCREATE
 40
2458320.000532002
  9
$TDUPDATE
 40
2458324.64283816
  9
$TDUUPDATE
 40
2458324.26783816
  9
$TDINDWG
 40
0.0030897801
  9
$TDUSRTIMER
 40
0.0035193519
  9
$USRTIMER
 70
     1
  9
$ANGBASE
 50
0.0
  9
$ANGDIR
 70
     0
  9
$PDMODE
 70
     0
  9
$PDSIZE
 40
-1.0
  9
$PLINEWID
 40
0.0
  9
$SPLFRAME
 70
     0
  9
$SPLINETYPE
 70
     6
  9
$SPLINESEGS
 70
     8
  9
$HANDSEED
  5
206
  9
$SURFTAB1
 70
     6
  9
$SURFTAB2
 70
     6
  9
$SURFTYPE
 70
     6
  9
$SURFU
 70
     6
  9
$SURFV
 70
     6
  9
$UCSBASE
  2

  9
$UCSNAME
  2

  9
$UCSORG
 10
0.0
 20
0.0
 30
0.0
  9
$UCSXDIR
 10
1.0
 20
0.0
 30
0.0
  9
$UCSYDIR
 10
0.0
 20
1.0
 30
0.0
  9
$UCSORTHOREF
  2

  9
$UCSORTHOVIEW
 70
     0
  9
$UCSORGTOP
 10
0.0
 20
0.0
 30
0.0
  9
$UCSORGBOTTOM
 10
0.0
 20
0.0
 30
0.0
  9
$UCSORGLEFT
 10
0.0
 20
0.0
 30
0.0
  9
$UCSORGRIGHT
 10
0.0
 20
0.0
 30
0.0
  9
$UCSORGFRONT
 10
0.0
 20
0.0
 30
0.0
  9
$UCSORGBACK
 10
0.0
 20
0.0
 30
0.0
  9
$PUCSBASE
  2

  9
$PUCSNAME
  2

  9
$PUCSORG
 10
0.0
 20
0.0
 30
0.0
  9
$PUCSXDIR
 10
1.0
 20
0.0
 30
0.0
  9
$PUCSYDIR
 10
0.0
 20
1.0
 30
0.0
  9
$PUCSORTHOREF
  2

  9
$PUCSORTHOVIEW
 70
     0
  9
$PUCSORGTOP
 10
0.0
 20
0.0
 30
0.0
  9
$PUCSORGBOTTOM
 10
0.0
 20
0.0
 30
0.0
  9
$PUCSORGLEFT
 10
0.0
 20
0.0
 30
0.0
  9
$PUCSORGRIGHT
 10
0.0
 20
0.0
 30
0.0
  9
$PUCSORGFRONT
 10
0.0
 20
0.0
 30
0.0
  9
$PUCSORGBACK
 10
0.0
 20
0.0
 30
0.0
  9
$USERI1
 70
     0
  9
$USERI2
 70
     0
  9
$USERI3
 70
     0
  9
$USERI4
 70
     0
  9
$USERI5
 70
     0
  9
$USERR1
 40
0.0
  9
$USERR2
 40
0.0
  9
$USERR3
 40
0.0
  9
$USERR4
 40
0.0
  9
$USERR5
 40
0.0
  9
$WORLDVIEW
 70
     1
  9
$SHADEDGE
 70
     3
  9
$SHADEDIF
 70
    70
  9
$TILEMODE
 70
     1
  9
$MAXACTVP
 70
    64
  9
$PINSBASE
 10
0.0
 20
0.0
 30
0.0
  9
$PLIMCHECK
 70
     0
  9
$PEXTMIN
 10
1.000000000000000E+20
 20
1.000000000000000E+20
 30
1.000000000000000E+20
  9
$PEXTMAX
 10
-1.000000000000000E+20
 20
-1.000000000000000E+20
 30
-1.000000000000000E+20
  9
$PLIMMIN
 10
0.0
 20
0.0
  9
$PLIMMAX
 10
0.0
 20
0.0
  9
$UNITMODE
 70
     0
  9
$VISRETAIN
 70
     1
  9
$PLINEGEN
 70
     0
  9
$PSLTSCALE
 70
     1
  9
$TREEDEPTH
 70
  3020
  9
$CMLSTYLE
  2
Standard
  9
$CMLJUST
 70
     0
  9
$CMLSCALE
 40
20.0
  9
$PROXYGRAPHICS
 70
     1
  9
$MEASUREMENT
 70
     1
  9
$CELWEIGHT
370
    -1
  9
$ENDCAPS
280
     0
  9
$JOINSTYLE
280
     0
  9
$LWDISPLAY
290
     1
  9
$INSUNITS
 70
     4
  9
$HYPERLINKBASE
  1

  9
$STYLESHEET
  1

  9
$XEDIT
290
     1
  9
$CEPSNTYPE
380
     0
  9
$PSTYLEMODE
290
     1
  9
$FINGERPRINTGUID
  2
{A3F62382-54E0-40B2-84E5-B241EAED27DA}
  9
$VERSIONGUID
  2
{FAEB1C32-E019-11D5-929B-00C0DF256EC4}
  9
$EXTNAMES
290
     1
  9
$PSVPSCALE
 40
0.0
  9
$OLESTARTUP
290
     0
  0
ENDSEC
  0
SECTION
  2
CLASSES
  0
CLASS
  1
ACDBDICTIONARYWDFLT
  2
AcDbDictionaryWithDefault
  3
ObjectDBX Classes
 90
        0
280
     0
281
     0
  0
CLASS
  1
VISUALSTYLE
  2
AcDbVisualStyle
  3
ObjectDBX Classes
 90
     4095
280
     0
281
     0
  0
CLASS
  1
MATERIAL
  2
AcDbMaterial
  3
ObjectDBX Classes
 90
     1153
280
     0
281
     0
  0
CLASS
  1
SCALE
  2
AcDbScale
  3
ObjectDBX Classes
 90
     1153
280
     0
281
     0
  0
CLASS
  1
SUN
  2
AcDbSun
  3
SCENEOE
 90
     1153
280
     0
281
     0
  0
CLASS
  1
ACDBPLACEHOLDER
  2
AcDbPlaceHolder
  3
ObjectDBX Classes
 90
        0
280
     0
281
     0
  0
CLASS
  1
LAYOUT
  2
AcDbLayout
  3
ObjectDBX Classes
 90
        0
280
     0
281
     0
  0
CLASS
  1
TABLESTYLE
  2
AcDbTableStyle
  3
ObjectDBX Classes
 90
     4095
280
     0
281
     0
  0
CLASS
  1
MLEADERSTYLE
  2
AcDbMLeaderStyle
  3
ACDB_MLEADERSTYLE_CLASS
 90
     4095
280
     0
281
     0
  0
CLASS
  1
DICTIONARYVAR
  2
AcDbDictionaryVar
  3
ObjectDBX Classes
 90
        0
280
     0
281
     0
  0
ENDSEC
  0
SECTION
  2
TABLES
  0
TABLE
  2
VPORT
  5
8
330
0
100
AcDbSymbolTable
 70
     1
  0
VPORT
  5
29
330
8
100
AcDbSymbolTableRecord
100
AcDbViewportTableRecord
  2
*Active
 70
     0
 10
0.0
 20
0.0
 11
1.0
 21
1.0
 12
28.26611690767277
 22
-7.408903694405801
 13
0.0
 23
0.0
 14
10.0
 24
10.0
 15
10.0
 25
10.0
 16
0.0
 26
0.0
 36
1.0
 17
0.0
 27
0.0
 37
0.0
 40
86.82832353658813
 41
1.782762691853601
 42
50.0
 43
0.0
 44
0.0
 50
0.0
 51
0.0
 71
    16
 72
  2000
 73
     1
 74
     3
 75
     0
 76
     0
 77
     0
 78
     0
281
     0
 65
     1
110
0.0
120
0.0
130
0.0
111
1.0
121
0.0
131
0.0
112
0.0
122
1.0
132
0.0
 79
     0
146
0.0
  0
ENDTAB
  0
TABLE
  2
LTYPE
  5
5
330
0
100
AcDbSymbolTable
 70
     6
  0
LTYPE
  5
14
330
5
100
AcDbSymbolTableRecord
100
AcDbLinetypeTableRecord
  2
ByBlock
 70
     0
  3

 72
    65
 73
     0
 40
0.0
  0
LTYPE
  5
15
330
5
100
AcDbSymbolTableRecord
100
AcDbLinetypeTableRecord
  2
ByLayer
 70
     0
  3

 72
    65
 73
     0
 40
0.0
  0
LTYPE
  5
16
330
5
100
AcDbSymbolTableRecord
100
AcDbLinetypeTableRecord
  2
Continuous
 70
     0
  3
Solid line
 72
    65
 73
     0
 40
0.0
  0
LTYPE
  5
6A
330
5
100
AcDbSymbolTableRecord
100
AcDbLinetypeTableRecord
  2
HIDDEN
 70
     0
  3
Hidden __ __ __ __ __ __ __ __ __ __ __ __ __ __
 72
    65
 73
     2
 40
1.905
 49
1.27
 74
     0
 49
-0.635
 74
     0
  0
LTYPE
  5
6B
330
5
100
AcDbSymbolTableRecord
100
AcDbLinetypeTableRecord
  2
PHANTOM
 70
     0
  3
Phantom ______  __  __  ______  __  __  ______
 72
    65
 73
     6
 40
12.7
 49
6.35
 74
     0
 49
-1.27
 74
     0
 49
1.27
 74
     0
 49
-1.27
 74
     0
 49
1.27
 74
     0
 49
-1.27
 74
     0
  0
LTYPE
  5
6C
330
5
100
AcDbSymbolTableRecord
100
AcDbLinetypeTableRecord
  2
CENTER
 70
     0
  3
Center ____ _ ____ _ ____ _ ____ _ ____ _ ____
 72
    65
 73
     4
 40
10.16
 49
6.35
 74
     0
 49
-1.27
 74
     0
 49
1.27
 74
     0
 49
-1.27
 74
     0
  0
LTYPE
  5
6D
330
5
100
AcDbSymbolTableRecord
100
AcDbLinetypeTableRecord
  2
CENTERX2
 70
     0
  3
Center (2x) ________  __  ________  __  _____
 72
    65
 73
     4
 40
20.32
 49
12.7
 74
     0
 49
-2.54
 74
     0
 49
2.54
 74
     0
 49
-2.54
 74
     0
  0
LTYPE
  5
6E
330
5
100
AcDbSymbolTableRecord
100
AcDbLinetypeTableRecord
  2
DOT2
 70
     0
  3
Dot (.5x) ........................................
 72
    65
 73
     2
 40
0.635
 49
0.0
 74
     0
 49
-0.635
 74
     0
  0
ENDTAB
  0
TABLE
  2
LAYER
  5
2
102
{ACAD_XDICTIONARY
360
179
102
}
330
0
100
AcDbSymbolTable
 70
    18
  0
LAYER
  5
10
330
2
100
AcDbSymbolTableRecord
100
AcDbLayerTableRecord
  2
0
 70
     0
 62
     7
  6
Continuous
370
    -3
390
F
  0
LAYER
  5
6F
330
2
100
AcDbSymbolTableRecord
100
AcDbLayerTableRecord
  2
FORMAT
 70
     0
 62
     2
  6
Continuous
370
    -3
390
F
  0
LAYER
  5
70
330
2
100
AcDbSymbolTableRecord
100
AcDbLayerTableRecord
  2
외형선
 70
     0
 62
     4
  6
Continuous
370
    30
390
F
  0
LAYER
  5
71
330
2
100
AcDbSymbolTableRecord
100
AcDbLayerTableRecord
  2
숨은선
 70
     0
 62
     2
  6
HIDDEN
370
    15
390
F
  0
LAYER
  5
72
330
2
100
AcDbSymbolTableRecord
100
AcDbLayerTableRecord
  2
중심선
 70
     0
 62
     1
  6
CENTERX2
370
    -3
390
F
  0
LAYER
  5
73
330
2
100
AcDbSymbolTableRecord
100
AcDbLayerTableRecord
  2
파단선
 70
     0
 62
     4
  6
Continuous
370
    -3
390
F
  0
LAYER
  5
74
330
2
100
AcDbSymbolTableRecord
100
AcDbLayerTableRecord
  2
해칭선
 70
     0
 62
   100
  6
Continuous
370
    -3
390
F
  0
LAYER
  5
75
330
2
100
AcDbSymbolTableRecord
100
AcDbLayerTableRecord
  2
가는실선
 70
     0
 62
     4
  6
Continuous
370
    -3
390
F
  0
LAYER
  5
76
330
2
100
AcDbSymbolTableRecord
100
AcDbLayerTableRecord
  2
치수_보조선
 70
     0
 62
     4
  6
Continuous
370
    -3
390
F
  0
LAYER
  5
77
330
2
100
AcDbSymbolTableRecord
100
AcDbLayerTableRecord
  2
치수문자_일반주서
 70
     0
 62
     7
  6
Continuous
370
    15
390
F
  0
LAYER
  5
78
330
2
100
AcDbSymbolTableRecord
100
AcDbLayerTableRecord
  2
개별주서
 70
     0
 62
   100
  6
Continuous
370
    30
390
F
  0
LAYER
  5
79
330
2
100
AcDbSymbolTableRecord
100
AcDbLayerTableRecord
  2
중간선
 70
     0
 62
     2
  6
Continuous
370
    15
390
F
  0
LAYER
  5
7A
330
2
100
AcDbSymbolTableRecord
100
AcDbLayerTableRecord
  2
윤곽선
 70
     0
 62
     3
  6
Continuous
370
    40
390
F
  0
LAYER
  5
7B
330
2
100
AcDbSymbolTableRecord
100
AcDbLayerTableRecord
  2
중심마크
 70
     0
 62
   100
  6
Continuous
370
    30
390
F
  0
LAYER
  5
7C
330
2
100
AcDbSymbolTableRecord
100
AcDbLayerTableRecord
  2
가상선
 70
     0
 62
     4
  6
PHANTOM
370
    -3
390
F
  0
LAYER
  5
7D
330
2
100
AcDbSymbolTableRecord
100
AcDbLayerTableRecord
  2
특수지정선
 70
     0
 62
     5
  6
CENTERX2
370
    60
390
F
  0
LAYER
  5
7E
330
2
100
AcDbSymbolTableRecord
100
AcDbLayerTableRecord
  2
참조1
 70
     0
 62
    -4
  6
Continuous
370
    -3
390
F
  0
LAYER
  5
142
330
2
100
AcDbSymbolTableRecord
100
AcDbLayerTableRecord
  2
Defpoints
 70
     0
 62
     7
  6
Continuous
290
     0
370
    -3
390
F
  0
ENDTAB
  0
TABLE
  2
STYLE
  5
3
330
0
100
AcDbSymbolTable
 70
     2
  0
STYLE
  5
11
330
3
100
AcDbSymbolTableRecord
100
AcDbTextStyleTableRecord
  2
Standard
 70
     0
 40
0.0
 41
1.0
 50
0.0
 71
     0
 42
3.5
  3
txt
  4

  0
STYLE
  5
94
330
3
100
AcDbSymbolTableRecord
100
AcDbTextStyleTableRecord
  2
SLDTEXTSTYLE0
 70
     0
 40
0.0
 41
0.75
 50
0.0
 71
     0
 42
3.5
  3
TXT
  4

  0
ENDTAB
  0
TABLE
  2
VIEW
  5
6
330
0
100
AcDbSymbolTable
 70
     0
  0
ENDTAB
  0
TABLE
  2
UCS
  5
7
330
0
100
AcDbSymbolTable
 70
     0
  0
ENDTAB
  0
TABLE
  2
APPID
  5
9
330
0
100
AcDbSymbolTable
 70
     2
  0
APPID
  5
12
330
9
100
AcDbSymbolTableRecord
100
AcDbRegAppTableRecord
  2
ACAD
 70
     0
  0
APPID
  5
149
330
9
100
AcDbSymbolTableRecord
100
AcDbRegAppTableRecord
  2
PE_URL
 70
     0
  0
ENDTAB
  0
TABLE
  2
DIMSTYLE
  5
A
330
0
100
AcDbSymbolTable
 70
     4
100
AcDbDimStyleTable
  0
DIMSTYLE
105
27
330
A
100
AcDbSymbolTableRecord
100
AcDbDimStyleTableRecord
  2
ISO-25
 70
     0
 41
2.5
 42
0.625
 43
3.75
 44
1.25
 73
     0
 74
     0
 77
     1
 78
     8
140
2.5
141
2.5
143
0.03937007874016
147
0.625
171
     3
172
     1
178
     0
271
     2
272
     2
274
     3
278
    44
283
     0
284
     8
340
11
  0
DIMSTYLE
105
C1
330
A
100
AcDbSymbolTableRecord
100
AcDbDimStyleTableRecord
  2
SLDDIMSTYLE0
 70
     0
 41
3.302
 44
0.0
 45
0.000000001
 73
     0
 74
     0
 77
     1
 78
     4
 79
     1
140
3.5
143
0.0393700787401575
147
0.875
148
0.000000001
170
     1
173
     1
178
     0
271
     2
272
     2
276
     2
284
    12
340
94
  0
DIMSTYLE
105
E9
330
A
100
AcDbSymbolTableRecord
100
AcDbDimStyleTableRecord
  2
SLDDIMSTYLE1
 70
     0
 41
3.302
 44
0.0
 45
0.000000001
 73
     0
 74
     0
 77
     1
 78
    12
 79
     3
140
3.5
143
0.0393700787401575
147
0.875
148
0.000000001
170
     1
172
     1
173
     1
178
     0
271
     2
272
     2
276
     2
284
    12
289
     0
340
94
  0
DIMSTYLE
105
147
102
{ACAD_REACTORS
330
168
330
C0
330
E8
330
D5
330
FD
102
}
330
A
100
AcDbSymbolTableRecord
100
AcDbDimStyleTableRecord
  2
SLDDIMSTYLE2
 70
     0
 41
3.302
 44
0.0
 45
0.000000001
 73
     0
 74
     0
 77
     1
 78
     4
 79
     1
140
3.5
143
0.0393700787401575
147
0.875
148
0.000000001
170
     1
172
     1
173
     1
178
     0
271
     2
272
     2
276
     2
284
    12
289
     0
340
94
  0
ENDTAB
  0
TABLE
  2
BLOCK_RECORD
  5
1
330
0
100
AcDbSymbolTable
 70
    10
  0
BLOCK_RECORD
  5
1F
330
1
100
AcDbSymbolTableRecord
100
AcDbBlockTableRecord
  2
*Model_Space
340
22
  0
BLOCK_RECORD
  5
1B
330
1
100
AcDbSymbolTableRecord
100
AcDbBlockTableRecord
  2
*Paper_Space
340
1E
  0
BLOCK_RECORD
  5
23
330
1
100
AcDbSymbolTableRecord
100
AcDbBlockTableRecord
  2
*Paper_Space0
340
26
  0
BLOCK_RECORD
  5
7F
330
1
100
AcDbSymbolTableRecord
100
AcDbBlockTableRecord
  2
블럭10
340
0
102
{BLKREFS
331
B9
102
}
  0
BLOCK_RECORD
  5
C2
330
1
100
AcDbSymbolTableRecord
100
AcDbBlockTableRecord
  2
_D
340
0
  0
BLOCK_RECORD
  5
D6
330
1
100
AcDbSymbolTableRecord
100
AcDbBlockTableRecord
  2
_D_1
340
0
  0
BLOCK_RECORD
  5
EA
330
1
100
AcDbSymbolTableRecord
100
AcDbBlockTableRecord
  2
_D_2
340
0
  0
BLOCK_RECORD
  5
FE
330
1
100
AcDbSymbolTableRecord
100
AcDbBlockTableRecord
  2
_D_3
340
0
  0
BLOCK_RECORD
  5
118
330
1
100
AcDbSymbolTableRecord
100
AcDbBlockTableRecord
  2
SW_DOWELSYMBOL_0
340
0
102
{BLKREFS
331
11E
102
}
  0
BLOCK_RECORD
  5
17D
330
1
100
AcDbSymbolTableRecord
100
AcDbBlockTableRecord
  2
*D8
340
0
  0
BLOCK_RECORD
  5
18F
330
1
100
AcDbSymbolTableRecord
100
AcDbBlockTableRecord
  2
*D9
340
0
  0
ENDTAB
  0
ENDSEC
  0
SECTION
  2
BLOCKS
  0
BLOCK
  5
20
330
1F
100
AcDbEntity
  8
0
100
AcDbBlockBegin
  2
*Model_Space
 70
     0
 10
0.0
 20
0.0
 30
0.0
  3
*Model_Space
  1

  0
ENDBLK
  5
21
330
1F
100
AcDbEntity
  8
0
100
AcDbBlockEnd
  0
BLOCK
  5
1C
330
1B
100
AcDbEntity
 67
     1
  8
0
100
AcDbBlockBegin
  2
*Paper_Space
 70
     0
 10
0.0
 20
0.0
 30
0.0
  3
*Paper_Space
  1

  0
ENDBLK
  5
1D
330
1B
100
AcDbEntity
 67
     1
  8
0
100
AcDbBlockEnd
  0
BLOCK
  5
24
330
23
100
AcDbEntity
  8
0
100
AcDbBlockBegin
  2
*Paper_Space0
 70
     0
 10
0.0
 20
0.0
 30
0.0
  3
*Paper_Space0
  1

  0
ENDBLK
  5
25
330
23
100
AcDbEntity
  8
0
100
AcDbBlockEnd
  0
BLOCK
  5
80
330
7F
100
AcDbEntity
  8
0
100
AcDbBlockBegin
  2
블럭10
 70
     2
 10
0.0
 20
0.0
 30
0.0
  3
블럭10
  1

  0
ELLIPSE
  5
82
330
7F
100
AcDbEntity
  8
중심선
100
AcDbEllipse
 10
20.54032771741204
 20
12.0471743016438
 30
0.0
 11
6.600054785286829
 21
-1.261213355974178E-13
 31
0.0
210
0.0
220
0.0
230
1.0
 40
0.636358354079598
 41
0.9219305317359503
 42
6.513795318482858
  0
ELLIPSE
  5
83
330
7F
100
AcDbEntity
  8
중심선
100
AcDbEllipse
 10
20.54032771746488
 20
12.04717430159265
 30
0.0
 11
3.960054785062283
 21
1.540847449632565E-10
 31
0.0
210
0.0
220
0.0
230
1.0
 40
0.3939339440162632
 41
1.131841032648279
 42
5.62031148352944
  0
LINE
  5
84
330
7F
100
AcDbEntity
  8
중심선
100
AcDbLine
 10
2.268634060543552
 20
16.24717430164393
 30
0.0
 11
5.714909304380834
 21
16.24717430164393
 31
0.0
  0
LINE
  5
85
330
7F
100
AcDbEntity
  8
중심선
100
AcDbLine
 10
5.245725140726316
 20
7.84717430164391
 30
0.0
 11
8.692000384563599
 21
7.84717430164391
 31
0.0
  0
LINE
  5
86
330
7F
100
AcDbEntity
  8
중심선
100
AcDbLine
 10
15.74043728645272
 20
16.24717430164393
 30
0.0
 11
8.692000384563599
 21
7.84717430164391
 31
0.0
  0
LINE
  5
87
330
7F
100
AcDbEntity
  8
중심선
100
AcDbLine
 10
0.1404042013395286
 20
13.71084872107135
 30
0.0
 11
3.58671253028996
 21
13.71088815037384
 31
0.0
  0
LINE
  5
88
330
7F
100
AcDbEntity
  8
중심선
100
AcDbLine
 10
2.750260043222114
 20
10.84717430164391
 30
0.0
 11
6.196535287059397
 21
10.84717430164391
 31
0.0
  0
LINE
  5
89
330
7F
100
AcDbEntity
  8
중심선
100
AcDbLine
 10
12.29416204261559
 20
16.24717430164393
 30
0.0
 11
5.245725140726316
 21
7.84717430164391
 31
0.0
  0
LINE
  5
8A
330
7F
100
AcDbEntity
  8
중심선
100
AcDbLine
 10
10.72767329541681
 20
16.24717430164393
 30
0.0
 11
6.196535287059397
 21
10.84717430164391
 31
0.0
  0
LINE
  5
8B
330
7F
100
AcDbEntity
  8
중심선
100
AcDbLine
 10
7.28139805157953
 20
16.24717430164393
 30
0.0
 11
2.750260043222114
 21
10.84717430164391
 31
0.0
  0
LINE
  5
8C
330
7F
100
AcDbEntity
  8
중심선
100
AcDbLine
 10
5.714909304380834
 20
16.24717430164393
 30
0.0
 11
3.58671253028996
 21
13.71088815037384
 31
0.0
  0
LINE
  5
8D
330
7F
100
AcDbEntity
  8
중심선
100
AcDbLine
 10
2.268634060543552
 20
16.24717430164393
 30
0.0
 11
0.1404042013395286
 21
13.71084872107135
 31
0.0
  0
LINE
  5
8E
330
7F
100
AcDbEntity
  8
중심선
100
AcDbLine
 10
7.28139805157953
 20
16.24717430164393
 30
0.0
 11
10.72767329541681
 21
16.24717430164393
 31
0.0
  0
LINE
  5
8F
330
7F
100
AcDbEntity
  8
중심선
100
AcDbLine
 10
12.29416204261559
 20
16.24717430164393
 30
0.0
 11
15.74043728645272
 21
16.24717430164393
 31
0.0
  0
LINE
  5
90
330
7F
100
AcDbEntity
  8
중심선
100
AcDbLine
 10
19.22036997980202
 20
11.08717430171403
 30
0.0
 11
23.66174974927406
 21
11.08717430171406
 31
0.0
  0
LINE
  5
91
330
7F
100
AcDbEntity
  8
중심선
100
AcDbLine
 10
19.22039502424796
 20
13.00717430171391
 30
0.0
 11
19.22036997980202
 21
11.08717430171403
 31
0.0
  0
LINE
  5
92
330
7F
100
AcDbEntity
  8
중심선
100
AcDbLine
 10
19.22039502424796
 20
13.00717430171391
 30
0.0
 11
26.96566020931264
 21
13.00717430171391
 31
0.0
  0
LINE
  5
93
330
7F
100
AcDbEntity
  8
중심선
100
AcDbLine
 10
22.22332737316547
 20
13.45928029700563
 30
0.0
 11
24.52862924686651
 21
15.39360700705356
 31
0.0
  0
ATTDEF
  5
95
330
7F
100
AcDbEntity
  8
FORMAT
 62
     2
100
AcDbText
 10
4.408487351596664
 20
2.075366912832191
 30
0.0
 40
4.233333333333333
  1
E5252016
 41
0.75
  7
SLDTEXTSTYLE0
 11
4.408487351596664
 21
-0.0412997538344756
 31
0.0
100
AcDbAttributeDefinition
  3

  2
AUTOATTR0
 70
     0
 74
     1
  0
ENDBLK
  5
81
330
7F
100
AcDbEntity
  8
0
100
AcDbBlockEnd
  0
BLOCK
  5
C3
330
C2
100
AcDbEntity
  8
0
100
AcDbBlockBegin
  2
_D
 70
     0
 10
0.0
 20
0.0
 30
0.0
  3
_D
  1

  0
LINE
  5
C5
330
C2
100
AcDbEntity
  8
치수문자_일반주서
 62
     0
370
    -2
100
AcDbLine
 10
31.75000000000003
 20
3.237499999999998
 30
0.0
 11
31.75000000000003
 21
13.17500000000001
 31
0.0
  0
LINE
  5
C6
330
C2
100
AcDbEntity
  8
치수문자_일반주서
 62
     0
370
    -2
100
AcDbLine
 10
19.05000000000003
 20
3.237500000000011
 30
0.0
 11
19.05000000000003
 21
13.17500000000001
 31
0.0
  0
LINE
  5
C7
330
C2
100
AcDbEntity
  8
치수문자_일반주서
 62
     0
370
    -2
100
AcDbLine
 10
31.75000000000003
 20
13.17500000000001
 30
0.0
 11
62.41650000000003
 21
13.17500000000001
 31
0.0
  0
LINE
  5
C8
330
C2
100
AcDbEntity
  8
치수문자_일반주서
 62
     0
370
    -2
100
AcDbLine
 10
31.75000000000003
 20
13.17500000000001
 30
0.0
 11
19.05000000000003
 21
13.17500000000001
 31
0.0
  0
LINE
  5
C9
330
C2
100
AcDbEntity
  8
치수문자_일반주서
 62
     0
370
    -2
100
AcDbLine
 10
35.05200000000004
 20
13.17500000000001
 30
0.0
 11
38.35400000000003
 21
13.17500000000001
 31
0.0
  0
LINE
  5
CA
330
C2
100
AcDbEntity
  8
치수문자_일반주서
 62
     0
370
    -2
100
AcDbLine
 10
15.74800000000003
 20
13.17500000000001
 30
0.0
 11
12.44600000000003
 21
13.17500000000001
 31
0.0
  0
SOLID
  5
CB
330
C2
100
AcDbEntity
  8
치수문자_일반주서
 62
     0
100
AcDbTrace
 10
35.05200000000004
 20
13.72533333333335
 30
0.0
 11
35.05200000000004
 21
12.62466666666668
 31
0.0
 12
31.75000000000003
 22
13.17500000000001
 32
0.0
 13
31.75000000000003
 23
13.17500000000001
 33
0.0
  0
SOLID
  5
CC
330
C2
100
AcDbEntity
  8
치수문자_일반주서
 62
     0
100
AcDbTrace
 10
15.74800000000003
 20
12.62466666666668
 30
0.0
 11
15.74800000000003
 21
13.72533333333335
 31
0.0
 12
19.05000000000003
 22
13.17500000000001
 32
0.0
 13
19.05000000000003
 23
13.17500000000001
 33
0.0
  0
MTEXT
  5
CD
330
C2
100
AcDbEntity
  8
치수문자_일반주서
 62
     0
100
AcDbMText
 10
50.38525000000003
 20
17.55000000000001
 30
0.0
 40
3.5
 41
0.0
 71
     2
 72
     1
  1
\A1;12.70 [1/2]
  7
SLDTEXTSTYLE0
 73
     1
 44
1.0
  0
POINT
  5
CE
330
C2
100
AcDbEntity
  8
Defpoints
 62
     0
100
AcDbPoint
 10
31.75000000000003
 20
3.174999999999998
 30
0.0
  0
POINT
  5
CF
330
C2
100
AcDbEntity
  8
Defpoints
 62
     0
100
AcDbPoint
 10
19.05000000000003
 20
3.175000000000011
 30
0.0
  0
POINT
  5
D0
330
C2
100
AcDbEntity
  8
Defpoints
 62
     0
100
AcDbPoint
 10
19.05000000000003
 20
13.17500000000001
 30
0.0
  0
ENDBLK
  5
C4
330
C2
100
AcDbEntity
  8
0
100
AcDbBlockEnd
  0
BLOCK
  5
D7
330
D6
100
AcDbEntity
  8
0
100
AcDbBlockBegin
  2
_D_1
 70
     0
 10
0.0
 20
0.0
 30
0.0
  3
_D_1
  1

  0
LINE
  5
D9
330
D6
100
AcDbEntity
  8
치수문자_일반주서
 62
     0
370
    -2
100
AcDbLine
 10
31.75000000000003
 20
3.237499999999998
 30
0.0
 11
31.75000000000003
 21
23.17500000000001
 31
0.0
  0
LINE
  5
DA
330
D6
100
AcDbEntity
  8
치수문자_일반주서
 62
     0
370
    -2
100
AcDbLine
 10
-31.74999999999999
 20
3.237500000000008
 30
0.0
 11
-31.74999999999999
 21
23.17500000000001
 31
0.0
  0
LINE
  5
DB
330
D6
100
AcDbEntity
  8
치수문자_일반주서
 62
     0
370
    -2
100
AcDbLine
 10
28.44800000000003
 20
23.17500000000001
 30
0.0
 11
-28.44799999999999
 21
23.17500000000001
 31
0.0
  0
SOLID
  5
DC
330
D6
100
AcDbEntity
  8
치수문자_일반주서
 62
     0
100
AcDbTrace
 10
28.44800000000003
 20
22.62466666666668
 30
0.0
 11
28.44800000000003
 21
23.72533333333335
 31
0.0
 12
31.75000000000003
 22
23.17500000000001
 32
0.0
 13
31.75000000000003
 23
23.17500000000001
 33
0.0
  0
SOLID
  5
DD
330
D6
100
AcDbEntity
  8
치수문자_일반주서
 62
     0
100
AcDbTrace
 10
-28.44799999999999
 20
23.72533333333335
 30
0.0
 11
-28.44799999999999
 21
22.62466666666668
 31
0.0
 12
-31.74999999999999
 22
23.17500000000001
 32
0.0
 13
-31.74999999999999
 23
23.17500000000001
 33
0.0
  0
MTEXT
  5
DE
330
D6
100
AcDbEntity
  8
치수문자_일반주서
 62
     0
100
AcDbMText
 10
0.0
 20
27.55000000000001
 30
0.0
 40
3.5
 41
0.0
 71
     2
 72
     1
  1
\A1;63.50 [2 1/2]
  7
SLDTEXTSTYLE0
 73
     1
 44
1.0
  0
POINT
  5
DF
330
D6
100
AcDbEntity
  8
Defpoints
 62
     0
100
AcDbPoint
 10
31.75000000000003
 20
3.174999999999998
 30
0.0
  0
POINT
  5
E0
330
D6
100
AcDbEntity
  8
Defpoints
 62
     0
100
AcDbPoint
 10
-31.74999999999999
 20
3.175000000000008
 30
0.0
  0
POINT
  5
E1
330
D6
100
AcDbEntity
  8
Defpoints
 62
     0
100
AcDbPoint
 10
-31.74999999999999
 20
23.17500000000001
 30
0.0
  0
ENDBLK
  5
D8
330
D6
100
AcDbEntity
  8
0
100
AcDbBlockEnd
  0
BLOCK
  5
EB
330
EA
100
AcDbEntity
  8
0
100
AcDbBlockBegin
  2
_D_2
 70
     0
 10
0.0
 20
0.0
 30
0.0
  3
_D_2
  1

  0
LINE
  5
ED
330
EA
100
AcDbEntity
  8
치수문자_일반주서
 62
     0
370
    -2
100
AcDbLine
 10
31.81250000000003
 20
3.174999999999999
 30
0.0
 11
68.53603662389298
 21
3.175000000000136
 31
0.0
  0
LINE
  5
EE
330
EA
100
AcDbEntity
  8
치수문자_일반주서
 62
     0
370
    -2
100
AcDbLine
 10
31.81250000000003
 20
-3.175000000000001
 30
0.0
 11
68.53603662389301
 21
-3.174999999999862
 31
0.0
  0
LINE
  5
EF
330
EA
100
AcDbEntity
  8
치수문자_일반주서
 62
     0
370
    -2
100
AcDbLine
 10
68.53603662389298
 20
3.175000000000136
 30
0.0
 11
68.53603662389284
 21
35.15400000000015
 31
0.0
  0
LINE
  5
F0
330
EA
100
AcDbEntity
  8
치수문자_일반주서
 62
     0
370
    -2
100
AcDbLine
 10
68.53603662389298
 20
3.175000000000136
 30
0.0
 11
68.53603662389301
 21
-3.174999999999862
 31
0.0
  0
LINE
  5
F1
330
EA
100
AcDbEntity
  8
치수문자_일반주서
 62
     0
370
    -2
100
AcDbLine
 10
68.53603662389297
 20
6.477000000000135
 30
0.0
 11
68.53603662389295
 21
9.779000000000135
 31
0.0
  0
LINE
  5
F2
330
EA
100
AcDbEntity
  8
치수문자_일반주서
 62
     0
370
    -2
100
AcDbLine
 10
68.53603662389303
 20
-6.476999999999862
 30
0.0
 11
68.53603662389304
 21
-9.778999999999861
 31
0.0
  0
SOLID
  5
F3
330
EA
100
AcDbEntity
  8
치수문자_일반주서
 62
     0
100
AcDbTrace
 10
67.98570329055964
 20
6.477000000000133
 30
0.0
 11
69.0863699572263
 21
6.477000000000138
 31
0.0
 12
68.53603662389298
 22
3.175000000000136
 32
0.0
 13
68.53603662389298
 23
3.175000000000136
 33
0.0
  0
SOLID
  5
F4
330
EA
100
AcDbEntity
  8
치수문자_일반주서
 62
     0
100
AcDbTrace
 10
69.08636995722635
 20
-6.476999999999859
 30
0.0
 11
67.9857032905597
 21
-6.476999999999864
 31
0.0
 12
68.53603662389301
 22
-3.174999999999862
 32
0.0
 13
68.53603662389301
 23
-3.174999999999862
 33
0.0
  0
MTEXT
  5
F5
330
EA
100
AcDbEntity
  8
치수문자_일반주서
 62
     0
100
AcDbMText
 10
64.1610366238929
 20
22.46650000000013
 30
0.0
 40
3.5
 41
0.0
 71
     2
 72
     1
  1
\A1;%%c6.35 [1/4]
  7
SLDTEXTSTYLE0
 11
-4.475859752819529E-15
 21
1.0
 31
0.0
 73
     1
 44
1.0
  0
POINT
  5
F6
330
EA
100
AcDbEntity
  8
Defpoints
 62
     0
100
AcDbPoint
 10
31.75000000000003
 20
3.174999999999998
 30
0.0
  0
POINT
  5
F7
330
EA
100
AcDbEntity
  8
Defpoints
 62
     0
100
AcDbPoint
 10
31.75000000000003
 20
-3.175000000000001
 30
0.0
  0
POINT
  5
F8
330
EA
100
AcDbEntity
  8
Defpoints
 62
     0
100
AcDbPoint
 10
68.53603662389298
 20
-3.174999999999863
 30
0.0
  0
ENDBLK
  5
EC
330
EA
100
AcDbEntity
  8
0
100
AcDbBlockEnd
  0
BLOCK
  5
FF
330
FE
100
AcDbEntity
  8
0
100
AcDbBlockBegin
  2
_D_3
 70
     0
 10
0.0
 20
0.0
 30
0.0
  3
_D_3
  1

  0
LINE
  5
101
330
FE
100
AcDbEntity
  8
치수문자_일반주서
 62
     0
370
    -2
100
AcDbLine
 10
-19.11250000000001
 20
3.175
 30
0.0
 11
-41.74999999999998
 21
3.174999999999915
 31
0.0
  0
LINE
  5
102
330
FE
100
AcDbEntity
  8
치수문자_일반주서
 62
     0
370
    -2
100
AcDbLine
 10
-19.1125
 20
-3.175000000000005
 30
0.0
 11
-41.74999999999996
 21
-3.17500000000009
 31
0.0
  0
LINE
  5
103
330
FE
100
AcDbEntity
  8
치수문자_일반주서
 62
     0
370
    -2
100
AcDbLine
 10
-41.74999999999998
 20
3.174999999999915
 30
0.0
 11
-41.75000000000009
 21
35.15399999999998
 31
0.0
  0
LINE
  5
104
330
FE
100
AcDbEntity
  8
치수문자_일반주서
 62
     0
370
    -2
100
AcDbLine
 10
-41.74999999999998
 20
3.174999999999915
 30
0.0
 11
-41.74999999999996
 21
-3.17500000000009
 31
0.0
  0
LINE
  5
105
330
FE
100
AcDbEntity
  8
치수문자_일반주서
 62
     0
370
    -2
100
AcDbLine
 10
-41.74999999999999
 20
6.476999999999915
 30
0.0
 11
-41.75000000000001
 21
9.778999999999915
 31
0.0
  0
LINE
  5
106
330
FE
100
AcDbEntity
  8
치수문자_일반주서
 62
     0
370
    -2
100
AcDbLine
 10
-41.74999999999994
 20
-6.477000000000089
 30
0.0
 11
-41.74999999999993
 21
-9.779000000000089
 31
0.0
  0
SOLID
  5
107
330
FE
100
AcDbEntity
  8
치수문자_일반주서
 62
     0
100
AcDbTrace
 10
-42.30033333333333
 20
6.476999999999913
 30
0.0
 11
-41.19966666666666
 21
6.476999999999917
 31
0.0
 12
-41.74999999999998
 22
3.174999999999915
 32
0.0
 13
-41.74999999999998
 23
3.174999999999915
 33
0.0
  0
SOLID
  5
108
330
FE
100
AcDbEntity
  8
치수문자_일반주서
 62
     0
100
AcDbTrace
 10
-41.19966666666661
 20
-6.477000000000087
 30
0.0
 11
-42.30033333333328
 21
-6.477000000000091
 31
0.0
 12
-41.74999999999996
 22
-3.17500000000009
 32
0.0
 13
-41.74999999999996
 23
-3.17500000000009
 33
0.0
  0
MTEXT
  5
109
330
FE
100
AcDbEntity
  8
치수문자_일반주서
 62
     0
100
AcDbMText
 10
-46.12500000000004
 20
22.46649999999996
 30
0.0
 40
3.5
 41
0.0
 71
     2
 72
     1
  1
\A1;%%c6.35 [1/4]
  7
SLDTEXTSTYLE0
 11
-3.356894814614644E-15
 21
1.0
 31
0.0
 73
     1
 44
1.0
  0
POINT
  5
1A8
330
FE
100
AcDbEntity
  8
Defpoints
 62
     0
100
AcDbPoint
 10
-19.05000000000001
 20
3.175
 30
0.0
  0
POINT
  5
1A9
330
FE
100
AcDbEntity
  8
Defpoints
 62
     0
100
AcDbPoint
 10
-19.05
 20
-3.175000000000004
 30
0.0
  0
POINT
  5
1AA
330
FE
100
AcDbEntity
  8
Defpoints
 62
     0
100
AcDbPoint
 10
-41.74999999999996
 20
-3.175000000000089
 30
0.0
  0
ENDBLK
  5
100
330
FE
100
AcDbEntity
  8
0
100
AcDbBlockEnd
  0
BLOCK
  5
119
330
118
100
AcDbEntity
  8
0
100
AcDbBlockBegin
  2
SW_DOWELSYMBOL_0
 70
     0
 10
0.0
 20
0.0
 30
0.0
  3
SW_DOWELSYMBOL_0
  1

  0
CIRCLE
  5
11B
330
118
100
AcDbEntity
  8
해칭선
 62
     0
100
AcDbCircle
 10
0.0
 20
0.0
 30
0.0
 40
3.000000000000001
  0
HATCH
  5
11C
330
118
100
AcDbEntity
  8
0
  6
Continuous
 62
     0
370
     0
100
AcDbHatch
 10
0.0
 20
0.0
 30
0.0
210
0.0
220
0.0
230
1.0
  2
SOLID
 70
     1
 71
     0
 91
        1
 92
        0
 93
        3
 72
     2
 10
0.0
 20
0.0
 40
3.000000000000001
 50
0.0
 51
90.0
 73
     1
 72
     1
 10
0.0
 20
3.000000000000001
 11
0.0
 21
0.0
 72
     1
 10
0.0
 20
0.0
 11
3.000000000000001
 21
0.0
 97
        0
 75
     0
 76
     1
 98
        1
 10
0.0
 20
0.0
  0
HATCH
  5
11D
330
118
100
AcDbEntity
  8
0
  6
Continuous
 62
     0
370
     0
100
AcDbHatch
 10
0.0
 20
0.0
 30
0.0
210
0.0
220
0.0
230
1.0
  2
SOLID
 70
     1
 71
     0
 91
        1
 92
        0
 93
        3
 72
     2
 10
0.0
 20
0.0
 40
3.000000000000001
 50
180.0
 51
270.0000000000008
 73
     1
 72
     1
 10
0.0
 20
-3.000000000000001
 11
0.0
 21
0.0
 72
     1
 10
0.0
 20
0.0
 11
-3.000000000000001
 21
0.0
 97
        0
 75
     0
 76
     1
 98
        1
 10
0.0
 20
0.0
  0
ENDBLK
  5
11A
330
118
100
AcDbEntity
  8
0
100
AcDbBlockEnd
  0
BLOCK
  5
17E
330
17D
100
AcDbEntity
  8
0
100
AcDbBlockBegin
  2
*D8
 70
     1
 10
0.0
 20
0.0
 30
0.0
  3
*D8
  1

  0
LINE
  5
180
330
17D
100
AcDbEntity
  8
치수문자_일반주서
 62
     0
370
    -2
100
AcDbLine
 10
12.95400000000005
 20
1.216513565852266
 30
0.0
 11
12.95400000000005
 21
11.15401356585227
 31
0.0
  0
LINE
  5
181
330
17D
100
AcDbEntity
  8
치수문자_일반주서
 62
     0
370
    -2
100
AcDbLine
 10
6.604000000000003
 20
1.210675679903457
 30
0.0
 11
6.604000000000003
 21
11.15401356585227
 31
0.0
  0
LINE
  5
182
330
17D
100
AcDbEntity
  8
치수문자_일반주서
 62
     0
370
    -2
100
AcDbLine
 10
12.95400000000005
 20
11.15401356585227
 30
0.0
 11
42.30800000000006
 21
11.15401356585227
 31
0.0
  0
LINE
  5
183
330
17D
100
AcDbEntity
  8
치수문자_일반주서
 62
     0
370
    -2
100
AcDbLine
 10
12.95400000000005
 20
11.15401356585227
 30
0.0
 11
6.604000000000003
 21
11.15401356585227
 31
0.0
  0
LINE
  5
184
330
17D
100
AcDbEntity
  8
치수문자_일반주서
 62
     0
370
    -2
100
AcDbLine
 10
16.25600000000005
 20
11.15401356585227
 30
0.0
 11
19.55800000000005
 21
11.15401356585227
 31
0.0
  0
LINE
  5
185
330
17D
100
AcDbEntity
  8
치수문자_일반주서
 62
     0
370
    -2
100
AcDbLine
 10
3.302000000000003
 20
11.15401356585227
 30
0.0
 11
0.0000000000000027
 21
11.15401356585227
 31
0.0
  0
SOLID
  5
186
330
17D
100
AcDbEntity
  8
치수문자_일반주서
 62
     0
100
AcDbTrace
 10
16.25600000000005
 20
11.7043468991856
 30
0.0
 11
16.25600000000005
 21
10.60368023251894
 31
0.0
 12
12.95400000000005
 22
11.15401356585227
 32
0.0
 13
12.95400000000005
 23
11.15401356585227
 33
0.0
  0
SOLID
  5
187
330
17D
100
AcDbEntity
  8
치수문자_일반주서
 62
     0
100
AcDbTrace
 10
3.302000000000003
 20
10.60368023251894
 30
0.0
 11
3.302000000000003
 21
11.7043468991856
 31
0.0
 12
6.604000000000003
 22
11.15401356585227
 32
0.0
 13
6.604000000000003
 23
11.15401356585227
 33
0.0
  0
MTEXT
  5
188
330
17D
100
AcDbEntity
  8
치수문자_일반주서
 62
     0
100
AcDbMText
 10
30.93300000000006
 20
15.52901356585227
 30
0.0
 40
3.5
 41
0.0
 71
     2
 72
     1
  1
\A1;6.35 [1/4]
  7
SLDTEXTSTYLE0
 73
     1
 44
1.0
  0
POINT
  5
189
330
17D
100
AcDbEntity
  8
Defpoints
 62
     0
100
AcDbPoint
 10
12.95400000000005
 20
1.154013565852266
 30
0.0
  0
POINT
  5
18A
330
17D
100
AcDbEntity
  8
Defpoints
 62
     0
100
AcDbPoint
 10
6.604000000000003
 20
1.148175679903457
 30
0.0
  0
POINT
  5
18B
330
17D
100
AcDbEntity
  8
Defpoints
 62
     0
100
AcDbPoint
 10
6.604000000000003
 20
11.15401356585227
 30
0.0
  0
ENDBLK
  5
17F
330
17D
100
AcDbEntity
  8
0
100
AcDbBlockEnd
  0
BLOCK
  5
190
330
18F
100
AcDbEntity
  8
0
100
AcDbBlockBegin
  2
*D9
 70
     1
 10
0.0
 20
0.0
 30
0.0
  3
*D9
  1

  0
LINE
  5
192
330
18F
100
AcDbEntity
  8
치수문자_일반주서
 62
     0
370
    -2
100
AcDbLine
 10
29.06159591615158
 20
-27.38849871431853
 30
0.0
 11
29.06159591615158
 21
-17.45099871431853
 31
0.0
  0
LINE
  5
193
330
18F
100
AcDbEntity
  8
치수문자_일반주서
 62
     0
370
    -2
100
AcDbLine
 10
22.71159591615153
 20
-27.39433660026734
 30
0.0
 11
22.71159591615153
 21
-17.45099871431853
 31
0.0
  0
LINE
  5
194
330
18F
100
AcDbEntity
  8
치수문자_일반주서
 62
     0
370
    -2
100
AcDbLine
 10
29.06159591615158
 20
-17.45099871431853
 30
0.0
 11
58.41559591615158
 21
-17.45099871431853
 31
0.0
  0
LINE
  5
195
330
18F
100
AcDbEntity
  8
치수문자_일반주서
 62
     0
370
    -2
100
AcDbLine
 10
29.06159591615158
 20
-17.45099871431853
 30
0.0
 11
22.71159591615153
 21
-17.45099871431853
 31
0.0
  0
LINE
  5
196
330
18F
100
AcDbEntity
  8
치수문자_일반주서
 62
     0
370
    -2
100
AcDbLine
 10
32.36359591615158
 20
-17.45099871431853
 30
0.0
 11
35.66559591615158
 21
-17.45099871431853
 31
0.0
  0
LINE
  5
197
330
18F
100
AcDbEntity
  8
치수문자_일반주서
 62
     0
370
    -2
100
AcDbLine
 10
19.40959591615153
 20
-17.45099871431853
 30
0.0
 11
16.10759591615153
 21
-17.45099871431853
 31
0.0
  0
SOLID
  5
198
330
18F
100
AcDbEntity
  8
치수문자_일반주서
 62
     0
100
AcDbTrace
 10
32.36359591615158
 20
-16.9006653809852
 30
0.0
 11
32.36359591615158
 21
-18.00133204765186
 31
0.0
 12
29.06159591615158
 22
-17.45099871431853
 32
0.0
 13
29.06159591615158
 23
-17.45099871431853
 33
0.0
  0
SOLID
  5
199
330
18F
100
AcDbEntity
  8
치수문자_일반주서
 62
     0
100
AcDbTrace
 10
19.40959591615153
 20
-18.00133204765186
 30
0.0
 11
19.40959591615153
 21
-16.9006653809852
 31
0.0
 12
22.71159591615153
 22
-17.45099871431853
 32
0.0
 13
22.71159591615153
 23
-17.45099871431853
 33
0.0
  0
MTEXT
  5
19A
330
18F
100
AcDbEntity
  8
치수문자_일반주서
 62
     0
100
AcDbMText
 10
47.04059591615158
 20
-13.07599871431853
 30
0.0
 40
3.5
 41
0.0
 71
     2
 72
     1
  1
\A1;6.35 [1/4]
  7
SLDTEXTSTYLE0
 73
     1
 44
1.0
  0
POINT
  5
19B
330
18F
100
AcDbEntity
  8
Defpoints
 62
     0
100
AcDbPoint
 10
29.06159591615158
 20
-27.45099871431853
 30
0.0
  0
POINT
  5
19C
330
18F
100
AcDbEntity
  8
Defpoints
 62
     0
100
AcDbPoint
 10
22.71159591615153
 20
-27.45683660026734
 30
0.0
  0
POINT
  5
19D
330
18F
100
AcDbEntity
  8
Defpoints
 62
     0
100
AcDbPoint
 10
22.71159591615153
 20
-17.45099871431853
 30
0.0
  0
ENDBLK
  5
191
330
18F
100
AcDbEntity
  8
0
100
AcDbBlockEnd
  0
ENDSEC
  0
SECTION
  2
ENTITIES
  0
LINE
  5
96
330
1F
100
AcDbEntity
  8
0
  6
Continuous
 62
     1
370
    15
100
AcDbLine
 10
28.16066411114404
 20
-3.174999999999987
 30
0.0
 11
28.57500000000005
 21
-3.174999999999987
 31
0.0
1001
PE_URL
1000

  0
LINE
  5
97
330
1F
100
AcDbEntity
  8
0
  6
Continuous
 62
     1
370
    15
100
AcDbLine
 10
21.45701555076022
 20
3.174999999999987
 30
0.0
 11
19.52200374668495
 21
3.174999999999987
 31
0.0
1001
PE_URL
1000

  0
ARC
  5
98
330
1F
100
AcDbEntity
  8
0
  6
Continuous
 62
     1
370
    15
100
AcDbCircle
 10
28.57500000000006
 20
-0.0000000000000016
 30
0.0
 40
3.174999999999977
100
AcDbArc
 50
332.5801462530786
 51
0.0
1001
PE_URL
1000

  0
ARC
  5
99
330
1F
100
AcDbEntity
  8
0
  6
Continuous
 62
     1
370
    15
100
AcDbCircle
 10
28.57500000000006
 20
-0.0000000000000016
 30
0.0
 40
3.174999999999975
100
AcDbArc
 50
270.0000000000007
 51
295.9582655526929
1001
PE_URL
1000

  0
ARC
  5
9A
330
1F
100
AcDbEntity
  8
0
  6
Continuous
 62
     1
370
    15
100
AcDbCircle
 10
28.57500000000006
 20
-0.0000000000000016
 30
0.0
 40
3.174999999999976
100
AcDbArc
 50
64.0787856020268
 51
90.00000000000011
1001
PE_URL
1000

  0
ARC
  5
9B
330
1F
100
AcDbEntity
  8
0
  6
Continuous
 62
     1
370
    15
100
AcDbCircle
 10
28.57500000000006
 20
-0.0000000000000016
 30
0.0
 40
3.174999999999977
100
AcDbArc
 50
0.0
 51
27.44763232738292
1001
PE_URL
1000

  0
LINE
  5
9C
330
1F
100
AcDbEntity
  8
0
  6
Continuous
 62
     1
370
    15
100
AcDbLine
 10
19.52200374668494
 20
-3.174999999999987
 30
0.0
 11
21.45701555076024
 21
-3.174999999999987
 31
0.0
1001
PE_URL
1000

  0
LINE
  5
9D
330
1F
100
AcDbEntity
  8
0
  6
Continuous
 62
     1
370
    15
100
AcDbLine
 10
28.57500000000005
 20
3.174999999999987
 30
0.0
 11
28.160664111144
 21
3.174999999999987
 31
0.0
1001
PE_URL
1000

  0
LINE
  5
9E
330
1F
100
AcDbEntity
  8
외형선
  6
Continuous
370
    15
100
AcDbLine
 10
-19.05
 20
-3.175000000000001
 30
0.0
 11
19.05
 21
-3.175000000000001
 31
0.0
  0
LINE
  5
9F
330
1F
100
AcDbEntity
  8
외형선
  6
Continuous
370
    15
100
AcDbLine
 10
19.05
 20
3.175
 30
0.0
 11
-19.05000000000001
 21
3.175
 31
0.0
  0
SPLINE
  5
A2
330
1F
100
AcDbEntity
  8
0
  6
Continuous
 62
     1
370
    15
100
AcDbSpline
210
0.0
220
0.0
230
1.0
 70
     8
 71
     3
 72
    16
 73
    12
 74
     0
 42
0.000000001
 43
0.00000001
 40
0.0
 40
0.0
 40
0.0
 40
0.0
 40
0.1171908056861919
 40
0.2341622524556964
 40
0.3511502592288964
 40
0.4683815474624519
 40
0.5855275655269042
 40
0.7003907021490053
 40
0.8153220435469907
 40
0.9305095149329458
 40
1.0
 40
1.0
 40
1.0
 40
1.0
 10
19.04999999999999
 20
0.2720382838870344
 30
0.0
 10
19.40598929971168
 20
0.0665002045012938
 30
0.0
 10
20.11730155482007
 20
-0.3441912260471147
 30
0.0
 10
21.18338471944215
 20
-0.9509295915126624
 30
0.0
 10
22.24960362498049
 20
-1.5212310085831
 30
0.0
 10
23.31708567681805
 20
-2.033948665703743
 30
0.0
 10
24.37782588460677
 20
-2.467797616874186
 30
0.0
 10
25.43108088693889
 20
-2.809929142150683
 30
0.0
 10
26.47846622649072
 20
-3.043191795723254
 30
0.0
 10
27.38891031848851
 20
-3.166083427693263
 30
0.0
 10
27.94966409444945
 20
-3.162562649902017
 30
0.0
 10
28.16066411114404
 20
-3.161237854234867
 30
0.0
1001
PE_URL
1000

  0
SPLINE
  5
A3
330
1F
100
AcDbEntity
  8
0
  6
Continuous
 62
     1
370
    15
100
AcDbSpline
210
0.0
220
0.0
230
1.0
 70
     8
 71
     3
 72
    13
 73
     9
 74
     0
 42
0.000000001
 43
0.00000001
 40
0.0
 40
0.0
 40
0.0
 40
0.0
 40
0.0868032092082444
 40
0.272066560345721
 40
0.4543087488673136
 40
0.6361324675321782
 40
0.8178850167728688
 40
1.0
 40
1.0
 40
1.0
 40
1.0
 10
24.80797614476231
 20
-2.591665812083959
 30
0.0
 10
24.64141400211313
 20
-2.649329061574488
 30
0.0
 10
24.11935969504641
 20
-2.830062494017161
 30
0.0
 10
23.24742811490616
 20
-3.023683846363987
 30
0.0
 10
22.19251710476091
 20
-3.166884115381449
 30
0.0
 10
21.14520246499176
 20
-3.187658808318077
 30
0.0
 10
20.09820254841833
 20
-3.101710665769259
 30
0.0
 10
19.39963278866332
 20
-2.950979123747034
 30
0.0
 10
19.05
 20
-2.875538283886983
 30
0.0
1001
PE_URL
1000

  0
SPLINE
  5
A4
330
1F
100
AcDbEntity
  8
0
  6
Continuous
 62
     1
370
    15
100
AcDbSpline
210
0.0
220
0.0
230
1.0
 70
     8
 71
     3
 72
    30
 73
    26
 74
     0
 42
0.000000001
 43
0.00000001
 40
0.0
 40
0.0
 40
0.0
 40
0.0
 40
0.1250000000000008
 40
0.1250000000000008
 40
0.187500000000002
 40
0.187500000000002
 40
0.2500000000000032
 40
0.2500000000000032
 40
0.375000000000004
 40
0.375000000000004
 40
0.4375000000000036
 40
0.4375000000000036
 40
0.5000000000000032
 40
0.5000000000000032
 40
0.5625000000000028
 40
0.5625000000000028
 40
0.6250000000000024
 40
0.6250000000000024
 40
0.7500000000000017
 40
0.7500000000000017
 40
0.8750000000000009
 40
0.8750000000000009
 40
0.9375000000000004
 40
0.9375000000000004
 40
1.0
 40
1.0
 40
1.0
 40
1.0
 10
19.04999999999999
 20
3.163324228102414
 30
0.0
 10
19.4434517552073
 20
3.182899492115669
 30
0.0
 10
19.84533361646832
 20
3.177754854983854
 30
0.0
 10
20.43987706753795
 20
3.132956537411922
 30
0.0
 10
20.63605447502756
 20
3.111955947202536
 30
0.0
 10
21.03322420058625
 20
3.057728382232954
 30
0.0
 10
21.23290941889643
 20
3.024519461243431
 30
0.0
 10
21.83000775535917
 20
2.907441918440583
 30
0.0
 10
22.22295886801119
 20
2.806404581025743
 30
0.0
 10
22.82077501268353
 20
2.622515218146437
 30
0.0
 10
23.02012557025488
 20
2.555940048861253
 30
0.0
 10
23.41549755050215
 20
2.413479811763079
 30
0.0
 10
23.61225286502231
 20
2.337532302794284
 30
0.0
 10
24.01004586882378
 20
2.176250215942545
 30
0.0
 10
24.20975783668509
 20
2.091072180065452
 30
0.0
 10
24.60730555903446
 20
1.913143084868603
 30
0.0
 10
24.80374168144252
 20
1.820626214610721
 30
0.0
 10
25.39747166377798
 20
1.532310555725127
 30
0.0
 10
25.79946279964381
 20
1.325517443123528
 30
0.0
 10
26.58786338816606
 20
0.8972226840192445
 30
0.0
 10
26.98812696018226
 20
0.6732689509299657
 30
0.0
 10
27.58339469078498
 20
0.3330038818246959
 30
0.0
 10
27.77950126143604
 20
0.2191548648852624
 30
0.0
 10
28.1762331240022
 20
-0.0098183813517826
 30
0.0
 10
28.37586110358691
 20
-0.1247521486908734
 30
0.0
 10
28.57500000000004
 20
-0.2391237790555708
 30
0.0
1001
PE_URL
1000

  0
SPLINE
  5
A5
330
1F
100
AcDbEntity
  8
0
  6
Continuous
 62
     1
370
    15
100
AcDbSpline
210
0.0
220
0.0
230
1.0
 70
     8
 71
     3
 72
    42
 73
    38
 74
     0
 42
0.000000001
 43
0.00000001
 40
0.0
 40
0.0
 40
0.0
 40
0.0
 40
0.0625000000000038
 40
0.0625000000000038
 40
0.1250000000000076
 40
0.1250000000000076
 40
0.1875000000000114
 40
0.1875000000000114
 40
0.2500000000000152
 40
0.2500000000000152
 40
0.3125000000000172
 40
0.3125000000000172
 40
0.3750000000000177
 40
0.3750000000000177
 40
0.4375000000000182
 40
0.4375000000000182
 40
0.4687500000000184
 40
0.4687500000000184
 40
0.5000000000000187
 40
0.5000000000000187
 40
0.5625000000000192
 40
0.5625000000000192
 40
0.5937500000000194
 40
0.5937500000000194
 40
0.6250000000000197
 40
0.6250000000000197
 40
0.6875000000000177
 40
0.6875000000000177
 40
0.7500000000000155
 40
0.7500000000000155
 40
0.8125000000000117
 40
0.8125000000000117
 40
0.8750000000000078
 40
0.8750000000000078
 40
0.937500000000004
 40
0.937500000000004
 40
1.0
 40
1.0
 40
1.0
 40
1.0
 10
28.57500000000004
 20
-0.2391237790555718
 30
0.0
 10
28.73636538586209
 20
-0.3318009134471476
 30
0.0
 10
28.89695485748487
 20
-0.4189781295303273
 30
0.0
 10
29.21876687882423
 20
-0.5786774219065692
 30
0.0
 10
29.38145450641188
 20
-0.6512738669788853
 30
0.0
 10
29.70376895048258
 20
-0.7748718614454286
 30
0.0
 10
29.8607145359116
 20
-0.8252183872384614
 30
0.0
 10
30.1657883907799
 20
-0.9053972329281236
 30
0.0
 10
30.31528794537941
 20
-0.9353460952699187
 30
0.0
 10
30.59474215614741
 20
-0.9777104555941272
 30
0.0
 10
30.72482025426822
 20
-0.9902050253189071
 30
0.0
 10
30.96335005804177
 20
-1.006469075785398
 30
0.0
 10
31.07216126379575
 20
-1.010350082223059
 30
0.0
 10
31.25596967635461
 20
-1.023496022122512
 30
0.0
 10
31.33244384993958
 20
-1.032664598117641
 30
0.0
 10
31.41644044237617
 20
-1.065982477832546
 30
0.0
 10
31.43884390336971
 20
-1.080256898042478
 30
0.0
 10
31.47133710899572
 20
-1.118314961089637
 30
0.0
 10
31.48145280822938
 20
-1.142420222234064
 30
0.0
 10
31.48962168512013
 20
-1.232863276277859
 30
0.0
 10
31.46469022213375
 20
-1.320059922658343
 30
0.0
 10
31.38084475642386
 20
-1.48769509525209
 30
0.0
 10
31.34458383092817
 20
-1.550805216844301
 30
0.0
 10
31.26021776701395
 20
-1.68284585245934
 30
0.0
 10
31.21178766191406
 20
-1.752456391400245
 30
0.0
 10
31.05174420521993
 20
-1.965417454745983
 30
0.0
 10
30.92793722670409
 20
-2.109202330245742
 30
0.0
 10
30.66855611497449
 20
-2.370993434701683
 30
0.0
 10
30.52995357296986
 20
-2.492018930940995
 30
0.0
 10
30.24975999638392
 20
-2.698606693155578
 30
0.0
 10
30.10515681813103
 20
-2.786774501857977
 30
0.0
 10
29.81097610853569
 20
-2.929081067195801
 30
0.0
 10
29.66316349570534
 20
-2.982716108766928
 30
0.0
 10
29.3612776062252
 20
-3.057959598476722
 30
0.0
 10
29.20615117683622
 20
-3.079356655593502
 30
0.0
 10
28.89412104003886
 20
-3.089954101056206
 30
0.0
 10
28.73634883207511
 20
-3.079664072306032
 30
0.0
 10
28.57500000000005
 20
-3.054282164535195
 30
0.0
1001
PE_URL
1000

  0
SPLINE
  5
A6
330
1F
100
AcDbEntity
  8
0
  6
Continuous
 62
     1
370
    15
100
AcDbSpline
210
0.0
220
0.0
230
1.0
 70
     8
 71
     3
 72
    30
 73
    26
 74
     0
 42
0.000000001
 43
0.00000001
 40
0.0
 40
0.0
 40
0.0
 40
0.0
 40
0.1249999999999998
 40
0.1249999999999998
 40
0.1874999999999989
 40
0.1874999999999989
 40
0.2499999999999979
 40
0.2499999999999979
 40
0.3749999999999977
 40
0.3749999999999977
 40
0.4374999999999984
 40
0.4374999999999984
 40
0.4999999999999991
 40
0.4999999999999991
 40
0.5624999999999999
 40
0.5624999999999999
 40
0.6250000000000007
 40
0.6250000000000007
 40
0.7500000000000004
 40
0.7500000000000004
 40
0.8750000000000002
 40
0.8750000000000002
 40
0.9375000000000001
 40
0.9375000000000001
 40
1.0
 40
1.0
 40
1.0
 40
1.0
 10
19.05
 20
1.346070049403133
 30
0.0
 10
19.4434517552073
 20
1.139152771867696
 30
0.0
 10
19.8453336164683
 20
0.9201993310185059
 30
0.0
 10
20.43987706753795
 20
0.5850335545854912
 30
0.0
 10
20.63605447502756
 20
0.4723330649457087
 30
0.0
 10
21.03322420058624
 20
0.2446165683606478
 30
0.0
 10
21.23290941889644
 20
0.1298461886929942
 30
0.0
 10
21.83000775535919
 20
-0.2141809394351913
 30
0.0
 10
22.22295886801115
 20
-0.4426681372991413
 30
0.0
 10
22.82077501268353
 20
-0.7791568101763946
 30
0.0
 10
23.02012557025486
 20
-0.8900231493721753
 30
0.0
 10
23.41549755050216
 20
-1.107245196415331
 30
0.0
 10
23.6122528650223
 20
-1.213746499402077
 30
0.0
 10
24.0100458688238
 20
-1.42235604786669
 30
0.0
 10
24.20975783668511
 20
-1.524217057402434
 30
0.0
 10
24.60730555903446
 20
-1.721266278691872
 30
0.0
 10
24.80374168144251
 20
-1.816241896180498
 30
0.0
 10
25.39747166377798
 20
-2.09072645871034
 30
0.0
 10
25.79946279964379
 20
-2.259596684253072
 30
0.0
 10
26.58786338816606
 20
-2.557502661992061
 30
0.0
 10
26.98812696018226
 20
-2.688306041776935
 30
0.0
 10
27.58339469078498
 20
-2.850989593784024
 30
0.0
 10
27.77950126143605
 20
-2.899567662337745
 30
0.0
 10
28.1762331240022
 20
-2.985607011102167
 30
0.0
 10
28.37586110358691
 20
-3.022955472935771
 30
0.0
 10
28.57500000000004
 20
-3.054282164535207
 30
0.0
1001
PE_URL
1000

  0
SPLINE
  5
A7
330
1F
100
AcDbEntity
  8
0
  6
Continuous
 62
     1
370
    15
100
AcDbSpline
210
0.0
220
0.0
230
1.0
 70
     8
 71
     3
 72
    11
 73
     7
 74
     0
 42
0.000000001
 43
0.00000001
 40
0.0
 40
0.0
 40
0.0
 40
0.0
 40
0.1653988713120174
 40
0.4433602850998313
 40
0.7219411491846968
 40
1.0
 40
1.0
 40
1.0
 40
1.0
 10
24.80797614476227
 20
2.59166581208396
 30
0.0
 10
25.01561396384202
 20
2.661673069955117
 30
0.0
 10
25.57219794736295
 20
2.849331169206961
 30
0.0
 10
26.47846949812357
 20
3.04231062112491
 30
0.0
 10
27.52708246089202
 20
3.178867345626214
 30
0.0
 10
28.22591260648834
 20
3.170274723338066
 30
0.0
 10
28.57500000000004
 20
3.165982441247915
 30
0.0
1001
PE_URL
1000

  0
SPLINE
  5
A8
330
1F
100
AcDbEntity
  8
0
  6
Continuous
 62
     1
370
    15
100
AcDbSpline
210
0.0
220
0.0
230
1.0
 70
     8
 71
     3
 72
    42
 73
    38
 74
     0
 42
0.000000001
 43
0.00000001
 40
0.0
 40
0.0
 40
0.0
 40
0.0
 40
0.0625000000000033
 40
0.0625000000000033
 40
0.1250000000000066
 40
0.1250000000000066
 40
0.1875000000000099
 40
0.1875000000000099
 40
0.2500000000000133
 40
0.2500000000000133
 40
0.3125000000000148
 40
0.3125000000000148
 40
0.3750000000000148
 40
0.3750000000000148
 40
0.4375000000000149
 40
0.4375000000000149
 40
0.4687500000000149
 40
0.4687500000000149
 40
0.5000000000000149
 40
0.5000000000000149
 40
0.5625000000000149
 40
0.5625000000000149
 40
0.5937500000000149
 40
0.5937500000000149
 40
0.6250000000000149
 40
0.6250000000000149
 40
0.6875000000000124
 40
0.6875000000000124
 40
0.7500000000000099
 40
0.7500000000000099
 40
0.8125000000000074
 40
0.8125000000000074
 40
0.875000000000005
 40
0.875000000000005
 40
0.9375000000000024
 40
0.9375000000000024
 40
1.0
 40
1.0
 40
1.0
 40
1.0
 10
28.57500000000004
 20
3.165982441247903
 30
0.0
 10
28.73636538586209
 20
3.158982621438728
 30
0.0
 10
28.89695485748486
 20
3.136101578223682
 30
0.0
 10
29.21876687882423
 20
3.060233219760288
 30
0.0
 10
29.38145450641189
 20
3.006745966438674
 30
0.0
 10
29.70376895048256
 20
2.870627471857595
 30
0.0
 10
29.86071453591163
 20
2.789326121498435
 30
0.0
 10
30.1657883907799
 20
2.600775963617467
 30
0.0
 10
30.31528794537941
 20
2.492256051673131
 30
0.0
 10
30.59474215614741
 20
2.253783167381869
 30
0.0
 10
30.72482025426819
 20
2.124247178340602
 30
0.0
 10
30.96335005804177
 20
1.843220874517266
 30
0.0
 10
31.07216126379575
 20
1.690571493509562
 30
0.0
 10
31.25596967635462
 20
1.370952635171511
 30
0.0
 10
31.33244384993957
 20
1.202282452515593
 30
0.0
 10
31.41644044237617
 20
0.9376621367707813
 30
0.0
 10
31.43884390336969
 20
0.8489028679809277
 30
0.0
 10
31.47133710899568
 20
0.670668283699042
 30
0.0
 10
31.48145280822937
 20
0.5802360157111739
 30
0.0
 10
31.48962168512011
 20
0.3165698546619932
 30
0.0
 10
31.46469022213376
 20
0.1475236085020233
 30
0.0
 10
31.38084475642386
 20
-0.0559017441963543
 30
0.0
 10
31.34458383092817
 20
-0.1168548949253412
 30
0.0
 10
31.26021776701391
 20
-0.2165222024907081
 30
0.0
 10
31.21178766191409
 20
-0.2561621449419365
 30
0.0
 10
31.05174420521992
 20
-0.3442148451489682
 30
0.0
 10
30.92793722670408
 20
-0.3601797613917592
 30
0.0
 10
30.66855611497453
 20
-0.3319494679834958
 30
0.0
 10
30.52995357296987
 20
-0.2874845730564931
 30
0.0
 10
30.2497599963839
 20
-0.1653785794755406
 30
0.0
 10
30.10515681813101
 20
-0.0866564017849279
 30
0.0
 10
29.8109761085357
 20
0.0885917895350199
 30
0.0
 10
29.66316349570533
 20
0.1839534833075418
 30
0.0
 10
29.36127760622524
 20
0.3810310787024448
 30
0.0
 10
29.20615117683624
 20
0.4837681221031706
 30
0.0
 10
28.89412104003887
 20
0.6820309608099776
 30
0.0
 10
28.73634883207509
 20
0.7777727677628009
 30
0.0
 10
28.57500000000005
 20
0.8671709516595123
 30
0.0
1001
PE_URL
1000

  0
SPLINE
  5
A9
330
1F
100
AcDbEntity
  8
0
  6
Continuous
 62
     1
370
    15
100
AcDbSpline
210
0.0
220
0.0
230
1.0
 70
     8
 71
     3
 72
    14
 73
    10
 74
     0
 42
0.000000001
 43
0.00000001
 40
0.0
 40
0.0
 40
0.0
 40
0.0
 40
0.1498273792117946
 40
0.2999357287356545
 40
0.4497542627777603
 40
0.5994474180993636
 40
0.7493177373120856
 40
0.8967440620550104
 40
1.0
 40
1.0
 40
1.0
 40
1.0
 10
28.57500000000004
 20
0.8671709516595203
 30
0.0
 10
28.21958204754538
 20
1.061543434308207
 30
0.0
 10
27.50807962965598
 20
1.450652905061086
 30
0.0
 10
26.44038581648961
 20
1.969884284316296
 30
0.0
 10
25.37379337666256
 20
2.418245080091364
 30
0.0
 10
24.30789832716405
 20
2.776268925150258
 30
0.0
 10
23.24743873448108
 20
3.024427912377278
 30
0.0
 10
22.29654094918747
 20
3.16054379759128
 30
0.0
 10
21.701933963885
 20
3.162260061767829
 30
0.0
 10
21.45701555076023
 20
3.162966990392976
 30
0.0
1001
PE_URL
1000

  0
LINE
  5
AA
330
1F
100
AcDbEntity
  8
외형선
  6
Continuous
370
    15
100
AcDbLine
 10
19.05
 20
0.2720382838870344
 30
0.0
 11
19.05
 21
1.346070049403133
 31
0.0
  0
SPLINE
  5
AB
330
1F
100
AcDbEntity
  8
0
  6
Continuous
 62
     1
370
    15
100
AcDbSpline
210
0.0
220
0.0
230
1.0
 70
     8
 71
     3
 72
    15
 73
    11
 74
     0
 42
0.000000001
 43
0.00000001
 40
0.0
 40
0.0
 40
0.0
 40
0.0
 40
0.0629747538484417
 40
0.2235676533255727
 40
0.3866224553973952
 40
0.5040382595781984
 40
0.6248191114635119
 40
0.7874439429042822
 40
0.9546209505432282
 40
1.0
 40
1.0
 40
1.0
 40
1.0
 10
31.38767386078147
 20
1.460339659559065
 30
0.0
 10
31.37586862923248
 20
1.486592496909515
 30
0.0
 10
31.33395869305826
 20
1.579793103198557
 30
0.0
 10
31.1809439003086
 20
1.799599664160709
 30
0.0
 10
30.98420158497039
 20
2.04537740810802
 30
0.0
 10
30.7823366922365
 20
2.259954727260454
 30
0.0
 10
30.57104564541621
 20
2.457741049409021
 30
0.0
 10
30.3225853762747
 20
2.648180481292403
 30
0.0
 10
30.11128786618965
 20
2.788824451987857
 30
0.0
 10
29.9868640562153
 20
2.839488041926656
 30
0.0
 10
29.96030054961111
 20
2.850304320629338
 30
0.0
1001
PE_URL
1000

  0
LINE
  5
AC
330
1F
100
AcDbEntity
  8
0
  6
Continuous
 62
     1
370
    15
100
AcDbLine
 10
19.04999999999999
 20
-3.163324228102415
 30
0.0
 11
19.52200374668495
 21
-3.160269325062966
 31
0.0
1001
PE_URL
1000

  0
LINE
  5
AD
330
1F
100
AcDbEntity
  8
외형선
  6
Continuous
370
    15
100
AcDbLine
 10
19.05
 20
-3.163324228102415
 30
0.0
 11
19.05
 21
-2.875538283886983
 31
0.0
  0
LINE
  5
B0
330
1F
100
AcDbEntity
  8
외형선
  6
Continuous
370
    15
100
AcDbLine
 10
19.05
 20
-0.0000000000000004
 30
0.0
 11
19.05
 21
3.175
 31
0.0
  0
LINE
  5
B1
330
1F
100
AcDbEntity
  8
외형선
  6
Continuous
370
    15
100
AcDbLine
 10
19.05
 20
-3.175000000000001
 30
0.0
 11
19.05
 21
-0.0000000000000004
 31
0.0
  0
LINE
  5
B4
330
1F
100
AcDbEntity
  8
중심선
 62
     1
100
AcDbLine
 10
-34.74999999999999
 20
-0.0000000000000043
 30
0.0
 11
34.74999999999999
 21
0.0000000000000043
 31
0.0
  0
LINE
  5
B6
330
1F
100
AcDbEntity
  8
참조1
100
AcDbLine
 10
0.0000000000000036
 20
-0.0000000000000043
 30
0.0
 11
0.0000000000000107
 21
-40.00000000000001
 31
0.0
  0
LINE
  5
B7
330
1F
100
AcDbEntity
  8
참조1
100
AcDbLine
 10
0.0000000000000107
 20
-40.00000000000001
 30
0.0
 11
-8.015106814308652
 21
-40.0
 31
0.0
  0
CIRCLE
  5
B8
330
1F
100
AcDbEntity
  8
해칭선
100
AcDbCircle
 10
0.0
 20
0.0
 30
0.0
 40
3.000000000000002
  0
INSERT
  5
B9
330
1F
100
AcDbEntity
  8
0
  6
Continuous
 62
     7
100
AcDbBlockReference
 66
     1
  2
블럭10
 10
-13.9402729321252
 20
-52.04717430164393
 30
0.0
  0
ATTRIB
  5
BA
330
B9
100
AcDbEntity
  8
FORMAT
 62
     2
100
AcDbText
 10
-23.12156822086649
 20
-49.97180738881175
 30
0.0
 40
4.233333333333333
  1
E5252016 [ 4 FLUTE ]
 41
0.75
  7
SLDTEXTSTYLE0
 11
-23.12156822086649
 21
-52.08847405547841
 31
0.0
100
AcDbAttribute
  2
AUTOATTR0
 70
     0
 74
     1
  0
SEQEND
  5
BB
330
B9
100
AcDbEntity
  8
0
  6
Continuous
 62
     7
  0
HATCH
  5
BC
330
1F
100
AcDbEntity
  8
중심선
100
AcDbHatch
 10
0.0
 20
0.0
 30
0.0
210
0.0
220
0.0
230
1.0
  2
SOLID
 70
     1
 71
     0
 91
        1
 92
        0
 93
        4
 72
     1
 10
-8.225363627744354
 20
-35.8
 11
-11.67163887158164
 21
-35.8
 72
     1
 10
-11.67163887158164
 20
-35.8
 11
-13.79986873078565
 21
-38.3363255805726
 72
     1
 10
-13.79986873078565
 20
-38.3363255805726
 11
-10.35356040183522
 21
-38.33628615127011
 72
     1
 10
-10.35356040183522
 20
-38.33628615127011
 11
-8.225363627744354
 21
-35.8
 97
        0
 75
     0
 76
     1
 98
        1
 10
21.66323868596883
 20
-0.0010749287238935
  0
HATCH
  5
BD
330
1F
100
AcDbEntity
  8
중심선
100
AcDbHatch
 10
0.0
 20
0.0
 30
0.0
210
0.0
220
0.0
230
1.0
  2
SOLID
 70
     1
 71
     0
 91
        1
 92
        0
 93
        4
 72
     1
 10
-3.212599636708401
 20
-35.80000000000003
 11
-6.658874880545685
 21
-35.8
 72
     1
 10
-6.658874880545685
 20
-35.8
 11
-11.19001288890307
 21
-41.20000000000002
 72
     1
 10
-11.19001288890307
 20
-41.20000000000002
 11
-7.743737645065789
 21
-41.20000000000002
 72
     1
 10
-7.743737645065789
 20
-41.20000000000002
 11
-3.212599636708401
 21
-35.80000000000003
 97
        0
 75
     0
 76
     1
 98
        1
 10
21.66323868596883
 20
-0.0010749287238935
  0
HATCH
  5
BE
330
1F
100
AcDbEntity
  8
중심선
100
AcDbHatch
 10
0.0
 20
0.0
 30
0.0
210
0.0
220
0.0
230
1.0
  2
SOLID
 70
     1
 71
     0
 91
        1
 92
        0
 93
        4
 72
     1
 10
1.800164354327467
 20
-35.8
 11
-1.646110889509593
 21
-35.79999999999998
 72
     1
 10
-1.646110889509593
 20
-35.79999999999998
 11
-8.694547791398872
 21
-44.20000000000002
 72
     1
 10
-8.694547791398872
 20
-44.20000000000002
 11
-5.248272547561587
 21
-44.20000000000002
 72
     1
 10
-5.248272547561587
 20
-44.20000000000002
 11
1.800164354327467
 21
-35.8
 97
        0
 75
     0
 76
     1
 98
        1
 10
21.66323868596883
 20
-0.0010749287238935
  0
HATCH
  5
BF
330
1F
100
AcDbEntity
  8
중심선
100
AcDbHatch
 10
0.0
 20
0.0
 30
0.0
210
0.0
220
0.0
230
1.0
  2
SOLID
 70
     1
 71
     0
 91
        1
 92
        0
 93
        6
 72
     3
 10
6.600054785339694
 20
-40.00000000005127
 11
3.960054785062283
 21
1.540882976769353E-10
 40
0.3939339440162628
 50
17.09539180608437
 51
320.0019657685071
 73
     0
 72
     1
 10
8.283054441040234
 20
-38.5878940046383
 11
10.58835631474133
 21
-36.65356729459038
 72
     3
 10
6.600054785286847
 20
-40.00000000000015
 11
6.600054785286829
 21
-1.278976924368180E-13
 40
0.636358354079598
 50
39.9987384933741
 51
368.4976242363725
 73
     1
 72
     1
 10
13.02538727718746
 20
-39.03999999993002
 11
5.28012209212277
 21
-39.03999999993002
 72
     1
 10
5.28012209212277
 20
-39.03999999993002
 11
5.280097047676836
 21
-40.95999999992991
 72
     1
 10
5.280097047676836
 20
-40.95999999992991
 11
9.721476817148872
 21
-40.95999999992988
 97
        0
 75
     0
 76
     1
 98
        1
 10
21.66323868596883
 20
-0.0010749287238935
  0
DIMENSION
  5
C0
330
1F
100
AcDbEntity
  8
치수문자_일반주서
100
AcDbDimension
  2
_D
 10
19.05000000000003
 20
13.17500000000001
 30
0.0
 11
50.38525000000003
 21
13.17500000000001
 31
0.0
 70
   160
  1
<>
 71
     2
 42
12.7
  3
SLDDIMSTYLE2
100
AcDbAlignedDimension
 13
31.75000000000003
 23
3.174999999999998
 33
0.0
 14
19.05000000000003
 24
3.175000000000011
 34
0.0
100
AcDbRotatedDimension
1001
PE_URL
1000

1001
ACAD
1000
DSTYLE
1002
{
1070
   171
1070
     8
1070
   273
1070
     7
1002
}
  0
DIMENSION
  5
D5
330
1F
100
AcDbEntity
  8
치수문자_일반주서
100
AcDbDimension
  2
_D_1
 10
-31.74999999999999
 20
23.17500000000001
 30
0.0
 11
0.0
 21
23.17500000000001
 31
0.0
 70
   160
  1
<>
 71
     2
 42
63.50000000000001
  3
SLDDIMSTYLE2
100
AcDbAlignedDimension
 13
31.75000000000003
 23
3.174999999999998
 33
0.0
 14
-31.74999999999999
 24
3.175000000000008
 34
0.0
100
AcDbRotatedDimension
1001
PE_URL
1000

1001
ACAD
1000
DSTYLE
1002
{
1070
   171
1070
     8
1070
   273
1070
     7
1002
}
  0
DIMENSION
  5
E8
330
1F
100
AcDbEntity
  8
치수문자_일반주서
100
AcDbDimension
  2
_D_2
 10
68.53603662389301
 20
-3.174999999999862
 30
0.0
 11
68.5360366238929
 21
22.46650000000015
 31
0.0
 70
   160
  1
%%c<>
 71
     2
 42
6.35
 52
-270.0
  3
SLDDIMSTYLE2
100
AcDbAlignedDimension
 13
31.75000000000003
 23
3.174999999999998
 33
0.0
 14
31.75000000000003
 24
-3.175000000000001
 34
0.0
 50
90.0000000000002
100
AcDbRotatedDimension
1001
PE_URL
1000

1001
ACAD
1000
DSTYLE
1002
{
1070
   171
1070
     8
1070
   273
1070
     7
1002
}
  0
DIMENSION
  5
FD
330
1F
100
AcDbEntity
  8
치수문자_일반주서
100
AcDbDimension
  2
_D_3
 10
-41.74999999999996
 20
-3.17500000000009
 30
0.0
 11
-41.75000000000004
 21
22.46649999999998
 31
0.0
 70
   160
  1
%%c<>
 71
     2
 42
6.350000000000005
 52
-270.0
  3
SLDDIMSTYLE2
100
AcDbAlignedDimension
 13
-19.05000000000001
 23
3.175
 33
0.0
 14
-19.05
 24
-3.175000000000004
 34
0.0
 50
90.0000000000002
100
AcDbRotatedDimension
1001
PE_URL
1000

1001
ACAD
1000
DSTYLE
1002
{
1070
   171
1070
     8
1070
   273
1070
     7
1002
}
  0
LINE
  5
111
330
1F
100
AcDbEntity
  8
참조1
100
AcDbLine
 10
89.9572338153456
 20
7.440000000000002
 30
0.0
 11
89.9572338153456
 21
-7.440000000000002
 31
0.0
  0
LINE
  5
112
330
1F
100
AcDbEntity
  8
참조1
100
AcDbLine
 10
102.6572338153456
 20
5.440000000000002
 30
0.0
 11
89.9572338153456
 21
5.440000000000002
 31
0.0
  0
SOLID
  5
113
330
1F
100
AcDbEntity
  8
참조1
100
AcDbTrace
 10
89.9572338153456
 20
5.440000000000002
 30
0.0
 11
96.3072338153456
 21
4.424000000000002
 31
0.0
 12
96.3072338153456
 22
6.456000000000002
 32
0.0
 13
96.3072338153456
 23
6.456000000000002
 33
0.0
  0
LINE
  5
114
330
1F
100
AcDbEntity
  8
참조1
100
AcDbLine
 10
102.6572338153456
 20
-5.440000000000002
 30
0.0
 11
89.9572338153456
 21
-5.440000000000002
 31
0.0
  0
SOLID
  5
115
330
1F
100
AcDbEntity
  8
참조1
100
AcDbTrace
 10
89.9572338153456
 20
-5.440000000000002
 30
0.0
 11
96.3072338153456
 21
-6.456000000000002
 31
0.0
 12
96.3072338153456
 22
-4.424000000000002
 32
0.0
 13
96.3072338153456
 23
-4.424000000000002
 33
0.0
  0
MTEXT
  5
116
330
1F
100
AcDbEntity
  8
참조1
100
AcDbMText
 10
99.3547239078159
 20
10.98821664464994
 30
0.0
 40
3.5
 41
0.0
 71
     1
 72
     1
  1
A
  7
SLDTEXTSTYLE0
 73
     1
 44
1.0
  0
MTEXT
  5
117
330
1F
100
AcDbEntity
  8
참조1
100
AcDbMText
 10
99.3547239078159
 20
0.1082166446499324
 30
0.0
 40
3.5
 41
0.0
 71
     1
 72
     1
  1
A
  7
SLDTEXTSTYLE0
 73
     1
 44
1.0
  0
INSERT
  5
11E
330
1F
100
AcDbEntity
  8
해칭선
100
AcDbBlockReference
  2
SW_DOWELSYMBOL_0
 10
0.0
 20
0.0
 30
0.0
  0
LINE
  5
1EF
330
1F
100
AcDbEntity
  8
0
  6
Continuous
 62
     1
370
    15
100
AcDbLine
 10
-28.16066411114405
 20
3.174999999999981
 30
0.0
 11
-28.57500000000005
 21
3.174999999999981
 31
0.0
1001
PE_URL
1000

  0
LINE
  5
1F0
330
1F
100
AcDbEntity
  8
0
  6
Continuous
 62
     1
370
    15
100
AcDbLine
 10
-21.45701555076023
 20
-3.174999999999994
 30
0.0
 11
-19.52200374668495
 21
-3.174999999999994
 31
0.0
1001
PE_URL
1000

  0
ARC
  5
1F1
330
1F
100
AcDbEntity
  8
0
  6
Continuous
 62
     1
370
    15
100
AcDbCircle
 10
-28.57500000000006
 20
-0.0000000000000036
 30
0.0
 40
3.174999999999977
100
AcDbArc
 50
152.5801462530786
 51
180.0
1001
PE_URL
1000

  0
ARC
  5
1F2
330
1F
100
AcDbEntity
  8
0
  6
Continuous
 62
     1
370
    15
100
AcDbCircle
 10
-28.57500000000006
 20
-0.0000000000000036
 30
0.0
 40
3.174999999999975
100
AcDbArc
 50
90.00000000000072
 51
115.9582655526929
1001
PE_URL
1000

  0
ARC
  5
1F3
330
1F
100
AcDbEntity
  8
0
  6
Continuous
 62
     1
370
    15
100
AcDbCircle
 10
-28.57500000000006
 20
-0.0000000000000036
 30
0.0
 40
3.174999999999976
100
AcDbArc
 50
244.0787856020268
 51
270.0000000000001
1001
PE_URL
1000

  0
ARC
  5
1F4
330
1F
100
AcDbEntity
  8
0
  6
Continuous
 62
     1
370
    15
100
AcDbCircle
 10
-28.57500000000006
 20
-0.0000000000000036
 30
0.0
 40
3.174999999999977
100
AcDbArc
 50
180.0
 51
207.4476323273829
1001
PE_URL
1000

  0
LINE
  5
1F5
330
1F
100
AcDbEntity
  8
0
  6
Continuous
 62
     1
370
    15
100
AcDbLine
 10
-19.52200374668494
 20
3.174999999999979
 30
0.0
 11
-21.45701555076025
 21
3.174999999999981
 31
0.0
1001
PE_URL
1000

  0
LINE
  5
1F6
330
1F
100
AcDbEntity
  8
0
  6
Continuous
 62
     1
370
    15
100
AcDbLine
 10
-28.57500000000005
 20
-3.17499999999999
 30
0.0
 11
-28.160664111144
 21
-3.17499999999999
 31
0.0
1001
PE_URL
1000

  0
SPLINE
  5
1F7
330
1F
100
AcDbEntity
  8
0
  6
Continuous
 62
     1
370
    15
100
AcDbSpline
210
0.0
220
0.0
230
1.0
 70
     8
 71
     3
 72
    16
 73
    12
 74
     0
 42
0.000000001
 43
0.00000001
 40
0.0
 40
0.0
 40
0.0
 40
0.0
 40
0.1171908056861919
 40
0.2341622524556964
 40
0.3511502592288964
 40
0.4683815474624519
 40
0.5855275655269042
 40
0.7003907021490053
 40
0.8153220435469907
 40
0.9305095149329458
 40
1.0
 40
1.0
 40
1.0
 40
1.0
 10
-19.05
 20
-0.2720382838870421
 30
0.0
 10
-19.40598929971168
 20
-0.0665002045013008
 30
0.0
 10
-20.11730155482007
 20
0.3441912260471067
 30
0.0
 10
-21.18338471944215
 20
0.9509295915126561
 30
0.0
 10
-22.2496036249805
 20
1.521231008583094
 30
0.0
 10
-23.31708567681805
 20
2.033948665703736
 30
0.0
 10
-24.37782588460678
 20
2.467797616874179
 30
0.0
 10
-25.43108088693889
 20
2.809929142150677
 30
0.0
 10
-26.47846622649073
 20
3.043191795723247
 30
0.0
 10
-27.38891031848852
 20
3.166083427693257
 30
0.0
 10
-27.94966409444946
 20
3.162562649902011
 30
0.0
 10
-28.16066411114405
 20
3.16123785423486
 30
0.0
1001
PE_URL
1000

  0
SPLINE
  5
1F8
330
1F
100
AcDbEntity
  8
0
  6
Continuous
 62
     1
370
    15
100
AcDbSpline
210
0.0
220
0.0
230
1.0
 70
     8
 71
     3
 72
    13
 73
     9
 74
     0
 42
0.000000001
 43
0.00000001
 40
0.0
 40
0.0
 40
0.0
 40
0.0
 40
0.0868032092082444
 40
0.272066560345721
 40
0.4543087488673136
 40
0.6361324675321782
 40
0.8178850167728688
 40
1.0
 40
1.0
 40
1.0
 40
1.0
 10
-24.80797614476232
 20
2.591665812083953
 30
0.0
 10
-24.64141400211314
 20
2.649329061574482
 30
0.0
 10
-24.11935969504641
 20
2.830062494017154
 30
0.0
 10
-23.24742811490617
 20
3.023683846363982
 30
0.0
 10
-22.19251710476092
 20
3.166884115381443
 30
0.0
 10
-21.14520246499176
 20
3.187658808318071
 30
0.0
 10
-20.09820254841834
 20
3.101710665769252
 30
0.0
 10
-19.39963278866332
 20
2.950979123747027
 30
0.0
 10
-19.05
 20
2.875538283886975
 30
0.0
1001
PE_URL
1000

  0
SPLINE
  5
1F9
330
1F
100
AcDbEntity
  8
0
  6
Continuous
 62
     1
370
    15
100
AcDbSpline
210
0.0
220
0.0
230
1.0
 70
     8
 71
     3
 72
    30
 73
    26
 74
     0
 42
0.000000001
 43
0.00000001
 40
0.0
 40
0.0
 40
0.0
 40
0.0
 40
0.1250000000000008
 40
0.1250000000000008
 40
0.187500000000002
 40
0.187500000000002
 40
0.2500000000000032
 40
0.2500000000000032
 40
0.375000000000004
 40
0.375000000000004
 40
0.4375000000000036
 40
0.4375000000000036
 40
0.5000000000000032
 40
0.5000000000000032
 40
0.5625000000000028
 40
0.5625000000000028
 40
0.6250000000000024
 40
0.6250000000000024
 40
0.7500000000000017
 40
0.7500000000000017
 40
0.8750000000000009
 40
0.8750000000000009
 40
0.9375000000000004
 40
0.9375000000000004
 40
1.0
 40
1.0
 40
1.0
 40
1.0
 10
-19.04999999999999
 20
-3.163324228102418
 30
0.0
 10
-19.4434517552073
 20
-3.182899492115673
 30
0.0
 10
-19.84533361646832
 20
-3.17775485498386
 30
0.0
 10
-20.43987706753796
 20
-3.132956537411928
 30
0.0
 10
-20.63605447502757
 20
-3.111955947202542
 30
0.0
 10
-21.03322420058625
 20
-3.057728382232959
 30
0.0
 10
-21.23290941889643
 20
-3.024519461243436
 30
0.0
 10
-21.83000775535917
 20
-2.90744191844059
 30
0.0
 10
-22.22295886801119
 20
-2.806404581025749
 30
0.0
 10
-22.82077501268354
 20
-2.622515218146443
 30
0.0
 10
-23.02012557025489
 20
-2.55594004886126
 30
0.0
 10
-23.41549755050215
 20
-2.413479811763082
 30
0.0
 10
-23.61225286502231
 20
-2.337532302794287
 30
0.0
 10
-24.01004586882378
 20
-2.176250215942549
 30
0.0
 10
-24.2097578366851
 20
-2.091072180065456
 30
0.0
 10
-24.60730555903446
 20
-1.913143084868608
 30
0.0
 10
-24.80374168144252
 20
-1.820626214610726
 30
0.0
 10
-25.39747166377799
 20
-1.532310555725132
 30
0.0
 10
-25.79946279964381
 20
-1.325517443123534
 30
0.0
 10
-26.58786338816607
 20
-0.8972226840192494
 30
0.0
 10
-26.98812696018226
 20
-0.6732689509299714
 30
0.0
 10
-27.58339469078499
 20
-0.3330038818247019
 30
0.0
 10
-27.77950126143604
 20
-0.219154864885267
 30
0.0
 10
-28.1762331240022
 20
0.0098183813517778
 30
0.0
 10
-28.37586110358691
 20
0.1247521486908685
 30
0.0
 10
-28.57500000000005
 20
0.239123779055566
 30
0.0
1001
PE_URL
1000

  0
SPLINE
  5
1FA
330
1F
100
AcDbEntity
  8
0
  6
Continuous
 62
     1
370
    15
100
AcDbSpline
210
0.0
220
0.0
230
1.0
 70
     8
 71
     3
 72
    42
 73
    38
 74
     0
 42
0.000000001
 43
0.00000001
 40
0.0
 40
0.0
 40
0.0
 40
0.0
 40
0.0625000000000038
 40
0.0625000000000038
 40
0.1250000000000076
 40
0.1250000000000076
 40
0.1875000000000114
 40
0.1875000000000114
 40
0.2500000000000152
 40
0.2500000000000152
 40
0.3125000000000172
 40
0.3125000000000172
 40
0.3750000000000177
 40
0.3750000000000177
 40
0.4375000000000182
 40
0.4375000000000182
 40
0.4687500000000184
 40
0.4687500000000184
 40
0.5000000000000187
 40
0.5000000000000187
 40
0.5625000000000192
 40
0.5625000000000192
 40
0.5937500000000194
 40
0.5937500000000194
 40
0.6250000000000197
 40
0.6250000000000197
 40
0.6875000000000177
 40
0.6875000000000177
 40
0.7500000000000155
 40
0.7500000000000155
 40
0.8125000000000117
 40
0.8125000000000117
 40
0.8750000000000078
 40
0.8750000000000078
 40
0.937500000000004
 40
0.937500000000004
 40
1.0
 40
1.0
 40
1.0
 40
1.0
 10
-28.57500000000005
 20
0.239123779055566
 30
0.0
 10
-28.73636538586209
 20
0.3318009134471431
 30
0.0
 10
-28.89695485748487
 20
0.4189781295303217
 30
0.0
 10
-29.21876687882423
 20
0.5786774219065638
 30
0.0
 10
-29.38145450641189
 20
0.6512738669788796
 30
0.0
 10
-29.70376895048258
 20
0.7748718614454244
 30
0.0
 10
-29.86071453591161
 20
0.825218387238456
 30
0.0
 10
-30.16578839077991
 20
0.9053972329281184
 30
0.0
 10
-30.31528794537942
 20
0.9353460952699137
 30
0.0
 10
-30.59474215614742
 20
0.9777104555941225
 30
0.0
 10
-30.72482025426822
 20
0.9902050253189021
 30
0.0
 10
-30.96335005804177
 20
1.006469075785393
 30
0.0
 10
-31.07216126379576
 20
1.010350082223054
 30
0.0
 10
-31.25596967635461
 20
1.023496022122508
 30
0.0
 10
-31.33244384993958
 20
1.032664598117636
 30
0.0
 10
-31.41644044237617
 20
1.065982477832542
 30
0.0
 10
-31.43884390336971
 20
1.080256898042473
 30
0.0
 10
-31.47133710899572
 20
1.118314961089633
 30
0.0
 10
-31.48145280822939
 20
1.14242022223406
 30
0.0
 10
-31.48962168512013
 20
1.232863276277854
 30
0.0
 10
-31.46469022213375
 20
1.32005992265834
 30
0.0
 10
-31.38084475642387
 20
1.487695095252086
 30
0.0
 10
-31.34458383092818
 20
1.550805216844296
 30
0.0
 10
-31.26021776701395
 20
1.682845852459335
 30
0.0
 10
-31.21178766191406
 20
1.752456391400241
 30
0.0
 10
-31.05174420521994
 20
1.965417454745978
 30
0.0
 10
-30.9279372267041
 20
2.109202330245738
 30
0.0
 10
-30.66855611497449
 20
2.370993434701678
 30
0.0
 10
-30.52995357296986
 20
2.49201893094099
 30
0.0
 10
-30.24975999638393
 20
2.698606693155574
 30
0.0
 10
-30.10515681813103
 20
2.786774501857971
 30
0.0
 10
-29.8109761085357
 20
2.929081067195797
 30
0.0
 10
-29.66316349570534
 20
2.982716108766924
 30
0.0
 10
-29.36127760622521
 20
3.057959598476717
 30
0.0
 10
-29.20615117683623
 20
3.079356655593497
 30
0.0
 10
-28.89412104003886
 20
3.0899541010562
 30
0.0
 10
-28.73634883207511
 20
3.079664072306025
 30
0.0
 10
-28.57500000000005
 20
3.05428216453519
 30
0.0
1001
PE_URL
1000

  0
SPLINE
  5
1FB
330
1F
100
AcDbEntity
  8
0
  6
Continuous
 62
     1
370
    15
100
AcDbSpline
210
0.0
220
0.0
230
1.0
 70
     8
 71
     3
 72
    30
 73
    26
 74
     0
 42
0.000000001
 43
0.00000001
 40
0.0
 40
0.0
 40
0.0
 40
0.0
 40
0.1249999999999998
 40
0.1249999999999998
 40
0.1874999999999989
 40
0.1874999999999989
 40
0.2499999999999979
 40
0.2499999999999979
 40
0.3749999999999977
 40
0.3749999999999977
 40
0.4374999999999984
 40
0.4374999999999984
 40
0.4999999999999991
 40
0.4999999999999991
 40
0.5624999999999999
 40
0.5624999999999999
 40
0.6250000000000007
 40
0.6250000000000007
 40
0.7500000000000004
 40
0.7500000000000004
 40
0.8750000000000002
 40
0.8750000000000002
 40
0.9375000000000001
 40
0.9375000000000001
 40
1.0
 40
1.0
 40
1.0
 40
1.0
 10
-19.05
 20
-1.34607004940314
 30
0.0
 10
-19.4434517552073
 20
-1.139152771867703
 30
0.0
 10
-19.8453336164683
 20
-0.9201993310185141
 30
0.0
 10
-20.43987706753795
 20
-0.5850335545854985
 30
0.0
 10
-20.63605447502756
 20
-0.4723330649457154
 30
0.0
 10
-21.03322420058624
 20
-0.2446165683606552
 30
0.0
 10
-21.23290941889644
 20
-0.1298461886930014
 30
0.0
 10
-21.8300077553592
 20
0.2141809394351846
 30
0.0
 10
-22.22295886801115
 20
0.442668137299135
 30
0.0
 10
-22.82077501268354
 20
0.7791568101763886
 30
0.0
 10
-23.02012557025487
 20
0.8900231493721691
 30
0.0
 10
-23.41549755050216
 20
1.107245196415324
 30
0.0
 10
-23.6122528650223
 20
1.21374649940207
 30
0.0
 10
-24.01004586882381
 20
1.422356047866684
 30
0.0
 10
-24.20975783668511
 20
1.524217057402428
 30
0.0
 10
-24.60730555903446
 20
1.721266278691866
 30
0.0
 10
-24.80374168144252
 20
1.816241896180491
 30
0.0
 10
-25.39747166377798
 20
2.090726458710334
 30
0.0
 10
-25.7994627996438
 20
2.259596684253067
 30
0.0
 10
-26.58786338816607
 20
2.557502661992055
 30
0.0
 10
-26.98812696018226
 20
2.688306041776929
 30
0.0
 10
-27.58339469078499
 20
2.85098959378402
 30
0.0
 10
-27.77950126143606
 20
2.89956766233774
 30
0.0
 10
-28.1762331240022
 20
2.985607011102163
 30
0.0
 10
-28.37586110358691
 20
3.022955472935765
 30
0.0
 10
-28.57500000000005
 20
3.0542821645352
 30
0.0
1001
PE_URL
1000

  0
SPLINE
  5
1FC
330
1F
100
AcDbEntity
  8
0
  6
Continuous
 62
     1
370
    15
100
AcDbSpline
210
0.0
220
0.0
230
1.0
 70
     8
 71
     3
 72
    11
 73
     7
 74
     0
 42
0.000000001
 43
0.00000001
 40
0.0
 40
0.0
 40
0.0
 40
0.0
 40
0.1653988713120174
 40
0.4433602850998313
 40
0.7219411491846968
 40
1.0
 40
1.0
 40
1.0
 40
1.0
 10
-24.80797614476228
 20
-2.591665812083964
 30
0.0
 10
-25.01561396384202
 20
-2.661673069955121
 30
0.0
 10
-25.57219794736296
 20
-2.849331169206966
 30
0.0
 10
-26.47846949812357
 20
-3.042310621124912
 30
0.0
 10
-27.52708246089202
 20
-3.178867345626216
 30
0.0
 10
-28.22591260648834
 20
-3.170274723338068
 30
0.0
 10
-28.57500000000005
 20
-3.16598244124792
 30
0.0
1001
PE_URL
1000

  0
SPLINE
  5
1FD
330
1F
100
AcDbEntity
  8
0
  6
Continuous
 62
     1
370
    15
100
AcDbSpline
210
0.0
220
0.0
230
1.0
 70
     8
 71
     3
 72
    42
 73
    38
 74
     0
 42
0.000000001
 43
0.00000001
 40
0.0
 40
0.0
 40
0.0
 40
0.0
 40
0.0625000000000033
 40
0.0625000000000033
 40
0.1250000000000066
 40
0.1250000000000066
 40
0.1875000000000099
 40
0.1875000000000099
 40
0.2500000000000133
 40
0.2500000000000133
 40
0.3125000000000148
 40
0.3125000000000148
 40
0.3750000000000148
 40
0.3750000000000148
 40
0.4375000000000149
 40
0.4375000000000149
 40
0.4687500000000149
 40
0.4687500000000149
 40
0.5000000000000149
 40
0.5000000000000149
 40
0.5625000000000149
 40
0.5625000000000149
 40
0.5937500000000149
 40
0.5937500000000149
 40
0.6250000000000149
 40
0.6250000000000149
 40
0.6875000000000124
 40
0.6875000000000124
 40
0.7500000000000099
 40
0.7500000000000099
 40
0.8125000000000074
 40
0.8125000000000074
 40
0.875000000000005
 40
0.875000000000005
 40
0.9375000000000024
 40
0.9375000000000024
 40
1.0
 40
1.0
 40
1.0
 40
1.0
 10
-28.57500000000005
 20
-3.165982441247905
 30
0.0
 10
-28.7363653858621
 20
-3.158982621438732
 30
0.0
 10
-28.89695485748486
 20
-3.136101578223684
 30
0.0
 10
-29.21876687882424
 20
-3.060233219760292
 30
0.0
 10
-29.38145450641189
 20
-3.006745966438675
 30
0.0
 10
-29.70376895048256
 20
-2.870627471857599
 30
0.0
 10
-29.86071453591163
 20
-2.789326121498437
 30
0.0
 10
-30.16578839077991
 20
-2.600775963617469
 30
0.0
 10
-30.31528794537941
 20
-2.492256051673134
 30
0.0
 10
-30.59474215614742
 20
-2.253783167381872
 30
0.0
 10
-30.72482025426819
 20
-2.124247178340607
 30
0.0
 10
-30.96335005804177
 20
-1.843220874517268
 30
0.0
 10
-31.07216126379576
 20
-1.690571493509566
 30
0.0
 10
-31.25596967635463
 20
-1.370952635171516
 30
0.0
 10
-31.33244384993957
 20
-1.202282452515599
 30
0.0
 10
-31.41644044237617
 20
-0.9376621367707862
 30
0.0
 10
-31.4388439033697
 20
-0.8489028679809323
 30
0.0
 10
-31.47133710899568
 20
-0.6706682836990456
 30
0.0
 10
-31.48145280822937
 20
-0.5802360157111792
 30
0.0
 10
-31.48962168512012
 20
-0.3165698546619975
 30
0.0
 10
-31.46469022213376
 20
-0.1475236085020271
 30
0.0
 10
-31.38084475642387
 20
0.0559017441963494
 30
0.0
 10
-31.34458383092818
 20
0.1168548949253374
 30
0.0
 10
-31.26021776701391
 20
0.2165222024907028
 30
0.0
 10
-31.21178766191409
 20
0.256162144941932
 30
0.0
 10
-31.05174420521992
 20
0.3442148451489633
 30
0.0
 10
-30.92793722670408
 20
0.3601797613917537
 30
0.0
 10
-30.66855611497453
 20
0.3319494679834918
 30
0.0
 10
-30.52995357296987
 20
0.2874845730564886
 30
0.0
 10
-30.24975999638391
 20
0.1653785794755365
 30
0.0
 10
-30.10515681813101
 20
0.0866564017849232
 30
0.0
 10
-29.81097610853571
 20
-0.088591789535025
 30
0.0
 10
-29.66316349570534
 20
-0.1839534833075476
 30
0.0
 10
-29.36127760622525
 20
-0.3810310787024491
 30
0.0
 10
-29.20615117683625
 20
-0.4837681221031751
 30
0.0
 10
-28.89412104003887
 20
-0.6820309608099837
 30
0.0
 10
-28.7363488320751
 20
-0.7777727677628068
 30
0.0
 10
-28.57500000000005
 20
-0.8671709516595172
 30
0.0
1001
PE_URL
1000

  0
SPLINE
  5
1FE
330
1F
100
AcDbEntity
  8
0
  6
Continuous
 62
     1
370
    15
100
AcDbSpline
210
0.0
220
0.0
230
1.0
 70
     8
 71
     3
 72
    14
 73
    10
 74
     0
 42
0.000000001
 43
0.00000001
 40
0.0
 40
0.0
 40
0.0
 40
0.0
 40
0.1498273792117946
 40
0.2999357287356545
 40
0.4497542627777603
 40
0.5994474180993636
 40
0.7493177373120856
 40
0.8967440620550104
 40
1.0
 40
1.0
 40
1.0
 40
1.0
 10
-28.57500000000005
 20
-0.8671709516595261
 30
0.0
 10
-28.21958204754538
 20
-1.061543434308213
 30
0.0
 10
-27.50807962965598
 20
-1.450652905061091
 30
0.0
 10
-26.44038581648961
 20
-1.969884284316301
 30
0.0
 10
-25.37379337666256
 20
-2.418245080091367
 30
0.0
 10
-24.30789832716405
 20
-2.776268925150262
 30
0.0
 10
-23.24743873448108
 20
-3.024427912377284
 30
0.0
 10
-22.29654094918747
 20
-3.160543797591284
 30
0.0
 10
-21.70193396388501
 20
-3.162260061767835
 30
0.0
 10
-21.45701555076023
 20
-3.162966990392981
 30
0.0
1001
PE_URL
1000

  0
LINE
  5
1FF
330
1F
100
AcDbEntity
  8
외형선
  6
Continuous
370
    15
100
AcDbLine
 10
-19.05
 20
-0.2720382838870421
 30
0.0
 11
-19.05
 21
-1.34607004940314
 31
0.0
  0
SPLINE
  5
200
330
1F
100
AcDbEntity
  8
0
  6
Continuous
 62
     1
370
    15
100
AcDbSpline
210
0.0
220
0.0
230
1.0
 70
     8
 71
     3
 72
    15
 73
    11
 74
     0
 42
0.000000001
 43
0.00000001
 40
0.0
 40
0.0
 40
0.0
 40
0.0
 40
0.0629747538484417
 40
0.2235676533255727
 40
0.3866224553973952
 40
0.5040382595781984
 40
0.6248191114635119
 40
0.7874439429042822
 40
0.9546209505432282
 40
1.0
 40
1.0
 40
1.0
 40
1.0
 10
-31.38767386078147
 20
-1.46033965955907
 30
0.0
 10
-31.37586862923248
 20
-1.48659249690952
 30
0.0
 10
-31.33395869305827
 20
-1.579793103198565
 30
0.0
 10
-31.1809439003086
 20
-1.799599664160713
 30
0.0
 10
-30.98420158497039
 20
-2.045377408108024
 30
0.0
 10
-30.78233669223651
 20
-2.259954727260457
 30
0.0
 10
-30.57104564541621
 20
-2.457741049409023
 30
0.0
 10
-30.3225853762747
 20
-2.648180481292407
 30
0.0
 10
-30.11128786618966
 20
-2.78882445198786
 30
0.0
 10
-29.98686405621531
 20
-2.839488041926661
 30
0.0
 10
-29.96030054961111
 20
-2.850304320629341
 30
0.0
1001
PE_URL
1000

  0
LINE
  5
201
330
1F
100
AcDbEntity
  8
0
  6
Continuous
 62
     1
370
    15
100
AcDbLine
 10
-19.04999999999999
 20
3.163324228102407
 30
0.0
 11
-19.52200374668495
 21
3.160269325062957
 31
0.0
1001
PE_URL
1000

  0
LINE
  5
202
330
1F
100
AcDbEntity
  8
외형선
  6
Continuous
370
    15
100
AcDbLine
 10
-19.05
 20
3.163324228102407
 30
0.0
 11
-19.05
 21
2.875538283886975
 31
0.0
  0
LINE
  5
203
330
1F
100
AcDbEntity
  8
외형선
  6
Continuous
370
    15
100
AcDbLine
 10
-19.05
 20
-0.0000000000000071
 30
0.0
 11
-19.05
 21
-3.175000000000004
 31
0.0
  0
LINE
  5
204
330
1F
100
AcDbEntity
  8
외형선
  6
Continuous
370
    15
100
AcDbLine
 10
-19.05
 20
3.174999999999994
 30
0.0
 11
-19.05
 21
-0.0000000000000071
 31
0.0
  0
ENDSEC
  0
SECTION
  2
OBJECTS
  0
DICTIONARY
  5
C
330
0
100
AcDbDictionary
281
     1
  3
ACAD_DETAILVIEWSTYLE
350
1A3
  3
ACAD_GROUP
350
D
  3
ACAD_LAYOUT
350
1A
  3
ACAD_MLINESTYLE
350
17
  3
ACAD_PLOTSETTINGS
350
19
  3
ACAD_PLOTSTYLENAME
350
E
  3
ACAD_SCALELIST
350
47
  3
ACAD_SECTIONVIEWSTYLE
350
1A4
  3
AcDbVariableDictionary
350
19E
  3
APPDATA
350
140
  3
DWGPROPS
350
205
  0
DICTIONARY
  5
179
330
2
100
AcDbDictionary
280
     1
281
     1
  3
ACAD_LAYERSTATES
360
17A
  0
DICTIONARY
  5
1A3
102
{ACAD_REACTORS
330
C
102
}
330
C
100
AcDbDictionary
281
     1
  0
DICTIONARY
  5
D
102
{ACAD_REACTORS
330
C
102
}
330
C
100
AcDbDictionary
281
     1
  0
DICTIONARY
  5
1A
102
{ACAD_REACTORS
330
C
102
}
330
C
100
AcDbDictionary
281
     1
  3
Layout1
350
1E
  3
Layout2
350
26
  3
Model
350
22
  0
DICTIONARY
  5
17
102
{ACAD_REACTORS
330
C
102
}
330
C
100
AcDbDictionary
281
     1
  3
Standard
350
18
  0
DICTIONARY
  5
19
102
{ACAD_REACTORS
330
C
102
}
330
C
100
AcDbDictionary
281
     1
  0
ACDBDICTIONARYWDFLT
  5
E
102
{ACAD_REACTORS
330
C
102
}
330
C
100
AcDbDictionary
281
     1
  3
Normal
350
F
100
AcDbDictionaryWithDefault
340
F
  0
DICTIONARY
  5
47
102
{ACAD_REACTORS
330
C
102
}
330
C
100
AcDbDictionary
281
     1
  3
A0
350
48
  3
A1
350
49
  3
A2
350
4A
  3
A3
350
4B
  3
A4
350
4C
  3
A5
350
4D
  3
A6
350
4E
  3
A7
350
4F
  3
A8
350
50
  3
A9
350
51
  3
B0
350
52
  3
B1
350
53
  3
B2
350
54
  3
B3
350
55
  3
B4
350
56
  3
B5
350
57
  3
B6
350
58
  3
B7
350
59
  3
B8
350
5A
  3
B9
350
5B
  3
C0
350
5C
  3
C1
350
5D
  3
C2
350
5E
  3
C3
350
5F
  3
C4
350
60
  3
C5
350
61
  3
C6
350
62
  3
C7
350
63
  3
C8
350
64
  3
C9
350
65
  3
D0
350
66
  3
D1
350
67
  3
D2
350
68
  0
DICTIONARY
  5
1A4
102
{ACAD_REACTORS
330
C
102
}
330
C
100
AcDbDictionary
281
     1
  0
DICTIONARY
  5
19E
102
{ACAD_REACTORS
330
C
102
}
330
C
100
AcDbDictionary
281
     1
  0
DICTIONARY
  5
140
102
{ACAD_REACTORS
330
C
102
}
330
C
100
AcDbDictionary
281
     1
  0
XRECORD
  5
205
102
{ACAD_REACTORS
330
C
102
}
330
C
100
AcDbXrecord
280
     1
  1
DWGPROPS COOKIE
  2

  3

  4

  6

  7

  8
120170442
  9

300
=
301
=
302
=
303
=
304
=
305
=
306
=
307
=
308
=
309
=
 40
0.0
 41
2458320.000532002
 42
2458324.26783816
  1

 90
        0
  0
DICTIONARY
  5
17A
102
{ACAD_REACTORS
330
179
102
}
330
179
100
AcDbDictionary
281
     1
  0
LAYOUT
  5
1E
102
{ACAD_REACTORS
330
1A
102
}
330
1A
100
AcDbPlotSettings
  1

  2
none_device
  4

  6

 40
0.0
 41
0.0
 42
0.0
 43
0.0
 44
0.0
 45
0.0
 46
0.0
 47
0.0
 48
0.0
 49
0.0
140
0.0
141
0.0
142
1.0
143
1.0
 70
   688
 72
     1
 73
     0
 74
     5
  7

 75
    16
147
1.0
148
0.0
149
0.0
100
AcDbLayout
  1
Layout1
 70
     1
 71
     1
 10
0.0
 20
0.0
 11
420.0
 21
297.0
 12
0.0
 22
0.0
 32
0.0
 14
1.000000000000000E+20
 24
1.000000000000000E+20
 34
1.000000000000000E+20
 15
-1.000000000000000E+20
 25
-1.000000000000000E+20
 35
-1.000000000000000E+20
146
0.0
 13
0.0
 23
0.0
 33
0.0
 16
1.0
 26
0.0
 36
0.0
 17
0.0
 27
1.0
 37
0.0
 76
     0
330
1B
  0
LAYOUT
  5
26
102
{ACAD_REACTORS
330
1A
102
}
330
1A
100
AcDbPlotSettings
  1

  2
none_device
  4

  6

 40
0.0
 41
0.0
 42
0.0
 43
0.0
 44
0.0
 45
0.0
 46
0.0
 47
0.0
 48
0.0
 49
0.0
140
0.0
141
0.0
142
1.0
143
1.0
 70
   688
 72
     1
 73
     0
 74
     5
  7

 75
    16
147
1.0
148
0.0
149
0.0
100
AcDbLayout
  1
Layout2
 70
     1
 71
     2
 10
0.0
 20
0.0
 11
0.0
 21
0.0
 12
0.0
 22
0.0
 32
0.0
 14
0.0
 24
0.0
 34
0.0
 15
0.0
 25
0.0
 35
0.0
146
0.0
 13
0.0
 23
0.0
 33
0.0
 16
1.0
 26
0.0
 36
0.0
 17
0.0
 27
1.0
 37
0.0
 76
     0
330
23
  0
LAYOUT
  5
22
102
{ACAD_REACTORS
330
1A
102
}
330
1A
100
AcDbPlotSettings
  1

  2
none_device
  4
ANSI_A_(11.00_x_8.50_Inches)
  6

 40
6.35
 41
19.05
 42
6.35000508
 43
19.05000254
 44
279.4
 45
215.9
 46
130.3221747520326
 47
92.53641461949876
 48
0.0
 49
0.0
140
0.0
141
0.0
142
0.068698989468736
143
1.0
 70
  1696
 72
     0
 73
     0
 74
     0
  7

 75
     0
147
0.0235690232323232
148
0.0
149
0.0
100
AcDbLayout
  1
Model
 70
     1
 71
     0
 10
0.0
 20
0.0
 11
420.0
 21
297.0
 12
0.0
 22
0.0
 32
0.0
 14
-46.12500000000008
 24
-49.97180738881175
 34
0.0
 15
102.6572338153456
 25
35.15400000000015
 35
0.0
146
0.0
 13
0.0
 23
0.0
 33
0.0
 16
1.0
 26
0.0
 36
0.0
 17
0.0
 27
1.0
 37
0.0
 76
     0
330
1F
331
29
  0
MLINESTYLE
  5
18
102
{ACAD_REACTORS
330
17
102
}
330
17
100
AcDbMlineStyle
  2
Standard
 70
     0
  3

 62
   256
 51
90.0
 52
90.0
 71
     2
 49
0.5
 62
   256
  6
BYLAYER
 49
-0.5
 62
   256
  6
BYLAYER
  0
ACDBPLACEHOLDER
  5
F
102
{ACAD_REACTORS
330
E
102
}
330
E
  0
SCALE
  5
48
102
{ACAD_REACTORS
330
47
102
}
330
47
100
AcDbScale
 70
     0
300
1:1
140
1.0
141
1.0
290
     1
  0
SCALE
  5
49
102
{ACAD_REACTORS
330
47
102
}
330
47
100
AcDbScale
 70
     0
300
1:2
140
1.0
141
2.0
290
     0
  0
SCALE
  5
4A
102
{ACAD_REACTORS
330
47
102
}
330
47
100
AcDbScale
 70
     0
300
1:4
140
1.0
141
4.0
290
     0
  0
SCALE
  5
4B
102
{ACAD_REACTORS
330
47
102
}
330
47
100
AcDbScale
 70
     0
300
1:5
140
1.0
141
5.0
290
     0
  0
SCALE
  5
4C
102
{ACAD_REACTORS
330
47
102
}
330
47
100
AcDbScale
 70
     0
300
1:8
140
1.0
141
8.0
290
     0
  0
SCALE
  5
4D
102
{ACAD_REACTORS
330
47
102
}
330
47
100
AcDbScale
 70
     0
300
1:10
140
1.0
141
10.0
290
     0
  0
SCALE
  5
4E
102
{ACAD_REACTORS
330
47
102
}
330
47
100
AcDbScale
 70
     0
300
1:16
140
1.0
141
16.0
290
     0
  0
SCALE
  5
4F
102
{ACAD_REACTORS
330
47
102
}
330
47
100
AcDbScale
 70
     0
300
1:20
140
1.0
141
20.0
290
     0
  0
SCALE
  5
50
102
{ACAD_REACTORS
330
47
102
}
330
47
100
AcDbScale
 70
     0
300
1:30
140
1.0
141
30.0
290
     0
  0
SCALE
  5
51
102
{ACAD_REACTORS
330
47
102
}
330
47
100
AcDbScale
 70
     0
300
1:40
140
1.0
141
40.0
290
     0
  0
SCALE
  5
52
102
{ACAD_REACTORS
330
47
102
}
330
47
100
AcDbScale
 70
     0
300
1:50
140
1.0
141
50.0
290
     0
  0
SCALE
  5
53
102
{ACAD_REACTORS
330
47
102
}
330
47
100
AcDbScale
 70
     0
300
1:100
140
1.0
141
100.0
290
     0
  0
SCALE
  5
54
102
{ACAD_REACTORS
330
47
102
}
330
47
100
AcDbScale
 70
     0
300
2:1
140
2.0
141
1.0
290
     0
  0
SCALE
  5
55
102
{ACAD_REACTORS
330
47
102
}
330
47
100
AcDbScale
 70
     0
300
4:1
140
4.0
141
1.0
290
     0
  0
SCALE
  5
56
102
{ACAD_REACTORS
330
47
102
}
330
47
100
AcDbScale
 70
     0
300
8:1
140
8.0
141
1.0
290
     0
  0
SCALE
  5
57
102
{ACAD_REACTORS
330
47
102
}
330
47
100
AcDbScale
 70
     0
300
10:1
140
10.0
141
1.0
290
     0
  0
SCALE
  5
58
102
{ACAD_REACTORS
330
47
102
}
330
47
100
AcDbScale
 70
     0
300
100:1
140
100.0
141
1.0
290
     0
  0
SCALE
  5
59
102
{ACAD_REACTORS
330
47
102
}
330
47
100
AcDbScale
 70
     0
300
1/128" = 1'-0"
140
0.0078125
141
12.0
290
     0
  0
SCALE
  5
5A
102
{ACAD_REACTORS
330
47
102
}
330
47
100
AcDbScale
 70
     0
300
1/64" = 1'-0"
140
0.015625
141
12.0
290
     0
  0
SCALE
  5
5B
102
{ACAD_REACTORS
330
47
102
}
330
47
100
AcDbScale
 70
     0
300
1/32" = 1'-0"
140
0.03125
141
12.0
290
     0
  0
SCALE
  5
5C
102
{ACAD_REACTORS
330
47
102
}
330
47
100
AcDbScale
 70
     0
300
1/16" = 1'-0"
140
0.0625
141
12.0
290
     0
  0
SCALE
  5
5D
102
{ACAD_REACTORS
330
47
102
}
330
47
100
AcDbScale
 70
     0
300
3/32" = 1'-0"
140
0.09375
141
12.0
290
     0
  0
SCALE
  5
5E
102
{ACAD_REACTORS
330
47
102
}
330
47
100
AcDbScale
 70
     0
300
1/8" = 1'-0"
140
0.125
141
12.0
290
     0
  0
SCALE
  5
5F
102
{ACAD_REACTORS
330
47
102
}
330
47
100
AcDbScale
 70
     0
300
3/16" = 1'-0"
140
0.1875
141
12.0
290
     0
  0
SCALE
  5
60
102
{ACAD_REACTORS
330
47
102
}
330
47
100
AcDbScale
 70
     0
300
1/4" = 1'-0"
140
0.25
141
12.0
290
     0
  0
SCALE
  5
61
102
{ACAD_REACTORS
330
47
102
}
330
47
100
AcDbScale
 70
     0
300
3/8" = 1'-0"
140
0.375
141
12.0
290
     0
  0
SCALE
  5
62
102
{ACAD_REACTORS
330
47
102
}
330
47
100
AcDbScale
 70
     0
300
1/2" = 1'-0"
140
0.5
141
12.0
290
     0
  0
SCALE
  5
63
102
{ACAD_REACTORS
330
47
102
}
330
47
100
AcDbScale
 70
     0
300
3/4" = 1'-0"
140
0.75
141
12.0
290
     0
  0
SCALE
  5
64
102
{ACAD_REACTORS
330
47
102
}
330
47
100
AcDbScale
 70
     0
300
1" = 1'-0"
140
1.0
141
12.0
290
     0
  0
SCALE
  5
65
102
{ACAD_REACTORS
330
47
102
}
330
47
100
AcDbScale
 70
     0
300
1-1/2" = 1'-0"
140
1.5
141
12.0
290
     0
  0
SCALE
  5
66
102
{ACAD_REACTORS
330
47
102
}
330
47
100
AcDbScale
 70
     0
300
3" = 1'-0"
140
3.0
141
12.0
290
     0
  0
SCALE
  5
67
102
{ACAD_REACTORS
330
47
102
}
330
47
100
AcDbScale
 70
     0
300
6" = 1'-0"
140
6.0
141
12.0
290
     0
  0
SCALE
  5
68
102
{ACAD_REACTORS
330
47
102
}
330
47
100
AcDbScale
 70
     0
300
1'-0" = 1'-0"
140
12.0
141
12.0
290
     0
  0
ENDSEC
  0
EOF
