  0
SECTION
  2
HEADER
  9
$ACADVER
  1
AC1015
  9
$ACADMAINTVER
 70
     6
  9
$DWGCODEPAGE
  3
ANSI_949
  9
$INSBASE
 10
0.0
 20
0.0
 30
0.0
  9
$EXTMIN
 10
-46.12500000000011
 20
-49.97180738881175
 30
0.0
  9
$EXTMAX
 10
102.6572338153456
 20
38.57275000000011
 30
0.0
  9
$LIMMIN
 10
0.0
 20
0.0
  9
$LIMMAX
 10
420.0
 20
297.0
  9
$ORTHOMODE
 70
     1
  9
$REGENMODE
 70
     1
  9
$FILLMODE
 70
     1
  9
$QTEXTMODE
 70
     0
  9
$MIRRTEXT
 70
     1
  9
$LTSCALE
 40
1.0
  9
$ATTMODE
 70
     1
  9
$TEXTSIZE
 40
3.5
  9
$TRACEWID
 40
1.0
  9
$TEXTSTYLE
  7
Standard
  9
$CLAYER
  8
0
  9
$CELTYPE
  6
ByLayer
  9
$CECOLOR
 62
   256
  9
$CELTSCALE
 40
1.0
  9
$DISPSILH
 70
     0
  9
$DIMSCALE
 40
1.0
  9
$DIMASZ
 40
3.302
  9
$DIMEXO
 40
1.0
  9
$DIMDLI
 40
3.75
  9
$DIMRND
 40
0.0
  9
$DIMDLE
 40
0.0
  9
$DIMEXE
 40
1.0
  9
$DIMTP
 40
0.0
  9
$DIMTM
 40
0.0
  9
$DIMTXT
 40
3.5
  9
$DIMCEN
 40
2.5
  9
$DIMTSZ
 40
0.0
  9
$DIMTOL
 70
     0
  9
$DIMLIM
 70
     0
  9
$DIMTIH
 70
     1
  9
$DIMTOH
 70
     1
  9
$DIMSE1
 70
     0
  9
$DIMSE2
 70
     0
  9
$DIMTAD
 70
     1
  9
$DIMZIN
 70
     0
  9
$DIMBLK
  1

  9
$DIMASO
 70
     1
  9
$DIMSHO
 70
     1
  9
$DIMPOST
  1

  9
$DIMAPOST
  1

  9
$DIMALT
 70
     0
  9
$DIMALTD
 70
     3
  9
$DIMALTF
 40
0.0393700787401575
  9
$DIMLFAC
 40
1.0
  9
$DIMTOFL
 70
     1
  9
$DIMTVP
 40
0.0
  9
$DIMTIX
 70
     0
  9
$DIMSOXD
 70
     0
  9
$DIMSAH
 70
     0
  9
$DIMBLK1
  1

  9
$DIMBLK2
  1

  9
$DIMSTYLE
  2
ISO-25
  9
$DIMCLRD
 70
     0
  9
$DIMCLRE
 70
     0
  9
$DIMCLRT
 70
     0
  9
$DIMTFAC
 40
1.0
  9
$DIMGAP
 40
1.524
  9
$DIMJUST
 70
     0
  9
$DIMSD1
 70
     0
  9
$DIMSD2
 70
     0
  9
$DIMTOLJ
 70
     0
  9
$DIMTZIN
 70
     0
  9
$DIMALTZ
 70
     0
  9
$DIMALTTZ
 70
     0
  9
$DIMUPT
 70
     0
  9
$DIMDEC
 70
     2
  9
$DIMTDEC
 70
     2
  9
$DIMALTU
 70
     2
  9
$DIMALTTD
 70
     3
  9
$DIMTXSTY
  7
Standard
  9
$DIMAUNIT
 70
     0
  9
$DIMADEC
 70
     2
  9
$DIMALTRND
 40
0.0
  9
$DIMAZIN
 70
     0
  9
$DIMDSEP
 70
    44
  9
$DIMATFIT
 70
     3
  9
$DIMFRAC
 70
     0
  9
$DIMLDRBLK
  1

  9
$DIMLUNIT
 70
     2
  9
$DIMLWD
 70
    -2
  9
$DIMLWE
 70
    -2
  9
$DIMTMOVE
 70
     0
  9
$LUNITS
 70
     2
  9
$LUPREC
 70
     2
  9
$SKETCHINC
 40
1.0
  9
$FILLETRAD
 40
10.0
  9
$AUNITS
 70
     0
  9
$AUPREC
 70
     2
  9
$MENU
  1
.
  9
$ELEVATION
 40
0.0
  9
$PELEVATION
 40
0.0
  9
$THICKNESS
 40
0.0
  9
$LIMCHECK
 70
     0
  9
$CHAMFERA
 40
0.0
  9
$CHAMFERB
 40
0.0
  9
$CHAMFERC
 40
0.0
  9
$CHAMFERD
 40
0.0
  9
$SKPOLY
 70
     0
  9
$TDCREATE
 40
2458320.375744155
  9
$TDUCREATE
 40
2458320.000744155
  9
$TDUPDATE
 40
2458324.644659375
  9
$TDUUPDATE
 40
2458324.269659375
  9
$TDINDWG
 40
0.0018194444
  9
$TDUSRTIMER
 40
0.0018194329
  9
$USRTIMER
 70
     1
  9
$ANGBASE
 50
0.0
  9
$ANGDIR
 70
     0
  9
$PDMODE
 70
     0
  9
$PDSIZE
 40
-1.0
  9
$PLINEWID
 40
0.0
  9
$SPLFRAME
 70
     0
  9
$SPLINETYPE
 70
     6
  9
$SPLINESEGS
 70
     8
  9
$HANDSEED
  5
1CD
  9
$SURFTAB1
 70
     6
  9
$SURFTAB2
 70
     6
  9
$SURFTYPE
 70
     6
  9
$SURFU
 70
     6
  9
$SURFV
 70
     6
  9
$UCSBASE
  2

  9
$UCSNAME
  2

  9
$UCSORG
 10
0.0
 20
0.0
 30
0.0
  9
$UCSXDIR
 10
1.0
 20
0.0
 30
0.0
  9
$UCSYDIR
 10
0.0
 20
1.0
 30
0.0
  9
$UCSORTHOREF
  2

  9
$UCSORTHOVIEW
 70
     0
  9
$UCSORGTOP
 10
0.0
 20
0.0
 30
0.0
  9
$UCSORGBOTTOM
 10
0.0
 20
0.0
 30
0.0
  9
$UCSORGLEFT
 10
0.0
 20
0.0
 30
0.0
  9
$UCSORGRIGHT
 10
0.0
 20
0.0
 30
0.0
  9
$UCSORGFRONT
 10
0.0
 20
0.0
 30
0.0
  9
$UCSORGBACK
 10
0.0
 20
0.0
 30
0.0
  9
$PUCSBASE
  2

  9
$PUCSNAME
  2

  9
$PUCSORG
 10
0.0
 20
0.0
 30
0.0
  9
$PUCSXDIR
 10
1.0
 20
0.0
 30
0.0
  9
$PUCSYDIR
 10
0.0
 20
1.0
 30
0.0
  9
$PUCSORTHOREF
  2

  9
$PUCSORTHOVIEW
 70
     0
  9
$PUCSORGTOP
 10
0.0
 20
0.0
 30
0.0
  9
$PUCSORGBOTTOM
 10
0.0
 20
0.0
 30
0.0
  9
$PUCSORGLEFT
 10
0.0
 20
0.0
 30
0.0
  9
$PUCSORGRIGHT
 10
0.0
 20
0.0
 30
0.0
  9
$PUCSORGFRONT
 10
0.0
 20
0.0
 30
0.0
  9
$PUCSORGBACK
 10
0.0
 20
0.0
 30
0.0
  9
$USERI1
 70
     0
  9
$USERI2
 70
     0
  9
$USERI3
 70
     0
  9
$USERI4
 70
     0
  9
$USERI5
 70
     0
  9
$USERR1
 40
0.0
  9
$USERR2
 40
0.0
  9
$USERR3
 40
0.0
  9
$USERR4
 40
0.0
  9
$USERR5
 40
0.0
  9
$WORLDVIEW
 70
     1
  9
$SHADEDGE
 70
     3
  9
$SHADEDIF
 70
    70
  9
$TILEMODE
 70
     1
  9
$MAXACTVP
 70
    64
  9
$PINSBASE
 10
0.0
 20
0.0
 30
0.0
  9
$PLIMCHECK
 70
     0
  9
$PEXTMIN
 10
1.000000000000000E+20
 20
1.000000000000000E+20
 30
1.000000000000000E+20
  9
$PEXTMAX
 10
-1.000000000000000E+20
 20
-1.000000000000000E+20
 30
-1.000000000000000E+20
  9
$PLIMMIN
 10
0.0
 20
0.0
  9
$PLIMMAX
 10
0.0
 20
0.0
  9
$UNITMODE
 70
     0
  9
$VISRETAIN
 70
     1
  9
$PLINEGEN
 70
     0
  9
$PSLTSCALE
 70
     1
  9
$TREEDEPTH
 70
  3020
  9
$CMLSTYLE
  2
Standard
  9
$CMLJUST
 70
     0
  9
$CMLSCALE
 40
20.0
  9
$PROXYGRAPHICS
 70
     1
  9
$MEASUREMENT
 70
     1
  9
$CELWEIGHT
370
    -1
  9
$ENDCAPS
280
     0
  9
$JOINSTYLE
280
     0
  9
$LWDISPLAY
290
     1
  9
$INSUNITS
 70
     4
  9
$HYPERLINKBASE
  1

  9
$STYLESHEET
  1

  9
$XEDIT
290
     1
  9
$CEPSNTYPE
380
     0
  9
$PSTYLEMODE
290
     1
  9
$FINGERPRINTGUID
  2
{603D0E83-DB12-4746-AAAD-46DA7818A441}
  9
$VERSIONGUID
  2
{FAEB1C32-E019-11D5-929B-00C0DF256EC4}
  9
$EXTNAMES
290
     1
  9
$PSVPSCALE
 40
0.0
  9
$OLESTARTUP
290
     0
  0
ENDSEC
  0
SECTION
  2
CLASSES
  0
CLASS
  1
ACDBDICTIONARYWDFLT
  2
AcDbDictionaryWithDefault
  3
ObjectDBX Classes
 90
        0
280
     0
281
     0
  0
CLASS
  1
VISUALSTYLE
  2
AcDbVisualStyle
  3
ObjectDBX Classes
 90
     4095
280
     0
281
     0
  0
CLASS
  1
MATERIAL
  2
AcDbMaterial
  3
ObjectDBX Classes
 90
     1153
280
     0
281
     0
  0
CLASS
  1
SCALE
  2
AcDbScale
  3
ObjectDBX Classes
 90
     1153
280
     0
281
     0
  0
CLASS
  1
SUN
  2
AcDbSun
  3
SCENEOE
 90
     1153
280
     0
281
     0
  0
CLASS
  1
ACDBPLACEHOLDER
  2
AcDbPlaceHolder
  3
ObjectDBX Classes
 90
        0
280
     0
281
     0
  0
CLASS
  1
LAYOUT
  2
AcDbLayout
  3
ObjectDBX Classes
 90
        0
280
     0
281
     0
  0
CLASS
  1
TABLESTYLE
  2
AcDbTableStyle
  3
ObjectDBX Classes
 90
     4095
280
     0
281
     0
  0
CLASS
  1
MLEADERSTYLE
  2
AcDbMLeaderStyle
  3
ACDB_MLEADERSTYLE_CLASS
 90
     4095
280
     0
281
     0
  0
CLASS
  1
DICTIONARYVAR
  2
AcDbDictionaryVar
  3
ObjectDBX Classes
 90
        0
280
     0
281
     0
  0
ENDSEC
  0
SECTION
  2
TABLES
  0
TABLE
  2
VPORT
  5
8
330
0
100
AcDbSymbolTable
 70
     1
  0
VPORT
  5
29
330
8
100
AcDbSymbolTableRecord
100
AcDbViewportTableRecord
  2
*Active
 70
     0
 10
0.0
 20
0.0
 11
1.0
 21
1.0
 12
28.26611690767275
 22
-5.699528694405792
 13
0.0
 23
0.0
 14
10.0
 24
10.0
 15
10.0
 25
10.0
 16
0.0
 26
0.0
 36
1.0
 17
0.0
 27
0.0
 37
0.0
 40
90.31544853658815
 41
1.782762691853601
 42
50.0
 43
0.0
 44
0.0
 50
0.0
 51
0.0
 71
    16
 72
  2000
 73
     1
 74
     3
 75
     0
 76
     0
 77
     0
 78
     0
281
     0
 65
     1
110
0.0
120
0.0
130
0.0
111
1.0
121
0.0
131
0.0
112
0.0
122
1.0
132
0.0
 79
     0
146
0.0
  0
ENDTAB
  0
TABLE
  2
LTYPE
  5
5
330
0
100
AcDbSymbolTable
 70
     6
  0
LTYPE
  5
14
330
5
100
AcDbSymbolTableRecord
100
AcDbLinetypeTableRecord
  2
ByBlock
 70
     0
  3

 72
    65
 73
     0
 40
0.0
  0
LTYPE
  5
15
330
5
100
AcDbSymbolTableRecord
100
AcDbLinetypeTableRecord
  2
ByLayer
 70
     0
  3

 72
    65
 73
     0
 40
0.0
  0
LTYPE
  5
16
330
5
100
AcDbSymbolTableRecord
100
AcDbLinetypeTableRecord
  2
Continuous
 70
     0
  3
Solid line
 72
    65
 73
     0
 40
0.0
  0
LTYPE
  5
6A
330
5
100
AcDbSymbolTableRecord
100
AcDbLinetypeTableRecord
  2
HIDDEN
 70
     0
  3
Hidden __ __ __ __ __ __ __ __ __ __ __ __ __ __
 72
    65
 73
     2
 40
1.905
 49
1.27
 74
     0
 49
-0.635
 74
     0
  0
LTYPE
  5
6B
330
5
100
AcDbSymbolTableRecord
100
AcDbLinetypeTableRecord
  2
PHANTOM
 70
     0
  3
Phantom ______  __  __  ______  __  __  ______
 72
    65
 73
     6
 40
12.7
 49
6.35
 74
     0
 49
-1.27
 74
     0
 49
1.27
 74
     0
 49
-1.27
 74
     0
 49
1.27
 74
     0
 49
-1.27
 74
     0
  0
LTYPE
  5
6C
330
5
100
AcDbSymbolTableRecord
100
AcDbLinetypeTableRecord
  2
CENTER
 70
     0
  3
Center ____ _ ____ _ ____ _ ____ _ ____ _ ____
 72
    65
 73
     4
 40
10.16
 49
6.35
 74
     0
 49
-1.27
 74
     0
 49
1.27
 74
     0
 49
-1.27
 74
     0
  0
LTYPE
  5
6D
330
5
100
AcDbSymbolTableRecord
100
AcDbLinetypeTableRecord
  2
CENTERX2
 70
     0
  3
Center (2x) ________  __  ________  __  _____
 72
    65
 73
     4
 40
20.32
 49
12.7
 74
     0
 49
-2.54
 74
     0
 49
2.54
 74
     0
 49
-2.54
 74
     0
  0
LTYPE
  5
6E
330
5
100
AcDbSymbolTableRecord
100
AcDbLinetypeTableRecord
  2
DOT2
 70
     0
  3
Dot (.5x) ........................................
 72
    65
 73
     2
 40
0.635
 49
0.0
 74
     0
 49
-0.635
 74
     0
  0
ENDTAB
  0
TABLE
  2
LAYER
  5
2
102
{ACAD_XDICTIONARY
360
175
102
}
330
0
100
AcDbSymbolTable
 70
    18
  0
LAYER
  5
10
330
2
100
AcDbSymbolTableRecord
100
AcDbLayerTableRecord
  2
0
 70
     0
 62
     7
  6
Continuous
370
    -3
390
F
  0
LAYER
  5
6F
330
2
100
AcDbSymbolTableRecord
100
AcDbLayerTableRecord
  2
FORMAT
 70
     0
 62
     2
  6
Continuous
370
    -3
390
F
  0
LAYER
  5
70
330
2
100
AcDbSymbolTableRecord
100
AcDbLayerTableRecord
  2
외형선
 70
     0
 62
     4
  6
Continuous
370
    30
390
F
  0
LAYER
  5
71
330
2
100
AcDbSymbolTableRecord
100
AcDbLayerTableRecord
  2
숨은선
 70
     0
 62
     2
  6
HIDDEN
370
    15
390
F
  0
LAYER
  5
72
330
2
100
AcDbSymbolTableRecord
100
AcDbLayerTableRecord
  2
중심선
 70
     0
 62
     1
  6
CENTERX2
370
    -3
390
F
  0
LAYER
  5
73
330
2
100
AcDbSymbolTableRecord
100
AcDbLayerTableRecord
  2
파단선
 70
     0
 62
     4
  6
Continuous
370
    -3
390
F
  0
LAYER
  5
74
330
2
100
AcDbSymbolTableRecord
100
AcDbLayerTableRecord
  2
해칭선
 70
     0
 62
   100
  6
Continuous
370
    -3
390
F
  0
LAYER
  5
75
330
2
100
AcDbSymbolTableRecord
100
AcDbLayerTableRecord
  2
가는실선
 70
     0
 62
     4
  6
Continuous
370
    -3
390
F
  0
LAYER
  5
76
330
2
100
AcDbSymbolTableRecord
100
AcDbLayerTableRecord
  2
치수_보조선
 70
     0
 62
     4
  6
Continuous
370
    -3
390
F
  0
LAYER
  5
77
330
2
100
AcDbSymbolTableRecord
100
AcDbLayerTableRecord
  2
치수문자_일반주서
 70
     0
 62
     7
  6
Continuous
370
    15
390
F
  0
LAYER
  5
78
330
2
100
AcDbSymbolTableRecord
100
AcDbLayerTableRecord
  2
개별주서
 70
     0
 62
   100
  6
Continuous
370
    30
390
F
  0
LAYER
  5
79
330
2
100
AcDbSymbolTableRecord
100
AcDbLayerTableRecord
  2
중간선
 70
     0
 62
     2
  6
Continuous
370
    15
390
F
  0
LAYER
  5
7A
330
2
100
AcDbSymbolTableRecord
100
AcDbLayerTableRecord
  2
윤곽선
 70
     0
 62
     3
  6
Continuous
370
    40
390
F
  0
LAYER
  5
7B
330
2
100
AcDbSymbolTableRecord
100
AcDbLayerTableRecord
  2
중심마크
 70
     0
 62
   100
  6
Continuous
370
    30
390
F
  0
LAYER
  5
7C
330
2
100
AcDbSymbolTableRecord
100
AcDbLayerTableRecord
  2
가상선
 70
     0
 62
     4
  6
PHANTOM
370
    -3
390
F
  0
LAYER
  5
7D
330
2
100
AcDbSymbolTableRecord
100
AcDbLayerTableRecord
  2
특수지정선
 70
     0
 62
     5
  6
CENTERX2
370
    60
390
F
  0
LAYER
  5
7E
330
2
100
AcDbSymbolTableRecord
100
AcDbLayerTableRecord
  2
참조1
 70
     0
 62
    -4
  6
Continuous
370
    -3
390
F
  0
LAYER
  5
13E
330
2
100
AcDbSymbolTableRecord
100
AcDbLayerTableRecord
  2
Defpoints
 70
     0
 62
     7
  6
Continuous
290
     0
370
    -3
390
F
  0
ENDTAB
  0
TABLE
  2
STYLE
  5
3
330
0
100
AcDbSymbolTable
 70
     2
  0
STYLE
  5
11
330
3
100
AcDbSymbolTableRecord
100
AcDbTextStyleTableRecord
  2
Standard
 70
     0
 40
0.0
 41
1.0
 50
0.0
 71
     0
 42
3.5
  3
txt
  4

  0
STYLE
  5
94
330
3
100
AcDbSymbolTableRecord
100
AcDbTextStyleTableRecord
  2
SLDTEXTSTYLE0
 70
     0
 40
0.0
 41
0.75
 50
0.0
 71
     0
 42
3.5
  3
TXT
  4

  0
ENDTAB
  0
TABLE
  2
VIEW
  5
6
330
0
100
AcDbSymbolTable
 70
     0
  0
ENDTAB
  0
TABLE
  2
UCS
  5
7
330
0
100
AcDbSymbolTable
 70
     0
  0
ENDTAB
  0
TABLE
  2
APPID
  5
9
330
0
100
AcDbSymbolTable
 70
     2
  0
APPID
  5
12
330
9
100
AcDbSymbolTableRecord
100
AcDbRegAppTableRecord
  2
ACAD
 70
     0
  0
APPID
  5
145
330
9
100
AcDbSymbolTableRecord
100
AcDbRegAppTableRecord
  2
PE_URL
 70
     0
  0
ENDTAB
  0
TABLE
  2
DIMSTYLE
  5
A
330
0
100
AcDbSymbolTable
 70
     4
100
AcDbDimStyleTable
  0
DIMSTYLE
105
27
330
A
100
AcDbSymbolTableRecord
100
AcDbDimStyleTableRecord
  2
ISO-25
 70
     0
 41
2.5
 42
0.625
 43
3.75
 44
1.25
 73
     0
 74
     0
 77
     1
 78
     8
140
2.5
141
2.5
143
0.03937007874016
147
0.625
171
     3
172
     1
178
     0
271
     2
272
     2
274
     3
278
    44
283
     0
284
     8
340
11
  0
DIMSTYLE
105
BD
330
A
100
AcDbSymbolTableRecord
100
AcDbDimStyleTableRecord
  2
SLDDIMSTYLE0
 70
     0
 41
3.302
 44
0.0
 45
0.000000001
 73
     0
 74
     0
 77
     1
 78
     4
 79
     1
140
3.5
143
0.0393700787401575
147
0.875
148
0.000000001
170
     1
173
     1
178
     0
271
     2
272
     2
276
     2
284
    12
340
94
  0
DIMSTYLE
105
E5
330
A
100
AcDbSymbolTableRecord
100
AcDbDimStyleTableRecord
  2
SLDDIMSTYLE1
 70
     0
 41
3.302
 44
0.0
 45
0.000000001
 73
     0
 74
     0
 77
     1
 78
    12
 79
     3
140
3.5
143
0.0393700787401575
147
0.875
148
0.000000001
170
     1
173
     1
178
     0
271
     2
272
     2
276
     2
284
    12
340
94
  0
DIMSTYLE
105
F9
102
{ACAD_REACTORS
330
F8
330
164
330
BC
330
E4
330
D1
102
}
330
A
100
AcDbSymbolTableRecord
100
AcDbDimStyleTableRecord
  2
SLDDIMSTYLE2
 70
     0
 41
3.302
 44
0.0
 45
0.000000001
 73
     0
 74
     0
 77
     1
 78
    12
 79
     3
140
3.5
143
0.0393700787401575
147
0.875
148
0.000000001
170
     1
172
     1
173
     1
178
     0
271
     2
272
     2
276
     2
284
    12
289
     0
340
94
  0
ENDTAB
  0
TABLE
  2
BLOCK_RECORD
  5
1
330
0
100
AcDbSymbolTable
 70
    10
  0
BLOCK_RECORD
  5
1F
330
1
100
AcDbSymbolTableRecord
100
AcDbBlockTableRecord
  2
*Model_Space
340
22
  0
BLOCK_RECORD
  5
1B
330
1
100
AcDbSymbolTableRecord
100
AcDbBlockTableRecord
  2
*Paper_Space
340
1E
  0
BLOCK_RECORD
  5
23
330
1
100
AcDbSymbolTableRecord
100
AcDbBlockTableRecord
  2
*Paper_Space0
340
26
  0
BLOCK_RECORD
  5
7F
330
1
100
AcDbSymbolTableRecord
100
AcDbBlockTableRecord
  2
블럭10
340
0
102
{BLKREFS
331
B5
102
}
  0
BLOCK_RECORD
  5
BE
330
1
100
AcDbSymbolTableRecord
100
AcDbBlockTableRecord
  2
_D
340
0
  0
BLOCK_RECORD
  5
D2
330
1
100
AcDbSymbolTableRecord
100
AcDbBlockTableRecord
  2
_D_1
340
0
  0
BLOCK_RECORD
  5
E6
330
1
100
AcDbSymbolTableRecord
100
AcDbBlockTableRecord
  2
_D_2
340
0
  0
BLOCK_RECORD
  5
FA
330
1
100
AcDbSymbolTableRecord
100
AcDbBlockTableRecord
  2
_D_3
340
0
  0
BLOCK_RECORD
  5
114
330
1
100
AcDbSymbolTableRecord
100
AcDbBlockTableRecord
  2
SW_DOWELSYMBOL_0
340
0
102
{BLKREFS
331
11A
102
}
  0
BLOCK_RECORD
  5
179
330
1
100
AcDbSymbolTableRecord
100
AcDbBlockTableRecord
  2
*D8
340
0
  0
BLOCK_RECORD
  5
18B
330
1
100
AcDbSymbolTableRecord
100
AcDbBlockTableRecord
  2
*D9
340
0
  0
ENDTAB
  0
ENDSEC
  0
SECTION
  2
BLOCKS
  0
BLOCK
  5
20
330
1F
100
AcDbEntity
  8
0
100
AcDbBlockBegin
  2
*Model_Space
 70
     0
 10
0.0
 20
0.0
 30
0.0
  3
*Model_Space
  1

  0
ENDBLK
  5
21
330
1F
100
AcDbEntity
  8
0
100
AcDbBlockEnd
  0
BLOCK
  5
1C
330
1B
100
AcDbEntity
 67
     1
  8
0
100
AcDbBlockBegin
  2
*Paper_Space
 70
     0
 10
0.0
 20
0.0
 30
0.0
  3
*Paper_Space
  1

  0
ENDBLK
  5
1D
330
1B
100
AcDbEntity
 67
     1
  8
0
100
AcDbBlockEnd
  0
BLOCK
  5
24
330
23
100
AcDbEntity
  8
0
100
AcDbBlockBegin
  2
*Paper_Space0
 70
     0
 10
0.0
 20
0.0
 30
0.0
  3
*Paper_Space0
  1

  0
ENDBLK
  5
25
330
23
100
AcDbEntity
  8
0
100
AcDbBlockEnd
  0
BLOCK
  5
80
330
7F
100
AcDbEntity
  8
0
100
AcDbBlockBegin
  2
블럭10
 70
     2
 10
0.0
 20
0.0
 30
0.0
  3
블럭10
  1

  0
ELLIPSE
  5
82
330
7F
100
AcDbEntity
  8
중심선
100
AcDbEllipse
 10
20.54032771741204
 20
12.0471743016438
 30
0.0
 11
6.600054785286829
 21
-1.261213355974178E-13
 31
0.0
210
0.0
220
0.0
230
1.0
 40
0.636358354079598
 41
0.9219305317359503
 42
6.513795318482858
  0
ELLIPSE
  5
83
330
7F
100
AcDbEntity
  8
중심선
100
AcDbEllipse
 10
20.54032771746488
 20
12.04717430159265
 30
0.0
 11
3.960054785062283
 21
1.540847449632565E-10
 31
0.0
210
0.0
220
0.0
230
1.0
 40
0.3939339440162632
 41
1.131841032648279
 42
5.62031148352944
  0
LINE
  5
84
330
7F
100
AcDbEntity
  8
중심선
100
AcDbLine
 10
2.268634060543552
 20
16.24717430164393
 30
0.0
 11
5.714909304380834
 21
16.24717430164393
 31
0.0
  0
LINE
  5
85
330
7F
100
AcDbEntity
  8
중심선
100
AcDbLine
 10
5.245725140726316
 20
7.84717430164391
 30
0.0
 11
8.692000384563599
 21
7.84717430164391
 31
0.0
  0
LINE
  5
86
330
7F
100
AcDbEntity
  8
중심선
100
AcDbLine
 10
15.74043728645272
 20
16.24717430164393
 30
0.0
 11
8.692000384563599
 21
7.84717430164391
 31
0.0
  0
LINE
  5
87
330
7F
100
AcDbEntity
  8
중심선
100
AcDbLine
 10
0.1404042013395286
 20
13.71084872107135
 30
0.0
 11
3.58671253028996
 21
13.71088815037384
 31
0.0
  0
LINE
  5
88
330
7F
100
AcDbEntity
  8
중심선
100
AcDbLine
 10
2.750260043222114
 20
10.84717430164391
 30
0.0
 11
6.196535287059397
 21
10.84717430164391
 31
0.0
  0
LINE
  5
89
330
7F
100
AcDbEntity
  8
중심선
100
AcDbLine
 10
12.29416204261559
 20
16.24717430164393
 30
0.0
 11
5.245725140726316
 21
7.84717430164391
 31
0.0
  0
LINE
  5
8A
330
7F
100
AcDbEntity
  8
중심선
100
AcDbLine
 10
10.72767329541681
 20
16.24717430164393
 30
0.0
 11
6.196535287059397
 21
10.84717430164391
 31
0.0
  0
LINE
  5
8B
330
7F
100
AcDbEntity
  8
중심선
100
AcDbLine
 10
7.28139805157953
 20
16.24717430164393
 30
0.0
 11
2.750260043222114
 21
10.84717430164391
 31
0.0
  0
LINE
  5
8C
330
7F
100
AcDbEntity
  8
중심선
100
AcDbLine
 10
5.714909304380834
 20
16.24717430164393
 30
0.0
 11
3.58671253028996
 21
13.71088815037384
 31
0.0
  0
LINE
  5
8D
330
7F
100
AcDbEntity
  8
중심선
100
AcDbLine
 10
2.268634060543552
 20
16.24717430164393
 30
0.0
 11
0.1404042013395286
 21
13.71084872107135
 31
0.0
  0
LINE
  5
8E
330
7F
100
AcDbEntity
  8
중심선
100
AcDbLine
 10
7.28139805157953
 20
16.24717430164393
 30
0.0
 11
10.72767329541681
 21
16.24717430164393
 31
0.0
  0
LINE
  5
8F
330
7F
100
AcDbEntity
  8
중심선
100
AcDbLine
 10
12.29416204261559
 20
16.24717430164393
 30
0.0
 11
15.74043728645272
 21
16.24717430164393
 31
0.0
  0
LINE
  5
90
330
7F
100
AcDbEntity
  8
중심선
100
AcDbLine
 10
19.22036997980202
 20
11.08717430171403
 30
0.0
 11
23.66174974927406
 21
11.08717430171406
 31
0.0
  0
LINE
  5
91
330
7F
100
AcDbEntity
  8
중심선
100
AcDbLine
 10
19.22039502424796
 20
13.00717430171391
 30
0.0
 11
19.22036997980202
 21
11.08717430171403
 31
0.0
  0
LINE
  5
92
330
7F
100
AcDbEntity
  8
중심선
100
AcDbLine
 10
19.22039502424796
 20
13.00717430171391
 30
0.0
 11
26.96566020931264
 21
13.00717430171391
 31
0.0
  0
LINE
  5
93
330
7F
100
AcDbEntity
  8
중심선
100
AcDbLine
 10
22.22332737316547
 20
13.45928029700563
 30
0.0
 11
24.52862924686651
 21
15.39360700705356
 31
0.0
  0
ATTDEF
  5
95
330
7F
100
AcDbEntity
  8
FORMAT
 62
     2
100
AcDbText
 10
4.408487351596664
 20
2.075366912832191
 30
0.0
 40
4.233333333333333
  1
E5252020
 41
0.75
  7
SLDTEXTSTYLE0
 11
4.408487351596664
 21
-0.0412997538344756
 31
0.0
100
AcDbAttributeDefinition
  3

  2
AUTOATTR0
 70
     0
 74
     1
  0
ENDBLK
  5
81
330
7F
100
AcDbEntity
  8
0
100
AcDbBlockEnd
  0
BLOCK
  5
BF
330
BE
100
AcDbEntity
  8
0
100
AcDbBlockBegin
  2
_D
 70
     0
 10
0.0
 20
0.0
 30
0.0
  3
_D
  1

  0
LINE
  5
C1
330
BE
100
AcDbEntity
  8
치수문자_일반주서
 62
     0
370
    -2
100
AcDbLine
 10
31.74999999999999
 20
4.031249999999999
 30
0.0
 11
31.74999999999999
 21
13.96875
 31
0.0
  0
LINE
  5
C2
330
BE
100
AcDbEntity
  8
치수문자_일반주서
 62
     0
370
    -2
100
AcDbLine
 10
19.05000000000003
 20
4.031249999999993
 30
0.0
 11
19.05000000000003
 21
13.96875
 31
0.0
  0
LINE
  5
C3
330
BE
100
AcDbEntity
  8
치수문자_일반주서
 62
     0
370
    -2
100
AcDbLine
 10
31.74999999999999
 20
13.96875
 30
0.0
 11
60.22899999999998
 21
13.96875
 31
0.0
  0
LINE
  5
C4
330
BE
100
AcDbEntity
  8
치수문자_일반주서
 62
     0
370
    -2
100
AcDbLine
 10
31.74999999999999
 20
13.96875
 30
0.0
 11
19.05000000000003
 21
13.96875
 31
0.0
  0
LINE
  5
C5
330
BE
100
AcDbEntity
  8
치수문자_일반주서
 62
     0
370
    -2
100
AcDbLine
 10
35.05199999999999
 20
13.96875
 30
0.0
 11
38.35399999999999
 21
13.96875
 31
0.0
  0
LINE
  5
C6
330
BE
100
AcDbEntity
  8
치수문자_일반주서
 62
     0
370
    -2
100
AcDbLine
 10
15.74800000000003
 20
13.96875
 30
0.0
 11
12.44600000000003
 21
13.96875
 31
0.0
  0
SOLID
  5
C7
330
BE
100
AcDbEntity
  8
치수문자_일반주서
 62
     0
100
AcDbTrace
 10
35.05199999999999
 20
14.51908333333334
 30
0.0
 11
35.05199999999999
 21
13.41841666666667
 31
0.0
 12
31.74999999999999
 22
13.96875
 32
0.0
 13
31.74999999999999
 23
13.96875
 33
0.0
  0
SOLID
  5
C8
330
BE
100
AcDbEntity
  8
치수문자_일반주서
 62
     0
100
AcDbTrace
 10
15.74800000000003
 20
13.41841666666667
 30
0.0
 11
15.74800000000003
 21
14.51908333333334
 31
0.0
 12
19.05000000000003
 22
13.96875
 32
0.0
 13
19.05000000000003
 23
13.96875
 33
0.0
  0
MTEXT
  5
C9
330
BE
100
AcDbEntity
  8
치수문자_일반주서
 62
     0
100
AcDbMText
 10
49.29149999999998
 20
18.34375
 30
0.0
 40
3.5
 41
0.0
 71
     2
 72
     1
  1
\A1;12.7 [1/2]
  7
SLDTEXTSTYLE0
 73
     1
 44
1.0
  0
POINT
  5
CA
330
BE
100
AcDbEntity
  8
Defpoints
 62
     0
100
AcDbPoint
 10
31.74999999999999
 20
3.968749999999999
 30
0.0
  0
POINT
  5
CB
330
BE
100
AcDbEntity
  8
Defpoints
 62
     0
100
AcDbPoint
 10
19.05000000000003
 20
3.968749999999993
 30
0.0
  0
POINT
  5
CC
330
BE
100
AcDbEntity
  8
Defpoints
 62
     0
100
AcDbPoint
 10
19.05000000000003
 20
13.96875
 30
0.0
  0
ENDBLK
  5
C0
330
BE
100
AcDbEntity
  8
0
100
AcDbBlockEnd
  0
BLOCK
  5
D3
330
D2
100
AcDbEntity
  8
0
100
AcDbBlockBegin
  2
_D_1
 70
     0
 10
0.0
 20
0.0
 30
0.0
  3
_D_1
  1

  0
LINE
  5
D5
330
D2
100
AcDbEntity
  8
치수문자_일반주서
 62
     0
370
    -2
100
AcDbLine
 10
31.74999999999999
 20
4.031249999999999
 30
0.0
 11
31.74999999999999
 21
23.96875
 31
0.0
  0
LINE
  5
D6
330
D2
100
AcDbEntity
  8
치수문자_일반주서
 62
     0
370
    -2
100
AcDbLine
 10
-31.74999999999999
 20
4.031249999999989
 30
0.0
 11
-31.74999999999999
 21
23.96875
 31
0.0
  0
LINE
  5
D7
330
D2
100
AcDbEntity
  8
치수문자_일반주서
 62
     0
370
    -2
100
AcDbLine
 10
28.44799999999999
 20
23.96875
 30
0.0
 11
-28.44799999999999
 21
23.96875
 31
0.0
  0
SOLID
  5
D8
330
D2
100
AcDbEntity
  8
치수문자_일반주서
 62
     0
100
AcDbTrace
 10
28.44799999999999
 20
23.41841666666667
 30
0.0
 11
28.44799999999999
 21
24.51908333333334
 31
0.0
 12
31.74999999999999
 22
23.96875
 32
0.0
 13
31.74999999999999
 23
23.96875
 33
0.0
  0
SOLID
  5
D9
330
D2
100
AcDbEntity
  8
치수문자_일반주서
 62
     0
100
AcDbTrace
 10
-28.44799999999999
 20
24.51908333333334
 30
0.0
 11
-28.44799999999999
 21
23.41841666666667
 31
0.0
 12
-31.74999999999999
 22
23.96875
 32
0.0
 13
-31.74999999999999
 23
23.96875
 33
0.0
  0
MTEXT
  5
DA
330
D2
100
AcDbEntity
  8
치수문자_일반주서
 62
     0
100
AcDbMText
 10
-0.0000000000000036
 20
28.34375
 30
0.0
 40
3.5
 41
0.0
 71
     2
 72
     1
  1
\A1;63.5 [2 1/2]
  7
SLDTEXTSTYLE0
 73
     1
 44
1.0
  0
POINT
  5
DB
330
D2
100
AcDbEntity
  8
Defpoints
 62
     0
100
AcDbPoint
 10
31.74999999999999
 20
3.968749999999999
 30
0.0
  0
POINT
  5
DC
330
D2
100
AcDbEntity
  8
Defpoints
 62
     0
100
AcDbPoint
 10
-31.74999999999999
 20
3.96874999999999
 30
0.0
  0
POINT
  5
DD
330
D2
100
AcDbEntity
  8
Defpoints
 62
     0
100
AcDbPoint
 10
-31.74999999999999
 20
23.96875
 30
0.0
  0
ENDBLK
  5
D4
330
D2
100
AcDbEntity
  8
0
100
AcDbBlockEnd
  0
BLOCK
  5
E7
330
E6
100
AcDbEntity
  8
0
100
AcDbBlockBegin
  2
_D_2
 70
     0
 10
0.0
 20
0.0
 30
0.0
  3
_D_2
  1

  0
LINE
  5
E9
330
E6
100
AcDbEntity
  8
치수문자_일반주서
 62
     0
370
    -2
100
AcDbLine
 10
31.81249999999999
 20
3.96875
 30
0.0
 11
66.59794071248292
 21
3.968750000000131
 31
0.0
  0
LINE
  5
EA
330
E6
100
AcDbEntity
  8
치수문자_일반주서
 62
     0
370
    -2
100
AcDbLine
 10
31.81249999999999
 20
-3.96875
 30
0.0
 11
66.59794071248295
 21
-3.968749999999869
 31
0.0
  0
LINE
  5
EB
330
E6
100
AcDbEntity
  8
치수문자_일반주서
 62
     0
370
    -2
100
AcDbLine
 10
66.59794071248292
 20
3.968750000000131
 30
0.0
 11
66.5979407124828
 21
38.57275000000017
 31
0.0
  0
LINE
  5
EC
330
E6
100
AcDbEntity
  8
치수문자_일반주서
 62
     0
370
    -2
100
AcDbLine
 10
66.59794071248292
 20
3.968750000000131
 30
0.0
 11
66.59794071248295
 21
-3.968749999999869
 31
0.0
  0
LINE
  5
ED
330
E6
100
AcDbEntity
  8
치수문자_일반주서
 62
     0
370
    -2
100
AcDbLine
 10
66.59794071248291
 20
7.270750000000131
 30
0.0
 11
66.5979407124829
 21
10.57275000000013
 31
0.0
  0
LINE
  5
EE
330
E6
100
AcDbEntity
  8
치수문자_일반주서
 62
     0
370
    -2
100
AcDbLine
 10
66.59794071248297
 20
-7.270749999999868
 30
0.0
 11
66.59794071248298
 21
-10.57274999999987
 31
0.0
  0
SOLID
  5
EF
330
E6
100
AcDbEntity
  8
치수문자_일반주서
 62
     0
100
AcDbTrace
 10
66.04760737914958
 20
7.270750000000129
 30
0.0
 11
67.14827404581624
 21
7.270750000000133
 31
0.0
 12
66.59794071248292
 22
3.968750000000131
 32
0.0
 13
66.59794071248292
 23
3.968750000000131
 33
0.0
  0
SOLID
  5
F0
330
E6
100
AcDbEntity
  8
치수문자_일반주서
 62
     0
100
AcDbTrace
 10
67.1482740458163
 20
-7.270749999999866
 30
0.0
 11
66.04760737914964
 21
-7.27074999999987
 31
0.0
 12
66.59794071248295
 22
-3.968749999999869
 32
0.0
 13
66.59794071248295
 23
-3.968749999999869
 33
0.0
  0
MTEXT
  5
F1
330
E6
100
AcDbEntity
  8
치수문자_일반주서
 62
     0
100
AcDbMText
 10
62.22294071248285
 20
24.57275000000016
 30
0.0
 40
3.5
 41
0.0
 71
     2
 72
     1
  1
\A1;%%c7.94 [5/16]
  7
SLDTEXTSTYLE0
 11
-3.580687802255623E-15
 21
1.0
 31
0.0
 73
     1
 44
1.0
  0
POINT
  5
F2
330
E6
100
AcDbEntity
  8
Defpoints
 62
     0
100
AcDbPoint
 10
31.74999999999999
 20
3.968749999999999
 30
0.0
  0
POINT
  5
F3
330
E6
100
AcDbEntity
  8
Defpoints
 62
     0
100
AcDbPoint
 10
31.74999999999999
 20
-3.968750000000001
 30
0.0
  0
POINT
  5
F4
330
E6
100
AcDbEntity
  8
Defpoints
 62
     0
100
AcDbPoint
 10
66.59794071248295
 20
-3.968749999999871
 30
0.0
  0
ENDBLK
  5
E8
330
E6
100
AcDbEntity
  8
0
100
AcDbBlockEnd
  0
BLOCK
  5
FB
330
FA
100
AcDbEntity
  8
0
100
AcDbBlockBegin
  2
_D_3
 70
     0
 10
0.0
 20
0.0
 30
0.0
  3
_D_3
  1

  0
LINE
  5
FD
330
FA
100
AcDbEntity
  8
치수문자_일반주서
 62
     0
370
    -2
100
AcDbLine
 10
-19.11249999999998
 20
3.96875
 30
0.0
 11
-41.75
 21
3.968749999999915
 31
0.0
  0
LINE
  5
FE
330
FA
100
AcDbEntity
  8
치수문자_일반주서
 62
     0
370
    -2
100
AcDbLine
 10
-19.11249999999996
 20
-3.968750000000002
 30
0.0
 11
-41.74999999999997
 21
-3.968750000000089
 31
0.0
  0
LINE
  5
FF
330
FA
100
AcDbEntity
  8
치수문자_일반주서
 62
     0
370
    -2
100
AcDbLine
 10
-41.75
 20
3.968749999999915
 30
0.0
 11
-41.75000000000012
 21
38.57274999999996
 31
0.0
  0
LINE
  5
100
330
FA
100
AcDbEntity
  8
치수문자_일반주서
 62
     0
370
    -2
100
AcDbLine
 10
-41.75
 20
3.968749999999915
 30
0.0
 11
-41.74999999999997
 21
-3.968750000000089
 31
0.0
  0
LINE
  5
101
330
FA
100
AcDbEntity
  8
치수문자_일반주서
 62
     0
370
    -2
100
AcDbLine
 10
-41.75000000000001
 20
7.270749999999914
 30
0.0
 11
-41.75000000000003
 21
10.57274999999991
 31
0.0
  0
LINE
  5
102
330
FA
100
AcDbEntity
  8
치수문자_일반주서
 62
     0
370
    -2
100
AcDbLine
 10
-41.74999999999996
 20
-7.270750000000088
 30
0.0
 11
-41.74999999999994
 21
-10.57275000000009
 31
0.0
  0
SOLID
  5
103
330
FA
100
AcDbEntity
  8
치수문자_일반주서
 62
     0
100
AcDbTrace
 10
-42.30033333333335
 20
7.270749999999913
 30
0.0
 11
-41.19966666666668
 21
7.270749999999916
 31
0.0
 12
-41.75
 22
3.968749999999915
 32
0.0
 13
-41.75
 23
3.968749999999915
 33
0.0
  0
SOLID
  5
104
330
FA
100
AcDbEntity
  8
치수문자_일반주서
 62
     0
100
AcDbTrace
 10
-41.19966666666662
 20
-7.270750000000087
 30
0.0
 11
-42.30033333333329
 21
-7.27075000000009
 31
0.0
 12
-41.74999999999997
 22
-3.968750000000089
 32
0.0
 13
-41.74999999999997
 23
-3.968750000000089
 33
0.0
  0
MTEXT
  5
105
330
FA
100
AcDbEntity
  8
치수문자_일반주서
 62
     0
100
AcDbMText
 10
-46.12500000000007
 20
24.57274999999994
 30
0.0
 40
3.5
 41
0.0
 71
     2
 72
     1
  1
\A1;%%c7.94 [5/16]
  7
SLDTEXTSTYLE0
 11
-3.580687802255622E-15
 21
1.0
 31
0.0
 73
     1
 44
1.0
  0
POINT
  5
1A4
330
FA
100
AcDbEntity
  8
Defpoints
 62
     0
100
AcDbPoint
 10
-19.04999999999998
 20
3.96875
 30
0.0
  0
POINT
  5
1A5
330
FA
100
AcDbEntity
  8
Defpoints
 62
     0
100
AcDbPoint
 10
-19.04999999999996
 20
-3.968750000000002
 30
0.0
  0
POINT
  5
1A6
330
FA
100
AcDbEntity
  8
Defpoints
 62
     0
100
AcDbPoint
 10
-41.74999999999997
 20
-3.968750000000087
 30
0.0
  0
ENDBLK
  5
FC
330
FA
100
AcDbEntity
  8
0
100
AcDbBlockEnd
  0
BLOCK
  5
115
330
114
100
AcDbEntity
  8
0
100
AcDbBlockBegin
  2
SW_DOWELSYMBOL_0
 70
     0
 10
0.0
 20
0.0
 30
0.0
  3
SW_DOWELSYMBOL_0
  1

  0
CIRCLE
  5
117
330
114
100
AcDbEntity
  8
해칭선
 62
     0
100
AcDbCircle
 10
0.0
 20
0.0
 30
0.0
 40
3.000000000000001
  0
HATCH
  5
118
330
114
100
AcDbEntity
  8
0
  6
Continuous
 62
     0
370
     0
100
AcDbHatch
 10
0.0
 20
0.0
 30
0.0
210
0.0
220
0.0
230
1.0
  2
SOLID
 70
     1
 71
     0
 91
        1
 92
        0
 93
        3
 72
     2
 10
0.0
 20
0.0
 40
3.000000000000001
 50
0.0
 51
90.0
 73
     1
 72
     1
 10
0.0
 20
3.000000000000001
 11
0.0
 21
0.0
 72
     1
 10
0.0
 20
0.0
 11
3.000000000000001
 21
0.0
 97
        0
 75
     0
 76
     1
 98
        1
 10
0.0
 20
0.0
  0
HATCH
  5
119
330
114
100
AcDbEntity
  8
0
  6
Continuous
 62
     0
370
     0
100
AcDbHatch
 10
0.0
 20
0.0
 30
0.0
210
0.0
220
0.0
230
1.0
  2
SOLID
 70
     1
 71
     0
 91
        1
 92
        0
 93
        3
 72
     2
 10
0.0
 20
0.0
 40
3.000000000000001
 50
180.0
 51
270.0000000000008
 73
     1
 72
     1
 10
0.0
 20
-3.000000000000001
 11
0.0
 21
0.0
 72
     1
 10
0.0
 20
0.0
 11
-3.000000000000001
 21
0.0
 97
        0
 75
     0
 76
     1
 98
        1
 10
0.0
 20
0.0
  0
ENDBLK
  5
116
330
114
100
AcDbEntity
  8
0
100
AcDbBlockEnd
  0
BLOCK
  5
17A
330
179
100
AcDbEntity
  8
0
100
AcDbBlockBegin
  2
*D8
 70
     1
 10
0.0
 20
0.0
 30
0.0
  3
*D8
  1

  0
LINE
  5
17C
330
179
100
AcDbEntity
  8
치수문자_일반주서
 62
     0
370
    -2
100
AcDbLine
 10
12.95400000000005
 20
1.216513565852266
 30
0.0
 11
12.95400000000005
 21
11.15401356585227
 31
0.0
  0
LINE
  5
17D
330
179
100
AcDbEntity
  8
치수문자_일반주서
 62
     0
370
    -2
100
AcDbLine
 10
6.604000000000003
 20
1.210675679903457
 30
0.0
 11
6.604000000000003
 21
11.15401356585227
 31
0.0
  0
LINE
  5
17E
330
179
100
AcDbEntity
  8
치수문자_일반주서
 62
     0
370
    -2
100
AcDbLine
 10
12.95400000000005
 20
11.15401356585227
 30
0.0
 11
42.30800000000006
 21
11.15401356585227
 31
0.0
  0
LINE
  5
17F
330
179
100
AcDbEntity
  8
치수문자_일반주서
 62
     0
370
    -2
100
AcDbLine
 10
12.95400000000005
 20
11.15401356585227
 30
0.0
 11
6.604000000000003
 21
11.15401356585227
 31
0.0
  0
LINE
  5
180
330
179
100
AcDbEntity
  8
치수문자_일반주서
 62
     0
370
    -2
100
AcDbLine
 10
16.25600000000005
 20
11.15401356585227
 30
0.0
 11
19.55800000000005
 21
11.15401356585227
 31
0.0
  0
LINE
  5
181
330
179
100
AcDbEntity
  8
치수문자_일반주서
 62
     0
370
    -2
100
AcDbLine
 10
3.302000000000003
 20
11.15401356585227
 30
0.0
 11
0.0000000000000036
 21
11.15401356585227
 31
0.0
  0
SOLID
  5
182
330
179
100
AcDbEntity
  8
치수문자_일반주서
 62
     0
100
AcDbTrace
 10
16.25600000000005
 20
11.7043468991856
 30
0.0
 11
16.25600000000005
 21
10.60368023251894
 31
0.0
 12
12.95400000000005
 22
11.15401356585227
 32
0.0
 13
12.95400000000005
 23
11.15401356585227
 33
0.0
  0
SOLID
  5
183
330
179
100
AcDbEntity
  8
치수문자_일반주서
 62
     0
100
AcDbTrace
 10
3.302000000000003
 20
10.60368023251894
 30
0.0
 11
3.302000000000003
 21
11.7043468991856
 31
0.0
 12
6.604000000000003
 22
11.15401356585227
 32
0.0
 13
6.604000000000003
 23
11.15401356585227
 33
0.0
  0
MTEXT
  5
184
330
179
100
AcDbEntity
  8
치수문자_일반주서
 62
     0
100
AcDbMText
 10
30.93300000000006
 20
15.52901356585227
 30
0.0
 40
3.5
 41
0.0
 71
     2
 72
     1
  1
\A1;6.35 [1/4]
  7
SLDTEXTSTYLE0
 73
     1
 44
1.0
  0
POINT
  5
185
330
179
100
AcDbEntity
  8
Defpoints
 62
     0
100
AcDbPoint
 10
12.95400000000005
 20
1.154013565852266
 30
0.0
  0
POINT
  5
186
330
179
100
AcDbEntity
  8
Defpoints
 62
     0
100
AcDbPoint
 10
6.604000000000003
 20
1.148175679903457
 30
0.0
  0
POINT
  5
187
330
179
100
AcDbEntity
  8
Defpoints
 62
     0
100
AcDbPoint
 10
6.604000000000003
 20
11.15401356585227
 30
0.0
  0
ENDBLK
  5
17B
330
179
100
AcDbEntity
  8
0
100
AcDbBlockEnd
  0
BLOCK
  5
18C
330
18B
100
AcDbEntity
  8
0
100
AcDbBlockBegin
  2
*D9
 70
     1
 10
0.0
 20
0.0
 30
0.0
  3
*D9
  1

  0
LINE
  5
18E
330
18B
100
AcDbEntity
  8
치수문자_일반주서
 62
     0
370
    -2
100
AcDbLine
 10
26.29024525285195
 20
-23.34997069131073
 30
0.0
 11
26.29024525285195
 21
-13.41247069131073
 31
0.0
  0
LINE
  5
18F
330
18B
100
AcDbEntity
  8
치수문자_일반주서
 62
     0
370
    -2
100
AcDbLine
 10
19.9402452528519
 20
-23.35580857725954
 30
0.0
 11
19.9402452528519
 21
-13.41247069131073
 31
0.0
  0
LINE
  5
190
330
18B
100
AcDbEntity
  8
치수문자_일반주서
 62
     0
370
    -2
100
AcDbLine
 10
26.29024525285195
 20
-13.41247069131073
 30
0.0
 11
55.64424525285195
 21
-13.41247069131073
 31
0.0
  0
LINE
  5
191
330
18B
100
AcDbEntity
  8
치수문자_일반주서
 62
     0
370
    -2
100
AcDbLine
 10
26.29024525285195
 20
-13.41247069131073
 30
0.0
 11
19.9402452528519
 21
-13.41247069131073
 31
0.0
  0
LINE
  5
192
330
18B
100
AcDbEntity
  8
치수문자_일반주서
 62
     0
370
    -2
100
AcDbLine
 10
29.59224525285195
 20
-13.41247069131073
 30
0.0
 11
32.89424525285195
 21
-13.41247069131073
 31
0.0
  0
LINE
  5
193
330
18B
100
AcDbEntity
  8
치수문자_일반주서
 62
     0
370
    -2
100
AcDbLine
 10
16.6382452528519
 20
-13.41247069131073
 30
0.0
 11
13.3362452528519
 21
-13.41247069131073
 31
0.0
  0
SOLID
  5
194
330
18B
100
AcDbEntity
  8
치수문자_일반주서
 62
     0
100
AcDbTrace
 10
29.59224525285195
 20
-12.8621373579774
 30
0.0
 11
29.59224525285195
 21
-13.96280402464406
 31
0.0
 12
26.29024525285195
 22
-13.41247069131073
 32
0.0
 13
26.29024525285195
 23
-13.41247069131073
 33
0.0
  0
SOLID
  5
195
330
18B
100
AcDbEntity
  8
치수문자_일반주서
 62
     0
100
AcDbTrace
 10
16.6382452528519
 20
-13.96280402464406
 30
0.0
 11
16.6382452528519
 21
-12.8621373579774
 31
0.0
 12
19.9402452528519
 22
-13.41247069131073
 32
0.0
 13
19.9402452528519
 23
-13.41247069131073
 33
0.0
  0
MTEXT
  5
196
330
18B
100
AcDbEntity
  8
치수문자_일반주서
 62
     0
100
AcDbMText
 10
44.26924525285195
 20
-9.037470691310729
 30
0.0
 40
3.5
 41
0.0
 71
     2
 72
     1
  1
\A1;6.35 [1/4]
  7
SLDTEXTSTYLE0
 73
     1
 44
1.0
  0
POINT
  5
197
330
18B
100
AcDbEntity
  8
Defpoints
 62
     0
100
AcDbPoint
 10
26.29024525285195
 20
-23.41247069131073
 30
0.0
  0
POINT
  5
198
330
18B
100
AcDbEntity
  8
Defpoints
 62
     0
100
AcDbPoint
 10
19.9402452528519
 20
-23.41830857725954
 30
0.0
  0
POINT
  5
199
330
18B
100
AcDbEntity
  8
Defpoints
 62
     0
100
AcDbPoint
 10
19.9402452528519
 20
-13.41247069131073
 30
0.0
  0
ENDBLK
  5
18D
330
18B
100
AcDbEntity
  8
0
100
AcDbBlockEnd
  0
ENDSEC
  0
SECTION
  2
ENTITIES
  0
ARC
  5
96
330
1F
100
AcDbEntity
  8
0
  6
Continuous
 62
     1
370
    15
100
AcDbCircle
 10
27.78124999999997
 20
-0.0000000000000009
 30
0.0
 40
3.96875000000002
100
AcDbArc
 50
315.2084656898016
 51
0.0
1001
PE_URL
1000

  0
ARC
  5
97
330
1F
100
AcDbEntity
  8
0
  6
Continuous
 62
     1
370
    15
100
AcDbCircle
 10
27.78124999999997
 20
-0.0000000000000009
 30
0.0
 40
3.96875000000002
100
AcDbArc
 50
0.0
 51
44.83916605466852
1001
PE_URL
1000

  0
LINE
  5
98
330
1F
100
AcDbEntity
  8
0
  6
Continuous
 62
     1
370
    15
100
AcDbLine
 10
22.05918380457904
 20
3.968750000000008
 30
0.0
 11
19.64003269964802
 21
3.968750000000008
 31
0.0
1001
PE_URL
1000

  0
LINE
  5
99
330
1F
100
AcDbEntity
  8
0
  6
Continuous
 62
     1
370
    15
100
AcDbLine
 10
19.64003269964801
 20
-3.968750000000009
 30
0.0
 11
22.0591838045791
 21
-3.968750000000009
 31
0.0
1001
PE_URL
1000

  0
LINE
  5
9C
330
1F
100
AcDbEntity
  8
외형선
  6
Continuous
370
    15
100
AcDbLine
 10
-19.04999999999996
 20
-3.96875
 30
0.0
 11
19.05
 21
-3.96875
 31
0.0
  0
LINE
  5
9D
330
1F
100
AcDbEntity
  8
외형선
  6
Continuous
370
    15
100
AcDbLine
 10
19.05
 20
3.96875
 30
0.0
 11
-19.04999999999998
 21
3.96875
 31
0.0
  0
SPLINE
  5
9E
330
1F
100
AcDbEntity
  8
0
  6
Continuous
 62
     1
370
    15
100
AcDbSpline
210
0.0
220
0.0
230
1.0
 70
     8
 71
     3
 72
    22
 73
    18
 74
     0
 42
0.000000001
 43
0.00000001
 40
0.0
 40
0.0
 40
0.0
 40
0.0
 40
0.125
 40
0.125
 40
0.2499999999999999
 40
0.2499999999999999
 40
0.3749999999999999
 40
0.3749999999999999
 40
0.5
 40
0.5
 40
0.6250000000000001
 40
0.6250000000000001
 40
0.75
 40
0.75
 40
0.875
 40
0.875
 40
1.0
 40
1.0
 40
1.0
 40
1.0
 10
19.05000000000001
 20
0.340047854858788
 30
0.0
 10
19.41119620218736
 20
0.1312609177542674
 30
0.0
 10
19.77762250207098
 20
-0.0799597383853573
 30
0.0
 10
20.50719240025516
 20
-0.4993351537514784
 30
0.0
 10
20.86749430695816
 20
-0.7069486727194498
 30
0.0
 10
21.59674857004618
 20
-1.116144852232329
 30
0.0
 10
21.96332175590933
 20
-1.317238761614073
 30
0.0
 10
22.68659920653856
 20
-1.704943602043187
 30
0.0
 10
23.05200099468597
 20
-1.893111368537314
 30
0.0
 10
23.78183372786694
 20
-2.251766505936904
 30
0.0
 10
24.14222981789861
 20
-2.42165401807844
 30
0.0
 10
24.8711157220044
 20
-2.740957358992692
 30
0.0
 10
25.2378089643741
 20
-2.890003877161211
 30
0.0
 10
25.96192017292398
 20
-3.161437065839982
 30
0.0
 10
26.32639040636241
 20
-3.284739743599186
 30
0.0
 10
27.05643311094583
 20
-3.502784224621014
 30
0.0
 10
27.41701754493473
 20
-3.597111727169891
 30
0.0
 10
27.78124999999998
 20
-3.676286239868503
 30
0.0
1001
PE_URL
1000

  0
SPLINE
  5
9F
330
1F
100
AcDbEntity
  8
0
  6
Continuous
 62
     1
370
    15
100
AcDbSpline
210
0.0
220
0.0
230
1.0
 70
     8
 71
     3
 72
    13
 73
     9
 74
     0
 42
0.000000001
 43
0.00000001
 40
0.0
 40
0.0
 40
0.0
 40
0.0
 40
0.1836062144384949
 40
0.372582212109882
 40
0.5546177408346668
 40
0.7422985812895686
 40
0.9196857730665451
 40
1.0
 40
1.0
 40
1.0
 40
1.0
 10
27.78124999999997
 20
-3.676286239868645
 30
0.0
 10
27.96404916055338
 20
-3.706168126555532
 30
0.0
 10
28.33499366163743
 20
-3.766805831427696
 30
0.0
 10
28.89291104371586
 20
-3.721238248483377
 30
0.0
 10
29.44454628091303
 20
-3.573328803975849
 30
0.0
 10
29.95484028235904
 20
-3.318578419732995
 30
0.0
 10
30.34550401126035
 20
-3.049577790958403
 30
0.0
 10
30.53089834554942
 20
-2.850271664818882
 30
0.0
 10
30.58867762635733
 20
-2.788156688797024
 30
0.0
1001
PE_URL
1000

  0
SPLINE
  5
A0
330
1F
100
AcDbEntity
  8
0
  6
Continuous
 62
     1
370
    15
100
AcDbSpline
210
0.0
220
0.0
230
1.0
 70
     8
 71
     3
 72
    13
 73
     9
 74
     0
 42
0.000000001
 43
0.00000001
 40
0.0
 40
0.0
 40
0.0
 40
0.0
 40
0.1262344428107964
 40
0.2963044741974351
 40
0.466234660040544
 40
0.6440516671437185
 40
0.8219059286592475
 40
1.0
 40
1.0
 40
1.0
 40
1.0
 10
26.24681271649659
 20
-3.245029687148926
 30
0.0
 10
25.94406317328869
 20
-3.34362396763512
 30
0.0
 10
25.23343268119562
 20
-3.575049922294124
 30
0.0
 10
24.11452763823738
 20
-3.810369289522645
 30
0.0
 10
22.87230992930326
 20
-3.96381892564058
 30
0.0
 10
21.61166404319024
 20
-3.981642597880727
 30
0.0
 10
20.33142102063269
 20
-3.871759219456835
 30
0.0
 10
19.47733214604791
 20
-3.686909822024548
 30
0.0
 10
19.05000000000001
 20
-3.594422854858746
 30
0.0
1001
PE_URL
1000

  0
SPLINE
  5
A1
330
1F
100
AcDbEntity
  8
0
  6
Continuous
 62
     1
370
    15
100
AcDbSpline
210
0.0
220
0.0
230
1.0
 70
     8
 71
     3
 72
    22
 73
    18
 74
     0
 42
0.000000001
 43
0.00000001
 40
0.0
 40
0.0
 40
0.0
 40
0.0
 40
0.125
 40
0.125
 40
0.25
 40
0.25
 40
0.375
 40
0.375
 40
0.5
 40
0.5
 40
0.625
 40
0.625
 40
0.75
 40
0.75
 40
0.875
 40
0.875
 40
1.0
 40
1.0
 40
1.0
 40
1.0
 10
19.05000000000001
 20
3.954155285128043
 30
0.0
 10
19.41119620218736
 20
3.972110460118754
 30
0.0
 10
19.77762250207098
 20
3.973510713049023
 30
0.0
 10
20.50719240025512
 20
3.942822003426727
 30
0.0
 10
20.86749430695814
 20
3.910932340747135
 30
0.0
 10
21.59674857004615
 20
3.814366116223888
 30
0.0
 10
21.96332175590933
 20
3.749641150679002
 30
0.0
 10
22.68659920653855
 20
3.589999168219388
 30
0.0
 10
23.05200099468593
 20
3.494470046622794
 30
0.0
 10
23.78183372786691
 20
3.274864754943297
 30
0.0
 10
24.14222981789863
 20
3.151308480579904
 30
0.0
 10
24.87111572200437
 20
2.877899595057841
 30
0.0
 10
25.2378089643741
 20
2.728156521208644
 30
0.0
 10
25.96192017292396
 20
2.408376235755776
 30
0.0
 10
26.32639040636242
 20
2.237338788857774
 30
0.0
 10
27.05643311094578
 20
1.877685467551421
 30
0.0
 10
27.41701754493472
 20
1.689947792635007
 30
0.0
 10
27.78124999999998
 20
1.495291291037795
 30
0.0
1001
PE_URL
1000

  0
SPLINE
  5
A2
330
1F
100
AcDbEntity
  8
0
  6
Continuous
 62
     1
370
    15
100
AcDbSpline
210
0.0
220
0.0
230
1.0
 70
     8
 71
     3
 72
    44
 73
    40
 74
     0
 42
0.000000001
 43
0.00000001
 40
0.0
 40
0.0
 40
0.0
 40
0.0
 40
0.0625000000000026
 40
0.0625000000000026
 40
0.1250000000000053
 40
0.1250000000000053
 40
0.1875000000000079
 40
0.1875000000000079
 40
0.2500000000000105
 40
0.2500000000000105
 40
0.3125000000000117
 40
0.3125000000000117
 40
0.3750000000000117
 40
0.3750000000000117
 40
0.4375000000000117
 40
0.4375000000000117
 40
0.4687500000000111
 40
0.4687500000000111
 40
0.5000000000000105
 40
0.5000000000000105
 40
0.53125000000001
 40
0.53125000000001
 40
0.5625000000000094
 40
0.5625000000000094
 40
0.5937500000000089
 40
0.5937500000000089
 40
0.6250000000000081
 40
0.6250000000000081
 40
0.6875000000000068
 40
0.6875000000000068
 40
0.7500000000000054
 40
0.7500000000000054
 40
0.8125000000000041
 40
0.8125000000000041
 40
0.8750000000000027
 40
0.8750000000000027
 40
0.9375000000000013
 40
0.9375000000000013
 40
1.0
 40
1.0
 40
1.0
 40
1.0
 10
27.78124999999997
 20
1.495291291037848
 30
0.0
 10
27.98289563688751
 20
1.387525951368049
 30
0.0
 10
28.18375868853929
 20
1.277391013852546
 30
0.0
 10
28.5866610939558
 20
1.057425117557639
 30
0.0
 10
28.79029745150232
 20
0.9467353930488446
 30
0.0
 10
29.19259485137501
 20
0.7316735573253207
 30
0.0
 10
29.38856922873951
 20
0.6297145767932579
 30
0.0
 10
29.76979786059944
 20
0.4349078574149326
 30
0.0
 10
29.95674332115802
 20
0.3411483582753036
 30
0.0
 10
30.30620620318379
 20
0.1616080259228977
 30
0.0
 10
30.46888655022649
 20
0.0757741019757986
 30
0.0
 10
30.76693894542113
 20
-0.0994046814558278
 30
0.0
 10
30.90284903060251
 20
-0.189018255527913
 30
0.0
 10
31.13250323605563
 20
-0.3818961820442237
 30
0.0
 10
31.22810295431693
 20
-0.4861403573070761
 30
0.0
 10
31.33306847282715
 20
-0.6707862425712424
 30
0.0
 10
31.36106908880801
 20
-0.7361887772614973
 30
0.0
 10
31.4016809720122
 20
-0.8780482885431043
 30
0.0
 10
31.41432244474567
 20
-0.9554018561594232
 30
0.0
 10
31.42112119449862
 20
-1.120745153515934
 30
0.0
 10
31.41551384246385
 20
-1.208413491859186
 30
0.0
 10
31.38409993505548
 20
-1.396748665064665
 30
0.0
 10
31.35841904386346
 20
-1.495434366615647
 30
0.0
 10
31.28854357318503
 20
-1.696023518967227
 30
0.0
 10
31.24320703547489
 20
-1.800608637081183
 30
0.0
 10
31.13774584779967
 20
-2.003859854553404
 30
0.0
 10
31.07718480875012
 20
-2.103856886515096
 30
0.0
 10
30.87712576489351
 20
-2.391145179487781
 30
0.0
 10
30.7223777582502
 20
-2.560796256588085
 30
0.0
 10
30.39818510167008
 20
-2.837872084991498
 30
0.0
 10
30.22482623280132
 20
-2.948772262274808
 30
0.0
 10
29.87443887704533
 20
-3.112212868121567
 30
0.0
 10
29.69364618878908
 20
-3.167085680497034
 30
0.0
 10
29.32606599752452
 20
-3.228566312317131
 30
0.0
 10
29.14156509665308
 20
-3.235167356954281
 30
0.0
 10
28.76465533112854
 20
-3.209090214043621
 30
0.0
 10
28.57056450736319
 20
-3.176076808004368
 30
0.0
 10
28.18006814608082
 20
-3.078208076074215
 30
0.0
 10
27.98279210152712
 20
-3.013527611985869
 30
0.0
 10
27.78124999999998
 20
-2.935265865733006
 30
0.0
1001
PE_URL
1000

  0
SPLINE
  5
A3
330
1F
100
AcDbEntity
  8
0
  6
Continuous
 62
     1
370
    15
100
AcDbSpline
210
0.0
220
0.0
230
1.0
 70
     8
 71
     3
 72
    22
 73
    18
 74
     0
 42
0.000000001
 43
0.00000001
 40
0.0
 40
0.0
 40
0.0
 40
0.0
 40
0.125
 40
0.125
 40
0.25
 40
0.25
 40
0.375
 40
0.375
 40
0.5
 40
0.5
 40
0.625
 40
0.625
 40
0.75
 40
0.75
 40
0.875
 40
0.875
 40
1.0
 40
1.0
 40
1.0
 40
1.0
 10
19.05000000000001
 20
1.682587561753932
 30
0.0
 10
19.41119620218735
 20
1.492795182747718
 30
0.0
 10
19.77762250207099
 20
1.295010192542128
 30
0.0
 10
20.50719240025517
 20
0.8907710150173579
 30
0.0
 10
20.86749430695816
 20
0.6848935956295693
 30
0.0
 10
21.59674857004615
 20
0.2674948571338935
 30
0.0
 10
21.96332175590933
 20
0.0564156275017913
 30
0.0
 10
22.68659920653856
 20
-0.3625582243808821
 30
0.0
 10
23.05200099468593
 20
-0.5721252646667755
 30
0.0
 10
23.78183372786691
 20
-0.984506201467233
 30
0.0
 10
24.14222981789863
 20
-1.186577764808131
 30
0.0
 10
24.87111572200437
 20
-1.580571586992972
 30
0.0
 10
25.23780896437409
 20
-1.772109414307577
 30
0.0
 10
25.96192017292396
 20
-2.137157523830064
 30
0.0
 10
26.32639040636241
 20
-2.311872521347414
 30
0.0
 10
27.05643311094581
 20
-2.640554145783587
 30
0.0
 10
27.4170175449347
 20
-2.793829075308646
 30
0.0
 10
27.78124999999997
 20
-2.935265865732992
 30
0.0
1001
PE_URL
1000

  0
LINE
  5
A4
330
1F
100
AcDbEntity
  8
외형선
  6
Continuous
370
    15
100
AcDbLine
 10
19.05
 20
0.3400478548587878
 30
0.0
 11
19.05000000000001
 21
1.682587561753932
 31
0.0
  0
SPLINE
  5
A5
330
1F
100
AcDbEntity
  8
0
  6
Continuous
 62
     1
370
    15
100
AcDbSpline
210
0.0
220
0.0
230
1.0
 70
     8
 71
     3
 72
    44
 73
    40
 74
     0
 42
0.000000001
 43
0.00000001
 40
0.0
 40
0.0
 40
0.0
 40
0.0
 40
0.0625000000000025
 40
0.0625000000000025
 40
0.1250000000000051
 40
0.1250000000000051
 40
0.1875000000000076
 40
0.1875000000000076
 40
0.2500000000000101
 40
0.2500000000000101
 40
0.3125000000000112
 40
0.3125000000000112
 40
0.3750000000000111
 40
0.3750000000000111
 40
0.437500000000011
 40
0.437500000000011
 40
0.4687500000000104
 40
0.4687500000000104
 40
0.5000000000000099
 40
0.5000000000000099
 40
0.5312500000000092
 40
0.5312500000000092
 40
0.5625000000000087
 40
0.5625000000000087
 40
0.593750000000008
 40
0.593750000000008
 40
0.6250000000000074
 40
0.6250000000000074
 40
0.6875000000000062
 40
0.6875000000000062
 40
0.750000000000005
 40
0.750000000000005
 40
0.8125000000000038
 40
0.8125000000000038
 40
0.8750000000000024
 40
0.8750000000000024
 40
0.9375000000000012
 40
0.9375000000000012
 40
1.0
 40
1.0
 40
1.0
 40
1.0
 10
27.78124999999997
 20
3.676286239868655
 30
0.0
 10
27.98289563688751
 20
3.720118673844129
 30
0.0
 10
28.1837586885393
 20
3.742982444298358
 30
0.0
 10
28.58666109395581
 20
3.746574931245558
 30
0.0
 10
28.79029745150228
 20
3.726961680757245
 30
0.0
 10
29.19259485137498
 20
3.643828693788406
 30
0.0
 10
29.38856922873953
 20
3.581018975690348
 30
0.0
 10
29.76979786059946
 20
3.414710092704822
 30
0.0
 10
29.95674332115804
 20
3.309868744140235
 30
0.0
 10
30.30620620318377
 20
3.06640889545973
 30
0.0
 10
30.46888655022647
 20
2.928316085689012
 30
0.0
 10
30.76693894542114
 20
2.622965357919026
 30
0.0
 10
30.90284903060253
 20
2.454388536992798
 30
0.0
 10
31.13250323605562
 20
2.104136058640111
 30
0.0
 10
31.2281029543169
 20
1.920450919128845
 30
0.0
 10
31.33306847282715
 20
1.642917722179935
 30
0.0
 10
31.36106908880802
 20
1.551543252158794
 30
0.0
 10
31.4016809720122
 20
1.373271956882879
 30
0.0
 10
31.4143224447457
 20
1.285482426489599
 30
0.0
 10
31.42112119449862
 20
1.122381910343624
 30
0.0
 10
31.41551384246387
 20
1.04712268421606
 30
0.0
 10
31.38409993505548
 20
0.9127805168046735
 30
0.0
 10
31.35841904386348
 20
0.855451472554872
 30
0.0
 10
31.28854357318506
 20
0.7659344291331586
 30
0.0
 10
31.24320703547489
 20
0.7328757426563102
 30
0.0
 10
31.13774584779966
 20
0.6949288744844327
 30
0.0
 10
31.07718480875012
 20
0.6893763552474372
 30
0.0
 10
30.87712576489355
 20
0.7096531392341981
 30
0.0
 10
30.72237775825021
 20
0.772287919795933
 30
0.0
 10
30.39818510167012
 20
0.9499848904278106
 30
0.0
 10
30.22482623280133
 20
1.066677530163693
 30
0.0
 10
29.87443887704534
 20
1.317882772533717
 30
0.0
 10
29.6936461887891
 20
1.454986033933669
 30
0.0
 10
29.32606599752452
 20
1.730485004329608
 30
0.0
 10
29.14156509665308
 20
1.867401661982018
 30
0.0
 10
28.76465533112856
 20
2.130400880044771
 30
0.0
 10
28.57056450736319
 20
2.256964990649908
 30
0.0
 10
28.18006814608083
 20
2.483938682343968
 30
0.0
 10
27.98279210152714
 20
2.585178649490563
 30
0.0
 10
27.78124999999998
 20
2.671177803884052
 30
0.0
1001
PE_URL
1000

  0
SPLINE
  5
A6
330
1F
100
AcDbEntity
  8
0
  6
Continuous
 62
     1
370
    15
100
AcDbSpline
210
0.0
220
0.0
230
1.0
 70
     8
 71
     3
 72
     9
 73
     5
 74
     0
 42
0.000000001
 43
0.00000001
 40
0.0
 40
0.0
 40
0.0
 40
0.0
 40
0.1660103486397013
 40
0.9999999999999999
 40
0.9999999999999999
 40
0.9999999999999999
 40
0.9999999999999999
 10
26.24681271649654
 20
3.245029687148926
 30
0.0
 10
26.33172242567427
 20
3.275916571108752
 30
0.0
 10
26.84319481202544
 20
3.46197053830366
 30
0.0
 10
27.35467817142104
 20
3.578828177825176
 30
0.0
 10
27.78124999999998
 20
3.676286239868512
 30
0.0
1001
PE_URL
1000

  0
SPLINE
  5
A7
330
1F
100
AcDbEntity
  8
0
  6
Continuous
 62
     1
370
    15
100
AcDbSpline
210
0.0
220
0.0
230
1.0
 70
     8
 71
     3
 72
    12
 73
     8
 74
     0
 42
0.000000001
 43
0.00000001
 40
0.0
 40
0.0
 40
0.0
 40
0.0
 40
0.2134648574530741
 40
0.4269605018330139
 40
0.6408521026343231
 40
0.8545678241997261
 40
1.0
 40
1.0
 40
1.0
 40
1.0
 10
27.78124999999997
 20
2.671177803884061
 30
0.0
 10
27.37414839240883
 20
2.836904891252182
 30
0.0
 10
26.5598864630777
 20
3.168382967944839
 30
0.0
 10
25.33786242411309
 20
3.544740483940056
 30
0.0
 10
24.11453367106849
 20
3.809700759898091
 30
0.0
 10
23.02147027581061
 20
3.955153372524232
 30
0.0
 10
22.33653802979899
 20
3.95369863063129
 30
0.0
 10
22.05918380457904
 20
3.953109552203515
 30
0.0
1001
PE_URL
1000

  0
LINE
  5
A8
330
1F
100
AcDbEntity
  8
0
  6
Continuous
 62
     1
370
    15
100
AcDbLine
 10
19.05000000000001
 20
-3.954155285128043
 30
0.0
 11
19.64003269964802
 21
-3.953079567466333
 31
0.0
1001
PE_URL
1000

  0
LINE
  5
A9
330
1F
100
AcDbEntity
  8
외형선
  6
Continuous
370
    15
100
AcDbLine
 10
19.05
 20
-3.954155285128043
 30
0.0
 11
19.05000000000001
 21
-3.594422854858746
 31
0.0
  0
LINE
  5
AE
330
1F
100
AcDbEntity
  8
외형선
  6
Continuous
370
    15
100
AcDbLine
 10
19.05
 20
-0.0000000000000004
 30
0.0
 11
19.05
 21
3.96875
 31
0.0
  0
LINE
  5
AF
330
1F
100
AcDbEntity
  8
외형선
  6
Continuous
370
    15
100
AcDbLine
 10
19.05
 20
-3.96875
 30
0.0
 11
19.05
 21
-0.0000000000000004
 31
0.0
  0
LINE
  5
B0
330
1F
100
AcDbEntity
  8
중심선
 62
     1
100
AcDbLine
 10
-34.74999999999999
 20
-0.0000000000000043
 30
0.0
 11
34.74999999999999
 21
0.0000000000000043
 31
0.0
  0
LINE
  5
B2
330
1F
100
AcDbEntity
  8
참조1
100
AcDbLine
 10
0.0000000000000036
 20
-0.0000000000000043
 30
0.0
 11
0.0000000000000107
 21
-40.00000000000001
 31
0.0
  0
LINE
  5
B3
330
1F
100
AcDbEntity
  8
참조1
100
AcDbLine
 10
0.0000000000000107
 20
-40.00000000000001
 30
0.0
 11
-8.015106814308652
 21
-40.0
 31
0.0
  0
CIRCLE
  5
B4
330
1F
100
AcDbEntity
  8
해칭선
100
AcDbCircle
 10
0.0
 20
0.0
 30
0.0
 40
3.000000000000002
  0
INSERT
  5
B5
330
1F
100
AcDbEntity
  8
0
  6
Continuous
 62
     7
100
AcDbBlockReference
 66
     1
  2
블럭10
 10
-13.9402729321252
 20
-52.04717430164393
 30
0.0
  0
ATTRIB
  5
B6
330
B5
100
AcDbEntity
  8
FORMAT
 62
     2
100
AcDbText
 10
-23.12156822086649
 20
-49.97180738881175
 30
0.0
 40
4.233333333333333
  1
E5252020 [ 4 FLUTE ]
 41
0.75
  7
SLDTEXTSTYLE0
 11
-23.12156822086649
 21
-52.08847405547841
 31
0.0
100
AcDbAttribute
  2
AUTOATTR0
 70
     0
 74
     1
  0
SEQEND
  5
B7
330
B5
100
AcDbEntity
  8
0
  6
Continuous
 62
     7
  0
HATCH
  5
B8
330
1F
100
AcDbEntity
  8
중심선
100
AcDbHatch
 10
0.0
 20
0.0
 30
0.0
210
0.0
220
0.0
230
1.0
  2
SOLID
 70
     1
 71
     0
 91
        1
 92
        0
 93
        4
 72
     1
 10
-8.225363627744354
 20
-35.8
 11
-11.67163887158164
 21
-35.8
 72
     1
 10
-11.67163887158164
 20
-35.8
 11
-13.79986873078565
 21
-38.3363255805726
 72
     1
 10
-13.79986873078565
 20
-38.3363255805726
 11
-10.35356040183522
 21
-38.33628615127011
 72
     1
 10
-10.35356040183522
 20
-38.33628615127011
 11
-8.225363627744354
 21
-35.8
 97
        0
 75
     0
 76
     1
 98
        1
 10
21.66323868596883
 20
-0.0010749287238935
  0
HATCH
  5
B9
330
1F
100
AcDbEntity
  8
중심선
100
AcDbHatch
 10
0.0
 20
0.0
 30
0.0
210
0.0
220
0.0
230
1.0
  2
SOLID
 70
     1
 71
     0
 91
        1
 92
        0
 93
        4
 72
     1
 10
-3.212599636708401
 20
-35.80000000000003
 11
-6.658874880545685
 21
-35.8
 72
     1
 10
-6.658874880545685
 20
-35.8
 11
-11.19001288890307
 21
-41.20000000000002
 72
     1
 10
-11.19001288890307
 20
-41.20000000000002
 11
-7.743737645065789
 21
-41.20000000000002
 72
     1
 10
-7.743737645065789
 20
-41.20000000000002
 11
-3.212599636708401
 21
-35.80000000000003
 97
        0
 75
     0
 76
     1
 98
        1
 10
21.66323868596883
 20
-0.0010749287238935
  0
HATCH
  5
BA
330
1F
100
AcDbEntity
  8
중심선
100
AcDbHatch
 10
0.0
 20
0.0
 30
0.0
210
0.0
220
0.0
230
1.0
  2
SOLID
 70
     1
 71
     0
 91
        1
 92
        0
 93
        4
 72
     1
 10
1.800164354327467
 20
-35.8
 11
-1.646110889509593
 21
-35.79999999999998
 72
     1
 10
-1.646110889509593
 20
-35.79999999999998
 11
-8.694547791398872
 21
-44.20000000000002
 72
     1
 10
-8.694547791398872
 20
-44.20000000000002
 11
-5.248272547561587
 21
-44.20000000000002
 72
     1
 10
-5.248272547561587
 20
-44.20000000000002
 11
1.800164354327467
 21
-35.8
 97
        0
 75
     0
 76
     1
 98
        1
 10
21.66323868596883
 20
-0.0010749287238935
  0
HATCH
  5
BB
330
1F
100
AcDbEntity
  8
중심선
100
AcDbHatch
 10
0.0
 20
0.0
 30
0.0
210
0.0
220
0.0
230
1.0
  2
SOLID
 70
     1
 71
     0
 91
        1
 92
        0
 93
        6
 72
     3
 10
6.600054785339694
 20
-40.00000000005127
 11
3.960054785062283
 21
1.540882976769353E-10
 40
0.3939339440162628
 50
17.09539180608437
 51
320.0019657685071
 73
     0
 72
     1
 10
8.283054441040234
 20
-38.5878940046383
 11
10.58835631474133
 21
-36.65356729459038
 72
     3
 10
6.600054785286847
 20
-40.00000000000015
 11
6.600054785286829
 21
-1.278976924368180E-13
 40
0.636358354079598
 50
39.9987384933741
 51
368.4976242363725
 73
     1
 72
     1
 10
13.02538727718746
 20
-39.03999999993002
 11
5.28012209212277
 21
-39.03999999993002
 72
     1
 10
5.28012209212277
 20
-39.03999999993002
 11
5.280097047676836
 21
-40.95999999992991
 72
     1
 10
5.280097047676836
 20
-40.95999999992991
 11
9.721476817148872
 21
-40.95999999992988
 97
        0
 75
     0
 76
     1
 98
        1
 10
21.66323868596883
 20
-0.0010749287238935
  0
DIMENSION
  5
BC
330
1F
100
AcDbEntity
  8
치수문자_일반주서
100
AcDbDimension
  2
_D
 10
19.05000000000003
 20
13.96875
 30
0.0
 11
49.29149999999998
 21
13.96875
 31
0.0
 70
   160
  1
<>
 71
     2
 42
12.69999999999996
  3
SLDDIMSTYLE2
100
AcDbAlignedDimension
 13
31.74999999999999
 23
3.968749999999999
 33
0.0
 14
19.05000000000003
 24
3.968749999999993
 34
0.0
100
AcDbRotatedDimension
1001
PE_URL
1000

1001
ACAD
1000
DSTYLE
1002
{
1070
   171
1070
     8
1070
   273
1070
     7
1002
}
  0
DIMENSION
  5
D1
330
1F
100
AcDbEntity
  8
치수문자_일반주서
100
AcDbDimension
  2
_D_1
 10
-31.74999999999999
 20
23.96875
 30
0.0
 11
-0.0000000000000036
 21
23.96875
 31
0.0
 70
   160
  1
<>
 71
     2
 42
63.49999999999997
  3
SLDDIMSTYLE2
100
AcDbAlignedDimension
 13
31.74999999999999
 23
3.968749999999999
 33
0.0
 14
-31.74999999999999
 24
3.96874999999999
 34
0.0
100
AcDbRotatedDimension
1001
PE_URL
1000

1001
ACAD
1000
DSTYLE
1002
{
1070
   171
1070
     8
1070
   273
1070
     7
1002
}
  0
DIMENSION
  5
E4
330
1F
100
AcDbEntity
  8
치수문자_일반주서
100
AcDbDimension
  2
_D_2
 10
66.59794071248295
 20
-3.968749999999869
 30
0.0
 11
66.59794071248285
 21
24.57275000000017
 31
0.0
 70
   160
  1
%%c<>
 71
     2
 42
7.9375
 52
-270.0
  3
SLDDIMSTYLE2
100
AcDbAlignedDimension
 13
31.74999999999999
 23
3.968749999999999
 33
0.0
 14
31.74999999999999
 24
-3.968750000000001
 34
0.0
 50
90.0000000000002
100
AcDbRotatedDimension
1001
PE_URL
1000

1001
ACAD
1000
DSTYLE
1002
{
1070
   171
1070
     8
1070
   273
1070
     7
1002
}
  0
DIMENSION
  5
F8
330
1F
100
AcDbEntity
  8
치수문자_일반주서
100
AcDbDimension
  2
_D_3
 10
-41.74999999999997
 20
-3.968750000000089
 30
0.0
 11
-41.75000000000007
 21
24.57274999999995
 31
0.0
 70
   160
  1
%%c<>
 71
     2
 42
7.937500000000002
 52
-270.0
  3
SLDDIMSTYLE2
100
AcDbAlignedDimension
 13
-19.04999999999998
 23
3.96875
 33
0.0
 14
-19.04999999999996
 24
-3.968750000000002
 34
0.0
 50
90.0000000000002
100
AcDbRotatedDimension
1001
PE_URL
1000

1001
ACAD
1000
DSTYLE
1002
{
1070
   171
1070
     8
1070
   273
1070
     7
1002
}
  0
LINE
  5
10D
330
1F
100
AcDbEntity
  8
참조1
100
AcDbLine
 10
89.9572338153456
 20
7.440000000000002
 30
0.0
 11
89.9572338153456
 21
-7.440000000000002
 31
0.0
  0
LINE
  5
10E
330
1F
100
AcDbEntity
  8
참조1
100
AcDbLine
 10
102.6572338153456
 20
5.440000000000002
 30
0.0
 11
89.9572338153456
 21
5.440000000000002
 31
0.0
  0
SOLID
  5
10F
330
1F
100
AcDbEntity
  8
참조1
100
AcDbTrace
 10
89.9572338153456
 20
5.440000000000002
 30
0.0
 11
96.3072338153456
 21
4.424000000000002
 31
0.0
 12
96.3072338153456
 22
6.456000000000002
 32
0.0
 13
96.3072338153456
 23
6.456000000000002
 33
0.0
  0
LINE
  5
110
330
1F
100
AcDbEntity
  8
참조1
100
AcDbLine
 10
102.6572338153456
 20
-5.440000000000002
 30
0.0
 11
89.9572338153456
 21
-5.440000000000002
 31
0.0
  0
SOLID
  5
111
330
1F
100
AcDbEntity
  8
참조1
100
AcDbTrace
 10
89.9572338153456
 20
-5.440000000000002
 30
0.0
 11
96.3072338153456
 21
-6.456000000000002
 31
0.0
 12
96.3072338153456
 22
-4.424000000000002
 32
0.0
 13
96.3072338153456
 23
-4.424000000000002
 33
0.0
  0
MTEXT
  5
112
330
1F
100
AcDbEntity
  8
참조1
100
AcDbMText
 10
99.3547239078159
 20
10.98821664464994
 30
0.0
 40
3.5
 41
0.0
 71
     1
 72
     1
  1
A
  7
SLDTEXTSTYLE0
 73
     1
 44
1.0
  0
MTEXT
  5
113
330
1F
100
AcDbEntity
  8
참조1
100
AcDbMText
 10
99.3547239078159
 20
0.1082166446499324
 30
0.0
 40
3.5
 41
0.0
 71
     1
 72
     1
  1
A
  7
SLDTEXTSTYLE0
 73
     1
 44
1.0
  0
INSERT
  5
11A
330
1F
100
AcDbEntity
  8
해칭선
100
AcDbBlockReference
  2
SW_DOWELSYMBOL_0
 10
0.0
 20
0.0
 30
0.0
  0
ARC
  5
1BA
330
1F
100
AcDbEntity
  8
0
  6
Continuous
 62
     1
370
    15
100
AcDbCircle
 10
-27.78124999999994
 20
-0.0000000000000195
 30
0.0
 40
3.96875000000002
100
AcDbArc
 50
135.2084656898018
 51
180.0000000000001
1001
PE_URL
1000

  0
ARC
  5
1BB
330
1F
100
AcDbEntity
  8
0
  6
Continuous
 62
     1
370
    15
100
AcDbCircle
 10
-27.78124999999994
 20
-0.0000000000000195
 30
0.0
 40
3.96875000000002
100
AcDbArc
 50
180.0000000000001
 51
224.8391660546687
1001
PE_URL
1000

  0
LINE
  5
1BC
330
1F
100
AcDbEntity
  8
0
  6
Continuous
 62
     1
370
    15
100
AcDbLine
 10
-22.059183804579
 20
-3.968750000000012
 30
0.0
 11
-19.64003269964798
 21
-3.968750000000009
 31
0.0
1001
PE_URL
1000

  0
LINE
  5
1BD
330
1F
100
AcDbEntity
  8
0
  6
Continuous
 62
     1
370
    15
100
AcDbLine
 10
-19.64003269964799
 20
3.968750000000007
 30
0.0
 11
-22.05918380457907
 21
3.968750000000002
 31
0.0
1001
PE_URL
1000

  0
SPLINE
  5
1BE
330
1F
100
AcDbEntity
  8
0
  6
Continuous
 62
     1
370
    15
100
AcDbSpline
210
0.0
220
0.0
230
1.0
 70
     8
 71
     3
 72
    22
 73
    18
 74
     0
 42
0.000000001
 43
0.00000001
 40
0.0
 40
0.0
 40
0.0
 40
0.0
 40
0.125
 40
0.125
 40
0.2499999999999999
 40
0.2499999999999999
 40
0.3749999999999999
 40
0.3749999999999999
 40
0.5
 40
0.5
 40
0.6250000000000001
 40
0.6250000000000001
 40
0.75
 40
0.75
 40
0.875
 40
0.875
 40
1.0
 40
1.0
 40
1.0
 40
1.0
 10
-19.04999999999998
 20
-0.3400478548587884
 30
0.0
 10
-19.41119620218733
 20
-0.1312609177542683
 30
0.0
 10
-19.77762250207095
 20
0.0799597383853552
 30
0.0
 10
-20.50719240025513
 20
0.4993351537514741
 30
0.0
 10
-20.86749430695813
 20
0.706948672719447
 30
0.0
 10
-21.59674857004615
 20
1.116144852232324
 30
0.0
 10
-21.9633217559093
 20
1.317238761614066
 30
0.0
 10
-22.68659920653854
 20
1.70494360204318
 30
0.0
 10
-23.05200099468594
 20
1.893111368537305
 30
0.0
 10
-23.78183372786691
 20
2.251766505936894
 30
0.0
 10
-24.14222981789858
 20
2.42165401807843
 30
0.0
 10
-24.87111572200437
 20
2.740957358992679
 30
0.0
 10
-25.23780896437408
 20
2.890003877161197
 30
0.0
 10
-25.96192017292396
 20
3.161437065839968
 30
0.0
 10
-26.32639040636239
 20
3.28473974359917
 30
0.0
 10
-27.0564331109458
 20
3.502784224620996
 30
0.0
 10
-27.41701754493471
 20
3.597111727169874
 30
0.0
 10
-27.78124999999995
 20
3.676286239868483
 30
0.0
1001
PE_URL
1000

  0
SPLINE
  5
1BF
330
1F
100
AcDbEntity
  8
0
  6
Continuous
 62
     1
370
    15
100
AcDbSpline
210
0.0
220
0.0
230
1.0
 70
     8
 71
     3
 72
    13
 73
     9
 74
     0
 42
0.000000001
 43
0.00000001
 40
0.0
 40
0.0
 40
0.0
 40
0.0
 40
0.1836062144384949
 40
0.372582212109882
 40
0.5546177408346668
 40
0.7422985812895686
 40
0.9196857730665451
 40
1.0
 40
1.0
 40
1.0
 40
1.0
 10
-27.78124999999995
 20
3.676286239868626
 30
0.0
 10
-27.96404916055336
 20
3.706168126555513
 30
0.0
 10
-28.33499366163741
 20
3.766805831427677
 30
0.0
 10
-28.89291104371584
 20
3.721238248483356
 30
0.0
 10
-29.44454628091301
 20
3.573328803975826
 30
0.0
 10
-29.95484028235902
 20
3.318578419732972
 30
0.0
 10
-30.34550401126032
 20
3.049577790958377
 30
0.0
 10
-30.5308983455494
 20
2.850271664818857
 30
0.0
 10
-30.58867762635731
 20
2.788156688796999
 30
0.0
1001
PE_URL
1000

  0
SPLINE
  5
1C0
330
1F
100
AcDbEntity
  8
0
  6
Continuous
 62
     1
370
    15
100
AcDbSpline
210
0.0
220
0.0
230
1.0
 70
     8
 71
     3
 72
    13
 73
     9
 74
     0
 42
0.000000001
 43
0.00000001
 40
0.0
 40
0.0
 40
0.0
 40
0.0
 40
0.1262344428107964
 40
0.2963044741974351
 40
0.466234660040544
 40
0.6440516671437185
 40
0.8219059286592475
 40
1.0
 40
1.0
 40
1.0
 40
1.0
 10
-26.24681271649657
 20
3.245029687148911
 30
0.0
 10
-25.94406317328867
 20
3.343623967635105
 30
0.0
 10
-25.2334326811956
 20
3.575049922294109
 30
0.0
 10
-24.11452763823736
 20
3.810369289522635
 30
0.0
 10
-22.87230992930323
 20
3.963818925640572
 30
0.0
 10
-21.61166404319022
 20
3.981642597880722
 30
0.0
 10
-20.33142102063267
 20
3.87175921945683
 30
0.0
 10
-19.47733214604789
 20
3.686909822024546
 30
0.0
 10
-19.04999999999999
 20
3.594422854858745
 30
0.0
1001
PE_URL
1000

  0
SPLINE
  5
1C1
330
1F
100
AcDbEntity
  8
0
  6
Continuous
 62
     1
370
    15
100
AcDbSpline
210
0.0
220
0.0
230
1.0
 70
     8
 71
     3
 72
    22
 73
    18
 74
     0
 42
0.000000001
 43
0.00000001
 40
0.0
 40
0.0
 40
0.0
 40
0.0
 40
0.125
 40
0.125
 40
0.25
 40
0.25
 40
0.375
 40
0.375
 40
0.5
 40
0.5
 40
0.625
 40
0.625
 40
0.75
 40
0.75
 40
0.875
 40
0.875
 40
1.0
 40
1.0
 40
1.0
 40
1.0
 10
-19.04999999999997
 20
-3.954155285128044
 30
0.0
 10
-19.41119620218732
 20
-3.972110460118754
 30
0.0
 10
-19.77762250207094
 20
-3.973510713049025
 30
0.0
 10
-20.50719240025509
 20
-3.942822003426729
 30
0.0
 10
-20.8674943069581
 20
-3.91093234074714
 30
0.0
 10
-21.59674857004612
 20
-3.814366116223892
 30
0.0
 10
-21.9633217559093
 20
-3.749641150679006
 30
0.0
 10
-22.68659920653851
 20
-3.589999168219398
 30
0.0
 10
-23.05200099468589
 20
-3.494470046622803
 30
0.0
 10
-23.78183372786687
 20
-3.274864754943307
 30
0.0
 10
-24.1422298178986
 20
-3.151308480579916
 30
0.0
 10
-24.87111572200433
 20
-2.877899595057853
 30
0.0
 10
-25.23780896437407
 20
-2.728156521208655
 30
0.0
 10
-25.96192017292393
 20
-2.408376235755791
 30
0.0
 10
-26.32639040636238
 20
-2.237338788857789
 30
0.0
 10
-27.05643311094575
 20
-1.877685467551439
 30
0.0
 10
-27.41701754493469
 20
-1.689947792635026
 30
0.0
 10
-27.78124999999994
 20
-1.495291291037814
 30
0.0
1001
PE_URL
1000

  0
SPLINE
  5
1C2
330
1F
100
AcDbEntity
  8
0
  6
Continuous
 62
     1
370
    15
100
AcDbSpline
210
0.0
220
0.0
230
1.0
 70
     8
 71
     3
 72
    44
 73
    40
 74
     0
 42
0.000000001
 43
0.00000001
 40
0.0
 40
0.0
 40
0.0
 40
0.0
 40
0.0625000000000026
 40
0.0625000000000026
 40
0.1250000000000053
 40
0.1250000000000053
 40
0.1875000000000079
 40
0.1875000000000079
 40
0.2500000000000105
 40
0.2500000000000105
 40
0.3125000000000117
 40
0.3125000000000117
 40
0.3750000000000117
 40
0.3750000000000117
 40
0.4375000000000117
 40
0.4375000000000117
 40
0.4687500000000111
 40
0.4687500000000111
 40
0.5000000000000105
 40
0.5000000000000105
 40
0.53125000000001
 40
0.53125000000001
 40
0.5625000000000094
 40
0.5625000000000094
 40
0.5937500000000089
 40
0.5937500000000089
 40
0.6250000000000081
 40
0.6250000000000081
 40
0.6875000000000068
 40
0.6875000000000068
 40
0.7500000000000054
 40
0.7500000000000054
 40
0.8125000000000041
 40
0.8125000000000041
 40
0.8750000000000027
 40
0.8750000000000027
 40
0.9375000000000013
 40
0.9375000000000013
 40
1.0
 40
1.0
 40
1.0
 40
1.0
 10
-27.78124999999994
 20
-1.495291291037868
 30
0.0
 10
-27.98289563688748
 20
-1.387525951368067
 30
0.0
 10
-28.18375868853926
 20
-1.277391013852567
 30
0.0
 10
-28.58666109395577
 20
-1.057425117557658
 30
0.0
 10
-28.79029745150229
 20
-0.9467353930488631
 30
0.0
 10
-29.19259485137497
 20
-0.7316735573253421
 30
0.0
 10
-29.38856922873948
 20
-0.6297145767932815
 30
0.0
 10
-29.76979786059941
 20
-0.4349078574149559
 30
0.0
 10
-29.95674332115799
 20
-0.3411483582753263
 30
0.0
 10
-30.30620620318377
 20
-0.1616080259229218
 30
0.0
 10
-30.46888655022646
 20
-0.0757741019758242
 30
0.0
 10
-30.7669389454211
 20
0.0994046814558036
 30
0.0
 10
-30.90284903060248
 20
0.1890182555278876
 30
0.0
 10
-31.1325032360556
 20
0.3818961820441977
 30
0.0
 10
-31.2281029543169
 20
0.4861403573070486
 30
0.0
 10
-31.33306847282712
 20
0.6707862425712161
 30
0.0
 10
-31.36106908880798
 20
0.7361887772614715
 30
0.0
 10
-31.40168097201217
 20
0.8780482885430771
 30
0.0
 10
-31.41432244474564
 20
0.955401856159396
 30
0.0
 10
-31.4211211944986
 20
1.120745153515907
 30
0.0
 10
-31.41551384246382
 20
1.20841349185916
 30
0.0
 10
-31.38409993505546
 20
1.396748665064639
 30
0.0
 10
-31.35841904386343
 20
1.495434366615621
 30
0.0
 10
-31.28854357318501
 20
1.6960235189672
 30
0.0
 10
-31.24320703547486
 20
1.800608637081156
 30
0.0
 10
-31.13774584779965
 20
2.003859854553378
 30
0.0
 10
-31.07718480875009
 20
2.10385688651507
 30
0.0
 10
-30.87712576489348
 20
2.391145179487756
 30
0.0
 10
-30.72237775825017
 20
2.560796256588061
 30
0.0
 10
-30.39818510167006
 20
2.837872084991474
 30
0.0
 10
-30.2248262328013
 20
2.948772262274783
 30
0.0
 10
-29.87443887704531
 20
3.112212868121544
 30
0.0
 10
-29.69364618878906
 20
3.167085680497012
 30
0.0
 10
-29.3260659975245
 20
3.228566312317108
 30
0.0
 10
-29.14156509665306
 20
3.23516735695426
 30
0.0
 10
-28.76465533112852
 20
3.209090214043599
 30
0.0
 10
-28.57056450736317
 20
3.176076808004346
 30
0.0
 10
-28.1800681460808
 20
3.078208076074196
 30
0.0
 10
-27.9827921015271
 20
3.01352761198585
 30
0.0
 10
-27.78124999999996
 20
2.935265865732987
 30
0.0
1001
PE_URL
1000

  0
SPLINE
  5
1C3
330
1F
100
AcDbEntity
  8
0
  6
Continuous
 62
     1
370
    15
100
AcDbSpline
210
0.0
220
0.0
230
1.0
 70
     8
 71
     3
 72
    22
 73
    18
 74
     0
 42
0.000000001
 43
0.00000001
 40
0.0
 40
0.0
 40
0.0
 40
0.0
 40
0.125
 40
0.125
 40
0.25
 40
0.25
 40
0.375
 40
0.375
 40
0.5
 40
0.5
 40
0.625
 40
0.625
 40
0.75
 40
0.75
 40
0.875
 40
0.875
 40
1.0
 40
1.0
 40
1.0
 40
1.0
 10
-19.04999999999998
 20
-1.682587561753936
 30
0.0
 10
-19.41119620218732
 20
-1.492795182747718
 30
0.0
 10
-19.77762250207095
 20
-1.295010192542131
 30
0.0
 10
-20.50719240025514
 20
-0.8907710150173589
 30
0.0
 10
-20.86749430695813
 20
-0.684893595629573
 30
0.0
 10
-21.59674857004612
 20
-0.2674948571338991
 30
0.0
 10
-21.9633217559093
 20
-0.0564156275017993
 30
0.0
 10
-22.68659920653853
 20
0.3625582243808747
 30
0.0
 10
-23.0520009946859
 20
0.5721252646667665
 30
0.0
 10
-23.78183372786688
 20
0.984506201467223
 30
0.0
 10
-24.14222981789861
 20
1.186577764808121
 30
0.0
 10
-24.87111572200434
 20
1.58057158699296
 30
0.0
 10
-25.23780896437406
 20
1.772109414307563
 30
0.0
 10
-25.96192017292394
 20
2.13715752383005
 30
0.0
 10
-26.32639040636239
 20
2.311872521347398
 30
0.0
 10
-27.05643311094579
 20
2.640554145783568
 30
0.0
 10
-27.41701754493468
 20
2.793829075308629
 30
0.0
 10
-27.78124999999995
 20
2.935265865732973
 30
0.0
1001
PE_URL
1000

  0
LINE
  5
1C4
330
1F
100
AcDbEntity
  8
외형선
  6
Continuous
370
    15
100
AcDbLine
 10
-19.04999999999997
 20
-0.3400478548587884
 30
0.0
 11
-19.04999999999998
 21
-1.682587561753936
 31
0.0
  0
SPLINE
  5
1C5
330
1F
100
AcDbEntity
  8
0
  6
Continuous
 62
     1
370
    15
100
AcDbSpline
210
0.0
220
0.0
230
1.0
 70
     8
 71
     3
 72
    44
 73
    40
 74
     0
 42
0.000000001
 43
0.00000001
 40
0.0
 40
0.0
 40
0.0
 40
0.0
 40
0.0625000000000025
 40
0.0625000000000025
 40
0.1250000000000051
 40
0.1250000000000051
 40
0.1875000000000076
 40
0.1875000000000076
 40
0.2500000000000101
 40
0.2500000000000101
 40
0.3125000000000112
 40
0.3125000000000112
 40
0.3750000000000111
 40
0.3750000000000111
 40
0.437500000000011
 40
0.437500000000011
 40
0.4687500000000104
 40
0.4687500000000104
 40
0.5000000000000099
 40
0.5000000000000099
 40
0.5312500000000092
 40
0.5312500000000092
 40
0.5625000000000087
 40
0.5625000000000087
 40
0.593750000000008
 40
0.593750000000008
 40
0.6250000000000074
 40
0.6250000000000074
 40
0.6875000000000062
 40
0.6875000000000062
 40
0.750000000000005
 40
0.750000000000005
 40
0.8125000000000038
 40
0.8125000000000038
 40
0.8750000000000024
 40
0.8750000000000024
 40
0.9375000000000012
 40
0.9375000000000012
 40
1.0
 40
1.0
 40
1.0
 40
1.0
 10
-27.78124999999993
 20
-3.676286239868675
 30
0.0
 10
-27.98289563688747
 20
-3.72011867384415
 30
0.0
 10
-28.18375868853926
 20
-3.742982444298375
 30
0.0
 10
-28.58666109395578
 20
-3.746574931245577
 30
0.0
 10
-28.79029745150224
 20
-3.726961680757265
 30
0.0
 10
-29.19259485137494
 20
-3.64382869378843
 30
0.0
 10
-29.38856922873949
 20
-3.581018975690371
 30
0.0
 10
-29.76979786059942
 20
-3.414710092704846
 30
0.0
 10
-29.956743321158
 20
-3.309868744140259
 30
0.0
 10
-30.30620620318374
 20
-3.066408895459753
 30
0.0
 10
-30.46888655022644
 20
-2.928316085689035
 30
0.0
 10
-30.76693894542111
 20
-2.622965357919051
 30
0.0
 10
-30.9028490306025
 20
-2.454388536992825
 30
0.0
 10
-31.13250323605558
 20
-2.104136058640139
 30
0.0
 10
-31.22810295431687
 20
-1.92045091912887
 30
0.0
 10
-31.33306847282712
 20
-1.642917722179961
 30
0.0
 10
-31.36106908880799
 20
-1.551543252158821
 30
0.0
 10
-31.40168097201217
 20
-1.373271956882904
 30
0.0
 10
-31.41432244474566
 20
-1.285482426489624
 30
0.0
 10
-31.42112119449859
 20
-1.12238191034365
 30
0.0
 10
-31.41551384246384
 20
-1.047122684216086
 30
0.0
 10
-31.38409993505545
 20
-0.9127805168047001
 30
0.0
 10
-31.35841904386345
 20
-0.8554514725548987
 30
0.0
 10
-31.28854357318503
 20
-0.7659344291331855
 30
0.0
 10
-31.24320703547485
 20
-0.7328757426563364
 30
0.0
 10
-31.13774584779963
 20
-0.6949288744844591
 30
0.0
 10
-31.07718480875009
 20
-0.6893763552474645
 30
0.0
 10
-30.87712576489351
 20
-0.7096531392342236
 30
0.0
 10
-30.72237775825018
 20
-0.7722879197959571
 30
0.0
 10
-30.39818510167009
 20
-0.9499848904278334
 30
0.0
 10
-30.2248262328013
 20
-1.066677530163718
 30
0.0
 10
-29.87443887704531
 20
-1.317882772533741
 30
0.0
 10
-29.69364618878907
 20
-1.454986033933691
 30
0.0
 10
-29.32606599752448
 20
-1.730485004329632
 30
0.0
 10
-29.14156509665305
 20
-1.867401661982042
 30
0.0
 10
-28.76465533112853
 20
-2.130400880044791
 30
0.0
 10
-28.57056450736316
 20
-2.256964990649928
 30
0.0
 10
-28.18006814608079
 20
-2.483938682343988
 30
0.0
 10
-27.9827921015271
 20
-2.585178649490581
 30
0.0
 10
-27.78124999999995
 20
-2.671177803884072
 30
0.0
1001
PE_URL
1000

  0
SPLINE
  5
1C6
330
1F
100
AcDbEntity
  8
0
  6
Continuous
 62
     1
370
    15
100
AcDbSpline
210
0.0
220
0.0
230
1.0
 70
     8
 71
     3
 72
     9
 73
     5
 74
     0
 42
0.000000001
 43
0.00000001
 40
0.0
 40
0.0
 40
0.0
 40
0.0
 40
0.1660103486397013
 40
0.9999999999999999
 40
0.9999999999999999
 40
0.9999999999999999
 40
0.9999999999999999
 10
-26.24681271649651
 20
-3.245029687148941
 30
0.0
 10
-26.33172242567424
 20
-3.275916571108768
 30
0.0
 10
-26.8431948120254
 20
-3.461970538303676
 30
0.0
 10
-27.354678171421
 20
-3.578828177825196
 30
0.0
 10
-27.78124999999994
 20
-3.676286239868533
 30
0.0
1001
PE_URL
1000

  0
SPLINE
  5
1C7
330
1F
100
AcDbEntity
  8
0
  6
Continuous
 62
     1
370
    15
100
AcDbSpline
210
0.0
220
0.0
230
1.0
 70
     8
 71
     3
 72
    12
 73
     8
 74
     0
 42
0.000000001
 43
0.00000001
 40
0.0
 40
0.0
 40
0.0
 40
0.0
 40
0.2134648574530741
 40
0.4269605018330139
 40
0.6408521026343231
 40
0.8545678241997261
 40
1.0
 40
1.0
 40
1.0
 40
1.0
 10
-27.78124999999993
 20
-2.671177803884079
 30
0.0
 10
-27.3741483924088
 20
-2.836904891252201
 30
0.0
 10
-26.55988646307766
 20
-3.168382967944856
 30
0.0
 10
-25.33786242411306
 20
-3.544740483940069
 30
0.0
 10
-24.11453367106845
 20
-3.809700759898105
 30
0.0
 10
-23.02147027581058
 20
-3.955153372524242
 30
0.0
 10
-22.33653802979896
 20
-3.953698630631299
 30
0.0
 10
-22.059183804579
 20
-3.95310955220352
 30
0.0
1001
PE_URL
1000

  0
LINE
  5
1C8
330
1F
100
AcDbEntity
  8
0
  6
Continuous
 62
     1
370
    15
100
AcDbLine
 10
-19.04999999999999
 20
3.954155285128042
 30
0.0
 11
-19.640032699648
 21
3.953079567466331
 31
0.0
1001
PE_URL
1000

  0
LINE
  5
1C9
330
1F
100
AcDbEntity
  8
외형선
  6
Continuous
370
    15
100
AcDbLine
 10
-19.04999999999998
 20
3.954155285128042
 30
0.0
 11
-19.04999999999999
 21
3.594422854858745
 31
0.0
  0
LINE
  5
1CA
330
1F
100
AcDbEntity
  8
외형선
  6
Continuous
370
    15
100
AcDbLine
 10
-19.04999999999997
 20
0.0
 30
0.0
 11
-19.04999999999996
 21
-3.968750000000002
 31
0.0
  0
LINE
  5
1CB
330
1F
100
AcDbEntity
  8
외형선
  6
Continuous
370
    15
100
AcDbLine
 10
-19.04999999999998
 20
3.96875
 30
0.0
 11
-19.04999999999997
 21
0.0
 31
0.0
  0
ENDSEC
  0
SECTION
  2
OBJECTS
  0
DICTIONARY
  5
C
330
0
100
AcDbDictionary
281
     1
  3
ACAD_DETAILVIEWSTYLE
350
19F
  3
ACAD_GROUP
350
D
  3
ACAD_LAYOUT
350
1A
  3
ACAD_MLINESTYLE
350
17
  3
ACAD_PLOTSETTINGS
350
19
  3
ACAD_PLOTSTYLENAME
350
E
  3
ACAD_SCALELIST
350
47
  3
ACAD_SECTIONVIEWSTYLE
350
1A0
  3
AcDbVariableDictionary
350
19A
  3
APPDATA
350
13C
  3
DWGPROPS
350
1CC
  0
DICTIONARY
  5
175
330
2
100
AcDbDictionary
280
     1
281
     1
  3
ACAD_LAYERSTATES
360
176
  0
DICTIONARY
  5
19F
102
{ACAD_REACTORS
330
C
102
}
330
C
100
AcDbDictionary
281
     1
  0
DICTIONARY
  5
D
102
{ACAD_REACTORS
330
C
102
}
330
C
100
AcDbDictionary
281
     1
  0
DICTIONARY
  5
1A
102
{ACAD_REACTORS
330
C
102
}
330
C
100
AcDbDictionary
281
     1
  3
Layout1
350
1E
  3
Layout2
350
26
  3
Model
350
22
  0
DICTIONARY
  5
17
102
{ACAD_REACTORS
330
C
102
}
330
C
100
AcDbDictionary
281
     1
  3
Standard
350
18
  0
DICTIONARY
  5
19
102
{ACAD_REACTORS
330
C
102
}
330
C
100
AcDbDictionary
281
     1
  0
ACDBDICTIONARYWDFLT
  5
E
102
{ACAD_REACTORS
330
C
102
}
330
C
100
AcDbDictionary
281
     1
  3
Normal
350
F
100
AcDbDictionaryWithDefault
340
F
  0
DICTIONARY
  5
47
102
{ACAD_REACTORS
330
C
102
}
330
C
100
AcDbDictionary
281
     1
  3
A0
350
48
  3
A1
350
49
  3
A2
350
4A
  3
A3
350
4B
  3
A4
350
4C
  3
A5
350
4D
  3
A6
350
4E
  3
A7
350
4F
  3
A8
350
50
  3
A9
350
51
  3
B0
350
52
  3
B1
350
53
  3
B2
350
54
  3
B3
350
55
  3
B4
350
56
  3
B5
350
57
  3
B6
350
58
  3
B7
350
59
  3
B8
350
5A
  3
B9
350
5B
  3
C0
350
5C
  3
C1
350
5D
  3
C2
350
5E
  3
C3
350
5F
  3
C4
350
60
  3
C5
350
61
  3
C6
350
62
  3
C7
350
63
  3
C8
350
64
  3
C9
350
65
  3
D0
350
66
  3
D1
350
67
  3
D2
350
68
  0
DICTIONARY
  5
1A0
102
{ACAD_REACTORS
330
C
102
}
330
C
100
AcDbDictionary
281
     1
  0
DICTIONARY
  5
19A
102
{ACAD_REACTORS
330
C
102
}
330
C
100
AcDbDictionary
281
     1
  0
DICTIONARY
  5
13C
102
{ACAD_REACTORS
330
C
102
}
330
C
100
AcDbDictionary
281
     1
  0
XRECORD
  5
1CC
102
{ACAD_REACTORS
330
C
102
}
330
C
100
AcDbXrecord
280
     1
  1
DWGPROPS COOKIE
  2

  3

  4

  6

  7

  8
120170442
  9

300
=
301
=
302
=
303
=
304
=
305
=
306
=
307
=
308
=
309
=
 40
0.0
 41
2458320.000744155
 42
2458324.269659375
  1

 90
        0
  0
DICTIONARY
  5
176
102
{ACAD_REACTORS
330
175
102
}
330
175
100
AcDbDictionary
281
     1
  0
LAYOUT
  5
1E
102
{ACAD_REACTORS
330
1A
102
}
330
1A
100
AcDbPlotSettings
  1

  2
none_device
  4

  6

 40
0.0
 41
0.0
 42
0.0
 43
0.0
 44
0.0
 45
0.0
 46
0.0
 47
0.0
 48
0.0
 49
0.0
140
0.0
141
0.0
142
1.0
143
1.0
 70
   688
 72
     1
 73
     0
 74
     5
  7

 75
    16
147
1.0
148
0.0
149
0.0
100
AcDbLayout
  1
Layout1
 70
     1
 71
     1
 10
0.0
 20
0.0
 11
420.0
 21
297.0
 12
0.0
 22
0.0
 32
0.0
 14
1.000000000000000E+20
 24
1.000000000000000E+20
 34
1.000000000000000E+20
 15
-1.000000000000000E+20
 25
-1.000000000000000E+20
 35
-1.000000000000000E+20
146
0.0
 13
0.0
 23
0.0
 33
0.0
 16
1.0
 26
0.0
 36
0.0
 17
0.0
 27
1.0
 37
0.0
 76
     0
330
1B
  0
LAYOUT
  5
26
102
{ACAD_REACTORS
330
1A
102
}
330
1A
100
AcDbPlotSettings
  1

  2
none_device
  4

  6

 40
0.0
 41
0.0
 42
0.0
 43
0.0
 44
0.0
 45
0.0
 46
0.0
 47
0.0
 48
0.0
 49
0.0
140
0.0
141
0.0
142
1.0
143
1.0
 70
   688
 72
     1
 73
     0
 74
     5
  7

 75
    16
147
1.0
148
0.0
149
0.0
100
AcDbLayout
  1
Layout2
 70
     1
 71
     2
 10
0.0
 20
0.0
 11
0.0
 21
0.0
 12
0.0
 22
0.0
 32
0.0
 14
0.0
 24
0.0
 34
0.0
 15
0.0
 25
0.0
 35
0.0
146
0.0
 13
0.0
 23
0.0
 33
0.0
 16
1.0
 26
0.0
 36
0.0
 17
0.0
 27
1.0
 37
0.0
 76
     0
330
23
  0
LAYOUT
  5
22
102
{ACAD_REACTORS
330
1A
102
}
330
1A
100
AcDbPlotSettings
  1

  2
none_device
  4
ANSI_A_(11.00_x_8.50_Inches)
  6

 40
6.35
 41
19.05
 42
6.35000508
 43
19.05000254
 44
279.4
 45
215.9
 46
130.1804948528391
 47
92.54006001706156
 48
0.0
 49
0.0
140
0.0
141
0.0
142
0.0687678581395336
143
1.0
 70
  1696
 72
     0
 73
     0
 74
     0
  7

 75
     0
147
0.0235690232323232
148
0.0
149
0.0
100
AcDbLayout
  1
Model
 70
     1
 71
     0
 10
0.0
 20
0.0
 11
420.0
 21
297.0
 12
0.0
 22
0.0
 32
0.0
 14
-46.12500000000011
 24
-49.97180738881175
 34
0.0
 15
102.6572338153456
 25
38.57275000000011
 35
0.0
146
0.0
 13
0.0
 23
0.0
 33
0.0
 16
1.0
 26
0.0
 36
0.0
 17
0.0
 27
1.0
 37
0.0
 76
     0
330
1F
331
29
  0
MLINESTYLE
  5
18
102
{ACAD_REACTORS
330
17
102
}
330
17
100
AcDbMlineStyle
  2
Standard
 70
     0
  3

 62
   256
 51
90.0
 52
90.0
 71
     2
 49
0.5
 62
   256
  6
BYLAYER
 49
-0.5
 62
   256
  6
BYLAYER
  0
ACDBPLACEHOLDER
  5
F
102
{ACAD_REACTORS
330
E
102
}
330
E
  0
SCALE
  5
48
102
{ACAD_REACTORS
330
47
102
}
330
47
100
AcDbScale
 70
     0
300
1:1
140
1.0
141
1.0
290
     1
  0
SCALE
  5
49
102
{ACAD_REACTORS
330
47
102
}
330
47
100
AcDbScale
 70
     0
300
1:2
140
1.0
141
2.0
290
     0
  0
SCALE
  5
4A
102
{ACAD_REACTORS
330
47
102
}
330
47
100
AcDbScale
 70
     0
300
1:4
140
1.0
141
4.0
290
     0
  0
SCALE
  5
4B
102
{ACAD_REACTORS
330
47
102
}
330
47
100
AcDbScale
 70
     0
300
1:5
140
1.0
141
5.0
290
     0
  0
SCALE
  5
4C
102
{ACAD_REACTORS
330
47
102
}
330
47
100
AcDbScale
 70
     0
300
1:8
140
1.0
141
8.0
290
     0
  0
SCALE
  5
4D
102
{ACAD_REACTORS
330
47
102
}
330
47
100
AcDbScale
 70
     0
300
1:10
140
1.0
141
10.0
290
     0
  0
SCALE
  5
4E
102
{ACAD_REACTORS
330
47
102
}
330
47
100
AcDbScale
 70
     0
300
1:16
140
1.0
141
16.0
290
     0
  0
SCALE
  5
4F
102
{ACAD_REACTORS
330
47
102
}
330
47
100
AcDbScale
 70
     0
300
1:20
140
1.0
141
20.0
290
     0
  0
SCALE
  5
50
102
{ACAD_REACTORS
330
47
102
}
330
47
100
AcDbScale
 70
     0
300
1:30
140
1.0
141
30.0
290
     0
  0
SCALE
  5
51
102
{ACAD_REACTORS
330
47
102
}
330
47
100
AcDbScale
 70
     0
300
1:40
140
1.0
141
40.0
290
     0
  0
SCALE
  5
52
102
{ACAD_REACTORS
330
47
102
}
330
47
100
AcDbScale
 70
     0
300
1:50
140
1.0
141
50.0
290
     0
  0
SCALE
  5
53
102
{ACAD_REACTORS
330
47
102
}
330
47
100
AcDbScale
 70
     0
300
1:100
140
1.0
141
100.0
290
     0
  0
SCALE
  5
54
102
{ACAD_REACTORS
330
47
102
}
330
47
100
AcDbScale
 70
     0
300
2:1
140
2.0
141
1.0
290
     0
  0
SCALE
  5
55
102
{ACAD_REACTORS
330
47
102
}
330
47
100
AcDbScale
 70
     0
300
4:1
140
4.0
141
1.0
290
     0
  0
SCALE
  5
56
102
{ACAD_REACTORS
330
47
102
}
330
47
100
AcDbScale
 70
     0
300
8:1
140
8.0
141
1.0
290
     0
  0
SCALE
  5
57
102
{ACAD_REACTORS
330
47
102
}
330
47
100
AcDbScale
 70
     0
300
10:1
140
10.0
141
1.0
290
     0
  0
SCALE
  5
58
102
{ACAD_REACTORS
330
47
102
}
330
47
100
AcDbScale
 70
     0
300
100:1
140
100.0
141
1.0
290
     0
  0
SCALE
  5
59
102
{ACAD_REACTORS
330
47
102
}
330
47
100
AcDbScale
 70
     0
300
1/128" = 1'-0"
140
0.0078125
141
12.0
290
     0
  0
SCALE
  5
5A
102
{ACAD_REACTORS
330
47
102
}
330
47
100
AcDbScale
 70
     0
300
1/64" = 1'-0"
140
0.015625
141
12.0
290
     0
  0
SCALE
  5
5B
102
{ACAD_REACTORS
330
47
102
}
330
47
100
AcDbScale
 70
     0
300
1/32" = 1'-0"
140
0.03125
141
12.0
290
     0
  0
SCALE
  5
5C
102
{ACAD_REACTORS
330
47
102
}
330
47
100
AcDbScale
 70
     0
300
1/16" = 1'-0"
140
0.0625
141
12.0
290
     0
  0
SCALE
  5
5D
102
{ACAD_REACTORS
330
47
102
}
330
47
100
AcDbScale
 70
     0
300
3/32" = 1'-0"
140
0.09375
141
12.0
290
     0
  0
SCALE
  5
5E
102
{ACAD_REACTORS
330
47
102
}
330
47
100
AcDbScale
 70
     0
300
1/8" = 1'-0"
140
0.125
141
12.0
290
     0
  0
SCALE
  5
5F
102
{ACAD_REACTORS
330
47
102
}
330
47
100
AcDbScale
 70
     0
300
3/16" = 1'-0"
140
0.1875
141
12.0
290
     0
  0
SCALE
  5
60
102
{ACAD_REACTORS
330
47
102
}
330
47
100
AcDbScale
 70
     0
300
1/4" = 1'-0"
140
0.25
141
12.0
290
     0
  0
SCALE
  5
61
102
{ACAD_REACTORS
330
47
102
}
330
47
100
AcDbScale
 70
     0
300
3/8" = 1'-0"
140
0.375
141
12.0
290
     0
  0
SCALE
  5
62
102
{ACAD_REACTORS
330
47
102
}
330
47
100
AcDbScale
 70
     0
300
1/2" = 1'-0"
140
0.5
141
12.0
290
     0
  0
SCALE
  5
63
102
{ACAD_REACTORS
330
47
102
}
330
47
100
AcDbScale
 70
     0
300
3/4" = 1'-0"
140
0.75
141
12.0
290
     0
  0
SCALE
  5
64
102
{ACAD_REACTORS
330
47
102
}
330
47
100
AcDbScale
 70
     0
300
1" = 1'-0"
140
1.0
141
12.0
290
     0
  0
SCALE
  5
65
102
{ACAD_REACTORS
330
47
102
}
330
47
100
AcDbScale
 70
     0
300
1-1/2" = 1'-0"
140
1.5
141
12.0
290
     0
  0
SCALE
  5
66
102
{ACAD_REACTORS
330
47
102
}
330
47
100
AcDbScale
 70
     0
300
3" = 1'-0"
140
3.0
141
12.0
290
     0
  0
SCALE
  5
67
102
{ACAD_REACTORS
330
47
102
}
330
47
100
AcDbScale
 70
     0
300
6" = 1'-0"
140
6.0
141
12.0
290
     0
  0
SCALE
  5
68
102
{ACAD_REACTORS
330
47
102
}
330
47
100
AcDbScale
 70
     0
300
1'-0" = 1'-0"
140
12.0
141
12.0
290
     0
  0
ENDSEC
  0
EOF
