  0
SECTION
  2
HEADER
  9
$ACADVER
  1
AC1015
  9
$ACADMAINTVER
 70
     6
  9
$DWGCODEPAGE
  3
ANSI_949
  9
$INSBASE
 10
0.0
 20
0.0
 30
0.0
  9
$EXTMIN
 10
-46.12500000000011
 20
-49.97180738881175
 30
0.0
  9
$EXTMAX
 10
102.6572338153456
 20
37.61650000000019
 30
0.0
  9
$LIMMIN
 10
0.0
 20
0.0
  9
$LIMMAX
 10
420.0
 20
297.0
  9
$ORTHOMODE
 70
     1
  9
$REGENMODE
 70
     1
  9
$FILLMODE
 70
     1
  9
$QTEXTMODE
 70
     0
  9
$MIRRTEXT
 70
     1
  9
$LTSCALE
 40
1.0
  9
$ATTMODE
 70
     1
  9
$TEXTSIZE
 40
3.5
  9
$TRACEWID
 40
1.0
  9
$TEXTSTYLE
  7
Standard
  9
$CLAYER
  8
0
  9
$CELTYPE
  6
ByLayer
  9
$CECOLOR
 62
   256
  9
$CELTSCALE
 40
1.0
  9
$DISPSILH
 70
     0
  9
$DIMSCALE
 40
1.0
  9
$DIMASZ
 40
3.302
  9
$DIMEXO
 40
1.0
  9
$DIMDLI
 40
3.75
  9
$DIMRND
 40
0.0
  9
$DIMDLE
 40
0.0
  9
$DIMEXE
 40
1.0
  9
$DIMTP
 40
0.0
  9
$DIMTM
 40
0.0
  9
$DIMTXT
 40
3.5
  9
$DIMCEN
 40
2.5
  9
$DIMTSZ
 40
0.0
  9
$DIMTOL
 70
     0
  9
$DIMLIM
 70
     0
  9
$DIMTIH
 70
     1
  9
$DIMTOH
 70
     1
  9
$DIMSE1
 70
     0
  9
$DIMSE2
 70
     0
  9
$DIMTAD
 70
     1
  9
$DIMZIN
 70
     0
  9
$DIMBLK
  1

  9
$DIMASO
 70
     1
  9
$DIMSHO
 70
     1
  9
$DIMPOST
  1

  9
$DIMAPOST
  1

  9
$DIMALT
 70
     0
  9
$DIMALTD
 70
     3
  9
$DIMALTF
 40
0.0393700787401575
  9
$DIMLFAC
 40
1.0
  9
$DIMTOFL
 70
     1
  9
$DIMTVP
 40
0.0
  9
$DIMTIX
 70
     0
  9
$DIMSOXD
 70
     0
  9
$DIMSAH
 70
     0
  9
$DIMBLK1
  1

  9
$DIMBLK2
  1

  9
$DIMSTYLE
  2
ISO-25
  9
$DIMCLRD
 70
     0
  9
$DIMCLRE
 70
     0
  9
$DIMCLRT
 70
     0
  9
$DIMTFAC
 40
1.0
  9
$DIMGAP
 40
1.524
  9
$DIMJUST
 70
     0
  9
$DIMSD1
 70
     0
  9
$DIMSD2
 70
     0
  9
$DIMTOLJ
 70
     0
  9
$DIMTZIN
 70
     0
  9
$DIMALTZ
 70
     0
  9
$DIMALTTZ
 70
     0
  9
$DIMUPT
 70
     0
  9
$DIMDEC
 70
     2
  9
$DIMTDEC
 70
     2
  9
$DIMALTU
 70
     2
  9
$DIMALTTD
 70
     3
  9
$DIMTXSTY
  7
Standard
  9
$DIMAUNIT
 70
     0
  9
$DIMADEC
 70
     2
  9
$DIMALTRND
 40
0.0
  9
$DIMAZIN
 70
     0
  9
$DIMDSEP
 70
    44
  9
$DIMATFIT
 70
     3
  9
$DIMFRAC
 70
     0
  9
$DIMLDRBLK
  1

  9
$DIMLUNIT
 70
     2
  9
$DIMLWD
 70
    -2
  9
$DIMLWE
 70
    -2
  9
$DIMTMOVE
 70
     0
  9
$LUNITS
 70
     2
  9
$LUPREC
 70
     2
  9
$SKETCHINC
 40
1.0
  9
$FILLETRAD
 40
10.0
  9
$AUNITS
 70
     0
  9
$AUPREC
 70
     2
  9
$MENU
  1
.
  9
$ELEVATION
 40
0.0
  9
$PELEVATION
 40
0.0
  9
$THICKNESS
 40
0.0
  9
$LIMCHECK
 70
     0
  9
$CHAMFERA
 40
0.0
  9
$CHAMFERB
 40
0.0
  9
$CHAMFERC
 40
0.0
  9
$CHAMFERD
 40
0.0
  9
$SKPOLY
 70
     0
  9
$TDCREATE
 40
2458320.375955405
  9
$TDUCREATE
 40
2458320.000955405
  9
$TDUPDATE
 40
2458324.654221285
  9
$TDUUPDATE
 40
2458324.279221285
  9
$TDINDWG
 40
0.0005847454
  9
$TDUSRTIMER
 40
0.0044100231
  9
$USRTIMER
 70
     1
  9
$ANGBASE
 50
0.0
  9
$ANGDIR
 70
     0
  9
$PDMODE
 70
     0
  9
$PDSIZE
 40
-1.0
  9
$PLINEWID
 40
0.0
  9
$SPLFRAME
 70
     0
  9
$SPLINETYPE
 70
     6
  9
$SPLINESEGS
 70
     8
  9
$HANDSEED
  5
1CE
  9
$SURFTAB1
 70
     6
  9
$SURFTAB2
 70
     6
  9
$SURFTYPE
 70
     6
  9
$SURFU
 70
     6
  9
$SURFV
 70
     6
  9
$UCSBASE
  2

  9
$UCSNAME
  2

  9
$UCSORG
 10
0.0
 20
0.0
 30
0.0
  9
$UCSXDIR
 10
1.0
 20
0.0
 30
0.0
  9
$UCSYDIR
 10
0.0
 20
1.0
 30
0.0
  9
$UCSORTHOREF
  2

  9
$UCSORTHOVIEW
 70
     0
  9
$UCSORGTOP
 10
0.0
 20
0.0
 30
0.0
  9
$UCSORGBOTTOM
 10
0.0
 20
0.0
 30
0.0
  9
$UCSORGLEFT
 10
0.0
 20
0.0
 30
0.0
  9
$UCSORGRIGHT
 10
0.0
 20
0.0
 30
0.0
  9
$UCSORGFRONT
 10
0.0
 20
0.0
 30
0.0
  9
$UCSORGBACK
 10
0.0
 20
0.0
 30
0.0
  9
$PUCSBASE
  2

  9
$PUCSNAME
  2

  9
$PUCSORG
 10
0.0
 20
0.0
 30
0.0
  9
$PUCSXDIR
 10
1.0
 20
0.0
 30
0.0
  9
$PUCSYDIR
 10
0.0
 20
1.0
 30
0.0
  9
$PUCSORTHOREF
  2

  9
$PUCSORTHOVIEW
 70
     0
  9
$PUCSORGTOP
 10
0.0
 20
0.0
 30
0.0
  9
$PUCSORGBOTTOM
 10
0.0
 20
0.0
 30
0.0
  9
$PUCSORGLEFT
 10
0.0
 20
0.0
 30
0.0
  9
$PUCSORGRIGHT
 10
0.0
 20
0.0
 30
0.0
  9
$PUCSORGFRONT
 10
0.0
 20
0.0
 30
0.0
  9
$PUCSORGBACK
 10
0.0
 20
0.0
 30
0.0
  9
$USERI1
 70
     0
  9
$USERI2
 70
     0
  9
$USERI3
 70
     0
  9
$USERI4
 70
     0
  9
$USERI5
 70
     0
  9
$USERR1
 40
0.0
  9
$USERR2
 40
0.0
  9
$USERR3
 40
0.0
  9
$USERR4
 40
0.0
  9
$USERR5
 40
0.0
  9
$WORLDVIEW
 70
     1
  9
$SHADEDGE
 70
     3
  9
$SHADEDIF
 70
    70
  9
$TILEMODE
 70
     1
  9
$MAXACTVP
 70
    64
  9
$PINSBASE
 10
0.0
 20
0.0
 30
0.0
  9
$PLIMCHECK
 70
     0
  9
$PEXTMIN
 10
1.000000000000000E+20
 20
1.000000000000000E+20
 30
1.000000000000000E+20
  9
$PEXTMAX
 10
-1.000000000000000E+20
 20
-1.000000000000000E+20
 30
-1.000000000000000E+20
  9
$PLIMMIN
 10
0.0
 20
0.0
  9
$PLIMMAX
 10
0.0
 20
0.0
  9
$UNITMODE
 70
     0
  9
$VISRETAIN
 70
     1
  9
$PLINEGEN
 70
     0
  9
$PSLTSCALE
 70
     1
  9
$TREEDEPTH
 70
  3020
  9
$CMLSTYLE
  2
Standard
  9
$CMLJUST
 70
     0
  9
$CMLSCALE
 40
20.0
  9
$PROXYGRAPHICS
 70
     1
  9
$MEASUREMENT
 70
     1
  9
$CELWEIGHT
370
    -1
  9
$ENDCAPS
280
     0
  9
$JOINSTYLE
280
     0
  9
$LWDISPLAY
290
     1
  9
$INSUNITS
 70
     4
  9
$HYPERLINKBASE
  1

  9
$STYLESHEET
  1

  9
$XEDIT
290
     1
  9
$CEPSNTYPE
380
     0
  9
$PSTYLEMODE
290
     1
  9
$FINGERPRINTGUID
  2
{7602BDB4-B95E-4BC0-A451-1D02D1B61E5C}
  9
$VERSIONGUID
  2
{FAEB1C32-E019-11D5-929B-00C0DF256EC4}
  9
$EXTNAMES
290
     1
  9
$PSVPSCALE
 40
0.0
  9
$OLESTARTUP
290
     0
  0
ENDSEC
  0
SECTION
  2
CLASSES
  0
CLASS
  1
ACDBDICTIONARYWDFLT
  2
AcDbDictionaryWithDefault
  3
ObjectDBX Classes
 90
        0
280
     0
281
     0
  0
CLASS
  1
VISUALSTYLE
  2
AcDbVisualStyle
  3
ObjectDBX Classes
 90
     4095
280
     0
281
     0
  0
CLASS
  1
MATERIAL
  2
AcDbMaterial
  3
ObjectDBX Classes
 90
     1153
280
     0
281
     0
  0
CLASS
  1
SCALE
  2
AcDbScale
  3
ObjectDBX Classes
 90
     1153
280
     0
281
     0
  0
CLASS
  1
SUN
  2
AcDbSun
  3
SCENEOE
 90
     1153
280
     0
281
     0
  0
CLASS
  1
ACDBPLACEHOLDER
  2
AcDbPlaceHolder
  3
ObjectDBX Classes
 90
        0
280
     0
281
     0
  0
CLASS
  1
LAYOUT
  2
AcDbLayout
  3
ObjectDBX Classes
 90
        0
280
     0
281
     0
  0
CLASS
  1
TABLESTYLE
  2
AcDbTableStyle
  3
ObjectDBX Classes
 90
     4095
280
     0
281
     0
  0
CLASS
  1
MLEADERSTYLE
  2
AcDbMLeaderStyle
  3
ACDB_MLEADERSTYLE_CLASS
 90
     4095
280
     0
281
     0
  0
CLASS
  1
DICTIONARYVAR
  2
AcDbDictionaryVar
  3
ObjectDBX Classes
 90
        0
280
     0
281
     0
  0
ENDSEC
  0
SECTION
  2
TABLES
  0
TABLE
  2
VPORT
  5
8
330
0
100
AcDbSymbolTable
 70
     1
  0
VPORT
  5
29
330
8
100
AcDbSymbolTableRecord
100
AcDbViewportTableRecord
  2
*Active
 70
     0
 10
0.0
 20
0.0
 11
1.0
 21
1.0
 12
28.26611690767276
 22
-6.177653694405784
 13
0.0
 23
0.0
 14
10.0
 24
10.0
 15
10.0
 25
10.0
 16
0.0
 26
0.0
 36
1.0
 17
0.0
 27
0.0
 37
0.0
 40
89.34007353658816
 41
1.782762691853601
 42
50.0
 43
0.0
 44
0.0
 50
0.0
 51
0.0
 71
    16
 72
  2000
 73
     1
 74
     3
 75
     0
 76
     0
 77
     0
 78
     0
281
     0
 65
     1
110
0.0
120
0.0
130
0.0
111
1.0
121
0.0
131
0.0
112
0.0
122
1.0
132
0.0
 79
     0
146
0.0
  0
ENDTAB
  0
TABLE
  2
LTYPE
  5
5
330
0
100
AcDbSymbolTable
 70
     6
  0
LTYPE
  5
14
330
5
100
AcDbSymbolTableRecord
100
AcDbLinetypeTableRecord
  2
ByBlock
 70
     0
  3

 72
    65
 73
     0
 40
0.0
  0
LTYPE
  5
15
330
5
100
AcDbSymbolTableRecord
100
AcDbLinetypeTableRecord
  2
ByLayer
 70
     0
  3

 72
    65
 73
     0
 40
0.0
  0
LTYPE
  5
16
330
5
100
AcDbSymbolTableRecord
100
AcDbLinetypeTableRecord
  2
Continuous
 70
     0
  3
Solid line
 72
    65
 73
     0
 40
0.0
  0
LTYPE
  5
6A
330
5
100
AcDbSymbolTableRecord
100
AcDbLinetypeTableRecord
  2
HIDDEN
 70
     0
  3
Hidden __ __ __ __ __ __ __ __ __ __ __ __ __ __
 72
    65
 73
     2
 40
1.905
 49
1.27
 74
     0
 49
-0.635
 74
     0
  0
LTYPE
  5
6B
330
5
100
AcDbSymbolTableRecord
100
AcDbLinetypeTableRecord
  2
PHANTOM
 70
     0
  3
Phantom ______  __  __  ______  __  __  ______
 72
    65
 73
     6
 40
12.7
 49
6.35
 74
     0
 49
-1.27
 74
     0
 49
1.27
 74
     0
 49
-1.27
 74
     0
 49
1.27
 74
     0
 49
-1.27
 74
     0
  0
LTYPE
  5
6C
330
5
100
AcDbSymbolTableRecord
100
AcDbLinetypeTableRecord
  2
CENTER
 70
     0
  3
Center ____ _ ____ _ ____ _ ____ _ ____ _ ____
 72
    65
 73
     4
 40
10.16
 49
6.35
 74
     0
 49
-1.27
 74
     0
 49
1.27
 74
     0
 49
-1.27
 74
     0
  0
LTYPE
  5
6D
330
5
100
AcDbSymbolTableRecord
100
AcDbLinetypeTableRecord
  2
CENTERX2
 70
     0
  3
Center (2x) ________  __  ________  __  _____
 72
    65
 73
     4
 40
20.32
 49
12.7
 74
     0
 49
-2.54
 74
     0
 49
2.54
 74
     0
 49
-2.54
 74
     0
  0
LTYPE
  5
6E
330
5
100
AcDbSymbolTableRecord
100
AcDbLinetypeTableRecord
  2
DOT2
 70
     0
  3
Dot (.5x) ........................................
 72
    65
 73
     2
 40
0.635
 49
0.0
 74
     0
 49
-0.635
 74
     0
  0
ENDTAB
  0
TABLE
  2
LAYER
  5
2
102
{ACAD_XDICTIONARY
360
175
102
}
330
0
100
AcDbSymbolTable
 70
    18
  0
LAYER
  5
10
330
2
100
AcDbSymbolTableRecord
100
AcDbLayerTableRecord
  2
0
 70
     0
 62
     7
  6
Continuous
370
    -3
390
F
  0
LAYER
  5
6F
330
2
100
AcDbSymbolTableRecord
100
AcDbLayerTableRecord
  2
FORMAT
 70
     0
 62
     2
  6
Continuous
370
    -3
390
F
  0
LAYER
  5
70
330
2
100
AcDbSymbolTableRecord
100
AcDbLayerTableRecord
  2
외형선
 70
     0
 62
     4
  6
Continuous
370
    30
390
F
  0
LAYER
  5
71
330
2
100
AcDbSymbolTableRecord
100
AcDbLayerTableRecord
  2
숨은선
 70
     0
 62
     2
  6
HIDDEN
370
    15
390
F
  0
LAYER
  5
72
330
2
100
AcDbSymbolTableRecord
100
AcDbLayerTableRecord
  2
중심선
 70
     0
 62
     1
  6
CENTERX2
370
    -3
390
F
  0
LAYER
  5
73
330
2
100
AcDbSymbolTableRecord
100
AcDbLayerTableRecord
  2
파단선
 70
     0
 62
     4
  6
Continuous
370
    -3
390
F
  0
LAYER
  5
74
330
2
100
AcDbSymbolTableRecord
100
AcDbLayerTableRecord
  2
해칭선
 70
     0
 62
   100
  6
Continuous
370
    -3
390
F
  0
LAYER
  5
75
330
2
100
AcDbSymbolTableRecord
100
AcDbLayerTableRecord
  2
가는실선
 70
     0
 62
     4
  6
Continuous
370
    -3
390
F
  0
LAYER
  5
76
330
2
100
AcDbSymbolTableRecord
100
AcDbLayerTableRecord
  2
치수_보조선
 70
     0
 62
     4
  6
Continuous
370
    -3
390
F
  0
LAYER
  5
77
330
2
100
AcDbSymbolTableRecord
100
AcDbLayerTableRecord
  2
치수문자_일반주서
 70
     0
 62
     7
  6
Continuous
370
    15
390
F
  0
LAYER
  5
78
330
2
100
AcDbSymbolTableRecord
100
AcDbLayerTableRecord
  2
개별주서
 70
     0
 62
   100
  6
Continuous
370
    30
390
F
  0
LAYER
  5
79
330
2
100
AcDbSymbolTableRecord
100
AcDbLayerTableRecord
  2
중간선
 70
     0
 62
     2
  6
Continuous
370
    15
390
F
  0
LAYER
  5
7A
330
2
100
AcDbSymbolTableRecord
100
AcDbLayerTableRecord
  2
윤곽선
 70
     0
 62
     3
  6
Continuous
370
    40
390
F
  0
LAYER
  5
7B
330
2
100
AcDbSymbolTableRecord
100
AcDbLayerTableRecord
  2
중심마크
 70
     0
 62
   100
  6
Continuous
370
    30
390
F
  0
LAYER
  5
7C
330
2
100
AcDbSymbolTableRecord
100
AcDbLayerTableRecord
  2
가상선
 70
     0
 62
     4
  6
PHANTOM
370
    -3
390
F
  0
LAYER
  5
7D
330
2
100
AcDbSymbolTableRecord
100
AcDbLayerTableRecord
  2
특수지정선
 70
     0
 62
     5
  6
CENTERX2
370
    60
390
F
  0
LAYER
  5
7E
330
2
100
AcDbSymbolTableRecord
100
AcDbLayerTableRecord
  2
참조1
 70
     0
 62
    -4
  6
Continuous
370
    -3
390
F
  0
LAYER
  5
13E
330
2
100
AcDbSymbolTableRecord
100
AcDbLayerTableRecord
  2
Defpoints
 70
     0
 62
     7
  6
Continuous
290
     0
370
    -3
390
F
  0
ENDTAB
  0
TABLE
  2
STYLE
  5
3
330
0
100
AcDbSymbolTable
 70
     2
  0
STYLE
  5
11
330
3
100
AcDbSymbolTableRecord
100
AcDbTextStyleTableRecord
  2
Standard
 70
     0
 40
0.0
 41
1.0
 50
0.0
 71
     0
 42
3.5
  3
txt
  4

  0
STYLE
  5
94
330
3
100
AcDbSymbolTableRecord
100
AcDbTextStyleTableRecord
  2
SLDTEXTSTYLE0
 70
     0
 40
0.0
 41
0.75
 50
0.0
 71
     0
 42
3.5
  3
TXT
  4

  0
ENDTAB
  0
TABLE
  2
VIEW
  5
6
330
0
100
AcDbSymbolTable
 70
     0
  0
ENDTAB
  0
TABLE
  2
UCS
  5
7
330
0
100
AcDbSymbolTable
 70
     0
  0
ENDTAB
  0
TABLE
  2
APPID
  5
9
330
0
100
AcDbSymbolTable
 70
     2
  0
APPID
  5
12
330
9
100
AcDbSymbolTableRecord
100
AcDbRegAppTableRecord
  2
ACAD
 70
     0
  0
APPID
  5
145
330
9
100
AcDbSymbolTableRecord
100
AcDbRegAppTableRecord
  2
PE_URL
 70
     0
  0
ENDTAB
  0
TABLE
  2
DIMSTYLE
  5
A
330
0
100
AcDbSymbolTable
 70
     4
100
AcDbDimStyleTable
  0
DIMSTYLE
105
27
330
A
100
AcDbSymbolTableRecord
100
AcDbDimStyleTableRecord
  2
ISO-25
 70
     0
 41
2.5
 42
0.625
 43
3.75
 44
1.25
 73
     0
 74
     0
 77
     1
 78
     8
140
2.5
141
2.5
143
0.03937007874016
147
0.625
171
     3
172
     1
178
     0
271
     2
272
     2
274
     3
278
    44
283
     0
284
     8
340
11
  0
DIMSTYLE
105
BD
330
A
100
AcDbSymbolTableRecord
100
AcDbDimStyleTableRecord
  2
SLDDIMSTYLE0
 70
     0
 41
3.302
 44
0.0
 45
0.000000001
 73
     0
 74
     0
 77
     1
 78
    12
 79
     3
140
3.5
143
0.0393700787401575
147
0.875
148
0.000000001
170
     1
173
     1
178
     0
271
     2
272
     2
276
     2
284
    12
340
94
  0
DIMSTYLE
105
D2
330
A
100
AcDbSymbolTableRecord
100
AcDbDimStyleTableRecord
  2
SLDDIMSTYLE1
 70
     0
 41
3.302
 44
0.0
 45
0.000000001
 73
     0
 74
     0
 77
     1
 78
     4
 79
     1
140
3.5
143
0.0393700787401575
147
0.875
148
0.000000001
170
     1
173
     1
178
     0
271
     2
272
     2
276
     2
284
    12
340
94
  0
DIMSTYLE
105
F9
102
{ACAD_REACTORS
330
F8
330
164
330
BC
330
D1
330
E5
102
}
330
A
100
AcDbSymbolTableRecord
100
AcDbDimStyleTableRecord
  2
SLDDIMSTYLE2
 70
     0
 41
3.302
 44
0.0
 45
0.000000001
 73
     0
 74
     0
 77
     1
 78
    12
 79
     3
140
3.5
143
0.0393700787401575
147
0.875
148
0.000000001
170
     1
172
     1
173
     1
178
     0
271
     2
272
     2
276
     2
284
    12
289
     0
340
94
  0
ENDTAB
  0
TABLE
  2
BLOCK_RECORD
  5
1
330
0
100
AcDbSymbolTable
 70
    10
  0
BLOCK_RECORD
  5
1F
330
1
100
AcDbSymbolTableRecord
100
AcDbBlockTableRecord
  2
*Model_Space
340
22
  0
BLOCK_RECORD
  5
1B
330
1
100
AcDbSymbolTableRecord
100
AcDbBlockTableRecord
  2
*Paper_Space
340
1E
  0
BLOCK_RECORD
  5
23
330
1
100
AcDbSymbolTableRecord
100
AcDbBlockTableRecord
  2
*Paper_Space0
340
26
  0
BLOCK_RECORD
  5
7F
330
1
100
AcDbSymbolTableRecord
100
AcDbBlockTableRecord
  2
블럭10
340
0
102
{BLKREFS
331
B5
102
}
  0
BLOCK_RECORD
  5
BE
330
1
100
AcDbSymbolTableRecord
100
AcDbBlockTableRecord
  2
_D
340
0
  0
BLOCK_RECORD
  5
D3
330
1
100
AcDbSymbolTableRecord
100
AcDbBlockTableRecord
  2
_D_1
340
0
  0
BLOCK_RECORD
  5
E6
330
1
100
AcDbSymbolTableRecord
100
AcDbBlockTableRecord
  2
_D_2
340
0
  0
BLOCK_RECORD
  5
FA
330
1
100
AcDbSymbolTableRecord
100
AcDbBlockTableRecord
  2
_D_3
340
0
  0
BLOCK_RECORD
  5
114
330
1
100
AcDbSymbolTableRecord
100
AcDbBlockTableRecord
  2
SW_DOWELSYMBOL_0
340
0
102
{BLKREFS
331
11A
102
}
  0
BLOCK_RECORD
  5
179
330
1
100
AcDbSymbolTableRecord
100
AcDbBlockTableRecord
  2
*D8
340
0
  0
BLOCK_RECORD
  5
18B
330
1
100
AcDbSymbolTableRecord
100
AcDbBlockTableRecord
  2
*D9
340
0
  0
ENDTAB
  0
ENDSEC
  0
SECTION
  2
BLOCKS
  0
BLOCK
  5
20
330
1F
100
AcDbEntity
  8
0
100
AcDbBlockBegin
  2
*Model_Space
 70
     0
 10
0.0
 20
0.0
 30
0.0
  3
*Model_Space
  1

  0
ENDBLK
  5
21
330
1F
100
AcDbEntity
  8
0
100
AcDbBlockEnd
  0
BLOCK
  5
1C
330
1B
100
AcDbEntity
 67
     1
  8
0
100
AcDbBlockBegin
  2
*Paper_Space
 70
     0
 10
0.0
 20
0.0
 30
0.0
  3
*Paper_Space
  1

  0
ENDBLK
  5
1D
330
1B
100
AcDbEntity
 67
     1
  8
0
100
AcDbBlockEnd
  0
BLOCK
  5
24
330
23
100
AcDbEntity
  8
0
100
AcDbBlockBegin
  2
*Paper_Space0
 70
     0
 10
0.0
 20
0.0
 30
0.0
  3
*Paper_Space0
  1

  0
ENDBLK
  5
25
330
23
100
AcDbEntity
  8
0
100
AcDbBlockEnd
  0
BLOCK
  5
80
330
7F
100
AcDbEntity
  8
0
100
AcDbBlockBegin
  2
블럭10
 70
     2
 10
0.0
 20
0.0
 30
0.0
  3
블럭10
  1

  0
ELLIPSE
  5
82
330
7F
100
AcDbEntity
  8
중심선
100
AcDbEllipse
 10
20.54032771741204
 20
12.0471743016438
 30
0.0
 11
6.600054785286829
 21
-1.261213355974178E-13
 31
0.0
210
0.0
220
0.0
230
1.0
 40
0.636358354079598
 41
0.9219305317359503
 42
6.513795318482858
  0
ELLIPSE
  5
83
330
7F
100
AcDbEntity
  8
중심선
100
AcDbEllipse
 10
20.54032771746488
 20
12.04717430159265
 30
0.0
 11
3.960054785062283
 21
1.540847449632565E-10
 31
0.0
210
0.0
220
0.0
230
1.0
 40
0.3939339440162632
 41
1.131841032648279
 42
5.62031148352944
  0
LINE
  5
84
330
7F
100
AcDbEntity
  8
중심선
100
AcDbLine
 10
2.268634060543552
 20
16.24717430164393
 30
0.0
 11
5.714909304380834
 21
16.24717430164393
 31
0.0
  0
LINE
  5
85
330
7F
100
AcDbEntity
  8
중심선
100
AcDbLine
 10
5.245725140726316
 20
7.84717430164391
 30
0.0
 11
8.692000384563599
 21
7.84717430164391
 31
0.0
  0
LINE
  5
86
330
7F
100
AcDbEntity
  8
중심선
100
AcDbLine
 10
15.74043728645272
 20
16.24717430164393
 30
0.0
 11
8.692000384563599
 21
7.84717430164391
 31
0.0
  0
LINE
  5
87
330
7F
100
AcDbEntity
  8
중심선
100
AcDbLine
 10
0.1404042013395286
 20
13.71084872107135
 30
0.0
 11
3.58671253028996
 21
13.71088815037384
 31
0.0
  0
LINE
  5
88
330
7F
100
AcDbEntity
  8
중심선
100
AcDbLine
 10
2.750260043222114
 20
10.84717430164391
 30
0.0
 11
6.196535287059397
 21
10.84717430164391
 31
0.0
  0
LINE
  5
89
330
7F
100
AcDbEntity
  8
중심선
100
AcDbLine
 10
12.29416204261559
 20
16.24717430164393
 30
0.0
 11
5.245725140726316
 21
7.84717430164391
 31
0.0
  0
LINE
  5
8A
330
7F
100
AcDbEntity
  8
중심선
100
AcDbLine
 10
10.72767329541681
 20
16.24717430164393
 30
0.0
 11
6.196535287059397
 21
10.84717430164391
 31
0.0
  0
LINE
  5
8B
330
7F
100
AcDbEntity
  8
중심선
100
AcDbLine
 10
7.28139805157953
 20
16.24717430164393
 30
0.0
 11
2.750260043222114
 21
10.84717430164391
 31
0.0
  0
LINE
  5
8C
330
7F
100
AcDbEntity
  8
중심선
100
AcDbLine
 10
5.714909304380834
 20
16.24717430164393
 30
0.0
 11
3.58671253028996
 21
13.71088815037384
 31
0.0
  0
LINE
  5
8D
330
7F
100
AcDbEntity
  8
중심선
100
AcDbLine
 10
2.268634060543552
 20
16.24717430164393
 30
0.0
 11
0.1404042013395286
 21
13.71084872107135
 31
0.0
  0
LINE
  5
8E
330
7F
100
AcDbEntity
  8
중심선
100
AcDbLine
 10
7.28139805157953
 20
16.24717430164393
 30
0.0
 11
10.72767329541681
 21
16.24717430164393
 31
0.0
  0
LINE
  5
8F
330
7F
100
AcDbEntity
  8
중심선
100
AcDbLine
 10
12.29416204261559
 20
16.24717430164393
 30
0.0
 11
15.74043728645272
 21
16.24717430164393
 31
0.0
  0
LINE
  5
90
330
7F
100
AcDbEntity
  8
중심선
100
AcDbLine
 10
19.22036997980202
 20
11.08717430171403
 30
0.0
 11
23.66174974927406
 21
11.08717430171406
 31
0.0
  0
LINE
  5
91
330
7F
100
AcDbEntity
  8
중심선
100
AcDbLine
 10
19.22039502424796
 20
13.00717430171391
 30
0.0
 11
19.22036997980202
 21
11.08717430171403
 31
0.0
  0
LINE
  5
92
330
7F
100
AcDbEntity
  8
중심선
100
AcDbLine
 10
19.22039502424796
 20
13.00717430171391
 30
0.0
 11
26.96566020931264
 21
13.00717430171391
 31
0.0
  0
LINE
  5
93
330
7F
100
AcDbEntity
  8
중심선
100
AcDbLine
 10
22.22332737316547
 20
13.45928029700563
 30
0.0
 11
24.52862924686651
 21
15.39360700705356
 31
0.0
  0
ATTDEF
  5
95
330
7F
100
AcDbEntity
  8
FORMAT
 62
     2
100
AcDbText
 10
4.408487351596664
 20
2.075366912832191
 30
0.0
 40
4.233333333333333
  1
E5252024
 41
0.75
  7
SLDTEXTSTYLE0
 11
4.408487351596664
 21
-0.0412997538344756
 31
0.0
100
AcDbAttributeDefinition
  3

  2
AUTOATTR0
 70
     0
 74
     1
  0
ENDBLK
  5
81
330
7F
100
AcDbEntity
  8
0
100
AcDbBlockEnd
  0
BLOCK
  5
BF
330
BE
100
AcDbEntity
  8
0
100
AcDbBlockBegin
  2
_D
 70
     0
 10
0.0
 20
0.0
 30
0.0
  3
_D
  1

  0
LINE
  5
C1
330
BE
100
AcDbEntity
  8
치수문자_일반주서
 62
     0
370
    -2
100
AcDbLine
 10
31.75000000000001
 20
4.824999999999998
 30
0.0
 11
31.75000000000001
 21
14.76249999999999
 31
0.0
  0
LINE
  5
C2
330
BE
100
AcDbEntity
  8
치수문자_일반주서
 62
     0
370
    -2
100
AcDbLine
 10
17.46250000000001
 20
4.825000000000003
 30
0.0
 11
17.46250000000001
 21
14.76249999999999
 31
0.0
  0
LINE
  5
C3
330
BE
100
AcDbEntity
  8
치수문자_일반주서
 62
     0
370
    -2
100
AcDbLine
 10
31.75000000000001
 20
14.76249999999999
 30
0.0
 11
65.47900000000001
 21
14.76249999999999
 31
0.0
  0
LINE
  5
C4
330
BE
100
AcDbEntity
  8
치수문자_일반주서
 62
     0
370
    -2
100
AcDbLine
 10
31.75000000000001
 20
14.76249999999999
 30
0.0
 11
17.46250000000001
 21
14.76249999999999
 31
0.0
  0
LINE
  5
C5
330
BE
100
AcDbEntity
  8
치수문자_일반주서
 62
     0
370
    -2
100
AcDbLine
 10
35.05200000000001
 20
14.76249999999999
 30
0.0
 11
38.35400000000001
 21
14.76249999999999
 31
0.0
  0
LINE
  5
C6
330
BE
100
AcDbEntity
  8
치수문자_일반주서
 62
     0
370
    -2
100
AcDbLine
 10
14.16050000000001
 20
14.76249999999999
 30
0.0
 11
10.85850000000001
 21
14.76249999999999
 31
0.0
  0
SOLID
  5
C7
330
BE
100
AcDbEntity
  8
치수문자_일반주서
 62
     0
100
AcDbTrace
 10
35.05200000000001
 20
15.31283333333332
 30
0.0
 11
35.05200000000001
 21
14.21216666666666
 31
0.0
 12
31.75000000000001
 22
14.76249999999999
 32
0.0
 13
31.75000000000001
 23
14.76249999999999
 33
0.0
  0
SOLID
  5
C8
330
BE
100
AcDbEntity
  8
치수문자_일반주서
 62
     0
100
AcDbTrace
 10
14.16050000000001
 20
14.21216666666666
 30
0.0
 11
14.16050000000001
 21
15.31283333333332
 31
0.0
 12
17.46250000000001
 22
14.76249999999999
 32
0.0
 13
17.46250000000001
 23
14.76249999999999
 33
0.0
  0
MTEXT
  5
C9
330
BE
100
AcDbEntity
  8
치수문자_일반주서
 62
     0
100
AcDbMText
 10
51.91650000000001
 20
19.13749999999999
 30
0.0
 40
3.5
 41
0.0
 71
     2
 72
     1
  1
\A1;14.29 [9/16]
  7
SLDTEXTSTYLE0
 73
     1
 44
1.0
  0
POINT
  5
CA
330
BE
100
AcDbEntity
  8
Defpoints
 62
     0
100
AcDbPoint
 10
31.75000000000001
 20
4.762499999999998
 30
0.0
  0
POINT
  5
CB
330
BE
100
AcDbEntity
  8
Defpoints
 62
     0
100
AcDbPoint
 10
17.46250000000001
 20
4.762500000000003
 30
0.0
  0
POINT
  5
CC
330
BE
100
AcDbEntity
  8
Defpoints
 62
     0
100
AcDbPoint
 10
17.46250000000001
 20
14.76249999999999
 30
0.0
  0
ENDBLK
  5
C0
330
BE
100
AcDbEntity
  8
0
100
AcDbBlockEnd
  0
BLOCK
  5
D4
330
D3
100
AcDbEntity
  8
0
100
AcDbBlockBegin
  2
_D_1
 70
     0
 10
0.0
 20
0.0
 30
0.0
  3
_D_1
  1

  0
LINE
  5
D6
330
D3
100
AcDbEntity
  8
치수문자_일반주서
 62
     0
370
    -2
100
AcDbLine
 10
31.75000000000001
 20
4.824999999999998
 30
0.0
 11
31.75000000000001
 21
24.7625
 31
0.0
  0
LINE
  5
D7
330
D3
100
AcDbEntity
  8
치수문자_일반주서
 62
     0
370
    -2
100
AcDbLine
 10
-31.74999999999999
 20
4.824999999999998
 30
0.0
 11
-31.74999999999999
 21
24.7625
 31
0.0
  0
LINE
  5
D8
330
D3
100
AcDbEntity
  8
치수문자_일반주서
 62
     0
370
    -2
100
AcDbLine
 10
28.44800000000001
 20
24.7625
 30
0.0
 11
-28.44799999999999
 21
24.7625
 31
0.0
  0
SOLID
  5
D9
330
D3
100
AcDbEntity
  8
치수문자_일반주서
 62
     0
100
AcDbTrace
 10
28.44800000000001
 20
24.21216666666666
 30
0.0
 11
28.44800000000001
 21
25.31283333333333
 31
0.0
 12
31.75000000000001
 22
24.7625
 32
0.0
 13
31.75000000000001
 23
24.7625
 33
0.0
  0
SOLID
  5
DA
330
D3
100
AcDbEntity
  8
치수문자_일반주서
 62
     0
100
AcDbTrace
 10
-28.44799999999999
 20
25.31283333333333
 30
0.0
 11
-28.44799999999999
 21
24.21216666666666
 31
0.0
 12
-31.74999999999999
 22
24.7625
 32
0.0
 13
-31.74999999999999
 23
24.7625
 33
0.0
  0
MTEXT
  5
DB
330
D3
100
AcDbEntity
  8
치수문자_일반주서
 62
     0
100
AcDbMText
 10
-0.0000000000006963
 20
29.1375
 30
0.0
 40
3.5
 41
0.0
 71
     2
 72
     1
  1
\A1;63.5 [2 1/2]
  7
SLDTEXTSTYLE0
 73
     1
 44
1.0
  0
POINT
  5
DC
330
D3
100
AcDbEntity
  8
Defpoints
 62
     0
100
AcDbPoint
 10
31.75000000000001
 20
4.762499999999998
 30
0.0
  0
POINT
  5
DD
330
D3
100
AcDbEntity
  8
Defpoints
 62
     0
100
AcDbPoint
 10
-31.74999999999999
 20
4.762499999999998
 30
0.0
  0
POINT
  5
DE
330
D3
100
AcDbEntity
  8
Defpoints
 62
     0
100
AcDbPoint
 10
-31.74999999999999
 20
24.7625
 30
0.0
  0
ENDBLK
  5
D5
330
D3
100
AcDbEntity
  8
0
100
AcDbBlockEnd
  0
BLOCK
  5
E7
330
E6
100
AcDbEntity
  8
0
100
AcDbBlockBegin
  2
_D_2
 70
     0
 10
0.0
 20
0.0
 30
0.0
  3
_D_2
  1

  0
LINE
  5
E9
330
E6
100
AcDbEntity
  8
치수문자_일반주서
 62
     0
370
    -2
100
AcDbLine
 10
31.81250000000001
 20
4.762499999999998
 30
0.0
 11
71.80811158851871
 21
4.762500000000145
 31
0.0
  0
LINE
  5
EA
330
E6
100
AcDbEntity
  8
치수문자_일반주서
 62
     0
370
    -2
100
AcDbLine
 10
31.81250000000001
 20
-4.762500000000001
 30
0.0
 11
71.80811158851874
 21
-4.762499999999854
 31
0.0
  0
LINE
  5
EB
330
E6
100
AcDbEntity
  8
치수문자_일반주서
 62
     0
370
    -2
100
AcDbLine
 10
71.80811158851871
 20
4.762500000000145
 30
0.0
 11
71.80811158851861
 21
37.61650000000019
 31
0.0
  0
LINE
  5
EC
330
E6
100
AcDbEntity
  8
치수문자_일반주서
 62
     0
370
    -2
100
AcDbLine
 10
71.80811158851871
 20
4.762500000000145
 30
0.0
 11
71.80811158851874
 21
-4.762499999999854
 31
0.0
  0
LINE
  5
ED
330
E6
100
AcDbEntity
  8
치수문자_일반주서
 62
     0
370
    -2
100
AcDbLine
 10
71.8081115885187
 20
8.064500000000145
 30
0.0
 11
71.80811158851868
 21
11.36650000000014
 31
0.0
  0
LINE
  5
EE
330
E6
100
AcDbEntity
  8
치수문자_일반주서
 62
     0
370
    -2
100
AcDbLine
 10
71.80811158851876
 20
-8.064499999999853
 30
0.0
 11
71.80811158851877
 21
-11.36649999999985
 31
0.0
  0
SOLID
  5
EF
330
E6
100
AcDbEntity
  8
치수문자_일반주서
 62
     0
100
AcDbTrace
 10
71.25777825518537
 20
8.064500000000143
 30
0.0
 11
72.35844492185203
 21
8.064500000000146
 31
0.0
 12
71.80811158851871
 22
4.762500000000145
 32
0.0
 13
71.80811158851871
 23
4.762500000000145
 33
0.0
  0
SOLID
  5
F0
330
E6
100
AcDbEntity
  8
치수문자_일반주서
 62
     0
100
AcDbTrace
 10
72.35844492185208
 20
-8.064499999999851
 30
0.0
 11
71.25777825518543
 21
-8.064499999999855
 31
0.0
 12
71.80811158851874
 22
-4.762499999999854
 32
0.0
 13
71.80811158851874
 23
-4.762499999999854
 33
0.0
  0
MTEXT
  5
F1
330
E6
100
AcDbEntity
  8
치수문자_일반주서
 62
     0
100
AcDbMText
 10
67.43311158851866
 20
24.49150000000017
 30
0.0
 40
3.5
 41
0.0
 71
     2
 72
     1
  1
\A1;%%c9.53 [3/8]
  7
SLDTEXTSTYLE0
 11
-2.983906501879686E-15
 21
1.0
 31
0.0
 73
     1
 44
1.0
  0
POINT
  5
F2
330
E6
100
AcDbEntity
  8
Defpoints
 62
     0
100
AcDbPoint
 10
31.75000000000001
 20
4.762499999999998
 30
0.0
  0
POINT
  5
F3
330
E6
100
AcDbEntity
  8
Defpoints
 62
     0
100
AcDbPoint
 10
31.75000000000001
 20
-4.762500000000001
 30
0.0
  0
POINT
  5
F4
330
E6
100
AcDbEntity
  8
Defpoints
 62
     0
100
AcDbPoint
 10
71.80811158851874
 20
-4.762499999999851
 30
0.0
  0
ENDBLK
  5
E8
330
E6
100
AcDbEntity
  8
0
100
AcDbBlockEnd
  0
BLOCK
  5
FB
330
FA
100
AcDbEntity
  8
0
100
AcDbBlockBegin
  2
_D_3
 70
     0
 10
0.0
 20
0.0
 30
0.0
  3
_D_3
  1

  0
LINE
  5
FD
330
FA
100
AcDbEntity
  8
치수문자_일반주서
 62
     0
370
    -2
100
AcDbLine
 10
-17.525
 20
4.7625
 30
0.0
 11
-41.74999999999999
 21
4.762499999999907
 31
0.0
  0
LINE
  5
FE
330
FA
100
AcDbEntity
  8
치수문자_일반주서
 62
     0
370
    -2
100
AcDbLine
 10
-17.52499999999998
 20
-4.7625
 30
0.0
 11
-41.74999999999996
 21
-4.762500000000092
 31
0.0
  0
LINE
  5
FF
330
FA
100
AcDbEntity
  8
치수문자_일반주서
 62
     0
370
    -2
100
AcDbLine
 10
-41.74999999999999
 20
4.762499999999907
 30
0.0
 11
-41.75000000000011
 21
37.61649999999996
 31
0.0
  0
LINE
  5
100
330
FA
100
AcDbEntity
  8
치수문자_일반주서
 62
     0
370
    -2
100
AcDbLine
 10
-41.74999999999999
 20
4.762499999999907
 30
0.0
 11
-41.74999999999996
 21
-4.762500000000092
 31
0.0
  0
LINE
  5
101
330
FA
100
AcDbEntity
  8
치수문자_일반주서
 62
     0
370
    -2
100
AcDbLine
 10
-41.75000000000001
 20
8.064499999999907
 30
0.0
 11
-41.75000000000002
 21
11.36649999999991
 31
0.0
  0
LINE
  5
102
330
FA
100
AcDbEntity
  8
치수문자_일반주서
 62
     0
370
    -2
100
AcDbLine
 10
-41.74999999999994
 20
-8.064500000000091
 30
0.0
 11
-41.74999999999993
 21
-11.36650000000009
 31
0.0
  0
SOLID
  5
103
330
FA
100
AcDbEntity
  8
치수문자_일반주서
 62
     0
100
AcDbTrace
 10
-42.30033333333334
 20
8.064499999999905
 30
0.0
 11
-41.19966666666667
 21
8.064499999999908
 31
0.0
 12
-41.74999999999999
 22
4.762499999999907
 32
0.0
 13
-41.74999999999999
 23
4.762499999999907
 33
0.0
  0
SOLID
  5
104
330
FA
100
AcDbEntity
  8
치수문자_일반주서
 62
     0
100
AcDbTrace
 10
-41.19966666666661
 20
-8.06450000000009
 30
0.0
 11
-42.30033333333328
 21
-8.064500000000093
 31
0.0
 12
-41.74999999999996
 22
-4.762500000000092
 32
0.0
 13
-41.74999999999996
 23
-4.762500000000092
 33
0.0
  0
MTEXT
  5
105
330
FA
100
AcDbEntity
  8
치수문자_일반주서
 62
     0
100
AcDbMText
 10
-46.12500000000006
 20
24.49149999999995
 30
0.0
 40
3.5
 41
0.0
 71
     2
 72
     1
  1
\A1;%%c9.53 [3/8]
  7
SLDTEXTSTYLE0
 11
-3.729883127349607E-15
 21
1.0
 31
0.0
 73
     1
 44
1.0
  0
POINT
  5
1A4
330
FA
100
AcDbEntity
  8
Defpoints
 62
     0
100
AcDbPoint
 10
-17.4625
 20
4.7625
 30
0.0
  0
POINT
  5
1A5
330
FA
100
AcDbEntity
  8
Defpoints
 62
     0
100
AcDbPoint
 10
-17.46249999999998
 20
-4.7625
 30
0.0
  0
POINT
  5
1A6
330
FA
100
AcDbEntity
  8
Defpoints
 62
     0
100
AcDbPoint
 10
-41.74999999999996
 20
-4.762500000000091
 30
0.0
  0
ENDBLK
  5
FC
330
FA
100
AcDbEntity
  8
0
100
AcDbBlockEnd
  0
BLOCK
  5
115
330
114
100
AcDbEntity
  8
0
100
AcDbBlockBegin
  2
SW_DOWELSYMBOL_0
 70
     0
 10
0.0
 20
0.0
 30
0.0
  3
SW_DOWELSYMBOL_0
  1

  0
CIRCLE
  5
117
330
114
100
AcDbEntity
  8
해칭선
 62
     0
100
AcDbCircle
 10
0.0
 20
0.0
 30
0.0
 40
3.000000000000001
  0
HATCH
  5
118
330
114
100
AcDbEntity
  8
0
  6
Continuous
 62
     0
370
     0
100
AcDbHatch
 10
0.0
 20
0.0
 30
0.0
210
0.0
220
0.0
230
1.0
  2
SOLID
 70
     1
 71
     0
 91
        1
 92
        0
 93
        3
 72
     2
 10
0.0
 20
0.0
 40
3.000000000000001
 50
0.0
 51
90.0
 73
     1
 72
     1
 10
0.0
 20
3.000000000000001
 11
0.0
 21
0.0
 72
     1
 10
0.0
 20
0.0
 11
3.000000000000001
 21
0.0
 97
        0
 75
     0
 76
     1
 98
        1
 10
0.0
 20
0.0
  0
HATCH
  5
119
330
114
100
AcDbEntity
  8
0
  6
Continuous
 62
     0
370
     0
100
AcDbHatch
 10
0.0
 20
0.0
 30
0.0
210
0.0
220
0.0
230
1.0
  2
SOLID
 70
     1
 71
     0
 91
        1
 92
        0
 93
        3
 72
     2
 10
0.0
 20
0.0
 40
3.000000000000001
 50
180.0
 51
270.0000000000008
 73
     1
 72
     1
 10
0.0
 20
-3.000000000000001
 11
0.0
 21
0.0
 72
     1
 10
0.0
 20
0.0
 11
-3.000000000000001
 21
0.0
 97
        0
 75
     0
 76
     1
 98
        1
 10
0.0
 20
0.0
  0
ENDBLK
  5
116
330
114
100
AcDbEntity
  8
0
100
AcDbBlockEnd
  0
BLOCK
  5
17A
330
179
100
AcDbEntity
  8
0
100
AcDbBlockBegin
  2
*D8
 70
     1
 10
0.0
 20
0.0
 30
0.0
  3
*D8
  1

  0
LINE
  5
17C
330
179
100
AcDbEntity
  8
치수문자_일반주서
 62
     0
370
    -2
100
AcDbLine
 10
12.95400000000005
 20
1.216513565852266
 30
0.0
 11
12.95400000000005
 21
11.15401356585227
 31
0.0
  0
LINE
  5
17D
330
179
100
AcDbEntity
  8
치수문자_일반주서
 62
     0
370
    -2
100
AcDbLine
 10
6.604000000000003
 20
1.210675679903457
 30
0.0
 11
6.604000000000003
 21
11.15401356585227
 31
0.0
  0
LINE
  5
17E
330
179
100
AcDbEntity
  8
치수문자_일반주서
 62
     0
370
    -2
100
AcDbLine
 10
12.95400000000005
 20
11.15401356585227
 30
0.0
 11
42.30800000000006
 21
11.15401356585227
 31
0.0
  0
LINE
  5
17F
330
179
100
AcDbEntity
  8
치수문자_일반주서
 62
     0
370
    -2
100
AcDbLine
 10
12.95400000000005
 20
11.15401356585227
 30
0.0
 11
6.604000000000003
 21
11.15401356585227
 31
0.0
  0
LINE
  5
180
330
179
100
AcDbEntity
  8
치수문자_일반주서
 62
     0
370
    -2
100
AcDbLine
 10
16.25600000000005
 20
11.15401356585227
 30
0.0
 11
19.55800000000005
 21
11.15401356585227
 31
0.0
  0
LINE
  5
181
330
179
100
AcDbEntity
  8
치수문자_일반주서
 62
     0
370
    -2
100
AcDbLine
 10
3.302000000000003
 20
11.15401356585227
 30
0.0
 11
0.0000000000000036
 21
11.15401356585227
 31
0.0
  0
SOLID
  5
182
330
179
100
AcDbEntity
  8
치수문자_일반주서
 62
     0
100
AcDbTrace
 10
16.25600000000005
 20
11.7043468991856
 30
0.0
 11
16.25600000000005
 21
10.60368023251894
 31
0.0
 12
12.95400000000005
 22
11.15401356585227
 32
0.0
 13
12.95400000000005
 23
11.15401356585227
 33
0.0
  0
SOLID
  5
183
330
179
100
AcDbEntity
  8
치수문자_일반주서
 62
     0
100
AcDbTrace
 10
3.302000000000003
 20
10.60368023251894
 30
0.0
 11
3.302000000000003
 21
11.7043468991856
 31
0.0
 12
6.604000000000003
 22
11.15401356585227
 32
0.0
 13
6.604000000000003
 23
11.15401356585227
 33
0.0
  0
MTEXT
  5
184
330
179
100
AcDbEntity
  8
치수문자_일반주서
 62
     0
100
AcDbMText
 10
30.93300000000006
 20
15.52901356585227
 30
0.0
 40
3.5
 41
0.0
 71
     2
 72
     1
  1
\A1;6.35 [1/4]
  7
SLDTEXTSTYLE0
 73
     1
 44
1.0
  0
POINT
  5
185
330
179
100
AcDbEntity
  8
Defpoints
 62
     0
100
AcDbPoint
 10
12.95400000000005
 20
1.154013565852266
 30
0.0
  0
POINT
  5
186
330
179
100
AcDbEntity
  8
Defpoints
 62
     0
100
AcDbPoint
 10
6.604000000000003
 20
1.148175679903457
 30
0.0
  0
POINT
  5
187
330
179
100
AcDbEntity
  8
Defpoints
 62
     0
100
AcDbPoint
 10
6.604000000000003
 20
11.15401356585227
 30
0.0
  0
ENDBLK
  5
17B
330
179
100
AcDbEntity
  8
0
100
AcDbBlockEnd
  0
BLOCK
  5
18C
330
18B
100
AcDbEntity
  8
0
100
AcDbBlockBegin
  2
*D9
 70
     1
 10
0.0
 20
0.0
 30
0.0
  3
*D9
  1

  0
LINE
  5
18E
330
18B
100
AcDbEntity
  8
치수문자_일반주서
 62
     0
370
    -2
100
AcDbLine
 10
57.37126184123528
 20
-8.264880723016988
 30
0.0
 11
57.37126184123528
 21
1.672619276983015
 31
0.0
  0
LINE
  5
18F
330
18B
100
AcDbEntity
  8
치수문자_일반주서
 62
     0
370
    -2
100
AcDbLine
 10
51.02126184123523
 20
-8.270718608965797
 30
0.0
 11
51.02126184123523
 21
1.672619276983015
 31
0.0
  0
LINE
  5
190
330
18B
100
AcDbEntity
  8
치수문자_일반주서
 62
     0
370
    -2
100
AcDbLine
 10
57.37126184123528
 20
1.672619276983015
 30
0.0
 11
86.7252618412353
 21
1.672619276983015
 31
0.0
  0
LINE
  5
191
330
18B
100
AcDbEntity
  8
치수문자_일반주서
 62
     0
370
    -2
100
AcDbLine
 10
57.37126184123528
 20
1.672619276983015
 30
0.0
 11
51.02126184123523
 21
1.672619276983015
 31
0.0
  0
LINE
  5
192
330
18B
100
AcDbEntity
  8
치수문자_일반주서
 62
     0
370
    -2
100
AcDbLine
 10
60.67326184123528
 20
1.672619276983015
 30
0.0
 11
63.97526184123528
 21
1.672619276983015
 31
0.0
  0
LINE
  5
193
330
18B
100
AcDbEntity
  8
치수문자_일반주서
 62
     0
370
    -2
100
AcDbLine
 10
47.71926184123523
 20
1.672619276983015
 30
0.0
 11
44.41726184123523
 21
1.672619276983015
 31
0.0
  0
SOLID
  5
194
330
18B
100
AcDbEntity
  8
치수문자_일반주서
 62
     0
100
AcDbTrace
 10
60.67326184123528
 20
2.222952610316348
 30
0.0
 11
60.67326184123528
 21
1.122285943649682
 31
0.0
 12
57.37126184123528
 22
1.672619276983015
 32
0.0
 13
57.37126184123528
 23
1.672619276983015
 33
0.0
  0
SOLID
  5
195
330
18B
100
AcDbEntity
  8
치수문자_일반주서
 62
     0
100
AcDbTrace
 10
47.71926184123523
 20
1.122285943649682
 30
0.0
 11
47.71926184123523
 21
2.222952610316348
 31
0.0
 12
51.02126184123523
 22
1.672619276983015
 32
0.0
 13
51.02126184123523
 23
1.672619276983015
 33
0.0
  0
MTEXT
  5
196
330
18B
100
AcDbEntity
  8
치수문자_일반주서
 62
     0
100
AcDbMText
 10
75.3502618412353
 20
6.047619276983015
 30
0.0
 40
3.5
 41
0.0
 71
     2
 72
     1
  1
\A1;6.35 [1/4]
  7
SLDTEXTSTYLE0
 73
     1
 44
1.0
  0
POINT
  5
197
330
18B
100
AcDbEntity
  8
Defpoints
 62
     0
100
AcDbPoint
 10
57.37126184123528
 20
-8.327380723016988
 30
0.0
  0
POINT
  5
198
330
18B
100
AcDbEntity
  8
Defpoints
 62
     0
100
AcDbPoint
 10
51.02126184123523
 20
-8.333218608965797
 30
0.0
  0
POINT
  5
199
330
18B
100
AcDbEntity
  8
Defpoints
 62
     0
100
AcDbPoint
 10
51.02126184123523
 20
1.672619276983015
 30
0.0
  0
ENDBLK
  5
18D
330
18B
100
AcDbEntity
  8
0
100
AcDbBlockEnd
  0
ENDSEC
  0
SECTION
  2
ENTITIES
  0
ARC
  5
96
330
1F
100
AcDbEntity
  8
0
  6
Continuous
 62
     1
370
    15
100
AcDbCircle
 10
26.98750000000001
 20
-0.0000000000000018
 30
0.0
 40
4.762499999999992
100
AcDbArc
 50
323.996497321224
 51
0.0
1001
PE_URL
1000

  0
ARC
  5
97
330
1F
100
AcDbEntity
  8
0
  6
Continuous
 62
     1
370
    15
100
AcDbCircle
 10
26.98750000000001
 20
-0.0000000000000018
 30
0.0
 40
4.7625
100
AcDbArc
 50
0.0
 51
35.97630402563043
1001
PE_URL
1000

  0
LINE
  5
98
330
1F
100
AcDbEntity
  8
0
  6
Continuous
 62
     1
370
    15
100
AcDbLine
 10
21.07370201161332
 20
4.762499999999998
 30
0.0
 11
18.17055459129583
 21
4.762499999999998
 31
0.0
1001
PE_URL
1000

  0
LINE
  5
99
330
1F
100
AcDbEntity
  8
0
  6
Continuous
 62
     1
370
    15
100
AcDbLine
 10
18.17055459129583
 20
-4.762499999999998
 30
0.0
 11
21.07370201161337
 21
-4.762499999999998
 31
0.0
1001
PE_URL
1000

  0
LINE
  5
9C
330
1F
100
AcDbEntity
  8
외형선
  6
Continuous
370
    15
100
AcDbLine
 10
-17.46249999999998
 20
-4.7625
 30
0.0
 11
17.4625
 21
-4.7625
 31
0.0
  0
LINE
  5
9D
330
1F
100
AcDbEntity
  8
외형선
  6
Continuous
370
    15
100
AcDbLine
 10
17.4625
 20
4.7625
 30
0.0
 11
-17.4625
 21
4.7625
 31
0.0
  0
SPLINE
  5
9E
330
1F
100
AcDbEntity
  8
0
  6
Continuous
 62
     1
370
    15
100
AcDbSpline
210
0.0
220
0.0
230
1.0
 70
     8
 71
     3
 72
    22
 73
    18
 74
     0
 42
0.000000001
 43
0.00000001
 40
0.0
 40
0.0
 40
0.0
 40
0.0
 40
0.125
 40
0.125
 40
0.25
 40
0.25
 40
0.375
 40
0.375
 40
0.5
 40
0.5
 40
0.625
 40
0.625
 40
0.75
 40
0.75
 40
0.875
 40
0.875
 40
1.0
 40
1.0
 40
1.0
 40
1.0
 10
17.46250000000002
 20
0.4080574258305478
 30
0.0
 10
17.85692217684064
 20
0.1802182184079218
 30
0.0
 10
18.25616086351343
 20
-0.0499632264136562
 30
0.0
 10
19.05188179927361
 20
-0.5078599062657081
 30
0.0
 10
19.44550516424518
 20
-0.7350277836396371
 30
0.0
 10
20.2404730942556
 20
-1.184162673146599
 30
0.0
 10
20.64001831621324
 20
-1.405759573505084
 30
0.0
 10
21.43081042529242
 20
-1.83616635189926
 30
0.0
 10
21.82784370998949
 20
-2.046039922219725
 30
0.0
 10
22.62402191211608
 20
-2.450474042402571
 30
0.0
 10
23.01818680913854
 20
-2.644217530029281
 30
0.0
 10
23.81210692705548
 20
-3.012958226611802
 30
0.0
 10
24.21180873351926
 20
-3.187873541560356
 30
0.0
 10
25.00425894626265
 20
-3.513390753722699
 30
0.0
 10
25.39962414865359
 20
-3.664413221783474
 30
0.0
 10
26.19596331064336
 20
-3.940651446149714
 30
0.0
 10
26.59121060199304
 20
-4.065203417896934
 30
0.0
 10
26.98750000000002
 20
-4.175372425896332
 30
0.0
1001
PE_URL
1000

  0
SPLINE
  5
9F
330
1F
100
AcDbEntity
  8
0
  6
Continuous
 62
     1
370
    15
100
AcDbSpline
210
0.0
220
0.0
230
1.0
 70
     8
 71
     3
 72
    14
 73
    10
 74
     0
 42
0.000000001
 43
0.00000001
 40
0.0
 40
0.0
 40
0.0
 40
0.0
 40
0.1531345928670087
 40
0.3107479529686493
 40
0.462558439925302
 40
0.6190530854036433
 40
0.7673151940189059
 40
0.9192442531037258
 40
1.0
 40
1.0
 40
1.0
 40
1.0
 10
26.98750000000001
 20
-4.175372425896326
 30
0.0
 10
27.20647613055343
 20
-4.224682579840191
 30
0.0
 10
27.65083284345869
 20
-4.324745074615181
 30
0.0
 10
28.32002249239592
 20
-4.313001381921004
 30
0.0
 10
28.97979316338431
 20
-4.176408863936032
 30
0.0
 10
29.59672925610387
 20
-3.913492193434946
 30
0.0
 10
30.15516731433409
 20
-3.538691300196859
 30
0.0
 10
30.57105274488882
 20
-3.155974301070516
 30
0.0
 10
30.76558631006282
 20
-2.887613329779429
 30
0.0
 10
30.83310126139702
 20
-2.794475788705164
 30
0.0
1001
PE_URL
1000

  0
SPLINE
  5
A0
330
1F
100
AcDbEntity
  8
0
  6
Continuous
 62
     1
370
    15
100
AcDbSpline
210
0.0
220
0.0
230
1.0
 70
     8
 71
     3
 72
    14
 73
    10
 74
     0
 42
0.000000001
 43
0.00000001
 40
0.0
 40
0.0
 40
0.0
 40
0.0
 40
0.0519288064882526
 40
0.2061378117821445
 40
0.3605635410614025
 40
0.5150288386537248
 40
0.6766117452549251
 40
0.8382024483711926
 40
1.0
 40
1.0
 40
1.0
 40
1.0
 10
26.10312522712631
 20
-3.893074167273634
 30
0.0
 10
25.95356735184972
 20
-3.945609789034028
 30
0.0
 10
25.35987889202964
 20
-4.154156428994876
 30
0.0
 10
24.32172770219417
 20
-4.413238493423933
 30
0.0
 10
22.98766262796994
 20
-4.656221014855604
 30
0.0
 10
21.63228936548524
 20
-4.773346997881832
 30
0.0
 10
20.25684150778724
 20
-4.76048148203052
 30
0.0
 10
18.8602433911337
 20
-4.619376132599773
 30
0.0
 10
17.92861309630213
 20
-4.415373823352645
 30
0.0
 10
17.4625
 20
-4.313307425830486
 30
0.0
1001
PE_URL
1000

  0
SPLINE
  5
A1
330
1F
100
AcDbEntity
  8
0
  6
Continuous
 62
     1
370
    15
100
AcDbSpline
210
0.0
220
0.0
230
1.0
 70
     8
 71
     3
 72
    22
 73
    18
 74
     0
 42
0.000000001
 43
0.00000001
 40
0.0
 40
0.0
 40
0.0
 40
0.0
 40
0.125
 40
0.125
 40
0.25
 40
0.25
 40
0.375
 40
0.375
 40
0.5
 40
0.5
 40
0.625
 40
0.625
 40
0.75
 40
0.75
 40
0.875
 40
0.875
 40
1.0
 40
1.0
 40
1.0
 40
1.0
 10
17.46250000000002
 20
4.744986342153637
 30
0.0
 10
17.85692217684064
 20
4.76457996661957
 30
0.0
 10
18.25616086351343
 20
4.76775708962937
 30
0.0
 10
19.05188179927361
 20
4.740894673509688
 30
0.0
 10
19.44550516424518
 20
4.711019525341033
 30
0.0
 10
20.2404730942556
 20
4.618628538256015
 30
0.0
 10
20.64001831621324
 20
4.556053859907672
 30
0.0
 10
21.43081042529242
 20
4.40025906976325
 30
0.0
 10
21.82784370998949
 20
4.3067092742248
 30
0.0
 10
22.62402191211608
 20
4.090134607017473
 30
0.0
 10
23.01818680913854
 20
3.967623758672572
 30
0.0
 10
23.81210692705548
 20
3.69540354510701
 30
0.0
 10
24.21180873351926
 20
3.545606031861623
 30
0.0
 10
25.00425894626265
 20
3.223343801366827
 30
0.0
 10
25.39962414865359
 20
3.050591248809913
 30
0.0
 10
26.19596331064336
 20
2.684268505059681
 30
0.0
 10
26.59121060199304
 20
2.491583169219479
 30
0.0
 10
26.98750000000002
 20
2.290779639132572
 30
0.0
1001
PE_URL
1000

  0
SPLINE
  5
A2
330
1F
100
AcDbEntity
  8
0
  6
Continuous
 62
     1
370
    15
100
AcDbSpline
210
0.0
220
0.0
230
1.0
 70
     8
 71
     3
 72
    44
 73
    40
 74
     0
 42
0.000000001
 43
0.00000001
 40
0.0
 40
0.0
 40
0.0
 40
0.0
 40
0.0625000000000007
 40
0.0625000000000007
 40
0.1250000000000014
 40
0.1250000000000014
 40
0.1875000000000021
 40
0.1875000000000021
 40
0.2500000000000028
 40
0.2500000000000028
 40
0.3125000000000036
 40
0.3125000000000036
 40
0.3750000000000042
 40
0.3750000000000042
 40
0.4375000000000042
 40
0.4375000000000042
 40
0.4687500000000046
 40
0.4687500000000046
 40
0.500000000000005
 40
0.500000000000005
 40
0.5312500000000053
 40
0.5312500000000053
 40
0.5625000000000057
 40
0.5625000000000057
 40
0.5937500000000061
 40
0.5937500000000061
 40
0.6250000000000064
 40
0.6250000000000064
 40
0.6875000000000053
 40
0.6875000000000053
 40
0.7500000000000042
 40
0.7500000000000042
 40
0.8125000000000032
 40
0.8125000000000032
 40
0.8750000000000021
 40
0.8750000000000021
 40
0.9375000000000011
 40
0.9375000000000011
 40
1.0
 40
1.0
 40
1.0
 40
1.0
 10
26.98750000000001
 20
2.290779639132576
 30
0.0
 10
27.22935983534968
 20
2.168227007220891
 30
0.0
 10
27.4703345842903
 20
2.040031553398528
 30
0.0
 10
27.95380729221703
 20
1.778344590374828
 30
0.0
 10
28.19824306277578
 20
1.643773377803575
 30
0.0
 10
28.68113872185705
 20
1.376314550868626
 30
0.0
 10
28.9162212067758
 20
1.245848809334403
 30
0.0
 10
29.37370978872354
 20
0.9905288244607403
 30
0.0
 10
29.59807338711206
 20
0.8642215590275907
 30
0.0
 10
30.01739025726558
 20
0.6165376363034452
 30
0.0
 10
30.21260807338416
 20
0.4951309508604813
 30
0.0
 10
30.57029815383918
 20
0.244097383653827
 30
0.0
 10
30.73342097068108
 20
0.1140675637340251
 30
0.0
 10
31.00901219534872
 20
-0.1642347126390872
 30
0.0
 10
31.1237494116389
 20
-0.3139266203549446
 30
0.0
 10
31.24969425781661
 20
-0.5723969885395427
 30
0.0
 10
31.2832929297547
 20
-0.6629942047611351
 30
0.0
 10
31.33202439358381
 20
-0.8567570209619937
 30
0.0
 10
31.34719207144496
 20
-0.9611170619375815
 30
0.0
 10
31.35534384508321
 20
-1.180756251706375
 30
0.0
 10
31.34861311256224
 20
-1.295669100769813
 30
0.0
 10
31.3109033135668
 20
-1.538776257675106
 30
0.0
 10
31.28008738175027
 20
-1.664313398609984
 30
0.0
 10
31.19622668913484
 20
-1.915804797849715
 30
0.0
 10
31.14181386172508
 20
-2.04505288692106
 30
0.0
 10
31.0152570882096
 20
-2.292570414600084
 30
0.0
 10
30.94257057528768
 20
-2.412552220162019
 30
0.0
 10
30.70250565987037
 20
-2.752187230510711
 30
0.0
 10
30.5167920959361
 20
-2.945808145614985
 30
0.0
 10
30.12775471121238
 20
-3.251507539993913
 30
0.0
 10
29.9197212261791
 20
-3.367558920802102
 30
0.0
 10
29.49927497211338
 20
-3.527611845482488
 30
0.0
 10
29.28229835536813
 20
-3.5740439322356
 30
0.0
 10
28.84128315113423
 20
-3.609159595722208
 30
0.0
 10
28.61997045407863
 20
-3.597978624665025
 30
0.0
 10
28.16748620220527
 20
-3.530768700239188
 30
0.0
 10
27.93451372032016
 20
-3.473979337337555
 30
0.0
 10
27.46592576003025
 20
-3.325941214297038
 30
0.0
 10
27.22924477469532
 20
-3.234781934601385
 30
0.0
 10
26.98750000000005
 20
-3.129461795003758
 30
0.0
1001
PE_URL
1000

  0
SPLINE
  5
A3
330
1F
100
AcDbEntity
  8
0
  6
Continuous
 62
     1
370
    15
100
AcDbSpline
210
0.0
220
0.0
230
1.0
 70
     8
 71
     3
 72
    22
 73
    18
 74
     0
 42
0.000000001
 43
0.00000001
 40
0.0
 40
0.0
 40
0.0
 40
0.0
 40
0.125
 40
0.125
 40
0.25
 40
0.25
 40
0.375
 40
0.375
 40
0.5
 40
0.5
 40
0.625
 40
0.625
 40
0.75
 40
0.75
 40
0.875
 40
0.875
 40
1.0
 40
1.0
 40
1.0
 40
1.0
 10
17.4625
 20
2.019105074104711
 30
0.0
 10
17.85692217684062
 20
1.811993720265637
 30
0.0
 10
18.25616086351343
 20
1.597023354283788
 30
0.0
 10
19.05188179927364
 20
1.157944489585935
 30
0.0
 10
19.44550516424518
 20
0.934406464464189
 30
0.0
 10
20.24047309425558
 20
0.4809578323377125
 30
0.0
 10
20.64001831621324
 20
0.2513743526013911
 30
0.0
 10
21.43081042529242
 20
-0.2063562791307332
 30
0.0
 10
21.82784370998947
 20
-0.4356155686852975
 30
0.0
 10
22.6240219121161
 20
-0.8899231865852435
 30
0.0
 10
23.01818680913852
 20
-1.11402732283506
 30
0.0
 10
23.81210692705548
 20
-1.554016958810277
 30
0.0
 10
24.21180873351929
 20
-1.76985598002118
 30
0.0
 10
25.00425894626266
 20
-2.186527248442716
 30
0.0
 10
25.39962414865359
 20
-2.387853521101005
 30
0.0
 10
26.19596331064334
 20
-2.773459842760404
 30
0.0
 10
26.59121060199305
 20
-2.956811714886138
 30
0.0
 10
26.98750000000002
 20
-3.129461795003754
 30
0.0
1001
PE_URL
1000

  0
LINE
  5
A4
330
1F
100
AcDbEntity
  8
외형선
  6
Continuous
370
    15
100
AcDbLine
 10
17.4625
 20
0.4080574258305482
 30
0.0
 11
17.4625
 21
2.019105074104711
 31
0.0
  0
SPLINE
  5
A5
330
1F
100
AcDbEntity
  8
0
  6
Continuous
 62
     1
370
    15
100
AcDbSpline
210
0.0
220
0.0
230
1.0
 70
     8
 71
     3
 72
    44
 73
    40
 74
     0
 42
0.000000001
 43
0.00000001
 40
0.0
 40
0.0
 40
0.0
 40
0.0
 40
0.0624999999999994
 40
0.0624999999999994
 40
0.1249999999999988
 40
0.1249999999999988
 40
0.1874999999999982
 40
0.1874999999999982
 40
0.2499999999999976
 40
0.2499999999999976
 40
0.3124999999999969
 40
0.3124999999999969
 40
0.3749999999999962
 40
0.3749999999999962
 40
0.4374999999999948
 40
0.4374999999999948
 40
0.4687499999999946
 40
0.4687499999999946
 40
0.4999999999999943
 40
0.4999999999999943
 40
0.5312499999999939
 40
0.5312499999999939
 40
0.5624999999999937
 40
0.5624999999999937
 40
0.5937499999999933
 40
0.5937499999999933
 40
0.624999999999993
 40
0.624999999999993
 40
0.6874999999999941
 40
0.6874999999999941
 40
0.7499999999999953
 40
0.7499999999999953
 40
0.8124999999999964
 40
0.8124999999999964
 40
0.8749999999999977
 40
0.8749999999999977
 40
0.9374999999999988
 40
0.9374999999999988
 40
1.0
 40
1.0
 40
1.0
 40
1.0
 10
26.98750000000001
 20
4.175372425896342
 30
0.0
 10
27.22935983534968
 20
4.242609799061955
 30
0.0
 10
27.47033458429029
 20
4.285137779756684
 30
0.0
 10
27.95380729221703
 20
4.319838480897084
 30
0.0
 10
28.19824306277579
 20
4.311717271562764
 30
0.0
 10
28.68113872185704
 20
4.24218595165534
 30
0.0
 10
28.9162212067758
 20
4.18153753913922
 30
0.0
 10
29.37370978872356
 20
4.010263885647605
 30
0.0
 10
29.59807338711208
 20
3.898247034510955
 30
0.0
 10
30.01739025726562
 20
3.632898102976156
 30
0.0
 10
30.21260807338418
 20
3.480162738057224
 30
0.0
 10
30.5702981538392
 20
3.140379480733122
 30
0.0
 10
30.73342097068106
 20
2.951780952383825
 30
0.0
 10
31.00901219534869
 20
2.560939815842272
 30
0.0
 10
31.1237494116389
 20
2.356364880503804
 30
0.0
 10
31.24969425781661
 20
2.051099126255615
 30
0.0
 10
31.28329292975471
 20
1.951227577627037
 30
0.0
 10
31.33202439358382
 20
1.758340829065137
 30
0.0
 10
31.34719207144503
 20
1.664385330909474
 30
0.0
 10
31.35534384508328
 20
1.492847719407117
 30
0.0
 10
31.34861311256224
 20
1.415261999370685
 30
0.0
 10
31.31090331356679
 20
1.281165072568619
 30
0.0
 10
31.28008738175027
 20
1.226494743406736
 30
0.0
 10
31.19622668913486
 20
1.147539327020408
 30
0.0
 10
31.14181386172509
 20
1.122601854574071
 30
0.0
 10
31.0152570882096
 20
1.105483436509184
 30
0.0
 10
30.9425705752877
 20
1.112694190878053
 30
0.0
 10
30.70250565987039
 20
1.176562355788955
 30
0.0
 10
30.5167920959361
 20
1.274582175657623
 30
0.0
 10
30.12775471121234
 20
1.524712142597433
 30
0.0
 10
29.91972122617911
 20
1.679154887114606
 30
0.0
 10
29.49927497211338
 20
2.00121880271161
 30
0.0
 10
29.28229835536818
 20
2.172286641987699
 30
0.0
 10
28.84128315113426
 20
2.509217770040228
 30
0.0
 10
28.61997045407863
 20
2.673440903461555
 30
0.0
 10
28.16748620220527
 20
2.983119370609214
 30
0.0
 10
27.93451372032018
 20
3.129364870398058
 30
0.0
 10
27.46592576003025
 20
3.386372062544837
 30
0.0
 10
27.22924477469531
 20
3.498158588498923
 30
0.0
 10
26.98750000000004
 20
3.589968680032172
 30
0.0
1001
PE_URL
1000

  0
LINE
  5
A6
330
1F
100
AcDbEntity
  8
0
  6
Continuous
 62
     1
370
    15
100
AcDbLine
 10
26.10312522712624
 20
3.893074167273632
 30
0.0
 11
26.98750000000002
 21
4.175372425896347
 31
0.0
1001
PE_URL
1000

  0
SPLINE
  5
A7
330
1F
100
AcDbEntity
  8
0
  6
Continuous
 62
     1
370
    15
100
AcDbSpline
210
0.0
220
0.0
230
1.0
 70
     8
 71
     3
 72
    12
 73
     8
 74
     0
 42
0.000000001
 43
0.00000001
 40
0.0
 40
0.0
 40
0.0
 40
0.0
 40
0.2254264003548637
 40
0.4507382282363526
 40
0.6763667073872979
 40
0.902052999043594
 40
1.0
 40
1.0
 40
1.0
 40
1.0
 10
26.98750000000003
 20
3.589968680032173
 30
0.0
 10
26.54313421398584
 20
3.749427201822752
 30
0.0
 10
25.65462848989322
 20
4.068263200960076
 30
0.0
 10
24.32171591972413
 20
4.417729299751016
 30
0.0
 10
22.98767578472593
 20
4.650608815978378
 30
0.0
 10
21.90463195155825
 20
4.763319681331399
 30
0.0
 10
21.26675443096022
 20
4.749975170327558
 30
0.0
 10
21.07370201161332
 20
4.745936479432983
 30
0.0
1001
PE_URL
1000

  0
LINE
  5
A8
330
1F
100
AcDbEntity
  8
0
  6
Continuous
 62
     1
370
    15
100
AcDbLine
 10
17.46250000000002
 20
-4.744986342153638
 30
0.0
 11
18.17055459129584
 21
-4.746997572823036
 31
0.0
1001
PE_URL
1000

  0
LINE
  5
A9
330
1F
100
AcDbEntity
  8
외형선
  6
Continuous
370
    15
100
AcDbLine
 10
17.4625
 20
-4.744986342153638
 30
0.0
 11
17.4625
 21
-4.313307425830486
 31
0.0
  0
LINE
  5
AE
330
1F
100
AcDbEntity
  8
외형선
  6
Continuous
370
    15
100
AcDbLine
 10
17.4625
 20
-0.0000000000000004
 30
0.0
 11
17.4625
 21
4.7625
 31
0.0
  0
LINE
  5
AF
330
1F
100
AcDbEntity
  8
외형선
  6
Continuous
370
    15
100
AcDbLine
 10
17.4625
 20
-4.7625
 30
0.0
 11
17.4625
 21
-0.0000000000000004
 31
0.0
  0
LINE
  5
B0
330
1F
100
AcDbEntity
  8
중심선
 62
     1
100
AcDbLine
 10
-34.74999999999999
 20
-0.0000000000000043
 30
0.0
 11
34.74999999999999
 21
0.0000000000000043
 31
0.0
  0
LINE
  5
B2
330
1F
100
AcDbEntity
  8
참조1
100
AcDbLine
 10
0.0000000000000036
 20
-0.0000000000000043
 30
0.0
 11
0.0000000000000107
 21
-40.00000000000001
 31
0.0
  0
LINE
  5
B3
330
1F
100
AcDbEntity
  8
참조1
100
AcDbLine
 10
0.0000000000000107
 20
-40.00000000000001
 30
0.0
 11
-8.015106814308652
 21
-40.0
 31
0.0
  0
CIRCLE
  5
B4
330
1F
100
AcDbEntity
  8
해칭선
100
AcDbCircle
 10
0.0
 20
0.0
 30
0.0
 40
3.000000000000002
  0
INSERT
  5
B5
330
1F
100
AcDbEntity
  8
0
  6
Continuous
 62
     7
100
AcDbBlockReference
 66
     1
  2
블럭10
 10
-13.9402729321252
 20
-52.04717430164393
 30
0.0
  0
ATTRIB
  5
B6
330
B5
100
AcDbEntity
  8
FORMAT
 62
     2
100
AcDbText
 10
-23.12156822086649
 20
-49.97180738881175
 30
0.0
 40
4.233333333333333
  1
E5252024 [ 4 FLUTE ]
 41
0.75
  7
SLDTEXTSTYLE0
 11
-23.12156822086649
 21
-52.08847405547841
 31
0.0
100
AcDbAttribute
  2
AUTOATTR0
 70
     0
 74
     1
  0
SEQEND
  5
B7
330
B5
100
AcDbEntity
  8
0
  6
Continuous
 62
     7
  0
HATCH
  5
B8
330
1F
100
AcDbEntity
  8
중심선
100
AcDbHatch
 10
0.0
 20
0.0
 30
0.0
210
0.0
220
0.0
230
1.0
  2
SOLID
 70
     1
 71
     0
 91
        1
 92
        0
 93
        4
 72
     1
 10
-8.225363627744354
 20
-35.8
 11
-11.67163887158164
 21
-35.8
 72
     1
 10
-11.67163887158164
 20
-35.8
 11
-13.79986873078565
 21
-38.3363255805726
 72
     1
 10
-13.79986873078565
 20
-38.3363255805726
 11
-10.35356040183522
 21
-38.33628615127011
 72
     1
 10
-10.35356040183522
 20
-38.33628615127011
 11
-8.225363627744354
 21
-35.8
 97
        0
 75
     0
 76
     1
 98
        1
 10
21.66323868596883
 20
-0.0010749287238935
  0
HATCH
  5
B9
330
1F
100
AcDbEntity
  8
중심선
100
AcDbHatch
 10
0.0
 20
0.0
 30
0.0
210
0.0
220
0.0
230
1.0
  2
SOLID
 70
     1
 71
     0
 91
        1
 92
        0
 93
        4
 72
     1
 10
-3.212599636708401
 20
-35.80000000000003
 11
-6.658874880545685
 21
-35.8
 72
     1
 10
-6.658874880545685
 20
-35.8
 11
-11.19001288890307
 21
-41.20000000000002
 72
     1
 10
-11.19001288890307
 20
-41.20000000000002
 11
-7.743737645065789
 21
-41.20000000000002
 72
     1
 10
-7.743737645065789
 20
-41.20000000000002
 11
-3.212599636708401
 21
-35.80000000000003
 97
        0
 75
     0
 76
     1
 98
        1
 10
21.66323868596883
 20
-0.0010749287238935
  0
HATCH
  5
BA
330
1F
100
AcDbEntity
  8
중심선
100
AcDbHatch
 10
0.0
 20
0.0
 30
0.0
210
0.0
220
0.0
230
1.0
  2
SOLID
 70
     1
 71
     0
 91
        1
 92
        0
 93
        4
 72
     1
 10
1.800164354327467
 20
-35.8
 11
-1.646110889509593
 21
-35.79999999999998
 72
     1
 10
-1.646110889509593
 20
-35.79999999999998
 11
-8.694547791398872
 21
-44.20000000000002
 72
     1
 10
-8.694547791398872
 20
-44.20000000000002
 11
-5.248272547561587
 21
-44.20000000000002
 72
     1
 10
-5.248272547561587
 20
-44.20000000000002
 11
1.800164354327467
 21
-35.8
 97
        0
 75
     0
 76
     1
 98
        1
 10
21.66323868596883
 20
-0.0010749287238935
  0
HATCH
  5
BB
330
1F
100
AcDbEntity
  8
중심선
100
AcDbHatch
 10
0.0
 20
0.0
 30
0.0
210
0.0
220
0.0
230
1.0
  2
SOLID
 70
     1
 71
     0
 91
        1
 92
        0
 93
        6
 72
     3
 10
6.600054785339694
 20
-40.00000000005127
 11
3.960054785062283
 21
1.540882976769353E-10
 40
0.3939339440162628
 50
17.09539180608437
 51
320.0019657685071
 73
     0
 72
     1
 10
8.283054441040234
 20
-38.5878940046383
 11
10.58835631474133
 21
-36.65356729459038
 72
     3
 10
6.600054785286847
 20
-40.00000000000015
 11
6.600054785286829
 21
-1.278976924368180E-13
 40
0.636358354079598
 50
39.9987384933741
 51
368.4976242363725
 73
     1
 72
     1
 10
13.02538727718746
 20
-39.03999999993002
 11
5.28012209212277
 21
-39.03999999993002
 72
     1
 10
5.28012209212277
 20
-39.03999999993002
 11
5.280097047676836
 21
-40.95999999992991
 72
     1
 10
5.280097047676836
 20
-40.95999999992991
 11
9.721476817148872
 21
-40.95999999992988
 97
        0
 75
     0
 76
     1
 98
        1
 10
21.66323868596883
 20
-0.0010749287238935
  0
DIMENSION
  5
BC
330
1F
100
AcDbEntity
  8
치수문자_일반주서
100
AcDbDimension
  2
_D
 10
17.46250000000001
 20
14.76249999999999
 30
0.0
 11
51.91650000000001
 21
14.76249999999999
 31
0.0
 70
   160
  1
<>
 71
     2
 42
14.2875
  3
SLDDIMSTYLE2
100
AcDbAlignedDimension
 13
31.75000000000001
 23
4.762499999999998
 33
0.0
 14
17.46250000000001
 24
4.762500000000003
 34
0.0
 50
0.0000000000012253
100
AcDbRotatedDimension
1001
PE_URL
1000

1001
ACAD
1000
DSTYLE
1002
{
1070
   171
1070
     8
1070
   273
1070
     7
1002
}
  0
DIMENSION
  5
D1
330
1F
100
AcDbEntity
  8
치수문자_일반주서
100
AcDbDimension
  2
_D_1
 10
-31.74999999999999
 20
24.7625
 30
0.0
 11
-0.0000000000006963
 21
24.7625
 31
0.0
 70
   160
  1
<>
 71
     2
 42
63.5
  3
SLDDIMSTYLE2
100
AcDbAlignedDimension
 13
31.75000000000001
 23
4.762499999999998
 33
0.0
 14
-31.74999999999999
 24
4.762499999999998
 34
0.0
 50
0.0000000000012181
100
AcDbRotatedDimension
1001
PE_URL
1000

1001
ACAD
1000
DSTYLE
1002
{
1070
   171
1070
     8
1070
   273
1070
     7
1002
}
  0
DIMENSION
  5
E5
330
1F
100
AcDbEntity
  8
치수문자_일반주서
100
AcDbDimension
  2
_D_2
 10
71.80811158851874
 20
-4.762499999999854
 30
0.0
 11
71.80811158851866
 21
24.49150000000019
 31
0.0
 70
   160
  1
%%c<>
 71
     2
 42
9.524999999999999
 52
-270.0
  3
SLDDIMSTYLE2
100
AcDbAlignedDimension
 13
31.75000000000001
 23
4.762499999999998
 33
0.0
 14
31.75000000000001
 24
-4.762500000000001
 34
0.0
 50
90.0000000000002
100
AcDbRotatedDimension
1001
PE_URL
1000

1001
ACAD
1000
DSTYLE
1002
{
1070
   171
1070
     8
1070
   273
1070
     7
1002
}
  0
DIMENSION
  5
F8
330
1F
100
AcDbEntity
  8
치수문자_일반주서
100
AcDbDimension
  2
_D_3
 10
-41.74999999999996
 20
-4.762500000000092
 30
0.0
 11
-41.75000000000006
 21
24.49149999999996
 31
0.0
 70
   160
  1
%%c<>
 71
     2
 42
9.525
 52
-270.0
  3
SLDDIMSTYLE2
100
AcDbAlignedDimension
 13
-17.4625
 23
4.7625
 33
0.0
 14
-17.46249999999998
 24
-4.7625
 34
0.0
 50
90.0000000000002
100
AcDbRotatedDimension
1001
PE_URL
1000

1001
ACAD
1000
DSTYLE
1002
{
1070
   171
1070
     8
1070
   273
1070
     7
1002
}
  0
LINE
  5
10D
330
1F
100
AcDbEntity
  8
참조1
100
AcDbLine
 10
89.9572338153456
 20
7.440000000000002
 30
0.0
 11
89.9572338153456
 21
-7.440000000000002
 31
0.0
  0
LINE
  5
10E
330
1F
100
AcDbEntity
  8
참조1
100
AcDbLine
 10
102.6572338153456
 20
5.440000000000002
 30
0.0
 11
89.9572338153456
 21
5.440000000000002
 31
0.0
  0
SOLID
  5
10F
330
1F
100
AcDbEntity
  8
참조1
100
AcDbTrace
 10
89.9572338153456
 20
5.440000000000002
 30
0.0
 11
96.3072338153456
 21
4.424000000000002
 31
0.0
 12
96.3072338153456
 22
6.456000000000002
 32
0.0
 13
96.3072338153456
 23
6.456000000000002
 33
0.0
  0
LINE
  5
110
330
1F
100
AcDbEntity
  8
참조1
100
AcDbLine
 10
102.6572338153456
 20
-5.440000000000002
 30
0.0
 11
89.9572338153456
 21
-5.440000000000002
 31
0.0
  0
SOLID
  5
111
330
1F
100
AcDbEntity
  8
참조1
100
AcDbTrace
 10
89.9572338153456
 20
-5.440000000000002
 30
0.0
 11
96.3072338153456
 21
-6.456000000000002
 31
0.0
 12
96.3072338153456
 22
-4.424000000000002
 32
0.0
 13
96.3072338153456
 23
-4.424000000000002
 33
0.0
  0
MTEXT
  5
112
330
1F
100
AcDbEntity
  8
참조1
100
AcDbMText
 10
99.3547239078159
 20
10.98821664464994
 30
0.0
 40
3.5
 41
0.0
 71
     1
 72
     1
  1
A
  7
SLDTEXTSTYLE0
 73
     1
 44
1.0
  0
MTEXT
  5
113
330
1F
100
AcDbEntity
  8
참조1
100
AcDbMText
 10
99.3547239078159
 20
0.1082166446499324
 30
0.0
 40
3.5
 41
0.0
 71
     1
 72
     1
  1
A
  7
SLDTEXTSTYLE0
 73
     1
 44
1.0
  0
INSERT
  5
11A
330
1F
100
AcDbEntity
  8
해칭선
100
AcDbBlockReference
  2
SW_DOWELSYMBOL_0
 10
0.0
 20
0.0
 30
0.0
  0
ARC
  5
1B9
330
1F
100
AcDbEntity
  8
0
  6
Continuous
 62
     1
370
    15
100
AcDbCircle
 10
-26.9875
 20
-0.0000000000000036
 30
0.0
 40
4.762499999999992
100
AcDbArc
 50
143.996497321224
 51
180.0000000000001
1001
PE_URL
1000

  0
ARC
  5
1BA
330
1F
100
AcDbEntity
  8
0
  6
Continuous
 62
     1
370
    15
100
AcDbCircle
 10
-26.9875
 20
-0.0000000000000036
 30
0.0
 40
4.7625
100
AcDbArc
 50
180.0000000000001
 51
215.9763040256305
1001
PE_URL
1000

  0
LINE
  5
1BB
330
1F
100
AcDbEntity
  8
0
  6
Continuous
 62
     1
370
    15
100
AcDbLine
 10
-21.0737020116133
 20
-4.762499999999999
 30
0.0
 11
-18.17055459129582
 21
-4.762499999999999
 31
0.0
1001
PE_URL
1000

  0
LINE
  5
1BC
330
1F
100
AcDbEntity
  8
0
  6
Continuous
 62
     1
370
    15
100
AcDbLine
 10
-18.17055459129583
 20
4.762499999999998
 30
0.0
 11
-21.07370201161337
 21
4.762499999999994
 31
0.0
1001
PE_URL
1000

  0
SPLINE
  5
1BD
330
1F
100
AcDbEntity
  8
0
  6
Continuous
 62
     1
370
    15
100
AcDbSpline
210
0.0
220
0.0
230
1.0
 70
     8
 71
     3
 72
    22
 73
    18
 74
     0
 42
0.000000001
 43
0.00000001
 40
0.0
 40
0.0
 40
0.0
 40
0.0
 40
0.125
 40
0.125
 40
0.25
 40
0.25
 40
0.375
 40
0.375
 40
0.5
 40
0.5
 40
0.625
 40
0.625
 40
0.75
 40
0.75
 40
0.875
 40
0.875
 40
1.0
 40
1.0
 40
1.0
 40
1.0
 10
-17.46250000000001
 20
-0.4080574258305489
 30
0.0
 10
-17.85692217684063
 20
-0.1802182184079228
 30
0.0
 10
-18.25616086351342
 20
0.0499632264136558
 30
0.0
 10
-19.0518817992736
 20
0.5078599062657077
 30
0.0
 10
-19.44550516424517
 20
0.7350277836396373
 30
0.0
 10
-20.24047309425558
 20
1.184162673146599
 30
0.0
 10
-20.64001831621323
 20
1.405759573505083
 30
0.0
 10
-21.43081042529241
 20
1.836166351899259
 30
0.0
 10
-21.82784370998948
 20
2.046039922219723
 30
0.0
 10
-22.62402191211607
 20
2.450474042402567
 30
0.0
 10
-23.01818680913853
 20
2.644217530029277
 30
0.0
 10
-23.81210692705548
 20
3.012958226611797
 30
0.0
 10
-24.21180873351926
 20
3.18787354156035
 30
0.0
 10
-25.00425894626264
 20
3.513390753722692
 30
0.0
 10
-25.39962414865359
 20
3.664413221783468
 30
0.0
 10
-26.19596331064335
 20
3.940651446149708
 30
0.0
 10
-26.59121060199303
 20
4.065203417896926
 30
0.0
 10
-26.98750000000001
 20
4.175372425896326
 30
0.0
1001
PE_URL
1000

  0
SPLINE
  5
1BE
330
1F
100
AcDbEntity
  8
0
  6
Continuous
 62
     1
370
    15
100
AcDbSpline
210
0.0
220
0.0
230
1.0
 70
     8
 71
     3
 72
    14
 73
    10
 74
     0
 42
0.000000001
 43
0.00000001
 40
0.0
 40
0.0
 40
0.0
 40
0.0
 40
0.1531345928670087
 40
0.3107479529686493
 40
0.462558439925302
 40
0.6190530854036433
 40
0.7673151940189059
 40
0.9192442531037258
 40
1.0
 40
1.0
 40
1.0
 40
1.0
 10
-26.9875
 20
4.175372425896319
 30
0.0
 10
-27.20647613055342
 20
4.224682579840184
 30
0.0
 10
-27.65083284345868
 20
4.324745074615173
 30
0.0
 10
-28.32002249239591
 20
4.313001381920996
 30
0.0
 10
-28.9797931633843
 20
4.176408863936024
 30
0.0
 10
-29.59672925610386
 20
3.913492193434937
 30
0.0
 10
-30.15516731433409
 20
3.538691300196849
 30
0.0
 10
-30.57105274488881
 20
3.155974301070506
 30
0.0
 10
-30.76558631006281
 20
2.88761332977942
 30
0.0
 10
-30.83310126139701
 20
2.794475788705155
 30
0.0
1001
PE_URL
1000

  0
SPLINE
  5
1BF
330
1F
100
AcDbEntity
  8
0
  6
Continuous
 62
     1
370
    15
100
AcDbSpline
210
0.0
220
0.0
230
1.0
 70
     8
 71
     3
 72
    14
 73
    10
 74
     0
 42
0.000000001
 43
0.00000001
 40
0.0
 40
0.0
 40
0.0
 40
0.0
 40
0.0519288064882526
 40
0.2061378117821445
 40
0.3605635410614025
 40
0.5150288386537248
 40
0.6766117452549251
 40
0.8382024483711926
 40
1.0
 40
1.0
 40
1.0
 40
1.0
 10
-26.1031252271263
 20
3.893074167273626
 30
0.0
 10
-25.95356735184971
 20
3.945609789034021
 30
0.0
 10
-25.35987889202964
 20
4.154156428994868
 30
0.0
 10
-24.32172770219417
 20
4.413238493423927
 30
0.0
 10
-22.98766262796993
 20
4.6562210148556
 30
0.0
 10
-21.63228936548523
 20
4.773346997881829
 30
0.0
 10
-20.25684150778723
 20
4.760481482030515
 30
0.0
 10
-18.86024339113369
 20
4.619376132599772
 30
0.0
 10
-17.92861309630213
 20
4.415373823352645
 30
0.0
 10
-17.46249999999999
 20
4.313307425830487
 30
0.0
1001
PE_URL
1000

  0
SPLINE
  5
1C0
330
1F
100
AcDbEntity
  8
0
  6
Continuous
 62
     1
370
    15
100
AcDbSpline
210
0.0
220
0.0
230
1.0
 70
     8
 71
     3
 72
    22
 73
    18
 74
     0
 42
0.000000001
 43
0.00000001
 40
0.0
 40
0.0
 40
0.0
 40
0.0
 40
0.125
 40
0.125
 40
0.25
 40
0.25
 40
0.375
 40
0.375
 40
0.5
 40
0.5
 40
0.625
 40
0.625
 40
0.75
 40
0.75
 40
0.875
 40
0.875
 40
1.0
 40
1.0
 40
1.0
 40
1.0
 10
-17.4625
 20
-4.744986342153638
 30
0.0
 10
-17.85692217684063
 20
-4.764579966619568
 30
0.0
 10
-18.25616086351342
 20
-4.76775708962937
 30
0.0
 10
-19.05188179927359
 20
-4.74089467350969
 30
0.0
 10
-19.44550516424517
 20
-4.711019525341033
 30
0.0
 10
-20.24047309425558
 20
-4.618628538256015
 30
0.0
 10
-20.64001831621323
 20
-4.556053859907674
 30
0.0
 10
-21.4308104252924
 20
-4.400259069763251
 30
0.0
 10
-21.82784370998948
 20
-4.306709274224804
 30
0.0
 10
-22.62402191211607
 20
-4.090134607017475
 30
0.0
 10
-23.01818680913853
 20
-3.967623758672573
 30
0.0
 10
-23.81210692705547
 20
-3.695403545107013
 30
0.0
 10
-24.21180873351925
 20
-3.545606031861627
 30
0.0
 10
-25.00425894626263
 20
-3.223343801366831
 30
0.0
 10
-25.39962414865358
 20
-3.050591248809919
 30
0.0
 10
-26.19596331064335
 20
-2.684268505059688
 30
0.0
 10
-26.59121060199303
 20
-2.491583169219485
 30
0.0
 10
-26.98750000000001
 20
-2.290779639132577
 30
0.0
1001
PE_URL
1000

  0
SPLINE
  5
1C1
330
1F
100
AcDbEntity
  8
0
  6
Continuous
 62
     1
370
    15
100
AcDbSpline
210
0.0
220
0.0
230
1.0
 70
     8
 71
     3
 72
    44
 73
    40
 74
     0
 42
0.000000001
 43
0.00000001
 40
0.0
 40
0.0
 40
0.0
 40
0.0
 40
0.0625000000000007
 40
0.0625000000000007
 40
0.1250000000000014
 40
0.1250000000000014
 40
0.1875000000000021
 40
0.1875000000000021
 40
0.2500000000000028
 40
0.2500000000000028
 40
0.3125000000000036
 40
0.3125000000000036
 40
0.3750000000000042
 40
0.3750000000000042
 40
0.4375000000000042
 40
0.4375000000000042
 40
0.4687500000000046
 40
0.4687500000000046
 40
0.500000000000005
 40
0.500000000000005
 40
0.5312500000000053
 40
0.5312500000000053
 40
0.5625000000000057
 40
0.5625000000000057
 40
0.5937500000000061
 40
0.5937500000000061
 40
0.6250000000000064
 40
0.6250000000000064
 40
0.6875000000000053
 40
0.6875000000000053
 40
0.7500000000000042
 40
0.7500000000000042
 40
0.8125000000000032
 40
0.8125000000000032
 40
0.8750000000000021
 40
0.8750000000000021
 40
0.9375000000000011
 40
0.9375000000000011
 40
1.0
 40
1.0
 40
1.0
 40
1.0
 10
-26.9875
 20
-2.29077963913258
 30
0.0
 10
-27.22935983534967
 20
-2.168227007220896
 30
0.0
 10
-27.47033458429029
 20
-2.040031553398535
 30
0.0
 10
-27.95380729221702
 20
-1.778344590374832
 30
0.0
 10
-28.19824306277577
 20
-1.64377337780358
 30
0.0
 10
-28.68113872185704
 20
-1.376314550868631
 30
0.0
 10
-28.91622120677579
 20
-1.245848809334412
 30
0.0
 10
-29.37370978872353
 20
-0.9905288244607462
 30
0.0
 10
-29.59807338711205
 20
-0.8642215590275981
 30
0.0
 10
-30.01739025726557
 20
-0.6165376363034518
 30
0.0
 10
-30.21260807338415
 20
-0.4951309508604886
 30
0.0
 10
-30.57029815383916
 20
-0.244097383653834
 30
0.0
 10
-30.73342097068107
 20
-0.1140675637340323
 30
0.0
 10
-31.00901219534871
 20
0.1642347126390789
 30
0.0
 10
-31.12374941163889
 20
0.3139266203549376
 30
0.0
 10
-31.2496942578166
 20
0.5723969885395341
 30
0.0
 10
-31.28329292975469
 20
0.6629942047611266
 30
0.0
 10
-31.3320243935838
 20
0.8567570209619859
 30
0.0
 10
-31.34719207144495
 20
0.9611170619375748
 30
0.0
 10
-31.3553438450832
 20
1.180756251706367
 30
0.0
 10
-31.34861311256223
 20
1.295669100769807
 30
0.0
 10
-31.31090331356679
 20
1.538776257675099
 30
0.0
 10
-31.28008738175026
 20
1.664313398609977
 30
0.0
 10
-31.19622668913483
 20
1.915804797849706
 30
0.0
 10
-31.14181386172507
 20
2.045052886921052
 30
0.0
 10
-31.01525708820959
 20
2.292570414600073
 30
0.0
 10
-30.94257057528767
 20
2.412552220162009
 30
0.0
 10
-30.70250565987036
 20
2.752187230510701
 30
0.0
 10
-30.51679209593609
 20
2.945808145614976
 30
0.0
 10
-30.12775471121238
 20
3.251507539993904
 30
0.0
 10
-29.9197212261791
 20
3.367558920802093
 30
0.0
 10
-29.49927497211338
 20
3.527611845482479
 30
0.0
 10
-29.28229835536812
 20
3.574043932235591
 30
0.0
 10
-28.84128315113422
 20
3.609159595722199
 30
0.0
 10
-28.61997045407862
 20
3.597978624665016
 30
0.0
 10
-28.16748620220526
 20
3.530768700239181
 30
0.0
 10
-27.93451372032015
 20
3.473979337337546
 30
0.0
 10
-27.46592576003024
 20
3.32594121429703
 30
0.0
 10
-27.22924477469532
 20
3.234781934601378
 30
0.0
 10
-26.98750000000004
 20
3.129461795003751
 30
0.0
1001
PE_URL
1000

  0
SPLINE
  5
1C2
330
1F
100
AcDbEntity
  8
0
  6
Continuous
 62
     1
370
    15
100
AcDbSpline
210
0.0
220
0.0
230
1.0
 70
     8
 71
     3
 72
    22
 73
    18
 74
     0
 42
0.000000001
 43
0.00000001
 40
0.0
 40
0.0
 40
0.0
 40
0.0
 40
0.125
 40
0.125
 40
0.25
 40
0.25
 40
0.375
 40
0.375
 40
0.5
 40
0.5
 40
0.625
 40
0.625
 40
0.75
 40
0.75
 40
0.875
 40
0.875
 40
1.0
 40
1.0
 40
1.0
 40
1.0
 10
-17.46249999999998
 20
-2.019105074104711
 30
0.0
 10
-17.85692217684061
 20
-1.811993720265637
 30
0.0
 10
-18.25616086351341
 20
-1.597023354283788
 30
0.0
 10
-19.05188179927363
 20
-1.157944489585937
 30
0.0
 10
-19.44550516424517
 20
-0.934406464464189
 30
0.0
 10
-20.24047309425557
 20
-0.4809578323377153
 30
0.0
 10
-20.64001831621323
 20
-0.2513743526013918
 30
0.0
 10
-21.43081042529241
 20
0.2063562791307305
 30
0.0
 10
-21.82784370998946
 20
0.4356155686852965
 30
0.0
 10
-22.62402191211608
 20
0.8899231865852393
 30
0.0
 10
-23.01818680913851
 20
1.114027322835057
 30
0.0
 10
-23.81210692705547
 20
1.554016958810273
 30
0.0
 10
-24.21180873351928
 20
1.769855980021177
 30
0.0
 10
-25.00425894626265
 20
2.18652724844271
 30
0.0
 10
-25.39962414865358
 20
2.387853521100999
 30
0.0
 10
-26.19596331064333
 20
2.773459842760397
 30
0.0
 10
-26.59121060199304
 20
2.956811714886131
 30
0.0
 10
-26.98750000000001
 20
3.129461795003747
 30
0.0
1001
PE_URL
1000

  0
LINE
  5
1C3
330
1F
100
AcDbEntity
  8
외형선
  6
Continuous
370
    15
100
AcDbLine
 10
-17.46249999999999
 20
-0.4080574258305489
 30
0.0
 11
-17.46249999999998
 21
-2.019105074104711
 31
0.0
  0
SPLINE
  5
1C4
330
1F
100
AcDbEntity
  8
0
  6
Continuous
 62
     1
370
    15
100
AcDbSpline
210
0.0
220
0.0
230
1.0
 70
     8
 71
     3
 72
    44
 73
    40
 74
     0
 42
0.000000001
 43
0.00000001
 40
0.0
 40
0.0
 40
0.0
 40
0.0
 40
0.0624999999999994
 40
0.0624999999999994
 40
0.1249999999999988
 40
0.1249999999999988
 40
0.1874999999999982
 40
0.1874999999999982
 40
0.2499999999999976
 40
0.2499999999999976
 40
0.3124999999999969
 40
0.3124999999999969
 40
0.3749999999999962
 40
0.3749999999999962
 40
0.4374999999999948
 40
0.4374999999999948
 40
0.4687499999999946
 40
0.4687499999999946
 40
0.4999999999999943
 40
0.4999999999999943
 40
0.5312499999999939
 40
0.5312499999999939
 40
0.5624999999999937
 40
0.5624999999999937
 40
0.5937499999999933
 40
0.5937499999999933
 40
0.624999999999993
 40
0.624999999999993
 40
0.6874999999999941
 40
0.6874999999999941
 40
0.7499999999999953
 40
0.7499999999999953
 40
0.8124999999999964
 40
0.8124999999999964
 40
0.8749999999999977
 40
0.8749999999999977
 40
0.9374999999999988
 40
0.9374999999999988
 40
1.0
 40
1.0
 40
1.0
 40
1.0
 10
-26.98749999999999
 20
-4.175372425896345
 30
0.0
 10
-27.22935983534966
 20
-4.24260979906196
 30
0.0
 10
-27.47033458429028
 20
-4.285137779756692
 30
0.0
 10
-27.95380729221701
 20
-4.31983848089709
 30
0.0
 10
-28.19824306277578
 20
-4.31171727156277
 30
0.0
 10
-28.68113872185702
 20
-4.242185951655348
 30
0.0
 10
-28.91622120677579
 20
-4.181537539139224
 30
0.0
 10
-29.37370978872354
 20
-4.010263885647614
 30
0.0
 10
-29.59807338711207
 20
-3.898247034510963
 30
0.0
 10
-30.0173902572656
 20
-3.632898102976164
 30
0.0
 10
-30.21260807338416
 20
-3.480162738057231
 30
0.0
 10
-30.57029815383918
 20
-3.140379480733131
 30
0.0
 10
-30.73342097068105
 20
-2.951780952383832
 30
0.0
 10
-31.00901219534868
 20
-2.560939815842278
 30
0.0
 10
-31.12374941163889
 20
-2.356364880503811
 30
0.0
 10
-31.2496942578166
 20
-2.051099126255622
 30
0.0
 10
-31.2832929297547
 20
-1.951227577627044
 30
0.0
 10
-31.33202439358381
 20
-1.758340829065144
 30
0.0
 10
-31.34719207144502
 20
-1.664385330909482
 30
0.0
 10
-31.35534384508327
 20
-1.492847719407123
 30
0.0
 10
-31.34861311256223
 20
-1.415261999370692
 30
0.0
 10
-31.31090331356678
 20
-1.281165072568626
 30
0.0
 10
-31.28008738175026
 20
-1.226494743406743
 30
0.0
 10
-31.19622668913485
 20
-1.147539327020414
 30
0.0
 10
-31.14181386172508
 20
-1.122601854574079
 30
0.0
 10
-31.01525708820959
 20
-1.105483436509193
 30
0.0
 10
-30.94257057528769
 20
-1.112694190878063
 30
0.0
 10
-30.70250565987038
 20
-1.176562355788963
 30
0.0
 10
-30.51679209593609
 20
-1.274582175657631
 30
0.0
 10
-30.12775471121233
 20
-1.524712142597441
 30
0.0
 10
-29.9197212261791
 20
-1.679154887114613
 30
0.0
 10
-29.49927497211337
 20
-2.001218802711616
 30
0.0
 10
-29.28229835536817
 20
-2.172286641987707
 30
0.0
 10
-28.84128315113425
 20
-2.509217770040234
 30
0.0
 10
-28.61997045407862
 20
-2.673440903461561
 30
0.0
 10
-28.16748620220526
 20
-2.98311937060922
 30
0.0
 10
-27.93451372032016
 20
-3.129364870398064
 30
0.0
 10
-27.46592576003024
 20
-3.386372062544844
 30
0.0
 10
-27.2292447746953
 20
-3.498158588498928
 30
0.0
 10
-26.98750000000003
 20
-3.589968680032179
 30
0.0
1001
PE_URL
1000

  0
LINE
  5
1C5
330
1F
100
AcDbEntity
  8
0
  6
Continuous
 62
     1
370
    15
100
AcDbLine
 10
-26.10312522712623
 20
-3.893074167273635
 30
0.0
 11
-26.98750000000001
 21
-4.175372425896352
 31
0.0
1001
PE_URL
1000

  0
SPLINE
  5
1C6
330
1F
100
AcDbEntity
  8
0
  6
Continuous
 62
     1
370
    15
100
AcDbSpline
210
0.0
220
0.0
230
1.0
 70
     8
 71
     3
 72
    12
 73
     8
 74
     0
 42
0.000000001
 43
0.00000001
 40
0.0
 40
0.0
 40
0.0
 40
0.0
 40
0.2254264003548637
 40
0.4507382282363526
 40
0.6763667073872979
 40
0.902052999043594
 40
1.0
 40
1.0
 40
1.0
 40
1.0
 10
-26.98750000000001
 20
-3.589968680032179
 30
0.0
 10
-26.54313421398583
 20
-3.749427201822758
 30
0.0
 10
-25.65462848989321
 20
-4.068263200960079
 30
0.0
 10
-24.32171591972412
 20
-4.41772929975102
 30
0.0
 10
-22.98767578472592
 20
-4.65060881597838
 30
0.0
 10
-21.90463195155823
 20
-4.763319681331403
 30
0.0
 10
-21.26675443096021
 20
-4.749975170327559
 30
0.0
 10
-21.07370201161331
 20
-4.745936479432984
 30
0.0
1001
PE_URL
1000

  0
LINE
  5
1C7
330
1F
100
AcDbEntity
  8
0
  6
Continuous
 62
     1
370
    15
100
AcDbLine
 10
-17.46250000000001
 20
4.744986342153638
 30
0.0
 11
-18.17055459129583
 21
4.746997572823036
 31
0.0
1001
PE_URL
1000

  0
LINE
  5
1C8
330
1F
100
AcDbEntity
  8
외형선
  6
Continuous
370
    15
100
AcDbLine
 10
-17.4625
 20
4.744986342153638
 30
0.0
 11
-17.46249999999999
 21
4.313307425830487
 31
0.0
  0
LINE
  5
1C9
330
1F
100
AcDbEntity
  8
외형선
  6
Continuous
370
    15
100
AcDbLine
 10
-17.46249999999999
 20
0.0
 30
0.0
 11
-17.46249999999999
 21
-4.762499999999999
 31
0.0
  0
LINE
  5
1CA
330
1F
100
AcDbEntity
  8
외형선
  6
Continuous
370
    15
100
AcDbLine
 10
-17.4625
 20
4.762499999999999
 30
0.0
 11
-17.46249999999999
 21
0.0
 31
0.0
  0
ENDSEC
  0
SECTION
  2
OBJECTS
  0
DICTIONARY
  5
C
330
0
100
AcDbDictionary
281
     1
  3
ACAD_DETAILVIEWSTYLE
350
19F
  3
ACAD_GROUP
350
D
  3
ACAD_LAYOUT
350
1A
  3
ACAD_MLINESTYLE
350
17
  3
ACAD_PLOTSETTINGS
350
19
  3
ACAD_PLOTSTYLENAME
350
E
  3
ACAD_SCALELIST
350
47
  3
ACAD_SECTIONVIEWSTYLE
350
1A0
  3
AcDbVariableDictionary
350
19A
  3
APPDATA
350
13C
  3
DWGPROPS
350
1CD
  0
DICTIONARY
  5
175
330
2
100
AcDbDictionary
280
     1
281
     1
  3
ACAD_LAYERSTATES
360
176
  0
DICTIONARY
  5
19F
102
{ACAD_REACTORS
330
C
102
}
330
C
100
AcDbDictionary
281
     1
  0
DICTIONARY
  5
D
102
{ACAD_REACTORS
330
C
102
}
330
C
100
AcDbDictionary
281
     1
  0
DICTIONARY
  5
1A
102
{ACAD_REACTORS
330
C
102
}
330
C
100
AcDbDictionary
281
     1
  3
Layout1
350
1E
  3
Layout2
350
26
  3
Model
350
22
  0
DICTIONARY
  5
17
102
{ACAD_REACTORS
330
C
102
}
330
C
100
AcDbDictionary
281
     1
  3
Standard
350
18
  0
DICTIONARY
  5
19
102
{ACAD_REACTORS
330
C
102
}
330
C
100
AcDbDictionary
281
     1
  0
ACDBDICTIONARYWDFLT
  5
E
102
{ACAD_REACTORS
330
C
102
}
330
C
100
AcDbDictionary
281
     1
  3
Normal
350
F
100
AcDbDictionaryWithDefault
340
F
  0
DICTIONARY
  5
47
102
{ACAD_REACTORS
330
C
102
}
330
C
100
AcDbDictionary
281
     1
  3
A0
350
48
  3
A1
350
49
  3
A2
350
4A
  3
A3
350
4B
  3
A4
350
4C
  3
A5
350
4D
  3
A6
350
4E
  3
A7
350
4F
  3
A8
350
50
  3
A9
350
51
  3
B0
350
52
  3
B1
350
53
  3
B2
350
54
  3
B3
350
55
  3
B4
350
56
  3
B5
350
57
  3
B6
350
58
  3
B7
350
59
  3
B8
350
5A
  3
B9
350
5B
  3
C0
350
5C
  3
C1
350
5D
  3
C2
350
5E
  3
C3
350
5F
  3
C4
350
60
  3
C5
350
61
  3
C6
350
62
  3
C7
350
63
  3
C8
350
64
  3
C9
350
65
  3
D0
350
66
  3
D1
350
67
  3
D2
350
68
  0
DICTIONARY
  5
1A0
102
{ACAD_REACTORS
330
C
102
}
330
C
100
AcDbDictionary
281
     1
  0
DICTIONARY
  5
19A
102
{ACAD_REACTORS
330
C
102
}
330
C
100
AcDbDictionary
281
     1
  0
DICTIONARY
  5
13C
102
{ACAD_REACTORS
330
C
102
}
330
C
100
AcDbDictionary
281
     1
  0
XRECORD
  5
1CD
102
{ACAD_REACTORS
330
C
102
}
330
C
100
AcDbXrecord
280
     1
  1
DWGPROPS COOKIE
  2

  3

  4

  6

  7

  8
120170442
  9

300
=
301
=
302
=
303
=
304
=
305
=
306
=
307
=
308
=
309
=
 40
0.0
 41
2458320.000955405
 42
2458324.279221285
  1

 90
        0
  0
DICTIONARY
  5
176
102
{ACAD_REACTORS
330
175
102
}
330
175
100
AcDbDictionary
281
     1
  0
LAYOUT
  5
1E
102
{ACAD_REACTORS
330
1A
102
}
330
1A
100
AcDbPlotSettings
  1

  2
none_device
  4

  6

 40
0.0
 41
0.0
 42
0.0
 43
0.0
 44
0.0
 45
0.0
 46
0.0
 47
0.0
 48
0.0
 49
0.0
140
0.0
141
0.0
142
1.0
143
1.0
 70
   688
 72
     1
 73
     0
 74
     5
  7

 75
    16
147
1.0
148
0.0
149
0.0
100
AcDbLayout
  1
Layout1
 70
     1
 71
     1
 10
0.0
 20
0.0
 11
420.0
 21
297.0
 12
0.0
 22
0.0
 32
0.0
 14
1.000000000000000E+20
 24
1.000000000000000E+20
 34
1.000000000000000E+20
 15
-1.000000000000000E+20
 25
-1.000000000000000E+20
 35
-1.000000000000000E+20
146
0.0
 13
0.0
 23
0.0
 33
0.0
 16
1.0
 26
0.0
 36
0.0
 17
0.0
 27
1.0
 37
0.0
 76
     0
330
1B
  0
LAYOUT
  5
26
102
{ACAD_REACTORS
330
1A
102
}
330
1A
100
AcDbPlotSettings
  1

  2
none_device
  4

  6

 40
0.0
 41
0.0
 42
0.0
 43
0.0
 44
0.0
 45
0.0
 46
0.0
 47
0.0
 48
0.0
 49
0.0
140
0.0
141
0.0
142
1.0
143
1.0
 70
   688
 72
     1
 73
     0
 74
     5
  7

 75
    16
147
1.0
148
0.0
149
0.0
100
AcDbLayout
  1
Layout2
 70
     1
 71
     2
 10
0.0
 20
0.0
 11
0.0
 21
0.0
 12
0.0
 22
0.0
 32
0.0
 14
0.0
 24
0.0
 34
0.0
 15
0.0
 25
0.0
 35
0.0
146
0.0
 13
0.0
 23
0.0
 33
0.0
 16
1.0
 26
0.0
 36
0.0
 17
0.0
 27
1.0
 37
0.0
 76
     0
330
23
  0
LAYOUT
  5
22
102
{ACAD_REACTORS
330
1A
102
}
330
1A
100
AcDbPlotSettings
  1

  2
none_device
  4
ANSI_A_(11.00_x_8.50_Inches)
  6

 40
6.35
 41
19.05
 42
6.35000508
 43
19.05000254
 44
279.4
 45
215.9
 46
130.0385306089228
 47
92.54371273076167
 48
0.0
 49
0.0
140
0.0
141
0.0
142
0.0688368650264312
143
1.0
 70
  1696
 72
     0
 73
     0
 74
     0
  7

 75
     0
147
0.0235690232323232
148
0.0
149
0.0
100
AcDbLayout
  1
Model
 70
     1
 71
     0
 10
0.0
 20
0.0
 11
420.0
 21
297.0
 12
0.0
 22
0.0
 32
0.0
 14
-46.12500000000011
 24
-49.97180738881175
 34
0.0
 15
102.6572338153456
 25
37.61650000000019
 35
0.0
146
0.0
 13
0.0
 23
0.0
 33
0.0
 16
1.0
 26
0.0
 36
0.0
 17
0.0
 27
1.0
 37
0.0
 76
     0
330
1F
331
29
  0
MLINESTYLE
  5
18
102
{ACAD_REACTORS
330
17
102
}
330
17
100
AcDbMlineStyle
  2
Standard
 70
     0
  3

 62
   256
 51
90.0
 52
90.0
 71
     2
 49
0.5
 62
   256
  6
BYLAYER
 49
-0.5
 62
   256
  6
BYLAYER
  0
ACDBPLACEHOLDER
  5
F
102
{ACAD_REACTORS
330
E
102
}
330
E
  0
SCALE
  5
48
102
{ACAD_REACTORS
330
47
102
}
330
47
100
AcDbScale
 70
     0
300
1:1
140
1.0
141
1.0
290
     1
  0
SCALE
  5
49
102
{ACAD_REACTORS
330
47
102
}
330
47
100
AcDbScale
 70
     0
300
1:2
140
1.0
141
2.0
290
     0
  0
SCALE
  5
4A
102
{ACAD_REACTORS
330
47
102
}
330
47
100
AcDbScale
 70
     0
300
1:4
140
1.0
141
4.0
290
     0
  0
SCALE
  5
4B
102
{ACAD_REACTORS
330
47
102
}
330
47
100
AcDbScale
 70
     0
300
1:5
140
1.0
141
5.0
290
     0
  0
SCALE
  5
4C
102
{ACAD_REACTORS
330
47
102
}
330
47
100
AcDbScale
 70
     0
300
1:8
140
1.0
141
8.0
290
     0
  0
SCALE
  5
4D
102
{ACAD_REACTORS
330
47
102
}
330
47
100
AcDbScale
 70
     0
300
1:10
140
1.0
141
10.0
290
     0
  0
SCALE
  5
4E
102
{ACAD_REACTORS
330
47
102
}
330
47
100
AcDbScale
 70
     0
300
1:16
140
1.0
141
16.0
290
     0
  0
SCALE
  5
4F
102
{ACAD_REACTORS
330
47
102
}
330
47
100
AcDbScale
 70
     0
300
1:20
140
1.0
141
20.0
290
     0
  0
SCALE
  5
50
102
{ACAD_REACTORS
330
47
102
}
330
47
100
AcDbScale
 70
     0
300
1:30
140
1.0
141
30.0
290
     0
  0
SCALE
  5
51
102
{ACAD_REACTORS
330
47
102
}
330
47
100
AcDbScale
 70
     0
300
1:40
140
1.0
141
40.0
290
     0
  0
SCALE
  5
52
102
{ACAD_REACTORS
330
47
102
}
330
47
100
AcDbScale
 70
     0
300
1:50
140
1.0
141
50.0
290
     0
  0
SCALE
  5
53
102
{ACAD_REACTORS
330
47
102
}
330
47
100
AcDbScale
 70
     0
300
1:100
140
1.0
141
100.0
290
     0
  0
SCALE
  5
54
102
{ACAD_REACTORS
330
47
102
}
330
47
100
AcDbScale
 70
     0
300
2:1
140
2.0
141
1.0
290
     0
  0
SCALE
  5
55
102
{ACAD_REACTORS
330
47
102
}
330
47
100
AcDbScale
 70
     0
300
4:1
140
4.0
141
1.0
290
     0
  0
SCALE
  5
56
102
{ACAD_REACTORS
330
47
102
}
330
47
100
AcDbScale
 70
     0
300
8:1
140
8.0
141
1.0
290
     0
  0
SCALE
  5
57
102
{ACAD_REACTORS
330
47
102
}
330
47
100
AcDbScale
 70
     0
300
10:1
140
10.0
141
1.0
290
     0
  0
SCALE
  5
58
102
{ACAD_REACTORS
330
47
102
}
330
47
100
AcDbScale
 70
     0
300
100:1
140
100.0
141
1.0
290
     0
  0
SCALE
  5
59
102
{ACAD_REACTORS
330
47
102
}
330
47
100
AcDbScale
 70
     0
300
1/128" = 1'-0"
140
0.0078125
141
12.0
290
     0
  0
SCALE
  5
5A
102
{ACAD_REACTORS
330
47
102
}
330
47
100
AcDbScale
 70
     0
300
1/64" = 1'-0"
140
0.015625
141
12.0
290
     0
  0
SCALE
  5
5B
102
{ACAD_REACTORS
330
47
102
}
330
47
100
AcDbScale
 70
     0
300
1/32" = 1'-0"
140
0.03125
141
12.0
290
     0
  0
SCALE
  5
5C
102
{ACAD_REACTORS
330
47
102
}
330
47
100
AcDbScale
 70
     0
300
1/16" = 1'-0"
140
0.0625
141
12.0
290
     0
  0
SCALE
  5
5D
102
{ACAD_REACTORS
330
47
102
}
330
47
100
AcDbScale
 70
     0
300
3/32" = 1'-0"
140
0.09375
141
12.0
290
     0
  0
SCALE
  5
5E
102
{ACAD_REACTORS
330
47
102
}
330
47
100
AcDbScale
 70
     0
300
1/8" = 1'-0"
140
0.125
141
12.0
290
     0
  0
SCALE
  5
5F
102
{ACAD_REACTORS
330
47
102
}
330
47
100
AcDbScale
 70
     0
300
3/16" = 1'-0"
140
0.1875
141
12.0
290
     0
  0
SCALE
  5
60
102
{ACAD_REACTORS
330
47
102
}
330
47
100
AcDbScale
 70
     0
300
1/4" = 1'-0"
140
0.25
141
12.0
290
     0
  0
SCALE
  5
61
102
{ACAD_REACTORS
330
47
102
}
330
47
100
AcDbScale
 70
     0
300
3/8" = 1'-0"
140
0.375
141
12.0
290
     0
  0
SCALE
  5
62
102
{ACAD_REACTORS
330
47
102
}
330
47
100
AcDbScale
 70
     0
300
1/2" = 1'-0"
140
0.5
141
12.0
290
     0
  0
SCALE
  5
63
102
{ACAD_REACTORS
330
47
102
}
330
47
100
AcDbScale
 70
     0
300
3/4" = 1'-0"
140
0.75
141
12.0
290
     0
  0
SCALE
  5
64
102
{ACAD_REACTORS
330
47
102
}
330
47
100
AcDbScale
 70
     0
300
1" = 1'-0"
140
1.0
141
12.0
290
     0
  0
SCALE
  5
65
102
{ACAD_REACTORS
330
47
102
}
330
47
100
AcDbScale
 70
     0
300
1-1/2" = 1'-0"
140
1.5
141
12.0
290
     0
  0
SCALE
  5
66
102
{ACAD_REACTORS
330
47
102
}
330
47
100
AcDbScale
 70
     0
300
3" = 1'-0"
140
3.0
141
12.0
290
     0
  0
SCALE
  5
67
102
{ACAD_REACTORS
330
47
102
}
330
47
100
AcDbScale
 70
     0
300
6" = 1'-0"
140
6.0
141
12.0
290
     0
  0
SCALE
  5
68
102
{ACAD_REACTORS
330
47
102
}
330
47
100
AcDbScale
 70
     0
300
1'-0" = 1'-0"
140
12.0
141
12.0
290
     0
  0
ENDSEC
  0
EOF
