  0
SECTION
  2
HEADER
  9
$ACADVER
  1
AC1015
  9
$ACADMAINTVER
 70
     6
  9
$DWGCODEPAGE
  3
ANSI_949
  9
$INSBASE
 10
0.0
 20
0.0
 30
0.0
  9
$EXTMIN
 10
-57.47500000000014
 20
-49.97180738881175
 30
0.0
  9
$EXTMAX
 10
96.3072338153456
 20
40.72499999999999
 30
0.0
  9
$LIMMIN
 10
0.0
 20
0.0
  9
$LIMMAX
 10
420.0
 20
297.0
  9
$ORTHOMODE
 70
     1
  9
$REGENMODE
 70
     1
  9
$FILLMODE
 70
     1
  9
$QTEXTMODE
 70
     0
  9
$MIRRTEXT
 70
     1
  9
$LTSCALE
 40
1.0
  9
$ATTMODE
 70
     1
  9
$TEXTSIZE
 40
3.5
  9
$TRACEWID
 40
1.0
  9
$TEXTSTYLE
  7
Standard
  9
$CLAYER
  8
0
  9
$CELTYPE
  6
ByLayer
  9
$CECOLOR
 62
   256
  9
$CELTSCALE
 40
1.0
  9
$DISPSILH
 70
     0
  9
$DIMSCALE
 40
1.0
  9
$DIMASZ
 40
3.302
  9
$DIMEXO
 40
1.0
  9
$DIMDLI
 40
3.75
  9
$DIMRND
 40
0.0
  9
$DIMDLE
 40
0.0
  9
$DIMEXE
 40
1.0
  9
$DIMTP
 40
0.0
  9
$DIMTM
 40
0.0
  9
$DIMTXT
 40
3.5
  9
$DIMCEN
 40
2.5
  9
$DIMTSZ
 40
0.0
  9
$DIMTOL
 70
     0
  9
$DIMLIM
 70
     0
  9
$DIMTIH
 70
     1
  9
$DIMTOH
 70
     1
  9
$DIMSE1
 70
     0
  9
$DIMSE2
 70
     0
  9
$DIMTAD
 70
     1
  9
$DIMZIN
 70
     0
  9
$DIMBLK
  1

  9
$DIMASO
 70
     1
  9
$DIMSHO
 70
     1
  9
$DIMPOST
  1

  9
$DIMAPOST
  1

  9
$DIMALT
 70
     0
  9
$DIMALTD
 70
     3
  9
$DIMALTF
 40
0.0393700787401575
  9
$DIMLFAC
 40
1.0
  9
$DIMTOFL
 70
     1
  9
$DIMTVP
 40
0.0
  9
$DIMTIX
 70
     0
  9
$DIMSOXD
 70
     0
  9
$DIMSAH
 70
     0
  9
$DIMBLK1
  1

  9
$DIMBLK2
  1

  9
$DIMSTYLE
  2
ISO-25
  9
$DIMCLRD
 70
     0
  9
$DIMCLRE
 70
     0
  9
$DIMCLRT
 70
     0
  9
$DIMTFAC
 40
1.0
  9
$DIMGAP
 40
1.524
  9
$DIMJUST
 70
     0
  9
$DIMSD1
 70
     0
  9
$DIMSD2
 70
     0
  9
$DIMTOLJ
 70
     0
  9
$DIMTZIN
 70
     0
  9
$DIMALTZ
 70
     0
  9
$DIMALTTZ
 70
     0
  9
$DIMUPT
 70
     0
  9
$DIMDEC
 70
     2
  9
$DIMTDEC
 70
     2
  9
$DIMALTU
 70
     2
  9
$DIMALTTD
 70
     3
  9
$DIMTXSTY
  7
Standard
  9
$DIMAUNIT
 70
     0
  9
$DIMADEC
 70
     2
  9
$DIMALTRND
 40
0.0
  9
$DIMAZIN
 70
     0
  9
$DIMDSEP
 70
    44
  9
$DIMATFIT
 70
     3
  9
$DIMFRAC
 70
     0
  9
$DIMLDRBLK
  1

  9
$DIMLUNIT
 70
     2
  9
$DIMLWD
 70
    -2
  9
$DIMLWE
 70
    -2
  9
$DIMTMOVE
 70
     0
  9
$LUNITS
 70
     2
  9
$LUPREC
 70
     2
  9
$SKETCHINC
 40
1.0
  9
$FILLETRAD
 40
10.0
  9
$AUNITS
 70
     0
  9
$AUPREC
 70
     2
  9
$MENU
  1
.
  9
$ELEVATION
 40
0.0
  9
$PELEVATION
 40
0.0
  9
$THICKNESS
 40
0.0
  9
$LIMCHECK
 70
     0
  9
$CHAMFERA
 40
0.0
  9
$CHAMFERB
 40
0.0
  9
$CHAMFERC
 40
0.0
  9
$CHAMFERD
 40
0.0
  9
$SKPOLY
 70
     0
  9
$TDCREATE
 40
2458320.376378993
  9
$TDUCREATE
 40
2458320.001378993
  9
$TDUPDATE
 40
2458324.661125313
  9
$TDUUPDATE
 40
2458324.286125313
  9
$TDINDWG
 40
0.0005438194
  9
$TDUSRTIMER
 40
0.0034832755
  9
$USRTIMER
 70
     1
  9
$ANGBASE
 50
0.0
  9
$ANGDIR
 70
     0
  9
$PDMODE
 70
     0
  9
$PDSIZE
 40
-1.0
  9
$PLINEWID
 40
0.0
  9
$SPLFRAME
 70
     0
  9
$SPLINETYPE
 70
     6
  9
$SPLINESEGS
 70
     8
  9
$HANDSEED
  5
1D1
  9
$SURFTAB1
 70
     6
  9
$SURFTAB2
 70
     6
  9
$SURFTYPE
 70
     6
  9
$SURFU
 70
     6
  9
$SURFV
 70
     6
  9
$UCSBASE
  2

  9
$UCSNAME
  2

  9
$UCSORG
 10
0.0
 20
0.0
 30
0.0
  9
$UCSXDIR
 10
1.0
 20
0.0
 30
0.0
  9
$UCSYDIR
 10
0.0
 20
1.0
 30
0.0
  9
$UCSORTHOREF
  2

  9
$UCSORTHOVIEW
 70
     0
  9
$UCSORGTOP
 10
0.0
 20
0.0
 30
0.0
  9
$UCSORGBOTTOM
 10
0.0
 20
0.0
 30
0.0
  9
$UCSORGLEFT
 10
0.0
 20
0.0
 30
0.0
  9
$UCSORGRIGHT
 10
0.0
 20
0.0
 30
0.0
  9
$UCSORGFRONT
 10
0.0
 20
0.0
 30
0.0
  9
$UCSORGBACK
 10
0.0
 20
0.0
 30
0.0
  9
$PUCSBASE
  2

  9
$PUCSNAME
  2

  9
$PUCSORG
 10
0.0
 20
0.0
 30
0.0
  9
$PUCSXDIR
 10
1.0
 20
0.0
 30
0.0
  9
$PUCSYDIR
 10
0.0
 20
1.0
 30
0.0
  9
$PUCSORTHOREF
  2

  9
$PUCSORTHOVIEW
 70
     0
  9
$PUCSORGTOP
 10
0.0
 20
0.0
 30
0.0
  9
$PUCSORGBOTTOM
 10
0.0
 20
0.0
 30
0.0
  9
$PUCSORGLEFT
 10
0.0
 20
0.0
 30
0.0
  9
$PUCSORGRIGHT
 10
0.0
 20
0.0
 30
0.0
  9
$PUCSORGFRONT
 10
0.0
 20
0.0
 30
0.0
  9
$PUCSORGBACK
 10
0.0
 20
0.0
 30
0.0
  9
$USERI1
 70
     0
  9
$USERI2
 70
     0
  9
$USERI3
 70
     0
  9
$USERI4
 70
     0
  9
$USERI5
 70
     0
  9
$USERR1
 40
0.0
  9
$USERR2
 40
0.0
  9
$USERR3
 40
0.0
  9
$USERR4
 40
0.0
  9
$USERR5
 40
0.0
  9
$WORLDVIEW
 70
     1
  9
$SHADEDGE
 70
     3
  9
$SHADEDIF
 70
    70
  9
$TILEMODE
 70
     1
  9
$MAXACTVP
 70
    64
  9
$PINSBASE
 10
0.0
 20
0.0
 30
0.0
  9
$PLIMCHECK
 70
     0
  9
$PEXTMIN
 10
1.000000000000000E+20
 20
1.000000000000000E+20
 30
1.000000000000000E+20
  9
$PEXTMAX
 10
-1.000000000000000E+20
 20
-1.000000000000000E+20
 30
-1.000000000000000E+20
  9
$PLIMMIN
 10
0.0
 20
0.0
  9
$PLIMMAX
 10
0.0
 20
0.0
  9
$UNITMODE
 70
     0
  9
$VISRETAIN
 70
     1
  9
$PLINEGEN
 70
     0
  9
$PSLTSCALE
 70
     1
  9
$TREEDEPTH
 70
  3020
  9
$CMLSTYLE
  2
Standard
  9
$CMLJUST
 70
     0
  9
$CMLSCALE
 40
20.0
  9
$PROXYGRAPHICS
 70
     1
  9
$MEASUREMENT
 70
     1
  9
$CELWEIGHT
370
    -1
  9
$ENDCAPS
280
     0
  9
$JOINSTYLE
280
     0
  9
$LWDISPLAY
290
     1
  9
$INSUNITS
 70
     4
  9
$HYPERLINKBASE
  1

  9
$STYLESHEET
  1

  9
$XEDIT
290
     1
  9
$CEPSNTYPE
380
     0
  9
$PSTYLEMODE
290
     1
  9
$FINGERPRINTGUID
  2
{E8C998AA-CB0A-4D31-979C-0F3DF2111F1B}
  9
$VERSIONGUID
  2
{FAEB1C32-E019-11D5-929B-00C0DF256EC4}
  9
$EXTNAMES
290
     1
  9
$PSVPSCALE
 40
0.0
  9
$OLESTARTUP
290
     0
  0
ENDSEC
  0
SECTION
  2
CLASSES
  0
CLASS
  1
ACDBDICTIONARYWDFLT
  2
AcDbDictionaryWithDefault
  3
ObjectDBX Classes
 90
        0
280
     0
281
     0
  0
CLASS
  1
VISUALSTYLE
  2
AcDbVisualStyle
  3
ObjectDBX Classes
 90
     4095
280
     0
281
     0
  0
CLASS
  1
MATERIAL
  2
AcDbMaterial
  3
ObjectDBX Classes
 90
     1153
280
     0
281
     0
  0
CLASS
  1
SCALE
  2
AcDbScale
  3
ObjectDBX Classes
 90
     1153
280
     0
281
     0
  0
CLASS
  1
SUN
  2
AcDbSun
  3
SCENEOE
 90
     1153
280
     0
281
     0
  0
CLASS
  1
ACDBPLACEHOLDER
  2
AcDbPlaceHolder
  3
ObjectDBX Classes
 90
        0
280
     0
281
     0
  0
CLASS
  1
LAYOUT
  2
AcDbLayout
  3
ObjectDBX Classes
 90
        0
280
     0
281
     0
  0
CLASS
  1
TABLESTYLE
  2
AcDbTableStyle
  3
ObjectDBX Classes
 90
     4095
280
     0
281
     0
  0
CLASS
  1
MLEADERSTYLE
  2
AcDbMLeaderStyle
  3
ACDB_MLEADERSTYLE_CLASS
 90
     4095
280
     0
281
     0
  0
CLASS
  1
DICTIONARYVAR
  2
AcDbDictionaryVar
  3
ObjectDBX Classes
 90
        0
280
     0
281
     0
  0
ENDSEC
  0
SECTION
  2
TABLES
  0
TABLE
  2
VPORT
  5
8
330
0
100
AcDbSymbolTable
 70
     1
  0
VPORT
  5
29
330
8
100
AcDbSymbolTableRecord
100
AcDbViewportTableRecord
  2
*Active
 70
     0
 10
0.0
 20
0.0
 11
1.0
 21
1.0
 12
19.41611690767273
 22
-4.623403694405873
 13
0.0
 23
0.0
 14
10.0
 24
10.0
 15
10.0
 25
10.0
 16
0.0
 26
0.0
 36
1.0
 17
0.0
 27
0.0
 37
0.0
 40
92.51074353658798
 41
1.782762691853601
 42
50.0
 43
0.0
 44
0.0
 50
0.0
 51
0.0
 71
    16
 72
  2000
 73
     1
 74
     3
 75
     0
 76
     0
 77
     0
 78
     0
281
     0
 65
     1
110
0.0
120
0.0
130
0.0
111
1.0
121
0.0
131
0.0
112
0.0
122
1.0
132
0.0
 79
     0
146
0.0
  0
ENDTAB
  0
TABLE
  2
LTYPE
  5
5
330
0
100
AcDbSymbolTable
 70
     6
  0
LTYPE
  5
14
330
5
100
AcDbSymbolTableRecord
100
AcDbLinetypeTableRecord
  2
ByBlock
 70
     0
  3

 72
    65
 73
     0
 40
0.0
  0
LTYPE
  5
15
330
5
100
AcDbSymbolTableRecord
100
AcDbLinetypeTableRecord
  2
ByLayer
 70
     0
  3

 72
    65
 73
     0
 40
0.0
  0
LTYPE
  5
16
330
5
100
AcDbSymbolTableRecord
100
AcDbLinetypeTableRecord
  2
Continuous
 70
     0
  3
Solid line
 72
    65
 73
     0
 40
0.0
  0
LTYPE
  5
6A
330
5
100
AcDbSymbolTableRecord
100
AcDbLinetypeTableRecord
  2
HIDDEN
 70
     0
  3
Hidden __ __ __ __ __ __ __ __ __ __ __ __ __ __
 72
    65
 73
     2
 40
1.905
 49
1.27
 74
     0
 49
-0.635
 74
     0
  0
LTYPE
  5
6B
330
5
100
AcDbSymbolTableRecord
100
AcDbLinetypeTableRecord
  2
PHANTOM
 70
     0
  3
Phantom ______  __  __  ______  __  __  ______
 72
    65
 73
     6
 40
12.7
 49
6.35
 74
     0
 49
-1.27
 74
     0
 49
1.27
 74
     0
 49
-1.27
 74
     0
 49
1.27
 74
     0
 49
-1.27
 74
     0
  0
LTYPE
  5
6C
330
5
100
AcDbSymbolTableRecord
100
AcDbLinetypeTableRecord
  2
CENTER
 70
     0
  3
Center ____ _ ____ _ ____ _ ____ _ ____ _ ____
 72
    65
 73
     4
 40
10.16
 49
6.35
 74
     0
 49
-1.27
 74
     0
 49
1.27
 74
     0
 49
-1.27
 74
     0
  0
LTYPE
  5
6D
330
5
100
AcDbSymbolTableRecord
100
AcDbLinetypeTableRecord
  2
CENTERX2
 70
     0
  3
Center (2x) ________  __  ________  __  _____
 72
    65
 73
     4
 40
20.32
 49
12.7
 74
     0
 49
-2.54
 74
     0
 49
2.54
 74
     0
 49
-2.54
 74
     0
  0
LTYPE
  5
6E
330
5
100
AcDbSymbolTableRecord
100
AcDbLinetypeTableRecord
  2
DOT2
 70
     0
  3
Dot (.5x) ........................................
 72
    65
 73
     2
 40
0.635
 49
0.0
 74
     0
 49
-0.635
 74
     0
  0
ENDTAB
  0
TABLE
  2
LAYER
  5
2
102
{ACAD_XDICTIONARY
360
175
102
}
330
0
100
AcDbSymbolTable
 70
    18
  0
LAYER
  5
10
330
2
100
AcDbSymbolTableRecord
100
AcDbLayerTableRecord
  2
0
 70
     0
 62
     7
  6
Continuous
370
    -3
390
F
  0
LAYER
  5
6F
330
2
100
AcDbSymbolTableRecord
100
AcDbLayerTableRecord
  2
FORMAT
 70
     0
 62
     2
  6
Continuous
370
    -3
390
F
  0
LAYER
  5
70
330
2
100
AcDbSymbolTableRecord
100
AcDbLayerTableRecord
  2
외형선
 70
     0
 62
     4
  6
Continuous
370
    30
390
F
  0
LAYER
  5
71
330
2
100
AcDbSymbolTableRecord
100
AcDbLayerTableRecord
  2
숨은선
 70
     0
 62
     2
  6
HIDDEN
370
    15
390
F
  0
LAYER
  5
72
330
2
100
AcDbSymbolTableRecord
100
AcDbLayerTableRecord
  2
중심선
 70
     0
 62
     1
  6
CENTERX2
370
    -3
390
F
  0
LAYER
  5
73
330
2
100
AcDbSymbolTableRecord
100
AcDbLayerTableRecord
  2
파단선
 70
     0
 62
     4
  6
Continuous
370
    -3
390
F
  0
LAYER
  5
74
330
2
100
AcDbSymbolTableRecord
100
AcDbLayerTableRecord
  2
해칭선
 70
     0
 62
   100
  6
Continuous
370
    -3
390
F
  0
LAYER
  5
75
330
2
100
AcDbSymbolTableRecord
100
AcDbLayerTableRecord
  2
가는실선
 70
     0
 62
     4
  6
Continuous
370
    -3
390
F
  0
LAYER
  5
76
330
2
100
AcDbSymbolTableRecord
100
AcDbLayerTableRecord
  2
치수_보조선
 70
     0
 62
     4
  6
Continuous
370
    -3
390
F
  0
LAYER
  5
77
330
2
100
AcDbSymbolTableRecord
100
AcDbLayerTableRecord
  2
치수문자_일반주서
 70
     0
 62
     7
  6
Continuous
370
    15
390
F
  0
LAYER
  5
78
330
2
100
AcDbSymbolTableRecord
100
AcDbLayerTableRecord
  2
개별주서
 70
     0
 62
   100
  6
Continuous
370
    30
390
F
  0
LAYER
  5
79
330
2
100
AcDbSymbolTableRecord
100
AcDbLayerTableRecord
  2
중간선
 70
     0
 62
     2
  6
Continuous
370
    15
390
F
  0
LAYER
  5
7A
330
2
100
AcDbSymbolTableRecord
100
AcDbLayerTableRecord
  2
윤곽선
 70
     0
 62
     3
  6
Continuous
370
    40
390
F
  0
LAYER
  5
7B
330
2
100
AcDbSymbolTableRecord
100
AcDbLayerTableRecord
  2
중심마크
 70
     0
 62
   100
  6
Continuous
370
    30
390
F
  0
LAYER
  5
7C
330
2
100
AcDbSymbolTableRecord
100
AcDbLayerTableRecord
  2
가상선
 70
     0
 62
     4
  6
PHANTOM
370
    -3
390
F
  0
LAYER
  5
7D
330
2
100
AcDbSymbolTableRecord
100
AcDbLayerTableRecord
  2
특수지정선
 70
     0
 62
     5
  6
CENTERX2
370
    60
390
F
  0
LAYER
  5
7E
330
2
100
AcDbSymbolTableRecord
100
AcDbLayerTableRecord
  2
참조1
 70
     0
 62
    -4
  6
Continuous
370
    -3
390
F
  0
LAYER
  5
13E
330
2
100
AcDbSymbolTableRecord
100
AcDbLayerTableRecord
  2
Defpoints
 70
     0
 62
     7
  6
Continuous
290
     0
370
    -3
390
F
  0
ENDTAB
  0
TABLE
  2
STYLE
  5
3
330
0
100
AcDbSymbolTable
 70
     2
  0
STYLE
  5
11
330
3
100
AcDbSymbolTableRecord
100
AcDbTextStyleTableRecord
  2
Standard
 70
     0
 40
0.0
 41
1.0
 50
0.0
 71
     0
 42
3.5
  3
txt
  4

  0
STYLE
  5
94
330
3
100
AcDbSymbolTableRecord
100
AcDbTextStyleTableRecord
  2
SLDTEXTSTYLE0
 70
     0
 40
0.0
 41
0.75
 50
0.0
 71
     0
 42
3.5
  3
TXT
  4

  0
ENDTAB
  0
TABLE
  2
VIEW
  5
6
330
0
100
AcDbSymbolTable
 70
     0
  0
ENDTAB
  0
TABLE
  2
UCS
  5
7
330
0
100
AcDbSymbolTable
 70
     0
  0
ENDTAB
  0
TABLE
  2
APPID
  5
9
330
0
100
AcDbSymbolTable
 70
     2
  0
APPID
  5
12
330
9
100
AcDbSymbolTableRecord
100
AcDbRegAppTableRecord
  2
ACAD
 70
     0
  0
APPID
  5
145
330
9
100
AcDbSymbolTableRecord
100
AcDbRegAppTableRecord
  2
PE_URL
 70
     0
  0
ENDTAB
  0
TABLE
  2
DIMSTYLE
  5
A
330
0
100
AcDbSymbolTable
 70
     4
100
AcDbDimStyleTable
  0
DIMSTYLE
105
27
330
A
100
AcDbSymbolTableRecord
100
AcDbDimStyleTableRecord
  2
ISO-25
 70
     0
 41
2.5
 42
0.625
 43
3.75
 44
1.25
 73
     0
 74
     0
 77
     1
 78
     8
140
2.5
141
2.5
143
0.03937007874016
147
0.625
171
     3
172
     1
178
     0
271
     2
272
     2
274
     3
278
    44
283
     0
284
     8
340
11
  0
DIMSTYLE
105
BD
330
A
100
AcDbSymbolTableRecord
100
AcDbDimStyleTableRecord
  2
SLDDIMSTYLE0
 70
     0
 41
3.302
 44
0.0
 45
0.000000001
 73
     0
 74
     0
 77
     1
 78
    12
 79
     3
140
3.5
143
0.0393700787401575
147
0.875
148
0.000000001
170
     1
173
     1
178
     0
271
     2
272
     2
276
     2
284
    12
340
94
  0
DIMSTYLE
105
D2
330
A
100
AcDbSymbolTableRecord
100
AcDbDimStyleTableRecord
  2
SLDDIMSTYLE1
 70
     0
 41
3.302
 44
0.0
 45
0.000000001
 73
     0
 74
     0
 77
     1
 78
     4
 79
     1
140
3.5
143
0.0393700787401575
147
0.875
148
0.000000001
170
     1
173
     1
178
     0
271
     2
272
     2
276
     2
284
    12
340
94
  0
DIMSTYLE
105
F9
102
{ACAD_REACTORS
330
F8
330
164
330
BC
330
D1
330
E5
102
}
330
A
100
AcDbSymbolTableRecord
100
AcDbDimStyleTableRecord
  2
SLDDIMSTYLE2
 70
     0
 41
3.302
 44
0.0
 45
0.000000001
 73
     0
 74
     0
 77
     1
 78
     4
 79
     1
140
3.5
143
0.0393700787401575
147
0.875
148
0.000000001
170
     1
172
     1
173
     1
178
     0
271
     2
272
     2
276
     2
284
    12
289
     0
340
94
  0
ENDTAB
  0
TABLE
  2
BLOCK_RECORD
  5
1
330
0
100
AcDbSymbolTable
 70
    10
  0
BLOCK_RECORD
  5
1F
330
1
100
AcDbSymbolTableRecord
100
AcDbBlockTableRecord
  2
*Model_Space
340
22
  0
BLOCK_RECORD
  5
1B
330
1
100
AcDbSymbolTableRecord
100
AcDbBlockTableRecord
  2
*Paper_Space
340
1E
  0
BLOCK_RECORD
  5
23
330
1
100
AcDbSymbolTableRecord
100
AcDbBlockTableRecord
  2
*Paper_Space0
340
26
  0
BLOCK_RECORD
  5
7F
330
1
100
AcDbSymbolTableRecord
100
AcDbBlockTableRecord
  2
블럭10
340
0
102
{BLKREFS
331
B5
102
}
  0
BLOCK_RECORD
  5
BE
330
1
100
AcDbSymbolTableRecord
100
AcDbBlockTableRecord
  2
_D
340
0
  0
BLOCK_RECORD
  5
D3
330
1
100
AcDbSymbolTableRecord
100
AcDbBlockTableRecord
  2
_D_1
340
0
  0
BLOCK_RECORD
  5
E6
330
1
100
AcDbSymbolTableRecord
100
AcDbBlockTableRecord
  2
_D_2
340
0
  0
BLOCK_RECORD
  5
FA
330
1
100
AcDbSymbolTableRecord
100
AcDbBlockTableRecord
  2
_D_3
340
0
  0
BLOCK_RECORD
  5
114
330
1
100
AcDbSymbolTableRecord
100
AcDbBlockTableRecord
  2
SW_DOWELSYMBOL_0
340
0
102
{BLKREFS
331
11A
102
}
  0
BLOCK_RECORD
  5
179
330
1
100
AcDbSymbolTableRecord
100
AcDbBlockTableRecord
  2
*D8
340
0
  0
BLOCK_RECORD
  5
18B
330
1
100
AcDbSymbolTableRecord
100
AcDbBlockTableRecord
  2
*D9
340
0
  0
ENDTAB
  0
ENDSEC
  0
SECTION
  2
BLOCKS
  0
BLOCK
  5
20
330
1F
100
AcDbEntity
  8
0
100
AcDbBlockBegin
  2
*Model_Space
 70
     0
 10
0.0
 20
0.0
 30
0.0
  3
*Model_Space
  1

  0
ENDBLK
  5
21
330
1F
100
AcDbEntity
  8
0
100
AcDbBlockEnd
  0
BLOCK
  5
1C
330
1B
100
AcDbEntity
 67
     1
  8
0
100
AcDbBlockBegin
  2
*Paper_Space
 70
     0
 10
0.0
 20
0.0
 30
0.0
  3
*Paper_Space
  1

  0
ENDBLK
  5
1D
330
1B
100
AcDbEntity
 67
     1
  8
0
100
AcDbBlockEnd
  0
BLOCK
  5
24
330
23
100
AcDbEntity
  8
0
100
AcDbBlockBegin
  2
*Paper_Space0
 70
     0
 10
0.0
 20
0.0
 30
0.0
  3
*Paper_Space0
  1

  0
ENDBLK
  5
25
330
23
100
AcDbEntity
  8
0
100
AcDbBlockEnd
  0
BLOCK
  5
80
330
7F
100
AcDbEntity
  8
0
100
AcDbBlockBegin
  2
블럭10
 70
     2
 10
0.0
 20
0.0
 30
0.0
  3
블럭10
  1

  0
ELLIPSE
  5
82
330
7F
100
AcDbEntity
  8
중심선
100
AcDbEllipse
 10
20.54032771741204
 20
12.0471743016438
 30
0.0
 11
6.600054785286829
 21
-1.261213355974178E-13
 31
0.0
210
0.0
220
0.0
230
1.0
 40
0.636358354079598
 41
0.9219305317359503
 42
6.513795318482858
  0
ELLIPSE
  5
83
330
7F
100
AcDbEntity
  8
중심선
100
AcDbEllipse
 10
20.54032771746488
 20
12.04717430159265
 30
0.0
 11
3.960054785062283
 21
1.540847449632565E-10
 31
0.0
210
0.0
220
0.0
230
1.0
 40
0.3939339440162632
 41
1.131841032648279
 42
5.62031148352944
  0
LINE
  5
84
330
7F
100
AcDbEntity
  8
중심선
100
AcDbLine
 10
2.268634060543552
 20
16.24717430164393
 30
0.0
 11
5.714909304380834
 21
16.24717430164393
 31
0.0
  0
LINE
  5
85
330
7F
100
AcDbEntity
  8
중심선
100
AcDbLine
 10
5.245725140726316
 20
7.84717430164391
 30
0.0
 11
8.692000384563599
 21
7.84717430164391
 31
0.0
  0
LINE
  5
86
330
7F
100
AcDbEntity
  8
중심선
100
AcDbLine
 10
15.74043728645272
 20
16.24717430164393
 30
0.0
 11
8.692000384563599
 21
7.84717430164391
 31
0.0
  0
LINE
  5
87
330
7F
100
AcDbEntity
  8
중심선
100
AcDbLine
 10
0.1404042013395286
 20
13.71084872107135
 30
0.0
 11
3.58671253028996
 21
13.71088815037384
 31
0.0
  0
LINE
  5
88
330
7F
100
AcDbEntity
  8
중심선
100
AcDbLine
 10
2.750260043222114
 20
10.84717430164391
 30
0.0
 11
6.196535287059397
 21
10.84717430164391
 31
0.0
  0
LINE
  5
89
330
7F
100
AcDbEntity
  8
중심선
100
AcDbLine
 10
12.29416204261559
 20
16.24717430164393
 30
0.0
 11
5.245725140726316
 21
7.84717430164391
 31
0.0
  0
LINE
  5
8A
330
7F
100
AcDbEntity
  8
중심선
100
AcDbLine
 10
10.72767329541681
 20
16.24717430164393
 30
0.0
 11
6.196535287059397
 21
10.84717430164391
 31
0.0
  0
LINE
  5
8B
330
7F
100
AcDbEntity
  8
중심선
100
AcDbLine
 10
7.28139805157953
 20
16.24717430164393
 30
0.0
 11
2.750260043222114
 21
10.84717430164391
 31
0.0
  0
LINE
  5
8C
330
7F
100
AcDbEntity
  8
중심선
100
AcDbLine
 10
5.714909304380834
 20
16.24717430164393
 30
0.0
 11
3.58671253028996
 21
13.71088815037384
 31
0.0
  0
LINE
  5
8D
330
7F
100
AcDbEntity
  8
중심선
100
AcDbLine
 10
2.268634060543552
 20
16.24717430164393
 30
0.0
 11
0.1404042013395286
 21
13.71084872107135
 31
0.0
  0
LINE
  5
8E
330
7F
100
AcDbEntity
  8
중심선
100
AcDbLine
 10
7.28139805157953
 20
16.24717430164393
 30
0.0
 11
10.72767329541681
 21
16.24717430164393
 31
0.0
  0
LINE
  5
8F
330
7F
100
AcDbEntity
  8
중심선
100
AcDbLine
 10
12.29416204261559
 20
16.24717430164393
 30
0.0
 11
15.74043728645272
 21
16.24717430164393
 31
0.0
  0
LINE
  5
90
330
7F
100
AcDbEntity
  8
중심선
100
AcDbLine
 10
19.22036997980202
 20
11.08717430171403
 30
0.0
 11
23.66174974927406
 21
11.08717430171406
 31
0.0
  0
LINE
  5
91
330
7F
100
AcDbEntity
  8
중심선
100
AcDbLine
 10
19.22039502424796
 20
13.00717430171391
 30
0.0
 11
19.22036997980202
 21
11.08717430171403
 31
0.0
  0
LINE
  5
92
330
7F
100
AcDbEntity
  8
중심선
100
AcDbLine
 10
19.22039502424796
 20
13.00717430171391
 30
0.0
 11
26.96566020931264
 21
13.00717430171391
 31
0.0
  0
LINE
  5
93
330
7F
100
AcDbEntity
  8
중심선
100
AcDbLine
 10
22.22332737316547
 20
13.45928029700563
 30
0.0
 11
24.52862924686651
 21
15.39360700705356
 31
0.0
  0
ATTDEF
  5
95
330
7F
100
AcDbEntity
  8
FORMAT
 62
     2
100
AcDbText
 10
4.408487351596664
 20
2.075366912832191
 30
0.0
 40
4.233333333333333
  1
E5252032
 41
0.75
  7
SLDTEXTSTYLE0
 11
4.408487351596664
 21
-0.0412997538344756
 31
0.0
100
AcDbAttributeDefinition
  3

  2
AUTOATTR0
 70
     0
 74
     1
  0
ENDBLK
  5
81
330
7F
100
AcDbEntity
  8
0
100
AcDbBlockEnd
  0
BLOCK
  5
BF
330
BE
100
AcDbEntity
  8
0
100
AcDbBlockBegin
  2
_D
 70
     0
 10
0.0
 20
0.0
 30
0.0
  3
_D
  1

  0
LINE
  5
C1
330
BE
100
AcDbEntity
  8
치수문자_일반주서
 62
     0
370
    -2
100
AcDbLine
 10
38.09999999999999
 20
6.412499999999998
 30
0.0
 11
38.09999999999999
 21
21.35
 31
0.0
  0
LINE
  5
C2
330
BE
100
AcDbEntity
  8
치수문자_일반주서
 62
     0
370
    -2
100
AcDbLine
 10
22.22500000000003
 20
6.412499999999993
 30
0.0
 11
22.22500000000003
 21
21.35
 31
0.0
  0
LINE
  5
C3
330
BE
100
AcDbEntity
  8
치수문자_일반주서
 62
     0
370
    -2
100
AcDbLine
 10
38.09999999999999
 20
21.35
 30
0.0
 11
70.07900000000001
 21
21.35
 31
0.0
  0
LINE
  5
C4
330
BE
100
AcDbEntity
  8
치수문자_일반주서
 62
     0
370
    -2
100
AcDbLine
 10
38.09999999999999
 20
21.35
 30
0.0
 11
22.22500000000003
 21
21.35
 31
0.0
  0
LINE
  5
C5
330
BE
100
AcDbEntity
  8
치수문자_일반주서
 62
     0
370
    -2
100
AcDbLine
 10
41.40199999999999
 20
21.35
 30
0.0
 11
44.70399999999999
 21
21.35
 31
0.0
  0
LINE
  5
C6
330
BE
100
AcDbEntity
  8
치수문자_일반주서
 62
     0
370
    -2
100
AcDbLine
 10
18.92300000000003
 20
21.35
 30
0.0
 11
15.62100000000003
 21
21.35
 31
0.0
  0
SOLID
  5
C7
330
BE
100
AcDbEntity
  8
치수문자_일반주서
 62
     0
100
AcDbTrace
 10
41.40199999999999
 20
21.90033333333334
 30
0.0
 11
41.40199999999999
 21
20.79966666666667
 31
0.0
 12
38.09999999999999
 22
21.35
 32
0.0
 13
38.09999999999999
 23
21.35
 33
0.0
  0
SOLID
  5
C8
330
BE
100
AcDbEntity
  8
치수문자_일반주서
 62
     0
100
AcDbTrace
 10
18.92300000000003
 20
20.79966666666667
 30
0.0
 11
18.92300000000003
 21
21.90033333333334
 31
0.0
 12
22.22500000000003
 22
21.35
 32
0.0
 13
22.22500000000003
 23
21.35
 33
0.0
  0
MTEXT
  5
C9
330
BE
100
AcDbEntity
  8
치수문자_일반주서
 62
     0
100
AcDbMText
 10
57.3915
 20
25.725
 30
0.0
 40
3.5
 41
0.0
 71
     2
 72
     1
  1
\A1;15.88 [5/8]
  7
SLDTEXTSTYLE0
 73
     1
 44
1.0
  0
POINT
  5
CA
330
BE
100
AcDbEntity
  8
Defpoints
 62
     0
100
AcDbPoint
 10
38.09999999999999
 20
6.349999999999998
 30
0.0
  0
POINT
  5
CB
330
BE
100
AcDbEntity
  8
Defpoints
 62
     0
100
AcDbPoint
 10
22.22500000000003
 20
6.349999999999993
 30
0.0
  0
POINT
  5
CC
330
BE
100
AcDbEntity
  8
Defpoints
 62
     0
100
AcDbPoint
 10
22.22500000000003
 20
21.35
 30
0.0
  0
ENDBLK
  5
C0
330
BE
100
AcDbEntity
  8
0
100
AcDbBlockEnd
  0
BLOCK
  5
D4
330
D3
100
AcDbEntity
  8
0
100
AcDbBlockBegin
  2
_D_1
 70
     0
 10
0.0
 20
0.0
 30
0.0
  3
_D_1
  1

  0
LINE
  5
D6
330
D3
100
AcDbEntity
  8
치수문자_일반주서
 62
     0
370
    -2
100
AcDbLine
 10
38.09999999999999
 20
6.412499999999998
 30
0.0
 11
38.09999999999999
 21
36.34999999999999
 31
0.0
  0
LINE
  5
D7
330
D3
100
AcDbEntity
  8
치수문자_일반주서
 62
     0
370
    -2
100
AcDbLine
 10
-38.09999999999999
 20
6.412499999999989
 30
0.0
 11
-38.09999999999999
 21
36.34999999999999
 31
0.0
  0
LINE
  5
D8
330
D3
100
AcDbEntity
  8
치수문자_일반주서
 62
     0
370
    -2
100
AcDbLine
 10
34.79799999999999
 20
36.34999999999999
 30
0.0
 11
-34.79799999999999
 21
36.34999999999999
 31
0.0
  0
SOLID
  5
D9
330
D3
100
AcDbEntity
  8
치수문자_일반주서
 62
     0
100
AcDbTrace
 10
34.79799999999999
 20
35.79966666666666
 30
0.0
 11
34.79799999999999
 21
36.90033333333333
 31
0.0
 12
38.09999999999999
 22
36.34999999999999
 32
0.0
 13
38.09999999999999
 23
36.34999999999999
 33
0.0
  0
SOLID
  5
DA
330
D3
100
AcDbEntity
  8
치수문자_일반주서
 62
     0
100
AcDbTrace
 10
-34.79799999999999
 20
36.90033333333333
 30
0.0
 11
-34.79799999999999
 21
35.79966666666666
 31
0.0
 12
-38.09999999999999
 22
36.34999999999999
 32
0.0
 13
-38.09999999999999
 23
36.34999999999999
 33
0.0
  0
MTEXT
  5
DB
330
D3
100
AcDbEntity
  8
치수문자_일반주서
 62
     0
100
AcDbMText
 10
0.0
 20
40.72499999999999
 30
0.0
 40
3.5
 41
0.0
 71
     2
 72
     1
  1
\A1;76.20 [3]
  7
SLDTEXTSTYLE0
 73
     1
 44
1.0
  0
POINT
  5
DC
330
D3
100
AcDbEntity
  8
Defpoints
 62
     0
100
AcDbPoint
 10
38.09999999999999
 20
6.349999999999998
 30
0.0
  0
POINT
  5
DD
330
D3
100
AcDbEntity
  8
Defpoints
 62
     0
100
AcDbPoint
 10
-38.09999999999999
 20
6.349999999999989
 30
0.0
  0
POINT
  5
DE
330
D3
100
AcDbEntity
  8
Defpoints
 62
     0
100
AcDbPoint
 10
-38.09999999999999
 20
36.34999999999999
 30
0.0
  0
ENDBLK
  5
D5
330
D3
100
AcDbEntity
  8
0
100
AcDbBlockEnd
  0
BLOCK
  5
E7
330
E6
100
AcDbEntity
  8
0
100
AcDbBlockBegin
  2
_D_2
 70
     0
 10
0.0
 20
0.0
 30
0.0
  3
_D_2
  1

  0
LINE
  5
E9
330
E6
100
AcDbEntity
  8
치수문자_일반주서
 62
     0
370
    -2
100
AcDbLine
 10
38.16249999999999
 20
6.349999999999999
 30
0.0
 11
76.28430082337944
 21
6.35000000000014
 31
0.0
  0
LINE
  5
EA
330
E6
100
AcDbEntity
  8
치수문자_일반주서
 62
     0
370
    -2
100
AcDbLine
 10
38.16249999999999
 20
-6.350000000000001
 30
0.0
 11
76.28430082337948
 21
-6.349999999999856
 31
0.0
  0
LINE
  5
EB
330
E6
100
AcDbEntity
  8
치수문자_일반주서
 62
     0
370
    -2
100
AcDbLine
 10
76.28430082337944
 20
6.35000000000014
 30
0.0
 11
76.28430082337933
 21
39.64150000000019
 31
0.0
  0
LINE
  5
EC
330
E6
100
AcDbEntity
  8
치수문자_일반주서
 62
     0
370
    -2
100
AcDbLine
 10
76.28430082337944
 20
6.35000000000014
 30
0.0
 11
76.28430082337948
 21
-6.349999999999856
 31
0.0
  0
LINE
  5
ED
330
E6
100
AcDbEntity
  8
치수문자_일반주서
 62
     0
370
    -2
100
AcDbLine
 10
76.28430082337943
 20
9.65200000000014
 30
0.0
 11
76.28430082337941
 21
12.95400000000014
 31
0.0
  0
LINE
  5
EE
330
E6
100
AcDbEntity
  8
치수문자_일반주서
 62
     0
370
    -2
100
AcDbLine
 10
76.2843008233795
 20
-9.651999999999855
 30
0.0
 11
76.28430082337951
 21
-12.95399999999985
 31
0.0
  0
SOLID
  5
EF
330
E6
100
AcDbEntity
  8
치수문자_일반주서
 62
     0
100
AcDbTrace
 10
75.7339674900461
 20
9.652000000000138
 30
0.0
 11
76.83463415671275
 21
9.652000000000141
 31
0.0
 12
76.28430082337944
 22
6.35000000000014
 32
0.0
 13
76.28430082337944
 23
6.35000000000014
 33
0.0
  0
SOLID
  5
F0
330
E6
100
AcDbEntity
  8
치수문자_일반주서
 62
     0
100
AcDbTrace
 10
76.83463415671282
 20
-9.651999999999854
 30
0.0
 11
75.73396749004617
 21
-9.651999999999857
 31
0.0
 12
76.28430082337948
 22
-6.349999999999856
 32
0.0
 13
76.28430082337948
 23
-6.349999999999856
 33
0.0
  0
MTEXT
  5
F1
330
E6
100
AcDbEntity
  8
치수문자_일반주서
 62
     0
100
AcDbMText
 10
71.90930082337937
 20
26.29775000000017
 30
0.0
 40
3.5
 41
0.0
 71
     2
 72
     1
  1
\A1;%%c12.70 [1/2]
  7
SLDTEXTSTYLE0
 11
-3.356894814614647E-15
 21
1.0
 31
0.0
 73
     1
 44
1.0
  0
POINT
  5
F2
330
E6
100
AcDbEntity
  8
Defpoints
 62
     0
100
AcDbPoint
 10
38.09999999999999
 20
6.349999999999999
 30
0.0
  0
POINT
  5
F3
330
E6
100
AcDbEntity
  8
Defpoints
 62
     0
100
AcDbPoint
 10
38.09999999999999
 20
-6.350000000000001
 30
0.0
  0
POINT
  5
F4
330
E6
100
AcDbEntity
  8
Defpoints
 62
     0
100
AcDbPoint
 10
76.28430082337948
 20
-6.349999999999858
 30
0.0
  0
ENDBLK
  5
E8
330
E6
100
AcDbEntity
  8
0
100
AcDbBlockEnd
  0
BLOCK
  5
FB
330
FA
100
AcDbEntity
  8
0
100
AcDbBlockBegin
  2
_D_3
 70
     0
 10
0.0
 20
0.0
 30
0.0
  3
_D_3
  1

  0
LINE
  5
FD
330
FA
100
AcDbEntity
  8
치수문자_일반주서
 62
     0
370
    -2
100
AcDbLine
 10
-22.28749999999999
 20
6.349999999999999
 30
0.0
 11
-53.10000000000003
 21
6.349999999999881
 31
0.0
  0
LINE
  5
FE
330
FA
100
AcDbEntity
  8
치수문자_일반주서
 62
     0
370
    -2
100
AcDbLine
 10
-22.2875
 20
-6.350000000000001
 30
0.0
 11
-53.09999999999999
 21
-6.350000000000112
 31
0.0
  0
LINE
  5
FF
330
FA
100
AcDbEntity
  8
치수문자_일반주서
 62
     0
370
    -2
100
AcDbLine
 10
-53.10000000000003
 20
6.349999999999881
 30
0.0
 11
-53.10000000000014
 21
39.64149999999994
 31
0.0
  0
LINE
  5
100
330
FA
100
AcDbEntity
  8
치수문자_일반주서
 62
     0
370
    -2
100
AcDbLine
 10
-53.10000000000003
 20
6.349999999999881
 30
0.0
 11
-53.09999999999999
 21
-6.350000000000112
 31
0.0
  0
LINE
  5
101
330
FA
100
AcDbEntity
  8
치수문자_일반주서
 62
     0
370
    -2
100
AcDbLine
 10
-53.10000000000004
 20
9.65199999999988
 30
0.0
 11
-53.10000000000006
 21
12.95399999999988
 31
0.0
  0
LINE
  5
102
330
FA
100
AcDbEntity
  8
치수문자_일반주서
 62
     0
370
    -2
100
AcDbLine
 10
-53.09999999999997
 20
-9.652000000000111
 30
0.0
 11
-53.09999999999996
 21
-12.95400000000011
 31
0.0
  0
SOLID
  5
103
330
FA
100
AcDbEntity
  8
치수문자_일반주서
 62
     0
100
AcDbTrace
 10
-53.65033333333338
 20
9.651999999999878
 30
0.0
 11
-52.54966666666671
 21
9.651999999999882
 31
0.0
 12
-53.10000000000003
 22
6.349999999999881
 32
0.0
 13
-53.10000000000003
 23
6.349999999999881
 33
0.0
  0
SOLID
  5
104
330
FA
100
AcDbEntity
  8
치수문자_일반주서
 62
     0
100
AcDbTrace
 10
-52.54966666666664
 20
-9.65200000000011
 30
0.0
 11
-53.65033333333331
 21
-9.652000000000113
 31
0.0
 12
-53.09999999999999
 22
-6.350000000000112
 32
0.0
 13
-53.09999999999999
 23
-6.350000000000112
 33
0.0
  0
MTEXT
  5
105
330
FA
100
AcDbEntity
  8
치수문자_일반주서
 62
     0
100
AcDbMText
 10
-57.47500000000009
 20
26.29774999999992
 30
0.0
 40
3.5
 41
0.0
 71
     2
 72
     1
  1
\A1;%%c12.70 [1/2]
  7
SLDTEXTSTYLE0
 11
-3.356894814614647E-15
 21
1.0
 31
0.0
 73
     1
 44
1.0
  0
POINT
  5
1A6
330
FA
100
AcDbEntity
  8
Defpoints
 62
     0
100
AcDbPoint
 10
-22.22499999999999
 20
6.349999999999999
 30
0.0
  0
POINT
  5
1A7
330
FA
100
AcDbEntity
  8
Defpoints
 62
     0
100
AcDbPoint
 10
-22.225
 20
-6.350000000000001
 30
0.0
  0
POINT
  5
1A8
330
FA
100
AcDbEntity
  8
Defpoints
 62
     0
100
AcDbPoint
 10
-53.09999999999999
 20
-6.350000000000116
 30
0.0
  0
ENDBLK
  5
FC
330
FA
100
AcDbEntity
  8
0
100
AcDbBlockEnd
  0
BLOCK
  5
115
330
114
100
AcDbEntity
  8
0
100
AcDbBlockBegin
  2
SW_DOWELSYMBOL_0
 70
     0
 10
0.0
 20
0.0
 30
0.0
  3
SW_DOWELSYMBOL_0
  1

  0
CIRCLE
  5
117
330
114
100
AcDbEntity
  8
해칭선
 62
     0
100
AcDbCircle
 10
0.0
 20
0.0
 30
0.0
 40
3.000000000000001
  0
HATCH
  5
118
330
114
100
AcDbEntity
  8
0
  6
Continuous
 62
     0
370
     0
100
AcDbHatch
 10
0.0
 20
0.0
 30
0.0
210
0.0
220
0.0
230
1.0
  2
SOLID
 70
     1
 71
     0
 91
        1
 92
        0
 93
        3
 72
     2
 10
0.0
 20
0.0
 40
3.000000000000001
 50
0.0
 51
90.0
 73
     1
 72
     1
 10
0.0
 20
3.000000000000001
 11
0.0
 21
0.0
 72
     1
 10
0.0
 20
0.0
 11
3.000000000000001
 21
0.0
 97
        0
 75
     0
 76
     1
 98
        1
 10
0.0
 20
0.0
  0
HATCH
  5
119
330
114
100
AcDbEntity
  8
0
  6
Continuous
 62
     0
370
     0
100
AcDbHatch
 10
0.0
 20
0.0
 30
0.0
210
0.0
220
0.0
230
1.0
  2
SOLID
 70
     1
 71
     0
 91
        1
 92
        0
 93
        3
 72
     2
 10
0.0
 20
0.0
 40
3.000000000000001
 50
180.0
 51
270.0000000000008
 73
     1
 72
     1
 10
0.0
 20
-3.000000000000001
 11
0.0
 21
0.0
 72
     1
 10
0.0
 20
0.0
 11
-3.000000000000001
 21
0.0
 97
        0
 75
     0
 76
     1
 98
        1
 10
0.0
 20
0.0
  0
ENDBLK
  5
116
330
114
100
AcDbEntity
  8
0
100
AcDbBlockEnd
  0
BLOCK
  5
17A
330
179
100
AcDbEntity
  8
0
100
AcDbBlockBegin
  2
*D8
 70
     1
 10
0.0
 20
0.0
 30
0.0
  3
*D8
  1

  0
LINE
  5
17C
330
179
100
AcDbEntity
  8
치수문자_일반주서
 62
     0
370
    -2
100
AcDbLine
 10
12.95400000000005
 20
1.216513565852266
 30
0.0
 11
12.95400000000005
 21
11.15401356585227
 31
0.0
  0
LINE
  5
17D
330
179
100
AcDbEntity
  8
치수문자_일반주서
 62
     0
370
    -2
100
AcDbLine
 10
6.604000000000003
 20
1.210675679903457
 30
0.0
 11
6.604000000000003
 21
11.15401356585227
 31
0.0
  0
LINE
  5
17E
330
179
100
AcDbEntity
  8
치수문자_일반주서
 62
     0
370
    -2
100
AcDbLine
 10
12.95400000000005
 20
11.15401356585227
 30
0.0
 11
42.30800000000006
 21
11.15401356585227
 31
0.0
  0
LINE
  5
17F
330
179
100
AcDbEntity
  8
치수문자_일반주서
 62
     0
370
    -2
100
AcDbLine
 10
12.95400000000005
 20
11.15401356585227
 30
0.0
 11
6.604000000000003
 21
11.15401356585227
 31
0.0
  0
LINE
  5
180
330
179
100
AcDbEntity
  8
치수문자_일반주서
 62
     0
370
    -2
100
AcDbLine
 10
16.25600000000005
 20
11.15401356585227
 30
0.0
 11
19.55800000000005
 21
11.15401356585227
 31
0.0
  0
LINE
  5
181
330
179
100
AcDbEntity
  8
치수문자_일반주서
 62
     0
370
    -2
100
AcDbLine
 10
3.302000000000003
 20
11.15401356585227
 30
0.0
 11
0.0000000000000036
 21
11.15401356585227
 31
0.0
  0
SOLID
  5
182
330
179
100
AcDbEntity
  8
치수문자_일반주서
 62
     0
100
AcDbTrace
 10
16.25600000000005
 20
11.7043468991856
 30
0.0
 11
16.25600000000005
 21
10.60368023251894
 31
0.0
 12
12.95400000000005
 22
11.15401356585227
 32
0.0
 13
12.95400000000005
 23
11.15401356585227
 33
0.0
  0
SOLID
  5
183
330
179
100
AcDbEntity
  8
치수문자_일반주서
 62
     0
100
AcDbTrace
 10
3.302000000000003
 20
10.60368023251894
 30
0.0
 11
3.302000000000003
 21
11.7043468991856
 31
0.0
 12
6.604000000000003
 22
11.15401356585227
 32
0.0
 13
6.604000000000003
 23
11.15401356585227
 33
0.0
  0
MTEXT
  5
184
330
179
100
AcDbEntity
  8
치수문자_일반주서
 62
     0
100
AcDbMText
 10
30.93300000000006
 20
15.52901356585227
 30
0.0
 40
3.5
 41
0.0
 71
     2
 72
     1
  1
\A1;6.35 [1/4]
  7
SLDTEXTSTYLE0
 73
     1
 44
1.0
  0
POINT
  5
185
330
179
100
AcDbEntity
  8
Defpoints
 62
     0
100
AcDbPoint
 10
12.95400000000005
 20
1.154013565852266
 30
0.0
  0
POINT
  5
186
330
179
100
AcDbEntity
  8
Defpoints
 62
     0
100
AcDbPoint
 10
6.604000000000003
 20
1.148175679903457
 30
0.0
  0
POINT
  5
187
330
179
100
AcDbEntity
  8
Defpoints
 62
     0
100
AcDbPoint
 10
6.604000000000003
 20
11.15401356585227
 30
0.0
  0
ENDBLK
  5
17B
330
179
100
AcDbEntity
  8
0
100
AcDbBlockEnd
  0
BLOCK
  5
18C
330
18B
100
AcDbEntity
  8
0
100
AcDbBlockBegin
  2
*D9
 70
     1
 10
0.0
 20
0.0
 30
0.0
  3
*D9
  1

  0
LINE
  5
18E
330
18B
100
AcDbEntity
  8
치수문자_일반주서
 62
     0
370
    -2
100
AcDbLine
 10
59.43233369828734
 20
-26.37174016463612
 30
0.0
 11
59.43233369828734
 21
-16.43424016463612
 31
0.0
  0
LINE
  5
18F
330
18B
100
AcDbEntity
  8
치수문자_일반주서
 62
     0
370
    -2
100
AcDbLine
 10
53.08233369828729
 20
-26.37757805058493
 30
0.0
 11
53.08233369828729
 21
-16.43424016463612
 31
0.0
  0
LINE
  5
190
330
18B
100
AcDbEntity
  8
치수문자_일반주서
 62
     0
370
    -2
100
AcDbLine
 10
59.43233369828734
 20
-16.43424016463612
 30
0.0
 11
88.78633369828734
 21
-16.43424016463612
 31
0.0
  0
LINE
  5
191
330
18B
100
AcDbEntity
  8
치수문자_일반주서
 62
     0
370
    -2
100
AcDbLine
 10
59.43233369828734
 20
-16.43424016463612
 30
0.0
 11
53.08233369828729
 21
-16.43424016463612
 31
0.0
  0
LINE
  5
192
330
18B
100
AcDbEntity
  8
치수문자_일반주서
 62
     0
370
    -2
100
AcDbLine
 10
62.73433369828734
 20
-16.43424016463612
 30
0.0
 11
66.03633369828734
 21
-16.43424016463612
 31
0.0
  0
LINE
  5
193
330
18B
100
AcDbEntity
  8
치수문자_일반주서
 62
     0
370
    -2
100
AcDbLine
 10
49.78033369828729
 20
-16.43424016463612
 30
0.0
 11
46.47833369828729
 21
-16.43424016463612
 31
0.0
  0
SOLID
  5
194
330
18B
100
AcDbEntity
  8
치수문자_일반주서
 62
     0
100
AcDbTrace
 10
62.73433369828734
 20
-15.88390683130279
 30
0.0
 11
62.73433369828734
 21
-16.98457349796946
 31
0.0
 12
59.43233369828734
 22
-16.43424016463612
 32
0.0
 13
59.43233369828734
 23
-16.43424016463612
 33
0.0
  0
SOLID
  5
195
330
18B
100
AcDbEntity
  8
치수문자_일반주서
 62
     0
100
AcDbTrace
 10
49.78033369828729
 20
-16.98457349796946
 30
0.0
 11
49.78033369828729
 21
-15.88390683130279
 31
0.0
 12
53.08233369828729
 22
-16.43424016463612
 32
0.0
 13
53.08233369828729
 23
-16.43424016463612
 33
0.0
  0
MTEXT
  5
196
330
18B
100
AcDbEntity
  8
치수문자_일반주서
 62
     0
100
AcDbMText
 10
77.41133369828734
 20
-12.05924016463612
 30
0.0
 40
3.5
 41
0.0
 71
     2
 72
     1
  1
\A1;6.35 [1/4]
  7
SLDTEXTSTYLE0
 73
     1
 44
1.0
  0
POINT
  5
197
330
18B
100
AcDbEntity
  8
Defpoints
 62
     0
100
AcDbPoint
 10
59.43233369828734
 20
-26.43424016463612
 30
0.0
  0
POINT
  5
198
330
18B
100
AcDbEntity
  8
Defpoints
 62
     0
100
AcDbPoint
 10
53.08233369828729
 20
-26.44007805058493
 30
0.0
  0
POINT
  5
199
330
18B
100
AcDbEntity
  8
Defpoints
 62
     0
100
AcDbPoint
 10
53.08233369828729
 20
-16.43424016463612
 30
0.0
  0
ENDBLK
  5
18D
330
18B
100
AcDbEntity
  8
0
100
AcDbBlockEnd
  0
ENDSEC
  0
SECTION
  2
ENTITIES
  0
ARC
  5
96
330
1F
100
AcDbEntity
  8
0
  6
Continuous
 62
     1
370
    15
100
AcDbCircle
 10
31.74999999999998
 20
-0.000000000000001
 30
0.0
 40
6.350000000000015
100
AcDbArc
 50
333.6433341483391
 51
0.0
1001
PE_URL
1000

  0
ARC
  5
97
330
1F
100
AcDbEntity
  8
0
  6
Continuous
 62
     1
370
    15
100
AcDbCircle
 10
31.74999999999998
 20
-0.000000000000001
 30
0.0
 40
6.350000000000013
100
AcDbArc
 50
0.0
 51
26.36119007390018
1001
PE_URL
1000

  0
LINE
  5
98
330
1F
100
AcDbEntity
  8
0
  6
Continuous
 62
     1
370
    15
100
AcDbLine
 10
27.04067244573806
 20
6.350000000000004
 30
0.0
 11
23.16901227637095
 21
6.350000000000004
 31
0.0
1001
PE_URL
1000

  0
LINE
  5
99
330
1F
100
AcDbEntity
  8
0
  6
Continuous
 62
     1
370
    15
100
AcDbLine
 10
23.16901227637095
 20
-6.350000000000006
 30
0.0
 11
27.04067244573816
 21
-6.350000000000006
 31
0.0
1001
PE_URL
1000

  0
LINE
  5
9C
330
1F
100
AcDbEntity
  8
외형선
  6
Continuous
370
    15
100
AcDbLine
 10
-22.225
 20
-6.350000000000001
 30
0.0
 11
22.225
 21
-6.350000000000001
 31
0.0
  0
LINE
  5
9D
330
1F
100
AcDbEntity
  8
외형선
  6
Continuous
370
    15
100
AcDbLine
 10
22.225
 20
6.349999999999999
 30
0.0
 11
-22.22499999999999
 21
6.349999999999999
 31
0.0
  0
SPLINE
  5
9E
330
1F
100
AcDbEntity
  8
0
  6
Continuous
 62
     1
370
    15
100
AcDbSpline
210
0.0
220
0.0
230
1.0
 70
     8
 71
     3
 72
    20
 73
    16
 74
     0
 42
0.000000001
 43
0.00000001
 40
0.0
 40
0.0
 40
0.0
 40
0.0
 40
0.25
 40
0.25
 40
0.375
 40
0.375
 40
0.5
 40
0.5
 40
0.625
 40
0.625
 40
0.75
 40
0.75
 40
0.875
 40
0.875
 40
1.0
 40
1.0
 40
1.0
 40
1.0
 10
22.225
 20
0.5440765677740613
 30
0.0
 10
23.01449115649298
 20
0.0882724766267211
 30
0.0
 10
23.81579261151388
 20
-0.3740445831342479
 30
0.0
 10
25.00130574958672
 20
-1.054662363393033
 30
0.0
 10
25.39962124505054
 20
-1.280518366237781
 30
0.0
 10
26.19557380989601
 20
-1.726206924292757
 30
0.0
 10
26.5917829787138
 20
-1.945776282901585
 30
0.0
 10
27.38291727699938
 20
-2.376253428406422
 30
0.0
 10
27.78140322466821
 20
-2.587795793214721
 30
0.0
 10
28.57723550179303
 20
-2.999722071396021
 30
0.0
 10
28.97270670426776
 20
-3.199798524210734
 30
0.0
 10
29.76457428154447
 20
-3.586872359889187
 30
0.0
 10
30.16320048604943
 20
-3.77420937120808
 30
0.0
 10
30.95885236946139
 20
-4.13312966820067
 30
0.0
 10
31.35372912719964
 20
-4.30442111181159
 30
0.0
 10
31.75000000000002
 20
-4.46719763895724
 30
0.0
1001
PE_URL
1000

  0
SPLINE
  5
9F
330
1F
100
AcDbEntity
  8
0
  6
Continuous
 62
     1
370
    15
100
AcDbSpline
210
0.0
220
0.0
230
1.0
 70
     8
 71
     3
 72
    16
 73
    12
 74
     0
 42
0.000000001
 43
0.00000001
 40
0.0
 40
0.0
 40
0.0
 40
0.0
 40
0.1258360271895404
 40
0.2553523417446917
 40
0.3801043819224342
 40
0.5087083307048967
 40
0.6305131047397402
 40
0.755332305264066
 40
0.8567569864971547
 40
0.9604705094959876
 40
1.0
 40
1.0
 40
1.0
 40
1.0
 10
31.74999999999999
 20
-4.467197638957243
 30
0.0
 10
32.04202708110066
 20
-4.57346877834714
 30
0.0
 10
32.63462206901774
 20
-4.789119136270568
 30
0.0
 10
33.52681668399312
 20
-4.914460235852222
 30
0.0
 10
34.40716550762637
 20
-4.878630781623595
 30
0.0
 10
35.2288055511098
 20
-4.672264208014307
 30
0.0
 10
35.97687464387651
 20
-4.321461789501042
 30
0.0
 10
36.58047711356653
 20
-3.88927852829057
 30
0.0
 10
37.04371580425603
 20
-3.424435378855495
 30
0.0
 10
37.31522867419469
 20
-3.062156648002103
 30
0.0
 10
37.40963714310678
 20
-2.870144371612684
 30
0.0
 10
37.43569020205956
 20
-2.817156464764169
 30
0.0
1001
PE_URL
1000

  0
SPLINE
  5
A0
330
1F
100
AcDbEntity
  8
0
  6
Continuous
 62
     1
370
    15
100
AcDbSpline
210
0.0
220
0.0
230
1.0
 70
     8
 71
     3
 72
    10
 73
     6
 74
     0
 42
0.000000001
 43
0.00000001
 40
0.0
 40
0.0
 40
0.0
 40
0.0
 40
0.3212450861698563
 40
0.6578751568700704
 40
1.0
 40
1.0
 40
1.0
 40
1.0
 10
33.75171333464768
 20
-4.878698463532713
 30
0.0
 10
33.54338398389989
 20
-5.008525596521047
 30
0.0
 10
33.11674802834982
 20
-5.274397509143955
 30
0.0
 10
32.44760428200192
 20
-5.577596236212378
 30
0.0
 10
31.983786353309
 20
-5.709829155107614
 30
0.0
 10
31.74999999999998
 20
-5.776480851783163
 30
0.0
1001
PE_URL
1000

  0
SPLINE
  5
A1
330
1F
100
AcDbEntity
  8
0
  6
Continuous
 62
     1
370
    15
100
AcDbSpline
210
0.0
220
0.0
230
1.0
 70
     8
 71
     3
 72
    20
 73
    16
 74
     0
 42
0.000000001
 43
0.00000001
 40
0.0
 40
0.0
 40
0.0
 40
0.0
 40
0.2499999999999987
 40
0.2499999999999987
 40
0.3749999999999989
 40
0.3749999999999989
 40
0.4999999999999991
 40
0.4999999999999991
 40
0.6249999999999992
 40
0.6249999999999992
 40
0.7499999999999994
 40
0.7499999999999994
 40
0.8749999999999998
 40
0.8749999999999998
 40
1.0
 40
1.0
 40
1.0
 40
1.0
 10
22.225
 20
-5.751076567773989
 30
0.0
 10
23.01449115649299
 20
-5.945032100386877
 30
0.0
 10
23.81579261151388
 20
-6.094701472699603
 30
0.0
 10
25.00130574958668
 20
-6.24537693237552
 30
0.0
 10
25.39962124505054
 20
-6.283632473169301
 30
0.0
 10
26.19557380989601
 20
-6.335361588600799
 30
0.0
 10
26.59178297871379
 20
-6.348835542596805
 30
0.0
 10
27.38291727699939
 20
-6.351019892422865
 30
0.0
 10
27.78140322466821
 20
-6.339701543751097
 30
0.0
 10
28.57723550179308
 20
-6.292296099040071
 30
0.0
 10
28.97270670426772
 20
-6.25629081669321
 30
0.0
 10
29.76457428154442
 20
-6.160043004067608
 30
0.0
 10
30.1632004860494
 20
-6.09966669733624
 30
0.0
 10
30.95885236946135
 20
-5.955354485367253
 30
0.0
 10
31.35372912719956
 20
-5.871601189362311
 30
0.0
 10
31.74999999999996
 20
-5.776480851783163
 30
0.0
1001
PE_URL
1000

  0
SPLINE
  5
A2
330
1F
100
AcDbEntity
  8
0
  6
Continuous
 62
     1
370
    15
100
AcDbSpline
210
0.0
220
0.0
230
1.0
 70
     8
 71
     3
 72
    20
 73
    16
 74
     0
 42
0.000000001
 43
0.00000001
 40
0.0
 40
0.0
 40
0.0
 40
0.0
 40
0.25
 40
0.25
 40
0.375
 40
0.375
 40
0.5
 40
0.5
 40
0.625
 40
0.625
 40
0.75
 40
0.75
 40
0.875
 40
0.875
 40
1.0
 40
1.0
 40
1.0
 40
1.0
 10
22.225
 20
6.326648456204857
 30
0.0
 10
23.01449115649298
 20
6.365846512996773
 30
0.0
 10
23.81579261151388
 20
6.355472807814345
 30
0.0
 10
25.00130574958672
 20
6.265983425568732
 30
0.0
 10
25.39962124505054
 20
6.223775462826841
 30
0.0
 10
26.19557380989601
 20
6.11517113026949
 30
0.0
 10
26.5917829787138
 20
6.048871843504547
 30
0.0
 10
27.38291727699938
 20
5.893073524590633
 30
0.0
 10
27.78140322466821
 20
5.803310773203027
 30
0.0
 10
28.57723550179303
 20
5.601497165234808
 30
0.0
 10
28.97270670426776
 20
5.489646405448032
 30
0.0
 10
29.76457428154447
 20
5.244928495818858
 30
0.0
 10
30.16320048604943
 20
5.111794075589863
 30
0.0
 10
30.95885236946139
 20
4.826213235528444
 30
0.0
 10
31.35372912719964
 20
4.674068555937983
 30
0.0
 10
31.75000000000002
 20
4.512941973313474
 30
0.0
1001
PE_URL
1000

  0
SPLINE
  5
A3
330
1F
100
AcDbEntity
  8
0
  6
Continuous
 62
     1
370
    15
100
AcDbSpline
210
0.0
220
0.0
230
1.0
 70
     8
 71
     3
 72
    48
 73
    44
 74
     0
 42
0.000000001
 43
0.00000001
 40
0.0
 40
0.0
 40
0.0
 40
0.0
 40
0.0625000000000019
 40
0.0625000000000019
 40
0.0937500000000018
 40
0.0937500000000018
 40
0.1250000000000017
 40
0.1250000000000017
 40
0.1875000000000015
 40
0.1875000000000015
 40
0.2500000000000013
 40
0.2500000000000013
 40
0.3125000000000012
 40
0.3125000000000012
 40
0.375000000000001
 40
0.375000000000001
 40
0.4375000000000008
 40
0.4375000000000008
 40
0.4687500000000004
 40
0.4687500000000004
 40
0.4999999999999999
 40
0.4999999999999999
 40
0.5312499999999994
 40
0.5312499999999994
 40
0.5624999999999991
 40
0.5624999999999991
 40
0.5937499999999987
 40
0.5937499999999987
 40
0.6249999999999983
 40
0.6249999999999983
 40
0.6874999999999974
 40
0.6874999999999974
 40
0.7499999999999966
 40
0.7499999999999966
 40
0.781249999999997
 40
0.781249999999997
 40
0.8124999999999974
 40
0.8124999999999974
 40
0.8749999999999983
 40
0.8749999999999983
 40
0.9374999999999992
 40
0.9374999999999992
 40
1.0
 40
1.0
 40
1.0
 40
1.0
 10
31.74999999999999
 20
4.51294197331348
 30
0.0
 10
32.07249548882528
 20
4.381812991617137
 30
0.0
 10
32.39380068939408
 20
4.234076468186735
 30
0.0
 10
32.87726757896111
 20
3.993035886850343
 30
0.0
 10
33.03865436314237
 20
3.909399347409399
 30
0.0
 10
33.3622109450049
 20
3.735866291475998
 30
0.0
 10
33.52527861178963
 20
3.645448716942248
 30
0.0
 10
34.0081481839426
 20
3.369154196677169
 30
0.0
 10
34.32174401376429
 20
3.179662878263369
 30
0.0
 10
34.9317657113919
 20
2.788363306989967
 30
0.0
 10
35.23088842266938
 20
2.584350715202786
 30
0.0
 10
35.78990341618956
 20
2.166840007141812
 30
0.0
 10
36.0500855647385
 20
1.953399719376828
 30
0.0
 10
36.52711273404552
 20
1.50388623151286
 30
0.0
 10
36.74465384653049
 20
1.266228722588838
 30
0.0
 10
37.11211859632692
 20
0.7622117144239754
 30
0.0
 10
37.26509070542601
 20
0.4931909722799653
 30
0.0
 10
37.43298201505532
 20
0.0469303672833872
 30
0.0
 10
37.47776902795476
 20
-0.1067848330875133
 30
0.0
 10
37.54272379688507
 20
-0.4276768210845179
 30
0.0
 10
37.56293773916809
 20
-0.5967378818991373
 30
0.0
 10
37.57378748943265
 20
-0.942592216922716
 30
0.0
 10
37.56480390796594
 20
-1.118923279718427
 30
0.0
 10
37.51450152377019
 20
-1.480563965774613
 30
0.0
 10
37.47340356306231
 20
-1.66176310551997
 30
0.0
 10
37.36156634659064
 20
-2.013172470241341
 30
0.0
 10
37.28900433455038
 20
-2.187830578348039
 30
0.0
 10
37.12025000856823
 20
-2.510675347202227
 30
0.0
 10
37.02332690332192
 20
-2.661293655336724
 30
0.0
 10
36.7032472644327
 20
-3.071170411892551
 30
0.0
 10
36.45560432265322
 20
-3.281694130602577
 30
0.0
 10
35.93686833290776
 20
-3.577573958913677
 30
0.0
 10
35.65956535476427
 20
-3.666965555189889
 30
0.0
 10
35.23918011835271
 20
-3.728566006790265
 30
0.0
 10
35.09748323613109
 20
-3.737406185572924
 30
0.0
 10
34.80966376242223
 20
-3.734589845673885
 30
0.0
 10
34.66271180769587
 20
-3.722749948909422
 30
0.0
 10
34.22169358691794
 20
-3.660570854417894
 30
0.0
 10
33.9264610838389
 20
-3.584206878580556
 30
0.0
 10
33.32319041151405
 20
-3.38061427602963
 30
0.0
 10
33.01257479188355
 20
-3.252454754534425
 30
0.0
 10
32.38787646214685
 20
-2.965626679522747
 30
0.0
 10
32.07232534425383
 20
-2.806661485919687
 30
0.0
 10
31.74999999999998
 20
-2.637189596707618
 30
0.0
1001
PE_URL
1000

  0
SPLINE
  5
A4
330
1F
100
AcDbEntity
  8
0
  6
Continuous
 62
     1
370
    15
100
AcDbSpline
210
0.0
220
0.0
230
1.0
 70
     8
 71
     3
 72
    20
 73
    16
 74
     0
 42
0.000000001
 43
0.00000001
 40
0.0
 40
0.0
 40
0.0
 40
0.0
 40
0.2500000000000037
 40
0.2500000000000037
 40
0.3750000000000031
 40
0.3750000000000031
 40
0.5000000000000024
 40
0.5000000000000024
 40
0.6250000000000018
 40
0.6250000000000018
 40
0.7500000000000012
 40
0.7500000000000012
 40
0.8750000000000006
 40
0.8750000000000006
 40
1.0
 40
1.0
 40
1.0
 40
1.0
 10
22.225
 20
2.692140098806286
 30
0.0
 10
23.01449115649298
 20
2.277803148327853
 30
0.0
 10
23.81579261151391
 20
1.840260285859781
 30
0.0
 10
25.00130574958669
 20
1.170524652799581
 30
0.0
 10
25.39962124505056
 20
0.943965698577058
 30
0.0
 10
26.19557380989605
 20
0.4881616941540756
 30
0.0
 10
26.59178297871382
 20
0.2591971745682999
 30
0.0
 10
27.38291727699939
 20
-0.1986007258137673
 30
0.0
 10
27.78140322466823
 20
-0.4281207001704772
 30
0.0
 10
28.57723550179308
 20
-0.8843714150512245
 30
0.0
 10
28.97270670426773
 20
-1.11074455630018
 30
0.0
 10
29.76457428154446
 20
-1.55846027874567
 30
0.0
 10
30.16320048604943
 20
-1.780213815910434
 30
0.0
 10
30.95885236946138
 20
-2.215592020785287
 30
0.0
 10
31.35372912719956
 20
-2.428838703268988
 30
0.0
 10
31.74999999999999
 20
-2.637189596707627
 30
0.0
1001
PE_URL
1000

  0
LINE
  5
A5
330
1F
100
AcDbEntity
  8
외형선
  6
Continuous
370
    15
100
AcDbLine
 10
22.225
 20
0.5440765677740621
 30
0.0
 11
22.225
 21
2.692140098806286
 31
0.0
  0
LWPOLYLINE
  5
A6
330
1F
100
AcDbEntity
  8
0
  6
Continuous
 62
     1
370
    15
100
AcDbPolyline
 90
       26
 70
   128
 43
0.0
 10
33.75171333464756
 20
4.878698463532738
 10
34.39159918944802
 20
4.850949855060134
 10
35.23072052343265
 20
4.643106940639311
 10
35.95526047488965
 20
4.305821869933717
 10
36.59830268314579
 20
3.848724190975213
 10
37.02574861997448
 20
3.424054379405234
 10
37.35261515316728
 20
2.97764991809565
 10
37.48494502559153
 20
2.722000616801608
 10
37.55886509411637
 20
2.492310190721518
 10
37.56778686834384
 20
2.348665746125755
 10
37.52831373379679
 20
2.245799877296828
 10
37.44032463620404
 20
2.199073546819755
 10
37.29849935272496
 20
2.213476250736774
 10
37.14453580721433
 20
2.275095062362
 10
36.95765384760534
 20
2.381803861129258
 10
36.7499607150425
 20
2.524264110195016
 10
36.51944301279663
 20
2.70021455737838
 10
36.16795216000242
 20
2.98876747605565
 10
35.78641321686153
 20
3.313981303235051
 10
35.25246585732265
 20
3.767150241220584
 10
34.6853942669374
 20
4.225286624620764
 10
33.92616402522381
 20
4.774941008794818
 10
33.12348790925878
 20
5.252346002127635
 10
32.44891157873878
 20
5.557835612972764
 10
31.74999999999998
 20
5.776480851783143
 10
31.74999999999998
 20
5.776480851783143
1001
PE_URL
1000

  0
SPLINE
  5
A7
330
1F
100
AcDbEntity
  8
0
  6
Continuous
 62
     1
370
    15
100
AcDbSpline
210
0.0
220
0.0
230
1.0
 70
     8
 71
     3
 72
    10
 73
     6
 74
     0
 42
0.000000001
 43
0.00000001
 40
0.0
 40
0.0
 40
0.0
 40
0.0
 40
0.3775144753000206
 40
0.7548379986345738
 40
1.0
 40
1.0
 40
1.0
 40
1.0
 10
31.74999999999998
 20
5.776480851783141
 30
0.0
 10
31.15733986973022
 20
5.902769210761576
 30
0.0
 10
29.97231938475989
 20
6.155282050345721
 30
0.0
 10
28.40272943350983
 20
6.332528119340203
 30
0.0
 10
27.42553450903485
 20
6.3315213644836
 30
0.0
 10
27.04067244573806
 20
6.331124860427305
 30
0.0
1001
PE_URL
1000

  0
LINE
  5
A8
330
1F
100
AcDbEntity
  8
0
  6
Continuous
 62
     1
370
    15
100
AcDbLine
 10
22.225
 20
-6.326648456204858
 30
0.0
 11
23.16901227637095
 21
-6.329331279538714
 31
0.0
1001
PE_URL
1000

  0
LINE
  5
A9
330
1F
100
AcDbEntity
  8
외형선
  6
Continuous
370
    15
100
AcDbLine
 10
22.225
 20
-6.326648456204858
 30
0.0
 11
22.225
 21
-5.751076567773988
 31
0.0
  0
LINE
  5
AE
330
1F
100
AcDbEntity
  8
외형선
  6
Continuous
370
    15
100
AcDbLine
 10
22.225
 20
-0.0000000000000009
 30
0.0
 11
22.225
 21
6.349999999999992
 31
0.0
  0
LINE
  5
AF
330
1F
100
AcDbEntity
  8
외형선
  6
Continuous
370
    15
100
AcDbLine
 10
22.225
 20
-6.34999999999999
 30
0.0
 11
22.225
 21
-0.0000000000000009
 31
0.0
  0
LINE
  5
B0
330
1F
100
AcDbEntity
  8
중심선
 62
     1
100
AcDbLine
 10
-45.09999999999999
 20
-0.000000000000004
 30
0.0
 11
45.1
 21
0.0000000000000058
 31
0.0
  0
LINE
  5
B1
330
1F
100
AcDbEntity
  8
0
  6
Continuous
 62
     1
370
    15
100
AcDbLine
 10
38.09999999999999
 20
-0.0000000000000009
 30
0.0
 11
38.09999999999999
 21
1.315014629548151
 31
0.0
1001
PE_URL
1000

  0
LINE
  5
B2
330
1F
100
AcDbEntity
  8
참조1
100
AcDbLine
 10
0.0000000000000036
 20
-0.0000000000000049
 30
0.0
 11
0.0000000000000089
 21
-40.00000000000001
 31
0.0
  0
LINE
  5
B3
330
1F
100
AcDbEntity
  8
참조1
100
AcDbLine
 10
0.0000000000000089
 20
-40.00000000000001
 30
0.0
 11
-14.36510681430866
 21
-40.0
 31
0.0
  0
CIRCLE
  5
B4
330
1F
100
AcDbEntity
  8
해칭선
100
AcDbCircle
 10
0.0
 20
0.0
 30
0.0
 40
3.000000000000002
  0
INSERT
  5
B5
330
1F
100
AcDbEntity
  8
0
  6
Continuous
 62
     7
100
AcDbBlockReference
 66
     1
  2
블럭10
 10
-13.9402729321252
 20
-52.04717430164393
 30
0.0
  0
ATTRIB
  5
B6
330
B5
100
AcDbEntity
  8
FORMAT
 62
     2
100
AcDbText
 10
-23.12156822086649
 20
-49.97180738881175
 30
0.0
 40
4.233333333333333
  1
E5252032 [ 4 FLUTE ]
 41
0.75
  7
SLDTEXTSTYLE0
 11
-23.12156822086649
 21
-52.08847405547841
 31
0.0
100
AcDbAttribute
  2
AUTOATTR0
 70
     0
 74
     1
  0
SEQEND
  5
B7
330
B5
100
AcDbEntity
  8
0
  6
Continuous
 62
     7
  0
HATCH
  5
B8
330
1F
100
AcDbEntity
  8
중심선
100
AcDbHatch
 10
0.0
 20
0.0
 30
0.0
210
0.0
220
0.0
230
1.0
  2
SOLID
 70
     1
 71
     0
 91
        1
 92
        0
 93
        4
 72
     1
 10
-8.225363627744365
 20
-35.8
 11
-11.67163887158165
 21
-35.8
 72
     1
 10
-11.67163887158165
 20
-35.8
 11
-13.79986873078567
 21
-38.33632558057257
 72
     1
 10
-13.79986873078567
 20
-38.33632558057257
 11
-10.35356040183521
 21
-38.33628615127008
 72
     1
 10
-10.35356040183521
 20
-38.33628615127008
 11
-8.225363627744365
 21
-35.8
 97
        0
 75
     0
 76
     1
 98
        1
 10
15.31323868596882
 20
-0.0010749287238941
  0
HATCH
  5
B9
330
1F
100
AcDbEntity
  8
중심선
100
AcDbHatch
 10
0.0
 20
0.0
 30
0.0
210
0.0
220
0.0
230
1.0
  2
SOLID
 70
     1
 71
     0
 91
        1
 92
        0
 93
        4
 72
     1
 10
-3.212599636708386
 20
-35.79999999999998
 11
-6.658874880545696
 21
-35.80000000000003
 72
     1
 10
-6.658874880545696
 20
-35.80000000000003
 11
-11.19001288890309
 21
-41.20000000000002
 72
     1
 10
-11.19001288890309
 20
-41.20000000000002
 11
-7.743737645065803
 21
-41.20000000000002
 72
     1
 10
-7.743737645065803
 20
-41.20000000000002
 11
-3.212599636708386
 21
-35.79999999999998
 97
        0
 75
     0
 76
     1
 98
        1
 10
15.31323868596882
 20
-0.0010749287238941
  0
HATCH
  5
BA
330
1F
100
AcDbEntity
  8
중심선
100
AcDbHatch
 10
0.0
 20
0.0
 30
0.0
210
0.0
220
0.0
230
1.0
  2
SOLID
 70
     1
 71
     0
 91
        1
 92
        0
 93
        4
 72
     1
 10
1.80016435432748
 20
-35.8
 11
-1.646110889509636
 21
-35.80000000000003
 72
     1
 10
-1.646110889509636
 20
-35.80000000000003
 11
-8.694547791398886
 21
-44.20000000000002
 72
     1
 10
-8.694547791398886
 20
-44.20000000000002
 11
-5.248272547561601
 21
-44.20000000000002
 72
     1
 10
-5.248272547561601
 20
-44.20000000000002
 11
1.80016435432748
 21
-35.8
 97
        0
 75
     0
 76
     1
 98
        1
 10
15.31323868596882
 20
-0.0010749287238941
  0
HATCH
  5
BB
330
1F
100
AcDbEntity
  8
중심선
100
AcDbHatch
 10
0.0
 20
0.0
 30
0.0
210
0.0
220
0.0
230
1.0
  2
SOLID
 70
     1
 71
     0
 91
        1
 92
        0
 93
        6
 72
     3
 10
6.60005478533968
 20
-40.00000000005127
 11
3.960054785062283
 21
1.540882976769353E-10
 40
0.3939339440162628
 50
17.09539180608437
 51
320.0019657685086
 73
     0
 72
     1
 10
8.283054441040274
 20
-38.58789400463833
 11
10.58835631474131
 21
-36.65356729459038
 72
     3
 10
6.600054785286833
 20
-40.00000000000015
 11
6.600054785286829
 21
-1.278976924368180E-13
 40
0.636358354079598
 50
39.99873849337411
 51
368.4976242363725
 73
     1
 72
     1
 10
13.02538727718744
 20
-39.03999999993002
 11
5.280122092122755
 21
-39.03999999993
 72
     1
 10
5.280122092122756
 20
-39.03999999993
 11
5.280097047676822
 21
-40.95999999992991
 72
     1
 10
5.280097047676822
 20
-40.95999999992991
 11
9.721476817148858
 21
-40.95999999992988
 97
        0
 75
     0
 76
     1
 98
        1
 10
15.31323868596882
 20
-0.0010749287238941
  0
DIMENSION
  5
BC
330
1F
100
AcDbEntity
  8
치수문자_일반주서
100
AcDbDimension
  2
_D
 10
22.22500000000003
 20
21.35
 30
0.0
 11
57.3915
 21
21.35
 31
0.0
 70
   160
  1
<>
 71
     2
 42
15.87499999999997
  3
SLDDIMSTYLE2
100
AcDbAlignedDimension
 13
38.09999999999999
 23
6.349999999999998
 33
0.0
 14
22.22500000000003
 24
6.349999999999993
 34
0.0
100
AcDbRotatedDimension
1001
PE_URL
1000

1001
ACAD
1000
DSTYLE
1002
{
1070
   171
1070
     8
1070
   273
1070
     7
1002
}
  0
DIMENSION
  5
D1
330
1F
100
AcDbEntity
  8
치수문자_일반주서
100
AcDbDimension
  2
_D_1
 10
-38.09999999999999
 20
36.34999999999999
 30
0.0
 11
0.0
 21
36.34999999999999
 31
0.0
 70
   160
  1
<>
 71
     2
 42
76.19999999999999
  3
SLDDIMSTYLE2
100
AcDbAlignedDimension
 13
38.09999999999999
 23
6.349999999999998
 33
0.0
 14
-38.09999999999999
 24
6.349999999999989
 34
0.0
100
AcDbRotatedDimension
1001
PE_URL
1000

1001
ACAD
1000
DSTYLE
1002
{
1070
   171
1070
     8
1070
   273
1070
     7
1002
}
  0
DIMENSION
  5
E5
330
1F
100
AcDbEntity
  8
치수문자_일반주서
100
AcDbDimension
  2
_D_2
 10
76.28430082337948
 20
-6.349999999999856
 30
0.0
 11
76.28430082337937
 21
26.29775000000019
 31
0.0
 70
   160
  1
%%c<>
 71
     2
 42
12.7
 52
-270.0
  3
SLDDIMSTYLE2
100
AcDbAlignedDimension
 13
38.09999999999999
 23
6.349999999999999
 33
0.0
 14
38.09999999999999
 24
-6.350000000000001
 34
0.0
 50
90.0000000000002
100
AcDbRotatedDimension
1001
PE_URL
1000

1001
ACAD
1000
DSTYLE
1002
{
1070
   171
1070
     8
1070
   273
1070
     7
1002
}
  0
DIMENSION
  5
F8
330
1F
100
AcDbEntity
  8
치수문자_일반주서
100
AcDbDimension
  2
_D_3
 10
-53.09999999999999
 20
-6.350000000000112
 30
0.0
 11
-53.10000000000009
 21
26.29774999999993
 31
0.0
 70
   160
  1
%%c<>
 71
     2
 42
12.7
 52
-270.0
  3
SLDDIMSTYLE2
100
AcDbAlignedDimension
 13
-22.22499999999999
 23
6.349999999999999
 33
0.0
 14
-22.225
 24
-6.350000000000001
 34
0.0
 50
90.0000000000002
100
AcDbRotatedDimension
1001
PE_URL
1000

1001
ACAD
1000
DSTYLE
1002
{
1070
   171
1070
     8
1070
   273
1070
     7
1002
}
  0
LINE
  5
10D
330
1F
100
AcDbEntity
  8
참조1
100
AcDbLine
 10
83.60723381534561
 20
7.440000000000001
 30
0.0
 11
83.60723381534561
 21
-7.440000000000003
 31
0.0
  0
LINE
  5
10E
330
1F
100
AcDbEntity
  8
참조1
100
AcDbLine
 10
96.3072338153456
 20
5.440000000000001
 30
0.0
 11
83.60723381534561
 21
5.440000000000001
 31
0.0
  0
SOLID
  5
10F
330
1F
100
AcDbEntity
  8
참조1
100
AcDbTrace
 10
83.60723381534561
 20
5.440000000000001
 30
0.0
 11
89.9572338153456
 21
4.424000000000001
 31
0.0
 12
89.9572338153456
 22
6.456000000000001
 32
0.0
 13
89.9572338153456
 23
6.456000000000001
 33
0.0
  0
LINE
  5
110
330
1F
100
AcDbEntity
  8
참조1
100
AcDbLine
 10
96.3072338153456
 20
-5.440000000000003
 30
0.0
 11
83.60723381534561
 21
-5.440000000000003
 31
0.0
  0
SOLID
  5
111
330
1F
100
AcDbEntity
  8
참조1
100
AcDbTrace
 10
83.60723381534561
 20
-5.440000000000003
 30
0.0
 11
89.9572338153456
 21
-6.456000000000003
 31
0.0
 12
89.9572338153456
 22
-4.424000000000003
 32
0.0
 13
89.9572338153456
 23
-4.424000000000003
 33
0.0
  0
MTEXT
  5
112
330
1F
100
AcDbEntity
  8
참조1
100
AcDbMText
 10
93.00472390781587
 20
10.98821664464994
 30
0.0
 40
3.5
 41
0.0
 71
     1
 72
     1
  1
A
  7
SLDTEXTSTYLE0
 73
     1
 44
1.0
  0
MTEXT
  5
113
330
1F
100
AcDbEntity
  8
참조1
100
AcDbMText
 10
93.00472390781587
 20
0.1082166446499319
 30
0.0
 40
3.5
 41
0.0
 71
     1
 72
     1
  1
A
  7
SLDTEXTSTYLE0
 73
     1
 44
1.0
  0
INSERT
  5
11A
330
1F
100
AcDbEntity
  8
해칭선
100
AcDbBlockReference
  2
SW_DOWELSYMBOL_0
 10
0.0
 20
0.0
 30
0.0
  0
ARC
  5
1BD
330
1F
100
AcDbEntity
  8
0
  6
Continuous
 62
     1
370
    15
100
AcDbCircle
 10
-31.74999999999998
 20
0.0000000000000142
 30
0.0
 40
6.350000000000015
100
AcDbArc
 50
153.6433341483391
 51
180.0
1001
PE_URL
1000

  0
ARC
  5
1BE
330
1F
100
AcDbEntity
  8
0
  6
Continuous
 62
     1
370
    15
100
AcDbCircle
 10
-31.74999999999998
 20
0.0000000000000142
 30
0.0
 40
6.350000000000013
100
AcDbArc
 50
180.0
 51
206.3611900739001
1001
PE_URL
1000

  0
LINE
  5
1BF
330
1F
100
AcDbEntity
  8
0
  6
Continuous
 62
     1
370
    15
100
AcDbLine
 10
-27.04067244573807
 20
-6.349999999999994
 30
0.0
 11
-23.16901227637096
 21
-6.349999999999998
 31
0.0
1001
PE_URL
1000

  0
LINE
  5
1C0
330
1F
100
AcDbEntity
  8
0
  6
Continuous
 62
     1
370
    15
100
AcDbLine
 10
-23.16901227637095
 20
6.350000000000012
 30
0.0
 11
-27.04067244573816
 21
6.350000000000016
 31
0.0
1001
PE_URL
1000

  0
SPLINE
  5
1C1
330
1F
100
AcDbEntity
  8
0
  6
Continuous
 62
     1
370
    15
100
AcDbSpline
210
0.0
220
0.0
230
1.0
 70
     8
 71
     3
 72
    20
 73
    16
 74
     0
 42
0.000000001
 43
0.00000001
 40
0.0
 40
0.0
 40
0.0
 40
0.0
 40
0.25
 40
0.25
 40
0.375
 40
0.375
 40
0.5
 40
0.5
 40
0.625
 40
0.625
 40
0.75
 40
0.75
 40
0.875
 40
0.875
 40
1.0
 40
1.0
 40
1.0
 40
1.0
 10
-22.225
 20
-0.5440765677740558
 30
0.0
 10
-23.01449115649298
 20
-0.0882724766267131
 30
0.0
 10
-23.81579261151389
 20
0.3740445831342534
 30
0.0
 10
-25.00130574958672
 20
1.054662363393042
 30
0.0
 10
-25.39962124505054
 20
1.280518366237793
 30
0.0
 10
-26.19557380989602
 20
1.726206924292768
 30
0.0
 10
-26.59178297871381
 20
1.945776282901594
 30
0.0
 10
-27.38291727699938
 20
2.376253428406432
 30
0.0
 10
-27.78140322466822
 20
2.587795793214731
 30
0.0
 10
-28.57723550179304
 20
2.999722071396032
 30
0.0
 10
-28.97270670426776
 20
3.199798524210745
 30
0.0
 10
-29.76457428154447
 20
3.586872359889195
 30
0.0
 10
-30.16320048604943
 20
3.774209371208094
 30
0.0
 10
-30.95885236946139
 20
4.133129668200684
 30
0.0
 10
-31.35372912719964
 20
4.304421111811603
 30
0.0
 10
-31.75000000000002
 20
4.467197638957252
 30
0.0
1001
PE_URL
1000

  0
SPLINE
  5
1C2
330
1F
100
AcDbEntity
  8
0
  6
Continuous
 62
     1
370
    15
100
AcDbSpline
210
0.0
220
0.0
230
1.0
 70
     8
 71
     3
 72
    16
 73
    12
 74
     0
 42
0.000000001
 43
0.00000001
 40
0.0
 40
0.0
 40
0.0
 40
0.0
 40
0.1258360271895404
 40
0.2553523417446917
 40
0.3801043819224342
 40
0.5087083307048967
 40
0.6305131047397402
 40
0.755332305264066
 40
0.8567569864971547
 40
0.9604705094959876
 40
1.0
 40
1.0
 40
1.0
 40
1.0
 10
-31.74999999999999
 20
4.467197638957259
 30
0.0
 10
-32.04202708110066
 20
4.573468778347156
 30
0.0
 10
-32.63462206901774
 20
4.789119136270582
 30
0.0
 10
-33.52681668399312
 20
4.914460235852236
 30
0.0
 10
-34.40716550762637
 20
4.87863078162361
 30
0.0
 10
-35.2288055511098
 20
4.672264208014322
 30
0.0
 10
-35.97687464387651
 20
4.321461789501061
 30
0.0
 10
-36.58047711356653
 20
3.889278528290589
 30
0.0
 10
-37.04371580425604
 20
3.424435378855513
 30
0.0
 10
-37.31522867419469
 20
3.062156648002119
 30
0.0
 10
-37.40963714310678
 20
2.8701443716127
 30
0.0
 10
-37.43569020205956
 20
2.817156464764185
 30
0.0
1001
PE_URL
1000

  0
SPLINE
  5
1C3
330
1F
100
AcDbEntity
  8
0
  6
Continuous
 62
     1
370
    15
100
AcDbSpline
210
0.0
220
0.0
230
1.0
 70
     8
 71
     3
 72
    10
 73
     6
 74
     0
 42
0.000000001
 43
0.00000001
 40
0.0
 40
0.0
 40
0.0
 40
0.0
 40
0.3212450861698563
 40
0.6578751568700704
 40
1.0
 40
1.0
 40
1.0
 40
1.0
 10
-33.75171333464768
 20
4.878698463532729
 30
0.0
 10
-33.54338398389989
 20
5.008525596521061
 30
0.0
 10
-33.11674802834982
 20
5.27439750914397
 30
0.0
 10
-32.44760428200192
 20
5.577596236212393
 30
0.0
 10
-31.983786353309
 20
5.709829155107627
 30
0.0
 10
-31.74999999999998
 20
5.776480851783177
 30
0.0
1001
PE_URL
1000

  0
SPLINE
  5
1C4
330
1F
100
AcDbEntity
  8
0
  6
Continuous
 62
     1
370
    15
100
AcDbSpline
210
0.0
220
0.0
230
1.0
 70
     8
 71
     3
 72
    20
 73
    16
 74
     0
 42
0.000000001
 43
0.00000001
 40
0.0
 40
0.0
 40
0.0
 40
0.0
 40
0.2499999999999987
 40
0.2499999999999987
 40
0.3749999999999989
 40
0.3749999999999989
 40
0.4999999999999991
 40
0.4999999999999991
 40
0.6249999999999992
 40
0.6249999999999992
 40
0.7499999999999994
 40
0.7499999999999994
 40
0.8749999999999998
 40
0.8749999999999998
 40
1.0
 40
1.0
 40
1.0
 40
1.0
 10
-22.225
 20
5.751076567773996
 30
0.0
 10
-23.01449115649299
 20
5.945032100386882
 30
0.0
 10
-23.81579261151388
 20
6.094701472699612
 30
0.0
 10
-25.00130574958668
 20
6.24537693237553
 30
0.0
 10
-25.39962124505054
 20
6.283632473169311
 30
0.0
 10
-26.19557380989601
 20
6.33536158860081
 30
0.0
 10
-26.59178297871379
 20
6.348835542596817
 30
0.0
 10
-27.38291727699939
 20
6.351019892422876
 30
0.0
 10
-27.78140322466821
 20
6.339701543751108
 30
0.0
 10
-28.57723550179308
 20
6.292296099040081
 30
0.0
 10
-28.97270670426772
 20
6.256290816693221
 30
0.0
 10
-29.76457428154442
 20
6.160043004067621
 30
0.0
 10
-30.1632004860494
 20
6.099666697336254
 30
0.0
 10
-30.95885236946135
 20
5.955354485367266
 30
0.0
 10
-31.35372912719956
 20
5.871601189362323
 30
0.0
 10
-31.74999999999996
 20
5.776480851783177
 30
0.0
1001
PE_URL
1000

  0
SPLINE
  5
1C5
330
1F
100
AcDbEntity
  8
0
  6
Continuous
 62
     1
370
    15
100
AcDbSpline
210
0.0
220
0.0
230
1.0
 70
     8
 71
     3
 72
    20
 73
    16
 74
     0
 42
0.000000001
 43
0.00000001
 40
0.0
 40
0.0
 40
0.0
 40
0.0
 40
0.25
 40
0.25
 40
0.375
 40
0.375
 40
0.5
 40
0.5
 40
0.625
 40
0.625
 40
0.75
 40
0.75
 40
0.875
 40
0.875
 40
1.0
 40
1.0
 40
1.0
 40
1.0
 10
-22.225
 20
-6.32664845620485
 30
0.0
 10
-23.01449115649299
 20
-6.365846512996765
 30
0.0
 10
-23.81579261151389
 20
-6.355472807814337
 30
0.0
 10
-25.00130574958672
 20
-6.26598342556872
 30
0.0
 10
-25.39962124505054
 20
-6.223775462826829
 30
0.0
 10
-26.19557380989602
 20
-6.115171130269481
 30
0.0
 10
-26.59178297871381
 20
-6.048871843504536
 30
0.0
 10
-27.38291727699939
 20
-5.893073524590623
 30
0.0
 10
-27.78140322466822
 20
-5.803310773203016
 30
0.0
 10
-28.57723550179304
 20
-5.601497165234797
 30
0.0
 10
-28.97270670426776
 20
-5.489646405448021
 30
0.0
 10
-29.76457428154448
 20
-5.244928495818847
 30
0.0
 10
-30.16320048604943
 20
-5.111794075589849
 30
0.0
 10
-30.9588523694614
 20
-4.826213235528428
 30
0.0
 10
-31.35372912719965
 20
-4.674068555937968
 30
0.0
 10
-31.75000000000002
 20
-4.51294197331346
 30
0.0
1001
PE_URL
1000

  0
SPLINE
  5
1C6
330
1F
100
AcDbEntity
  8
0
  6
Continuous
 62
     1
370
    15
100
AcDbSpline
210
0.0
220
0.0
230
1.0
 70
     8
 71
     3
 72
    48
 73
    44
 74
     0
 42
0.000000001
 43
0.00000001
 40
0.0
 40
0.0
 40
0.0
 40
0.0
 40
0.0625000000000019
 40
0.0625000000000019
 40
0.0937500000000018
 40
0.0937500000000018
 40
0.1250000000000017
 40
0.1250000000000017
 40
0.1875000000000015
 40
0.1875000000000015
 40
0.2500000000000013
 40
0.2500000000000013
 40
0.3125000000000012
 40
0.3125000000000012
 40
0.375000000000001
 40
0.375000000000001
 40
0.4375000000000008
 40
0.4375000000000008
 40
0.4687500000000004
 40
0.4687500000000004
 40
0.4999999999999999
 40
0.4999999999999999
 40
0.5312499999999994
 40
0.5312499999999994
 40
0.5624999999999991
 40
0.5624999999999991
 40
0.5937499999999987
 40
0.5937499999999987
 40
0.6249999999999983
 40
0.6249999999999983
 40
0.6874999999999974
 40
0.6874999999999974
 40
0.7499999999999966
 40
0.7499999999999966
 40
0.781249999999997
 40
0.781249999999997
 40
0.8124999999999974
 40
0.8124999999999974
 40
0.8749999999999983
 40
0.8749999999999983
 40
0.9374999999999992
 40
0.9374999999999992
 40
1.0
 40
1.0
 40
1.0
 40
1.0
 10
-31.75
 20
-4.512941973313467
 30
0.0
 10
-32.07249548882528
 20
-4.381812991617124
 30
0.0
 10
-32.39380068939408
 20
-4.234076468186721
 30
0.0
 10
-32.87726757896111
 20
-3.993035886850329
 30
0.0
 10
-33.03865436314237
 20
-3.909399347409384
 30
0.0
 10
-33.3622109450049
 20
-3.735866291475983
 30
0.0
 10
-33.52527861178963
 20
-3.645448716942234
 30
0.0
 10
-34.00814818394261
 20
-3.369154196677155
 30
0.0
 10
-34.32174401376429
 20
-3.179662878263354
 30
0.0
 10
-34.9317657113919
 20
-2.788363306989954
 30
0.0
 10
-35.23088842266938
 20
-2.58435071520277
 30
0.0
 10
-35.78990341618956
 20
-2.166840007141793
 30
0.0
 10
-36.0500855647385
 20
-1.953399719376812
 30
0.0
 10
-36.52711273404553
 20
-1.503886231512841
 30
0.0
 10
-36.7446538465305
 20
-1.266228722588821
 30
0.0
 10
-37.11211859632692
 20
-0.7622117144239589
 30
0.0
 10
-37.26509070542602
 20
-0.4931909722799475
 30
0.0
 10
-37.43298201505533
 20
-0.0469303672833696
 30
0.0
 10
-37.47776902795476
 20
0.1067848330875307
 30
0.0
 10
-37.54272379688507
 20
0.4276768210845354
 30
0.0
 10
-37.56293773916809
 20
0.5967378818991556
 30
0.0
 10
-37.57378748943265
 20
0.9425922169227334
 30
0.0
 10
-37.56480390796594
 20
1.118923279718445
 30
0.0
 10
-37.51450152377019
 20
1.480563965774632
 30
0.0
 10
-37.47340356306232
 20
1.661763105519988
 30
0.0
 10
-37.36156634659064
 20
2.013172470241358
 30
0.0
 10
-37.28900433455038
 20
2.187830578348056
 30
0.0
 10
-37.12025000856823
 20
2.510675347202245
 30
0.0
 10
-37.02332690332192
 20
2.661293655336742
 30
0.0
 10
-36.7032472644327
 20
3.07117041189257
 30
0.0
 10
-36.45560432265322
 20
3.281694130602595
 30
0.0
 10
-35.93686833290776
 20
3.577573958913696
 30
0.0
 10
-35.65956535476427
 20
3.666965555189908
 30
0.0
 10
-35.23918011835272
 20
3.728566006790281
 30
0.0
 10
-35.0974832361311
 20
3.737406185572937
 30
0.0
 10
-34.80966376242223
 20
3.734589845673899
 30
0.0
 10
-34.66271180769587
 20
3.722749948909435
 30
0.0
 10
-34.22169358691794
 20
3.660570854417909
 30
0.0
 10
-33.9264610838389
 20
3.58420687858057
 30
0.0
 10
-33.32319041151405
 20
3.380614276029643
 30
0.0
 10
-33.01257479188355
 20
3.25245475453444
 30
0.0
 10
-32.38787646214685
 20
2.96562667952276
 30
0.0
 10
-32.07232534425383
 20
2.806661485919701
 30
0.0
 10
-31.74999999999998
 20
2.637189596707632
 30
0.0
1001
PE_URL
1000

  0
SPLINE
  5
1C7
330
1F
100
AcDbEntity
  8
0
  6
Continuous
 62
     1
370
    15
100
AcDbSpline
210
0.0
220
0.0
230
1.0
 70
     8
 71
     3
 72
    20
 73
    16
 74
     0
 42
0.000000001
 43
0.00000001
 40
0.0
 40
0.0
 40
0.0
 40
0.0
 40
0.2500000000000037
 40
0.2500000000000037
 40
0.3750000000000031
 40
0.3750000000000031
 40
0.5000000000000024
 40
0.5000000000000024
 40
0.6250000000000018
 40
0.6250000000000018
 40
0.7500000000000012
 40
0.7500000000000012
 40
0.8750000000000006
 40
0.8750000000000006
 40
1.0
 40
1.0
 40
1.0
 40
1.0
 10
-22.225
 20
-2.692140098806277
 30
0.0
 10
-23.01449115649298
 20
-2.277803148327845
 30
0.0
 10
-23.81579261151391
 20
-1.840260285859774
 30
0.0
 10
-25.0013057495867
 20
-1.170524652799571
 30
0.0
 10
-25.39962124505057
 20
-0.943965698577049
 30
0.0
 10
-26.19557380989606
 20
-0.4881616941540656
 30
0.0
 10
-26.59178297871382
 20
-0.2591971745682891
 30
0.0
 10
-27.3829172769994
 20
0.1986007258137796
 30
0.0
 10
-27.78140322466823
 20
0.4281207001704885
 30
0.0
 10
-28.57723550179308
 20
0.8843714150512341
 30
0.0
 10
-28.97270670426773
 20
1.11074455630019
 30
0.0
 10
-29.76457428154447
 20
1.558460278745681
 30
0.0
 10
-30.16320048604943
 20
1.780213815910447
 30
0.0
 10
-30.95885236946138
 20
2.215592020785301
 30
0.0
 10
-31.35372912719956
 20
2.428838703269001
 30
0.0
 10
-31.74999999999999
 20
2.637189596707643
 30
0.0
1001
PE_URL
1000

  0
LINE
  5
1C8
330
1F
100
AcDbEntity
  8
외형선
  6
Continuous
370
    15
100
AcDbLine
 10
-22.225
 20
-0.5440765677740558
 30
0.0
 11
-22.225
 21
-2.692140098806277
 31
0.0
  0
LWPOLYLINE
  5
1C9
330
1F
100
AcDbEntity
  8
0
  6
Continuous
 62
     1
370
    15
100
AcDbPolyline
 90
       26
 70
   128
 43
0.0
 10
-33.75171333464756
 20
-4.878698463532725
 10
-34.39159918944802
 20
-4.850949855060119
 10
-35.23072052343265
 20
-4.643106940639296
 10
-35.95526047488966
 20
-4.305821869933698
 10
-36.59830268314579
 20
-3.848724190975194
 10
-37.02574861997448
 20
-3.424054379405217
 10
-37.35261515316728
 20
-2.977649918095633
 10
-37.48494502559153
 20
-2.722000616801591
 10
-37.55886509411637
 20
-2.492310190721501
 10
-37.56778686834384
 20
-2.348665746125736
 10
-37.52831373379679
 20
-2.245799877296811
 10
-37.44032463620404
 20
-2.199073546819736
 10
-37.29849935272496
 20
-2.213476250736758
 10
-37.14453580721434
 20
-2.275095062361981
 10
-36.95765384760534
 20
-2.381803861129239
 10
-36.7499607150425
 20
-2.524264110194999
 10
-36.51944301279663
 20
-2.700214557378363
 10
-36.16795216000243
 20
-2.988767476055632
 10
-35.78641321686153
 20
-3.313981303235032
 10
-35.25246585732265
 20
-3.76715024122057
 10
-34.68539426693741
 20
-4.22528662462075
 10
-33.92616402522381
 20
-4.774941008794805
 10
-33.12348790925878
 20
-5.25234600212762
 10
-32.44891157873879
 20
-5.557835612972749
 10
-31.74999999999998
 20
-5.776480851783127
 10
-31.74999999999998
 20
-5.776480851783127
1001
PE_URL
1000

  0
SPLINE
  5
1CA
330
1F
100
AcDbEntity
  8
0
  6
Continuous
 62
     1
370
    15
100
AcDbSpline
210
0.0
220
0.0
230
1.0
 70
     8
 71
     3
 72
    10
 73
     6
 74
     0
 42
0.000000001
 43
0.00000001
 40
0.0
 40
0.0
 40
0.0
 40
0.0
 40
0.3775144753000206
 40
0.7548379986345738
 40
1.0
 40
1.0
 40
1.0
 40
1.0
 10
-31.74999999999998
 20
-5.776480851783127
 30
0.0
 10
-31.15733986973022
 20
-5.902769210761562
 30
0.0
 10
-29.9723193847599
 20
-6.155282050345711
 30
0.0
 10
-28.40272943350984
 20
-6.332528119340193
 30
0.0
 10
-27.42553450903485
 20
-6.331521364483589
 30
0.0
 10
-27.04067244573807
 20
-6.331124860427295
 30
0.0
1001
PE_URL
1000

  0
LINE
  5
1CB
330
1F
100
AcDbEntity
  8
0
  6
Continuous
 62
     1
370
    15
100
AcDbLine
 10
-22.225
 20
6.326648456204865
 30
0.0
 11
-23.16901227637095
 21
6.329331279538721
 31
0.0
1001
PE_URL
1000

  0
LINE
  5
1CC
330
1F
100
AcDbEntity
  8
외형선
  6
Continuous
370
    15
100
AcDbLine
 10
-22.225
 20
6.326648456204865
 30
0.0
 11
-22.225
 21
5.751076567773996
 31
0.0
  0
LINE
  5
1CD
330
1F
100
AcDbEntity
  8
외형선
  6
Continuous
370
    15
100
AcDbLine
 10
-22.225
 20
0.0000000000000071
 30
0.0
 11
-22.225
 21
-6.349999999999984
 31
0.0
  0
LINE
  5
1CE
330
1F
100
AcDbEntity
  8
외형선
  6
Continuous
370
    15
100
AcDbLine
 10
-22.225
 20
6.349999999999998
 30
0.0
 11
-22.225
 21
0.0000000000000071
 31
0.0
  0
LINE
  5
1CF
330
1F
100
AcDbEntity
  8
0
  6
Continuous
 62
     1
370
    15
100
AcDbLine
 10
-38.09999999999999
 20
0.0000000000000178
 30
0.0
 11
-38.09999999999999
 21
-1.315014629548134
 31
0.0
1001
PE_URL
1000

  0
ENDSEC
  0
SECTION
  2
OBJECTS
  0
DICTIONARY
  5
C
330
0
100
AcDbDictionary
281
     1
  3
ACAD_DETAILVIEWSTYLE
350
19F
  3
ACAD_GROUP
350
D
  3
ACAD_LAYOUT
350
1A
  3
ACAD_MLINESTYLE
350
17
  3
ACAD_PLOTSETTINGS
350
19
  3
ACAD_PLOTSTYLENAME
350
E
  3
ACAD_SCALELIST
350
47
  3
ACAD_SECTIONVIEWSTYLE
350
1A0
  3
AcDbVariableDictionary
350
19A
  3
APPDATA
350
13C
  3
DWGPROPS
350
1D0
  0
DICTIONARY
  5
175
330
2
100
AcDbDictionary
280
     1
281
     1
  3
ACAD_LAYERSTATES
360
176
  0
DICTIONARY
  5
19F
102
{ACAD_REACTORS
330
C
102
}
330
C
100
AcDbDictionary
281
     1
  0
DICTIONARY
  5
D
102
{ACAD_REACTORS
330
C
102
}
330
C
100
AcDbDictionary
281
     1
  0
DICTIONARY
  5
1A
102
{ACAD_REACTORS
330
C
102
}
330
C
100
AcDbDictionary
281
     1
  3
Layout1
350
1E
  3
Layout2
350
26
  3
Model
350
22
  0
DICTIONARY
  5
17
102
{ACAD_REACTORS
330
C
102
}
330
C
100
AcDbDictionary
281
     1
  3
Standard
350
18
  0
DICTIONARY
  5
19
102
{ACAD_REACTORS
330
C
102
}
330
C
100
AcDbDictionary
281
     1
  0
ACDBDICTIONARYWDFLT
  5
E
102
{ACAD_REACTORS
330
C
102
}
330
C
100
AcDbDictionary
281
     1
  3
Normal
350
F
100
AcDbDictionaryWithDefault
340
F
  0
DICTIONARY
  5
47
102
{ACAD_REACTORS
330
C
102
}
330
C
100
AcDbDictionary
281
     1
  3
A0
350
48
  3
A1
350
49
  3
A2
350
4A
  3
A3
350
4B
  3
A4
350
4C
  3
A5
350
4D
  3
A6
350
4E
  3
A7
350
4F
  3
A8
350
50
  3
A9
350
51
  3
B0
350
52
  3
B1
350
53
  3
B2
350
54
  3
B3
350
55
  3
B4
350
56
  3
B5
350
57
  3
B6
350
58
  3
B7
350
59
  3
B8
350
5A
  3
B9
350
5B
  3
C0
350
5C
  3
C1
350
5D
  3
C2
350
5E
  3
C3
350
5F
  3
C4
350
60
  3
C5
350
61
  3
C6
350
62
  3
C7
350
63
  3
C8
350
64
  3
C9
350
65
  3
D0
350
66
  3
D1
350
67
  3
D2
350
68
  0
DICTIONARY
  5
1A0
102
{ACAD_REACTORS
330
C
102
}
330
C
100
AcDbDictionary
281
     1
  0
DICTIONARY
  5
19A
102
{ACAD_REACTORS
330
C
102
}
330
C
100
AcDbDictionary
281
     1
  0
DICTIONARY
  5
13C
102
{ACAD_REACTORS
330
C
102
}
330
C
100
AcDbDictionary
281
     1
  0
XRECORD
  5
1D0
102
{ACAD_REACTORS
330
C
102
}
330
C
100
AcDbXrecord
280
     1
  1
DWGPROPS COOKIE
  2

  3

  4

  6

  7

  8
120170442
  9

300
=
301
=
302
=
303
=
304
=
305
=
306
=
307
=
308
=
309
=
 40
0.0
 41
2458320.001378993
 42
2458324.286125313
  1

 90
        0
  0
DICTIONARY
  5
176
102
{ACAD_REACTORS
330
175
102
}
330
175
100
AcDbDictionary
281
     1
  0
LAYOUT
  5
1E
102
{ACAD_REACTORS
330
1A
102
}
330
1A
100
AcDbPlotSettings
  1

  2
none_device
  4

  6

 40
0.0
 41
0.0
 42
0.0
 43
0.0
 44
0.0
 45
0.0
 46
0.0
 47
0.0
 48
0.0
 49
0.0
140
0.0
141
0.0
142
1.0
143
1.0
 70
   688
 72
     1
 73
     0
 74
     5
  7

 75
    16
147
1.0
148
0.0
149
0.0
100
AcDbLayout
  1
Layout1
 70
     1
 71
     1
 10
0.0
 20
0.0
 11
420.0
 21
297.0
 12
0.0
 22
0.0
 32
0.0
 14
1.000000000000000E+20
 24
1.000000000000000E+20
 34
1.000000000000000E+20
 15
-1.000000000000000E+20
 25
-1.000000000000000E+20
 35
-1.000000000000000E+20
146
0.0
 13
0.0
 23
0.0
 33
0.0
 16
1.0
 26
0.0
 36
0.0
 17
0.0
 27
1.0
 37
0.0
 76
     0
330
1B
  0
LAYOUT
  5
26
102
{ACAD_REACTORS
330
1A
102
}
330
1A
100
AcDbPlotSettings
  1

  2
none_device
  4

  6

 40
0.0
 41
0.0
 42
0.0
 43
0.0
 44
0.0
 45
0.0
 46
0.0
 47
0.0
 48
0.0
 49
0.0
140
0.0
141
0.0
142
1.0
143
1.0
 70
   688
 72
     1
 73
     0
 74
     5
  7

 75
    16
147
1.0
148
0.0
149
0.0
100
AcDbLayout
  1
Layout2
 70
     1
 71
     2
 10
0.0
 20
0.0
 11
0.0
 21
0.0
 12
0.0
 22
0.0
 32
0.0
 14
0.0
 24
0.0
 34
0.0
 15
0.0
 25
0.0
 35
0.0
146
0.0
 13
0.0
 23
0.0
 33
0.0
 16
1.0
 26
0.0
 36
0.0
 17
0.0
 27
1.0
 37
0.0
 76
     0
330
23
  0
LAYOUT
  5
22
102
{ACAD_REACTORS
330
1A
102
}
330
1A
100
AcDbPlotSettings
  1

  2
none_device
  4
ANSI_A_(11.00_x_8.50_Inches)
  6

 40
6.35
 41
19.05
 42
6.35000508
 43
19.05000254
 44
279.4
 45
215.9
 46
129.7537456560393
 47
92.31581439106708
 48
0.0
 49
0.0
140
0.0
141
0.0
142
0.0689752951162313
143
1.0
 70
  1696
 72
     0
 73
     0
 74
     0
  7

 75
     0
147
0.0235690232323232
148
0.0
149
0.0
100
AcDbLayout
  1
Model
 70
     1
 71
     0
 10
0.0
 20
0.0
 11
420.0
 21
297.0
 12
0.0
 22
0.0
 32
0.0
 14
-57.47500000000014
 24
-49.97180738881175
 34
0.0
 15
96.3072338153456
 25
40.72499999999999
 35
0.0
146
0.0
 13
0.0
 23
0.0
 33
0.0
 16
1.0
 26
0.0
 36
0.0
 17
0.0
 27
1.0
 37
0.0
 76
     0
330
1F
331
29
  0
MLINESTYLE
  5
18
102
{ACAD_REACTORS
330
17
102
}
330
17
100
AcDbMlineStyle
  2
Standard
 70
     0
  3

 62
   256
 51
90.0
 52
90.0
 71
     2
 49
0.5
 62
   256
  6
BYLAYER
 49
-0.5
 62
   256
  6
BYLAYER
  0
ACDBPLACEHOLDER
  5
F
102
{ACAD_REACTORS
330
E
102
}
330
E
  0
SCALE
  5
48
102
{ACAD_REACTORS
330
47
102
}
330
47
100
AcDbScale
 70
     0
300
1:1
140
1.0
141
1.0
290
     1
  0
SCALE
  5
49
102
{ACAD_REACTORS
330
47
102
}
330
47
100
AcDbScale
 70
     0
300
1:2
140
1.0
141
2.0
290
     0
  0
SCALE
  5
4A
102
{ACAD_REACTORS
330
47
102
}
330
47
100
AcDbScale
 70
     0
300
1:4
140
1.0
141
4.0
290
     0
  0
SCALE
  5
4B
102
{ACAD_REACTORS
330
47
102
}
330
47
100
AcDbScale
 70
     0
300
1:5
140
1.0
141
5.0
290
     0
  0
SCALE
  5
4C
102
{ACAD_REACTORS
330
47
102
}
330
47
100
AcDbScale
 70
     0
300
1:8
140
1.0
141
8.0
290
     0
  0
SCALE
  5
4D
102
{ACAD_REACTORS
330
47
102
}
330
47
100
AcDbScale
 70
     0
300
1:10
140
1.0
141
10.0
290
     0
  0
SCALE
  5
4E
102
{ACAD_REACTORS
330
47
102
}
330
47
100
AcDbScale
 70
     0
300
1:16
140
1.0
141
16.0
290
     0
  0
SCALE
  5
4F
102
{ACAD_REACTORS
330
47
102
}
330
47
100
AcDbScale
 70
     0
300
1:20
140
1.0
141
20.0
290
     0
  0
SCALE
  5
50
102
{ACAD_REACTORS
330
47
102
}
330
47
100
AcDbScale
 70
     0
300
1:30
140
1.0
141
30.0
290
     0
  0
SCALE
  5
51
102
{ACAD_REACTORS
330
47
102
}
330
47
100
AcDbScale
 70
     0
300
1:40
140
1.0
141
40.0
290
     0
  0
SCALE
  5
52
102
{ACAD_REACTORS
330
47
102
}
330
47
100
AcDbScale
 70
     0
300
1:50
140
1.0
141
50.0
290
     0
  0
SCALE
  5
53
102
{ACAD_REACTORS
330
47
102
}
330
47
100
AcDbScale
 70
     0
300
1:100
140
1.0
141
100.0
290
     0
  0
SCALE
  5
54
102
{ACAD_REACTORS
330
47
102
}
330
47
100
AcDbScale
 70
     0
300
2:1
140
2.0
141
1.0
290
     0
  0
SCALE
  5
55
102
{ACAD_REACTORS
330
47
102
}
330
47
100
AcDbScale
 70
     0
300
4:1
140
4.0
141
1.0
290
     0
  0
SCALE
  5
56
102
{ACAD_REACTORS
330
47
102
}
330
47
100
AcDbScale
 70
     0
300
8:1
140
8.0
141
1.0
290
     0
  0
SCALE
  5
57
102
{ACAD_REACTORS
330
47
102
}
330
47
100
AcDbScale
 70
     0
300
10:1
140
10.0
141
1.0
290
     0
  0
SCALE
  5
58
102
{ACAD_REACTORS
330
47
102
}
330
47
100
AcDbScale
 70
     0
300
100:1
140
100.0
141
1.0
290
     0
  0
SCALE
  5
59
102
{ACAD_REACTORS
330
47
102
}
330
47
100
AcDbScale
 70
     0
300
1/128" = 1'-0"
140
0.0078125
141
12.0
290
     0
  0
SCALE
  5
5A
102
{ACAD_REACTORS
330
47
102
}
330
47
100
AcDbScale
 70
     0
300
1/64" = 1'-0"
140
0.015625
141
12.0
290
     0
  0
SCALE
  5
5B
102
{ACAD_REACTORS
330
47
102
}
330
47
100
AcDbScale
 70
     0
300
1/32" = 1'-0"
140
0.03125
141
12.0
290
     0
  0
SCALE
  5
5C
102
{ACAD_REACTORS
330
47
102
}
330
47
100
AcDbScale
 70
     0
300
1/16" = 1'-0"
140
0.0625
141
12.0
290
     0
  0
SCALE
  5
5D
102
{ACAD_REACTORS
330
47
102
}
330
47
100
AcDbScale
 70
     0
300
3/32" = 1'-0"
140
0.09375
141
12.0
290
     0
  0
SCALE
  5
5E
102
{ACAD_REACTORS
330
47
102
}
330
47
100
AcDbScale
 70
     0
300
1/8" = 1'-0"
140
0.125
141
12.0
290
     0
  0
SCALE
  5
5F
102
{ACAD_REACTORS
330
47
102
}
330
47
100
AcDbScale
 70
     0
300
3/16" = 1'-0"
140
0.1875
141
12.0
290
     0
  0
SCALE
  5
60
102
{ACAD_REACTORS
330
47
102
}
330
47
100
AcDbScale
 70
     0
300
1/4" = 1'-0"
140
0.25
141
12.0
290
     0
  0
SCALE
  5
61
102
{ACAD_REACTORS
330
47
102
}
330
47
100
AcDbScale
 70
     0
300
3/8" = 1'-0"
140
0.375
141
12.0
290
     0
  0
SCALE
  5
62
102
{ACAD_REACTORS
330
47
102
}
330
47
100
AcDbScale
 70
     0
300
1/2" = 1'-0"
140
0.5
141
12.0
290
     0
  0
SCALE
  5
63
102
{ACAD_REACTORS
330
47
102
}
330
47
100
AcDbScale
 70
     0
300
3/4" = 1'-0"
140
0.75
141
12.0
290
     0
  0
SCALE
  5
64
102
{ACAD_REACTORS
330
47
102
}
330
47
100
AcDbScale
 70
     0
300
1" = 1'-0"
140
1.0
141
12.0
290
     0
  0
SCALE
  5
65
102
{ACAD_REACTORS
330
47
102
}
330
47
100
AcDbScale
 70
     0
300
1-1/2" = 1'-0"
140
1.5
141
12.0
290
     0
  0
SCALE
  5
66
102
{ACAD_REACTORS
330
47
102
}
330
47
100
AcDbScale
 70
     0
300
3" = 1'-0"
140
3.0
141
12.0
290
     0
  0
SCALE
  5
67
102
{ACAD_REACTORS
330
47
102
}
330
47
100
AcDbScale
 70
     0
300
6" = 1'-0"
140
6.0
141
12.0
290
     0
  0
SCALE
  5
68
102
{ACAD_REACTORS
330
47
102
}
330
47
100
AcDbScale
 70
     0
300
1'-0" = 1'-0"
140
12.0
141
12.0
290
     0
  0
ENDSEC
  0
EOF
