  0
SECTION
  2
HEADER
  9
$ACADVER
  1
AC1015
  9
$ACADMAINTVER
 70
     6
  9
$DWGCODEPAGE
  3
ANSI_949
  9
$INSBASE
 10
0.0
 20
0.0
 30
0.0
  9
$EXTMIN
 10
-57.98500000000006
 20
-49.97073246008785
 30
0.0
  9
$EXTMAX
 10
62.50968704837716
 20
46.31089146707808
 30
0.0
  9
$LIMMIN
 10
0.0
 20
0.0
  9
$LIMMAX
 10
420.0
 20
297.0
  9
$ORTHOMODE
 70
     0
  9
$REGENMODE
 70
     1
  9
$FILLMODE
 70
     1
  9
$QTEXTMODE
 70
     0
  9
$MIRRTEXT
 70
     1
  9
$LTSCALE
 40
1.0
  9
$ATTMODE
 70
     1
  9
$TEXTSIZE
 40
3.5
  9
$TRACEWID
 40
1.0
  9
$TEXTSTYLE
  7
Standard
  9
$CLAYER
  8
0
  9
$CELTYPE
  6
ByLayer
  9
$CECOLOR
 62
   256
  9
$CELTSCALE
 40
1.0
  9
$DISPSILH
 70
     0
  9
$DIMSCALE
 40
1.0
  9
$DIMASZ
 40
3.302
  9
$DIMEXO
 40
1.0
  9
$DIMDLI
 40
3.75
  9
$DIMRND
 40
0.0
  9
$DIMDLE
 40
0.0
  9
$DIMEXE
 40
1.0
  9
$DIMTP
 40
0.0
  9
$DIMTM
 40
0.0
  9
$DIMTXT
 40
3.5
  9
$DIMCEN
 40
2.5
  9
$DIMTSZ
 40
0.0
  9
$DIMTOL
 70
     0
  9
$DIMLIM
 70
     0
  9
$DIMTIH
 70
     1
  9
$DIMTOH
 70
     1
  9
$DIMSE1
 70
     0
  9
$DIMSE2
 70
     0
  9
$DIMTAD
 70
     1
  9
$DIMZIN
 70
     0
  9
$DIMBLK
  1

  9
$DIMASO
 70
     1
  9
$DIMSHO
 70
     1
  9
$DIMPOST
  1

  9
$DIMAPOST
  1

  9
$DIMALT
 70
     0
  9
$DIMALTD
 70
     3
  9
$DIMALTF
 40
0.0393700787401575
  9
$DIMLFAC
 40
1.0
  9
$DIMTOFL
 70
     1
  9
$DIMTVP
 40
0.0
  9
$DIMTIX
 70
     0
  9
$DIMSOXD
 70
     0
  9
$DIMSAH
 70
     0
  9
$DIMBLK1
  1

  9
$DIMBLK2
  1

  9
$DIMSTYLE
  2
ISO-25
  9
$DIMCLRD
 70
     0
  9
$DIMCLRE
 70
     0
  9
$DIMCLRT
 70
     0
  9
$DIMTFAC
 40
1.0
  9
$DIMGAP
 40
1.524
  9
$DIMJUST
 70
     0
  9
$DIMSD1
 70
     0
  9
$DIMSD2
 70
     0
  9
$DIMTOLJ
 70
     0
  9
$DIMTZIN
 70
     0
  9
$DIMALTZ
 70
     0
  9
$DIMALTTZ
 70
     0
  9
$DIMUPT
 70
     0
  9
$DIMDEC
 70
     2
  9
$DIMTDEC
 70
     2
  9
$DIMALTU
 70
     2
  9
$DIMALTTD
 70
     3
  9
$DIMTXSTY
  7
Standard
  9
$DIMAUNIT
 70
     0
  9
$DIMADEC
 70
     2
  9
$DIMALTRND
 40
0.0
  9
$DIMAZIN
 70
     0
  9
$DIMDSEP
 70
    44
  9
$DIMATFIT
 70
     3
  9
$DIMFRAC
 70
     0
  9
$DIMLDRBLK
  1

  9
$DIMLUNIT
 70
     2
  9
$DIMLWD
 70
    -2
  9
$DIMLWE
 70
    -2
  9
$DIMTMOVE
 70
     0
  9
$LUNITS
 70
     2
  9
$LUPREC
 70
     2
  9
$SKETCHINC
 40
1.0
  9
$FILLETRAD
 40
10.0
  9
$AUNITS
 70
     0
  9
$AUPREC
 70
     2
  9
$MENU
  1
.
  9
$ELEVATION
 40
0.0
  9
$PELEVATION
 40
0.0
  9
$THICKNESS
 40
0.0
  9
$LIMCHECK
 70
     0
  9
$CHAMFERA
 40
0.0
  9
$CHAMFERB
 40
0.0
  9
$CHAMFERC
 40
0.0
  9
$CHAMFERD
 40
0.0
  9
$SKPOLY
 70
     0
  9
$TDCREATE
 40
2458263.620188299
  9
$TDUCREATE
 40
2458263.245188299
  9
$TDUPDATE
 40
2459731.345796724
  9
$TDUUPDATE
 40
2459730.970796724
  9
$TDINDWG
 40
0.0097293519
  9
$TDUSRTIMER
 40
0.0001444676
  9
$USRTIMER
 70
     1
  9
$ANGBASE
 50
0.0
  9
$ANGDIR
 70
     0
  9
$PDMODE
 70
     0
  9
$PDSIZE
 40
-1.0
  9
$PLINEWID
 40
0.0
  9
$SPLFRAME
 70
     0
  9
$SPLINETYPE
 70
     6
  9
$SPLINESEGS
 70
     8
  9
$HANDSEED
  5
2D9
  9
$SURFTAB1
 70
     6
  9
$SURFTAB2
 70
     6
  9
$SURFTYPE
 70
     6
  9
$SURFU
 70
     6
  9
$SURFV
 70
     6
  9
$UCSBASE
  2

  9
$UCSNAME
  2

  9
$UCSORG
 10
0.0
 20
0.0
 30
0.0
  9
$UCSXDIR
 10
1.0
 20
0.0
 30
0.0
  9
$UCSYDIR
 10
0.0
 20
1.0
 30
0.0
  9
$UCSORTHOREF
  2

  9
$UCSORTHOVIEW
 70
     0
  9
$UCSORGTOP
 10
0.0
 20
0.0
 30
0.0
  9
$UCSORGBOTTOM
 10
0.0
 20
0.0
 30
0.0
  9
$UCSORGLEFT
 10
0.0
 20
0.0
 30
0.0
  9
$UCSORGRIGHT
 10
0.0
 20
0.0
 30
0.0
  9
$UCSORGFRONT
 10
0.0
 20
0.0
 30
0.0
  9
$UCSORGBACK
 10
0.0
 20
0.0
 30
0.0
  9
$PUCSBASE
  2

  9
$PUCSNAME
  2

  9
$PUCSORG
 10
0.0
 20
0.0
 30
0.0
  9
$PUCSXDIR
 10
1.0
 20
0.0
 30
0.0
  9
$PUCSYDIR
 10
0.0
 20
1.0
 30
0.0
  9
$PUCSORTHOREF
  2

  9
$PUCSORTHOVIEW
 70
     0
  9
$PUCSORGTOP
 10
0.0
 20
0.0
 30
0.0
  9
$PUCSORGBOTTOM
 10
0.0
 20
0.0
 30
0.0
  9
$PUCSORGLEFT
 10
0.0
 20
0.0
 30
0.0
  9
$PUCSORGRIGHT
 10
0.0
 20
0.0
 30
0.0
  9
$PUCSORGFRONT
 10
0.0
 20
0.0
 30
0.0
  9
$PUCSORGBACK
 10
0.0
 20
0.0
 30
0.0
  9
$USERI1
 70
     0
  9
$USERI2
 70
     0
  9
$USERI3
 70
     0
  9
$USERI4
 70
     0
  9
$USERI5
 70
     0
  9
$USERR1
 40
0.0
  9
$USERR2
 40
0.0
  9
$USERR3
 40
0.0
  9
$USERR4
 40
0.0
  9
$USERR5
 40
0.0
  9
$WORLDVIEW
 70
     1
  9
$SHADEDGE
 70
     3
  9
$SHADEDIF
 70
    70
  9
$TILEMODE
 70
     1
  9
$MAXACTVP
 70
    64
  9
$PINSBASE
 10
0.0
 20
0.0
 30
0.0
  9
$PLIMCHECK
 70
     0
  9
$PEXTMIN
 10
1.000000000000000E+20
 20
1.000000000000000E+20
 30
1.000000000000000E+20
  9
$PEXTMAX
 10
-1.000000000000000E+20
 20
-1.000000000000000E+20
 30
-1.000000000000000E+20
  9
$PLIMMIN
 10
0.0
 20
0.0
  9
$PLIMMAX
 10
0.0
 20
0.0
  9
$UNITMODE
 70
     0
  9
$VISRETAIN
 70
     1
  9
$PLINEGEN
 70
     0
  9
$PSLTSCALE
 70
     1
  9
$TREEDEPTH
 70
  3020
  9
$CMLSTYLE
  2
Standard
  9
$CMLJUST
 70
     0
  9
$CMLSCALE
 40
20.0
  9
$PROXYGRAPHICS
 70
     1
  9
$MEASUREMENT
 70
     1
  9
$CELWEIGHT
370
    -1
  9
$ENDCAPS
280
     0
  9
$JOINSTYLE
280
     0
  9
$LWDISPLAY
290
     1
  9
$INSUNITS
 70
     4
  9
$HYPERLINKBASE
  1

  9
$STYLESHEET
  1

  9
$XEDIT
290
     1
  9
$CEPSNTYPE
380
     0
  9
$PSTYLEMODE
290
     1
  9
$FINGERPRINTGUID
  2
{E094A987-E284-4D83-8F54-3041C4B1B701}
  9
$VERSIONGUID
  2
{FAEB1C32-E019-11D5-929B-00C0DF256EC4}
  9
$EXTNAMES
290
     1
  9
$PSVPSCALE
 40
0.0
  9
$OLESTARTUP
290
     0
  0
ENDSEC
  0
SECTION
  2
CLASSES
  0
CLASS
  1
ACDBDICTIONARYWDFLT
  2
AcDbDictionaryWithDefault
  3
ObjectDBX Classes
 90
        0
280
     0
281
     0
  0
CLASS
  1
VISUALSTYLE
  2
AcDbVisualStyle
  3
ObjectDBX Classes
 90
     4095
280
     0
281
     0
  0
CLASS
  1
MATERIAL
  2
AcDbMaterial
  3
ObjectDBX Classes
 90
     1153
280
     0
281
     0
  0
CLASS
  1
SCALE
  2
AcDbScale
  3
ObjectDBX Classes
 90
     1153
280
     0
281
     0
  0
CLASS
  1
TABLESTYLE
  2
AcDbTableStyle
  3
ObjectDBX Classes
 90
     4095
280
     0
281
     0
  0
CLASS
  1
MLEADERSTYLE
  2
AcDbMLeaderStyle
  3
ACDB_MLEADERSTYLE_CLASS
 90
     4095
280
     0
281
     0
  0
CLASS
  1
SUN
  2
AcDbSun
  3
SCENEOE
 90
     1153
280
     0
281
     0
  0
CLASS
  1
ACDBPLACEHOLDER
  2
AcDbPlaceHolder
  3
ObjectDBX Classes
 90
        0
280
     0
281
     0
  0
CLASS
  1
LAYOUT
  2
AcDbLayout
  3
ObjectDBX Classes
 90
        0
280
     0
281
     0
  0
CLASS
  1
RASTERVARIABLES
  2
AcDbRasterVariables
  3
ISM
 90
        0
280
     0
281
     0
  0
CLASS
  1
SORTENTSTABLE
  2
AcDbSortentsTable
  3
ObjectDBX Classes
 90
        0
280
     0
281
     0
  0
ENDSEC
  0
SECTION
  2
TABLES
  0
TABLE
  2
VPORT
  5
8
330
0
100
AcDbSymbolTable
 70
     1
  0
VPORT
  5
29
330
8
100
AcDbSymbolTableRecord
100
AcDbViewportTableRecord
  2
*Active
 70
     0
 10
0.0
 20
0.0
 11
1.0
 21
1.0
 12
32.78404541862639
 22
-23.67496327008844
 13
0.0
 23
0.0
 14
10.0
 24
10.0
 15
10.0
 25
10.0
 16
0.0
 26
0.0
 36
1.0
 17
0.0
 27
0.0
 37
0.0
 40
283.9473409636801
 41
1.531481481481482
 42
50.0
 43
0.0
 44
0.0
 50
0.0
 51
0.0
 71
    16
 72
  2000
 73
     1
 74
     3
 75
     0
 76
     0
 77
     0
 78
     0
281
     0
 65
     1
110
0.0
120
0.0
130
0.0
111
1.0
121
0.0
131
0.0
112
0.0
122
1.0
132
0.0
 79
     0
146
0.0
  0
ENDTAB
  0
TABLE
  2
LTYPE
  5
5
330
0
100
AcDbSymbolTable
 70
     6
  0
LTYPE
  5
14
330
5
100
AcDbSymbolTableRecord
100
AcDbLinetypeTableRecord
  2
ByBlock
 70
     0
  3

 72
    65
 73
     0
 40
0.0
  0
LTYPE
  5
15
330
5
100
AcDbSymbolTableRecord
100
AcDbLinetypeTableRecord
  2
ByLayer
 70
     0
  3

 72
    65
 73
     0
 40
0.0
  0
LTYPE
  5
16
330
5
100
AcDbSymbolTableRecord
100
AcDbLinetypeTableRecord
  2
Continuous
 70
     0
  3
Solid line
 72
    65
 73
     0
 40
0.0
  0
LTYPE
  5
6E
330
5
100
AcDbSymbolTableRecord
100
AcDbLinetypeTableRecord
  2
HIDDEN
 70
     0
  3
Hidden __ __ __ __ __ __ __ __ __ __ __ __ __ __
 72
    65
 73
     2
 40
1.905
 49
1.27
 74
     0
 49
-0.635
 74
     0
  0
LTYPE
  5
6F
330
5
100
AcDbSymbolTableRecord
100
AcDbLinetypeTableRecord
  2
PHANTOM
 70
     0
  3
Phantom ______  __  __  ______  __  __  ______
 72
    65
 73
     6
 40
12.7
 49
6.35
 74
     0
 49
-1.27
 74
     0
 49
1.27
 74
     0
 49
-1.27
 74
     0
 49
1.27
 74
     0
 49
-1.27
 74
     0
  0
LTYPE
  5
70
330
5
100
AcDbSymbolTableRecord
100
AcDbLinetypeTableRecord
  2
CENTER
 70
     0
  3
Center ____ _ ____ _ ____ _ ____ _ ____ _ ____
 72
    65
 73
     4
 40
10.16
 49
6.35
 74
     0
 49
-1.27
 74
     0
 49
1.27
 74
     0
 49
-1.27
 74
     0
  0
LTYPE
  5
71
330
5
100
AcDbSymbolTableRecord
100
AcDbLinetypeTableRecord
  2
CENTERX2
 70
     0
  3
Center (2x) ________  __  ________  __  _____
 72
    65
 73
     4
 40
20.32
 49
12.7
 74
     0
 49
-2.54
 74
     0
 49
2.54
 74
     0
 49
-2.54
 74
     0
  0
LTYPE
  5
72
330
5
100
AcDbSymbolTableRecord
100
AcDbLinetypeTableRecord
  2
DOT2
 70
     0
  3
Dot (.5x) ........................................
 72
    65
 73
     2
 40
0.635
 49
0.0
 74
     0
 49
-0.635
 74
     0
  0
ENDTAB
  0
TABLE
  2
LAYER
  5
2
102
{ACAD_XDICTIONARY
360
21A
102
}
330
0
100
AcDbSymbolTable
 70
    17
  0
LAYER
  5
10
330
2
100
AcDbSymbolTableRecord
100
AcDbLayerTableRecord
  2
0
 70
     0
 62
     7
  6
Continuous
370
    -3
390
F
  0
LAYER
  5
73
330
2
100
AcDbSymbolTableRecord
100
AcDbLayerTableRecord
  2
FORMAT
 70
     0
 62
     2
  6
Continuous
370
    -3
390
F
  0
LAYER
  5
74
330
2
100
AcDbSymbolTableRecord
100
AcDbLayerTableRecord
  2
외형선
 70
     0
 62
   100
  6
Continuous
370
    35
390
F
  0
LAYER
  5
75
330
2
100
AcDbSymbolTableRecord
100
AcDbLayerTableRecord
  2
숨은선
 70
     0
 62
     2
  6
HIDDEN
370
    25
390
F
  0
LAYER
  5
76
330
2
100
AcDbSymbolTableRecord
100
AcDbLayerTableRecord
  2
중심선
 70
     0
 62
     1
  6
CENTERX2
370
    -3
390
F
  0
LAYER
  5
77
330
2
100
AcDbSymbolTableRecord
100
AcDbLayerTableRecord
  2
파단선
 70
     0
 62
     4
  6
Continuous
370
    -3
390
F
  0
LAYER
  5
78
330
2
100
AcDbSymbolTableRecord
100
AcDbLayerTableRecord
  2
해칭선
 70
     0
 62
     4
  6
Continuous
370
    -3
390
F
  0
LAYER
  5
79
330
2
100
AcDbSymbolTableRecord
100
AcDbLayerTableRecord
  2
가는실선
 70
     0
 62
     4
  6
Continuous
370
    -3
390
F
  0
LAYER
  5
7A
330
2
100
AcDbSymbolTableRecord
100
AcDbLayerTableRecord
  2
치수_보조선
 70
     0
 62
     4
  6
Continuous
370
    -3
390
F
  0
LAYER
  5
7B
330
2
100
AcDbSymbolTableRecord
100
AcDbLayerTableRecord
  2
치수문자_일반주서
 70
     0
 62
     7
  6
Continuous
370
    25
390
F
  0
LAYER
  5
7C
330
2
100
AcDbSymbolTableRecord
100
AcDbLayerTableRecord
  2
개별주서
 70
     0
 62
   100
  6
Continuous
370
    35
390
F
  0
LAYER
  5
7D
330
2
100
AcDbSymbolTableRecord
100
AcDbLayerTableRecord
  2
중간선
 70
     0
 62
     2
  6
Continuous
370
    25
390
F
  0
LAYER
  5
7E
330
2
100
AcDbSymbolTableRecord
100
AcDbLayerTableRecord
  2
윤곽선
 70
     0
 62
     3
  6
Continuous
370
    50
390
F
  0
LAYER
  5
7F
330
2
100
AcDbSymbolTableRecord
100
AcDbLayerTableRecord
  2
중심마크
 70
     0
 62
   100
  6
Continuous
370
    35
390
F
  0
LAYER
  5
80
330
2
100
AcDbSymbolTableRecord
100
AcDbLayerTableRecord
  2
가상선
 70
     0
 62
     4
  6
PHANTOM
370
    -3
390
F
  0
LAYER
  5
81
330
2
100
AcDbSymbolTableRecord
100
AcDbLayerTableRecord
  2
특수지정선
 70
     0
 62
     5
  6
CENTERX2
370
    70
390
F
  0
LAYER
  5
15A
330
2
100
AcDbSymbolTableRecord
100
AcDbLayerTableRecord
  2
Defpoints
 70
     0
 62
     7
  6
Continuous
290
     0
370
    -3
390
F
  0
ENDTAB
  0
TABLE
  2
STYLE
  5
3
330
0
100
AcDbSymbolTable
 70
     2
  0
STYLE
  5
11
330
3
100
AcDbSymbolTableRecord
100
AcDbTextStyleTableRecord
  2
Standard
 70
     0
 40
0.0
 41
1.0
 50
0.0
 71
     0
 42
3.5
  3
txt
  4

  0
STYLE
  5
97
330
3
100
AcDbSymbolTableRecord
100
AcDbTextStyleTableRecord
  2
SLDTEXTSTYLE0
 70
     0
 40
0.0
 41
0.75
 50
0.0
 71
     0
 42
3.5
  3
TXT
  4

  0
ENDTAB
  0
TABLE
  2
VIEW
  5
6
330
0
100
AcDbSymbolTable
 70
     0
  0
ENDTAB
  0
TABLE
  2
UCS
  5
7
330
0
100
AcDbSymbolTable
 70
     0
  0
ENDTAB
  0
TABLE
  2
APPID
  5
9
330
0
100
AcDbSymbolTable
 70
     1
  0
APPID
  5
12
330
9
100
AcDbSymbolTableRecord
100
AcDbRegAppTableRecord
  2
ACAD
 70
     0
  0
ENDTAB
  0
TABLE
  2
DIMSTYLE
  5
A
330
0
100
AcDbSymbolTable
 70
     5
100
AcDbDimStyleTable
  0
DIMSTYLE
105
27
330
A
100
AcDbSymbolTableRecord
100
AcDbDimStyleTableRecord
  2
ISO-25
 70
     0
 41
2.5
 42
0.625
 43
3.75
 44
1.25
 73
     0
 74
     0
 77
     1
 78
     8
140
2.5
141
2.5
143
0.03937007874016
147
0.625
171
     3
172
     1
178
     0
271
     2
272
     2
274
     3
278
    44
283
     0
284
     8
340
11
  0
DIMSTYLE
105
E1
102
{ACAD_REACTORS
330
E0
330
109
330
11C
330
1DB
330
1F5
102
}
330
A
100
AcDbSymbolTableRecord
100
AcDbDimStyleTableRecord
  2
SLDDIMSTYLE0
 70
     0
 41
3.302
 44
0.0
 45
0.000000001
 73
     0
 74
     0
 77
     1
 78
    12
 79
     3
140
3.5
143
0.0393700787401575
147
0.875
148
0.000000001
170
     1
173
     1
178
     0
271
     2
272
     2
276
     2
284
    12
340
97
  0
DIMSTYLE
105
F5
102
{ACAD_REACTORS
330
F4
330
1E8
102
}
330
A
100
AcDbSymbolTableRecord
100
AcDbDimStyleTableRecord
  2
SLDDIMSTYLE1
 70
     0
 41
3.302
 44
0.0
 45
0.000000001
 73
     0
 74
     0
 77
     1
 78
     4
 79
     1
140
3.5
143
0.0393700787401575
147
0.875
148
0.000000001
170
     1
172
     1
173
     1
178
     0
271
     2
272
     2
276
     2
284
    12
289
     0
340
97
  0
DIMSTYLE
105
189
102
{ACAD_REACTORS
330
202
102
}
330
A
100
AcDbSymbolTableRecord
100
AcDbDimStyleTableRecord
  2
SLDDIMSTYLE2
 70
     0
 41
3.302
 44
0.0
 45
0.000000001
 73
     0
 74
     0
 77
     1
 78
    12
 79
     3
140
3.5
143
0.0393700787401575
147
0.875
148
0.000000001
170
     1
173
     1
178
     0
271
     2
272
     2
276
     2
284
    12
340
97
  0
DIMSTYLE
105
18A
102
{ACAD_REACTORS
102
}
330
A
100
AcDbSymbolTableRecord
100
AcDbDimStyleTableRecord
  2
SLDDIMSTYLE3
 70
     0
 41
3.302
 44
0.0
 45
0.000000001
 73
     0
 74
     0
 77
     1
 78
    12
 79
     3
140
3.5
143
0.0393700787401575
147
0.875
148
0.000000001
170
     1
172
     1
173
     1
178
     0
271
     2
272
     2
276
     2
284
    12
289
     0
340
97
  0
ENDTAB
  0
TABLE
  2
BLOCK_RECORD
  5
1
330
0
100
AcDbSymbolTable
 70
    15
  0
BLOCK_RECORD
  5
1F
102
{ACAD_XDICTIONARY
360
2D5
102
}
330
1
100
AcDbSymbolTableRecord
100
AcDbBlockTableRecord
  2
*Model_Space
340
22
  0
BLOCK_RECORD
  5
1B
330
1
100
AcDbSymbolTableRecord
100
AcDbBlockTableRecord
  2
*Paper_Space
340
1E
  0
BLOCK_RECORD
  5
23
330
1
100
AcDbSymbolTableRecord
100
AcDbBlockTableRecord
  2
*Paper_Space0
340
26
  0
BLOCK_RECORD
  5
82
330
1
100
AcDbSymbolTableRecord
100
AcDbBlockTableRecord
  2
블럭10
340
0
102
{BLKREFS
331
D9
102
}
  0
BLOCK_RECORD
  5
E2
330
1
100
AcDbSymbolTableRecord
100
AcDbBlockTableRecord
  2
_D
340
0
  0
BLOCK_RECORD
  5
F6
330
1
100
AcDbSymbolTableRecord
100
AcDbBlockTableRecord
  2
_D_1
340
0
  0
BLOCK_RECORD
  5
10A
330
1
100
AcDbSymbolTableRecord
100
AcDbBlockTableRecord
  2
_D_2
340
0
  0
BLOCK_RECORD
  5
11D
330
1
100
AcDbSymbolTableRecord
100
AcDbBlockTableRecord
  2
_D_3
340
0
  0
BLOCK_RECORD
  5
12F
330
1
100
AcDbSymbolTableRecord
100
AcDbBlockTableRecord
  2
SW_DOWELSYMBOL_0
340
0
102
{BLKREFS
331
135
331
210
331
0
102
}
  0
BLOCK_RECORD
  5
21E
330
1
100
AcDbSymbolTableRecord
100
AcDbBlockTableRecord
  2
*D8
340
0
  0
BLOCK_RECORD
  5
22A
330
1
100
AcDbSymbolTableRecord
100
AcDbBlockTableRecord
  2
*D9
340
0
  0
BLOCK_RECORD
  5
236
330
1
100
AcDbSymbolTableRecord
100
AcDbBlockTableRecord
  2
*D10
340
0
  0
BLOCK_RECORD
  5
242
330
1
100
AcDbSymbolTableRecord
100
AcDbBlockTableRecord
  2
*D11
340
0
  0
BLOCK_RECORD
  5
2A0
330
1
100
AcDbSymbolTableRecord
100
AcDbBlockTableRecord
  2
*D12
340
0
  0
BLOCK_RECORD
  5
2AC
330
1
100
AcDbSymbolTableRecord
100
AcDbBlockTableRecord
  2
*D13
340
0
  0
BLOCK_RECORD
  5
2B8
330
1
100
AcDbSymbolTableRecord
100
AcDbBlockTableRecord
  2
*D14
340
0
  0
BLOCK_RECORD
  5
2C4
330
1
100
AcDbSymbolTableRecord
100
AcDbBlockTableRecord
  2
*D15
340
0
  0
ENDTAB
  0
ENDSEC
  0
SECTION
  2
BLOCKS
  0
BLOCK
  5
20
330
1F
100
AcDbEntity
  8
0
100
AcDbBlockBegin
  2
*Model_Space
 70
     0
 10
0.0
 20
0.0
 30
0.0
  3
*Model_Space
  1
*Model_Space
  0
ENDBLK
  5
21
330
1F
100
AcDbEntity
  8
0
100
AcDbBlockEnd
  0
BLOCK
  5
1C
330
1B
100
AcDbEntity
 67
     1
  8
0
100
AcDbBlockBegin
  2
*Paper_Space
 70
     0
 10
0.0
 20
0.0
 30
0.0
  3
*Paper_Space
  1
*Paper_Space
  0
ENDBLK
  5
1D
330
1B
100
AcDbEntity
 67
     1
  8
0
100
AcDbBlockEnd
  0
BLOCK
  5
24
330
23
100
AcDbEntity
  8
0
100
AcDbBlockBegin
  2
*Paper_Space0
 70
     0
 10
0.0
 20
0.0
 30
0.0
  3
*Paper_Space0
  1
*Paper_Space0
  0
ENDBLK
  5
25
330
23
100
AcDbEntity
  8
0
100
AcDbBlockEnd
  0
BLOCK
  5
83
330
82
100
AcDbEntity
  8
0
100
AcDbBlockBegin
  2
블럭10
 70
     2
 10
0.0
 20
0.0
 30
0.0
  3
블럭10
  1
블럭10
  0
ELLIPSE
  5
85
330
82
100
AcDbEntity
  8
중심선
100
AcDbEllipse
 10
20.54032771741204
 20
12.0471743016438
 30
0.0
 11
6.600054785286829
 21
-1.261213355974178E-13
 31
0.0
210
0.0
220
0.0
230
1.0
 40
0.636358354079598
 41
0.9219305317359503
 42
6.513795318482858
  0
ELLIPSE
  5
86
330
82
100
AcDbEntity
  8
중심선
100
AcDbEllipse
 10
20.54032771746488
 20
12.04717430159265
 30
0.0
 11
3.960054785062283
 21
1.540847449632565E-10
 31
0.0
210
0.0
220
0.0
230
1.0
 40
0.3939339440162632
 41
1.131841032648279
 42
5.62031148352944
  0
LINE
  5
87
330
82
100
AcDbEntity
  8
중심선
100
AcDbLine
 10
2.268634060543552
 20
16.24717430164393
 30
0.0
 11
5.714909304380834
 21
16.24717430164393
 31
0.0
  0
LINE
  5
88
330
82
100
AcDbEntity
  8
중심선
100
AcDbLine
 10
5.245725140726316
 20
7.84717430164391
 30
0.0
 11
8.692000384563599
 21
7.84717430164391
 31
0.0
  0
LINE
  5
89
330
82
100
AcDbEntity
  8
중심선
100
AcDbLine
 10
15.74043728645272
 20
16.24717430164393
 30
0.0
 11
8.692000384563599
 21
7.84717430164391
 31
0.0
  0
LINE
  5
8A
330
82
100
AcDbEntity
  8
중심선
100
AcDbLine
 10
0.1404042013395286
 20
13.71084872107135
 30
0.0
 11
3.58671253028996
 21
13.71088815037384
 31
0.0
  0
LINE
  5
8B
330
82
100
AcDbEntity
  8
중심선
100
AcDbLine
 10
2.750260043222114
 20
10.84717430164391
 30
0.0
 11
6.196535287059397
 21
10.84717430164391
 31
0.0
  0
LINE
  5
8C
330
82
100
AcDbEntity
  8
중심선
100
AcDbLine
 10
12.29416204261559
 20
16.24717430164393
 30
0.0
 11
5.245725140726316
 21
7.84717430164391
 31
0.0
  0
LINE
  5
8D
330
82
100
AcDbEntity
  8
중심선
100
AcDbLine
 10
10.72767329541681
 20
16.24717430164393
 30
0.0
 11
6.196535287059397
 21
10.84717430164391
 31
0.0
  0
LINE
  5
8E
330
82
100
AcDbEntity
  8
중심선
100
AcDbLine
 10
7.28139805157953
 20
16.24717430164393
 30
0.0
 11
2.750260043222114
 21
10.84717430164391
 31
0.0
  0
LINE
  5
8F
330
82
100
AcDbEntity
  8
중심선
100
AcDbLine
 10
5.714909304380834
 20
16.24717430164393
 30
0.0
 11
3.58671253028996
 21
13.71088815037384
 31
0.0
  0
LINE
  5
90
330
82
100
AcDbEntity
  8
중심선
100
AcDbLine
 10
2.268634060543552
 20
16.24717430164393
 30
0.0
 11
0.1404042013395286
 21
13.71084872107135
 31
0.0
  0
LINE
  5
91
330
82
100
AcDbEntity
  8
중심선
100
AcDbLine
 10
7.28139805157953
 20
16.24717430164393
 30
0.0
 11
10.72767329541681
 21
16.24717430164393
 31
0.0
  0
LINE
  5
92
330
82
100
AcDbEntity
  8
중심선
100
AcDbLine
 10
12.29416204261559
 20
16.24717430164393
 30
0.0
 11
15.74043728645272
 21
16.24717430164393
 31
0.0
  0
LINE
  5
93
330
82
100
AcDbEntity
  8
중심선
100
AcDbLine
 10
19.22036997980202
 20
11.08717430171403
 30
0.0
 11
23.66174974927406
 21
11.08717430171406
 31
0.0
  0
LINE
  5
94
330
82
100
AcDbEntity
  8
중심선
100
AcDbLine
 10
19.22039502424796
 20
13.00717430171391
 30
0.0
 11
19.22036997980202
 21
11.08717430171403
 31
0.0
  0
LINE
  5
95
330
82
100
AcDbEntity
  8
중심선
100
AcDbLine
 10
19.22039502424796
 20
13.00717430171391
 30
0.0
 11
26.96566020931264
 21
13.00717430171391
 31
0.0
  0
LINE
  5
96
330
82
100
AcDbEntity
  8
중심선
100
AcDbLine
 10
22.22332737316547
 20
13.45928029700563
 30
0.0
 11
24.52862924686651
 21
15.39360700705356
 31
0.0
  0
ATTDEF
  5
98
330
82
100
AcDbEntity
  8
FORMAT
 62
     2
100
AcDbText
 10
-9.18129528874128
 20
2.075366912832191
 30
0.0
 40
4.233333333333333
  1
E5253932 [ 2 FLUTE ]
 41
0.75
  7
SLDTEXTSTYLE0
 11
-9.18129528874128
 21
-0.0412997538344756
 31
0.0
100
AcDbAttributeDefinition
  3

  2
AUTOATTR0
 70
     0
 74
     1
  0
ENDBLK
  5
84
330
82
100
AcDbEntity
  8
0
100
AcDbBlockEnd
  0
BLOCK
  5
E3
330
E2
100
AcDbEntity
  8
0
100
AcDbBlockBegin
  2
_D
 70
     0
 10
0.0
 20
0.0
 30
0.0
  3
_D
  1
_D
  0
LINE
  5
E5
330
E2
100
AcDbEntity
  8
치수문자_일반주서
 62
     0
370
    -2
100
AcDbLine
 10
41.75
 20
6.408208005432137
 30
0.0
 11
41.75000000000001
 21
41.93589146707808
 31
0.0
  0
LINE
  5
E6
330
E2
100
AcDbEntity
  8
치수문자_일반주서
 62
     0
370
    -2
100
AcDbLine
 10
-40.8
 20
5.413574928723885
 30
0.0
 11
-40.8
 21
41.93589146707808
 31
0.0
  0
LINE
  5
E7
330
E2
100
AcDbEntity
  8
치수문자_일반주서
 62
     0
370
    -2
100
AcDbLine
 10
38.44800000000001
 20
41.93589146707808
 30
0.0
 11
-37.498
 21
41.93589146707808
 31
0.0
  0
SOLID
  5
E8
330
E2
100
AcDbEntity
  8
치수문자_일반주서
 62
     0
100
AcDbTrace
 10
38.44800000000001
 20
41.38555813374474
 30
0.0
 11
38.44800000000001
 21
42.48622480041141
 31
0.0
 12
41.75000000000001
 22
41.93589146707808
 32
0.0
 13
41.75000000000001
 23
41.93589146707808
 33
0.0
  0
SOLID
  5
E9
330
E2
100
AcDbEntity
  8
치수문자_일반주서
 62
     0
100
AcDbTrace
 10
-37.498
 20
42.48622480041141
 30
0.0
 11
-37.498
 21
41.38555813374474
 31
0.0
 12
-40.8
 22
41.93589146707808
 32
0.0
 13
-40.8
 23
41.93589146707808
 33
0.0
  0
MTEXT
  5
EA
330
E2
100
AcDbEntity
  8
치수문자_일반주서
 62
     0
100
AcDbMText
 10
0.4749999999999945
 20
46.31089146707808
 30
0.0
 40
3.5
 41
0.0
 71
     2
 72
     1
  1
\A1;82.55 [3 1/4]
  7
SLDTEXTSTYLE0
 73
     1
 44
1.0
  0
POINT
  5
EB
330
E2
100
AcDbEntity
  8
Defpoints
 62
     0
100
AcDbPoint
 10
41.75
 20
6.345708005432137
 30
0.0
  0
POINT
  5
EC
330
E2
100
AcDbEntity
  8
Defpoints
 62
     0
100
AcDbPoint
 10
-40.8
 20
5.351074928723885
 30
0.0
  0
POINT
  5
ED
330
E2
100
AcDbEntity
  8
Defpoints
 62
     0
100
AcDbPoint
 10
-40.8
 20
41.93589146707808
 30
0.0
  0
ENDBLK
  5
E4
330
E2
100
AcDbEntity
  8
0
100
AcDbBlockEnd
  0
BLOCK
  5
F7
330
F6
100
AcDbEntity
  8
0
100
AcDbBlockBegin
  2
_D_1
 70
     0
 10
0.0
 20
0.0
 30
0.0
  3
_D_1
  1
_D_1
  0
LINE
  5
F9
330
F6
100
AcDbEntity
  8
치수문자_일반주서
 62
     0
370
    -2
100
AcDbLine
 10
-39.86250000000002
 20
6.351074928723888
 30
0.0
 11
-53.61000000000004
 21
6.35107492872384
 31
0.0
  0
LINE
  5
FA
330
F6
100
AcDbEntity
  8
치수문자_일반주서
 62
     0
370
    -2
100
AcDbLine
 10
-39.86250000000002
 20
-6.348925071276101
 30
0.0
 11
-53.61
 21
-6.348925071276149
 31
0.0
  0
LINE
  5
FB
330
F6
100
AcDbEntity
  8
치수문자_일반주서
 62
     0
370
    -2
100
AcDbLine
 10
-53.61000000000003
 20
3.04907492872384
 30
0.0
 11
-53.61000000000001
 21
-3.046925071276149
 31
0.0
  0
SOLID
  5
FC
330
F6
100
AcDbEntity
  8
치수문자_일반주서
 62
     0
100
AcDbTrace
 10
-53.05966666666669
 20
3.049074928723842
 30
0.0
 11
-54.16033333333336
 21
3.049074928723838
 31
0.0
 12
-53.61000000000004
 22
6.35107492872384
 32
0.0
 13
-53.61000000000004
 23
6.35107492872384
 33
0.0
  0
SOLID
  5
FD
330
F6
100
AcDbEntity
  8
치수문자_일반주서
 62
     0
100
AcDbTrace
 10
-54.16033333333335
 20
-3.046925071276151
 30
0.0
 11
-53.05966666666668
 21
-3.046925071276148
 31
0.0
 12
-53.61
 22
-6.348925071276149
 32
0.0
 13
-53.61
 23
-6.348925071276149
 33
0.0
  0
MTEXT
  5
FE
330
F6
100
AcDbEntity
  8
치수문자_일반주서
 62
     0
100
AcDbMText
 10
-57.98500000000002
 20
0.001074928723876
 30
0.0
 40
3.5
 41
0.0
 71
     2
 72
     1
  1
\A1;%%c12.70 [1/2]
  7
SLDTEXTSTYLE0
 11
-3.356894814614650E-15
 21
1.0
 31
0.0
 73
     1
 44
1.0
  0
POINT
  5
FF
330
F6
100
AcDbEntity
  8
Defpoints
 62
     0
100
AcDbPoint
 10
-39.80000000000002
 20
6.351074928723888
 30
0.0
  0
POINT
  5
100
330
F6
100
AcDbEntity
  8
Defpoints
 62
     0
100
AcDbPoint
 10
-39.80000000000002
 20
-6.348925071276101
 30
0.0
  0
POINT
  5
101
330
F6
100
AcDbEntity
  8
Defpoints
 62
     0
100
AcDbPoint
 10
-53.61
 20
-6.348925071276149
 30
0.0
  0
ENDBLK
  5
F8
330
F6
100
AcDbEntity
  8
0
100
AcDbBlockEnd
  0
BLOCK
  5
10B
330
10A
100
AcDbEntity
  8
0
100
AcDbBlockBegin
  2
_D_2
 70
     0
 10
0.0
 20
0.0
 30
0.0
  3
_D_2
  1
_D_2
  0
LINE
  5
10D
330
10A
100
AcDbEntity
  8
치수문자_일반주서
 62
     0
370
    -2
100
AcDbLine
 10
41.75
 20
6.408208005432137
 30
0.0
 11
41.75
 21
26.58232551893264
 31
0.0
  0
LINE
  5
10E
330
10A
100
AcDbEntity
  8
치수문자_일반주서
 62
     0
370
    -2
100
AcDbLine
 10
9.999999999999996
 20
5.037683836099166
 30
0.0
 11
9.999999999999996
 21
26.58232551893264
 31
0.0
  0
LINE
  5
10F
330
10A
100
AcDbEntity
  8
치수문자_일반주서
 62
     0
370
    -2
100
AcDbLine
 10
38.448
 20
26.58232551893264
 30
0.0
 11
13.302
 21
26.58232551893264
 31
0.0
  0
SOLID
  5
110
330
10A
100
AcDbEntity
  8
치수문자_일반주서
 62
     0
100
AcDbTrace
 10
38.448
 20
26.0319921855993
 30
0.0
 11
38.448
 21
27.13265885226597
 31
0.0
 12
41.75
 22
26.58232551893264
 32
0.0
 13
41.75
 23
26.58232551893264
 33
0.0
  0
SOLID
  5
111
330
10A
100
AcDbEntity
  8
치수문자_일반주서
 62
     0
100
AcDbTrace
 10
13.302
 20
27.13265885226597
 30
0.0
 11
13.302
 21
26.0319921855993
 31
0.0
 12
9.999999999999996
 22
26.58232551893264
 32
0.0
 13
9.999999999999996
 23
26.58232551893264
 33
0.0
  0
MTEXT
  5
112
330
10A
100
AcDbEntity
  8
치수문자_일반주서
 62
     0
100
AcDbMText
 10
25.875
 20
30.95732551893264
 30
0.0
 40
3.5
 41
0.0
 71
     2
 72
     1
  1
\A1;31.75 [1 1/4]
  7
SLDTEXTSTYLE0
 73
     1
 44
1.0
  0
POINT
  5
113
330
10A
100
AcDbEntity
  8
Defpoints
 62
     0
100
AcDbPoint
 10
41.75
 20
6.345708005432137
 30
0.0
  0
POINT
  5
114
330
10A
100
AcDbEntity
  8
Defpoints
 62
     0
100
AcDbPoint
 10
9.999999999999996
 20
4.975183836099166
 30
0.0
  0
POINT
  5
115
330
10A
100
AcDbEntity
  8
Defpoints
 62
     0
100
AcDbPoint
 10
9.999999999999996
 20
26.58232551893264
 30
0.0
  0
ENDBLK
  5
10C
330
10A
100
AcDbEntity
  8
0
100
AcDbBlockEnd
  0
BLOCK
  5
11E
330
11D
100
AcDbEntity
  8
0
100
AcDbBlockBegin
  2
_D_3
 70
     0
 10
0.0
 20
0.0
 30
0.0
  3
_D_3
  1
_D_3
  0
LINE
  5
120
330
11D
100
AcDbEntity
  8
치수문자_일반주서
 62
     0
370
    -2
100
AcDbLine
 10
41.8125
 20
6.345708005432137
 30
0.0
 11
61.9593537150438
 21
6.345708005432208
 31
0.0
  0
LINE
  5
121
330
11D
100
AcDbEntity
  8
치수문자_일반주서
 62
     0
370
    -2
100
AcDbLine
 10
41.8125
 20
-6.343558147984346
 30
0.0
 11
61.95935371504384
 21
-6.343558147984275
 31
0.0
  0
LINE
  5
122
330
11D
100
AcDbEntity
  8
치수문자_일반주서
 62
     0
370
    -2
100
AcDbLine
 10
61.9593537150438
 20
6.345708005432208
 30
0.0
 11
61.9593537150437
 21
36.7727080054322
 31
0.0
  0
LINE
  5
123
330
11D
100
AcDbEntity
  8
치수문자_일반주서
 62
     0
370
    -2
100
AcDbLine
 10
61.95935371504381
 20
3.043708005432208
 30
0.0
 11
61.95935371504383
 21
-3.041558147984276
 31
0.0
  0
SOLID
  5
124
330
11D
100
AcDbEntity
  8
치수문자_일반주서
 62
     0
100
AcDbTrace
 10
62.50968704837715
 20
3.04370800543221
 30
0.0
 11
61.40902038171048
 21
3.043708005432206
 31
0.0
 12
61.9593537150438
 22
6.345708005432208
 32
0.0
 13
61.9593537150438
 23
6.345708005432208
 33
0.0
  0
SOLID
  5
125
330
11D
100
AcDbEntity
  8
치수문자_일반주서
 62
     0
100
AcDbTrace
 10
61.40902038171049
 20
-3.041558147984277
 30
0.0
 11
62.50968704837716
 21
-3.041558147984274
 31
0.0
 12
61.95935371504384
 22
-6.343558147984275
 32
0.0
 13
61.95935371504384
 23
-6.343558147984275
 33
0.0
  0
MTEXT
  5
126
330
11D
100
AcDbEntity
  8
치수문자_일반주서
 62
     0
100
AcDbMText
 10
57.58435371504374
 20
23.21020800543219
 30
0.0
 40
3.5
 41
0.0
 71
     2
 72
     1
  1
\A1;%%c12.69 [1/2]
  7
SLDTEXTSTYLE0
 11
-3.359734410971239E-15
 21
1.0
 31
0.0
 73
     1
 44
1.0
  0
POINT
  5
127
330
11D
100
AcDbEntity
  8
Defpoints
 62
     0
100
AcDbPoint
 10
41.75
 20
6.345708005432137
 30
0.0
  0
POINT
  5
128
330
11D
100
AcDbEntity
  8
Defpoints
 62
     0
100
AcDbPoint
 10
41.75
 20
-6.343558147984346
 30
0.0
  0
POINT
  5
129
330
11D
100
AcDbEntity
  8
Defpoints
 62
     0
100
AcDbPoint
 10
61.95935371504384
 20
-6.343558147984276
 30
0.0
  0
ENDBLK
  5
11F
330
11D
100
AcDbEntity
  8
0
100
AcDbBlockEnd
  0
BLOCK
  5
130
330
12F
100
AcDbEntity
  8
0
100
AcDbBlockBegin
  2
SW_DOWELSYMBOL_0
 70
     0
 10
0.0
 20
0.0
 30
0.0
  3
SW_DOWELSYMBOL_0
  1
SW_DOWELSYMBOL_0
  0
CIRCLE
  5
132
330
12F
100
AcDbEntity
  8
외형선
 62
     0
100
AcDbCircle
 10
0.0
 20
0.0
 30
0.0
 40
3.000000000000004
  0
HATCH
  5
133
330
12F
100
AcDbEntity
  8
0
  6
Continuous
 62
     0
370
    35
100
AcDbHatch
 10
0.0
 20
0.0
 30
0.0
210
0.0
220
0.0
230
1.0
  2
SOLID
 70
     1
 71
     0
 91
        1
 92
        0
 93
        3
 72
     2
 10
0.0000000000000087
 20
0.0
 40
3.000000000000004
 50
0.0
 51
90.0
 73
     1
 72
     1
 10
0.0000000000000087
 20
3.000000000000004
 11
0.0000000000000087
 21
0.0
 72
     1
 10
0.0000000000000087
 20
0.0
 11
3.000000000000013
 21
0.0
 97
        0
 75
     0
 76
     1
 98
        1
 10
0.0
 20
0.0
  0
HATCH
  5
134
330
12F
100
AcDbEntity
  8
0
  6
Continuous
 62
     0
370
    35
100
AcDbHatch
 10
0.0
 20
0.0
 30
0.0
210
0.0
220
0.0
230
1.0
  2
SOLID
 70
     1
 71
     0
 91
        1
 92
        0
 93
        3
 72
     2
 10
0.0000000000000087
 20
0.0
 40
3.000000000000004
 50
180.0
 51
270.0000000000007
 73
     1
 72
     1
 10
0.0000000000000087
 20
-3.000000000000004
 11
0.0000000000000087
 21
0.0
 72
     1
 10
0.0000000000000087
 20
0.0
 11
-2.999999999999996
 21
0.0
 97
        0
 75
     0
 76
     1
 98
        1
 10
0.0
 20
0.0
  0
ENDBLK
  5
131
330
12F
100
AcDbEntity
  8
0
100
AcDbBlockEnd
  0
BLOCK
  5
21F
330
21E
100
AcDbEntity
  8
0
100
AcDbBlockBegin
  2
*D8
 70
     1
 10
0.0
 20
0.0
 30
0.0
  3
*D8
  1

  0
LINE
  5
221
330
21E
100
AcDbEntity
  8
치수문자_일반주서
 62
     0
370
    -2
100
AcDbLine
 10
118.7850000000001
 20
18.87588307670826
 30
0.0
 11
118.7850000000001
 21
54.40356653835421
 31
0.0
  0
LINE
  5
222
330
21E
100
AcDbEntity
  8
치수문자_일반주서
 62
     0
370
    -2
100
AcDbLine
 10
17.18500000000007
 20
17.88125
 30
0.0
 11
17.18500000000007
 21
54.40356653835421
 31
0.0
  0
LINE
  5
223
330
21E
100
AcDbEntity
  8
치수문자_일반주서
 62
     0
370
    -2
100
AcDbLine
 10
115.483
 20
54.40356653835421
 30
0.0
 11
20.48700000000007
 21
54.40356653835421
 31
0.0
  0
SOLID
  5
224
330
21E
100
AcDbEntity
  8
치수문자_일반주서
 62
     0
100
AcDbTrace
 10
115.483
 20
53.85323320502087
 30
0.0
 11
115.483
 21
54.95389987168754
 31
0.0
 12
118.7850000000001
 22
54.40356653835421
 32
0.0
 13
118.7850000000001
 23
54.40356653835421
 33
0.0
  0
SOLID
  5
225
330
21E
100
AcDbEntity
  8
치수문자_일반주서
 62
     0
100
AcDbTrace
 10
20.48700000000007
 20
54.95389987168754
 30
0.0
 11
20.48700000000007
 21
53.85323320502087
 31
0.0
 12
17.18500000000007
 22
54.40356653835421
 32
0.0
 13
17.18500000000007
 23
54.40356653835421
 33
0.0
  0
MTEXT
  5
226
330
21E
100
AcDbEntity
  8
치수문자_일반주서
 62
     0
100
AcDbMText
 10
67.98500000000006
 20
58.77856653835421
 30
0.0
 40
3.5
 41
0.0
 71
     2
 72
     1
  1
\A1;101.6 [4]
  7
SLDTEXTSTYLE0
 73
     1
 44
1.0
  0
POINT
  5
227
330
21E
100
AcDbEntity
  8
Defpoints
 62
     0
100
AcDbPoint
 10
118.7850000000001
 20
18.81338307670826
 30
0.0
  0
POINT
  5
228
330
21E
100
AcDbEntity
  8
Defpoints
 62
     0
100
AcDbPoint
 10
17.18500000000007
 20
17.81875
 30
0.0
  0
POINT
  5
229
330
21E
100
AcDbEntity
  8
Defpoints
 62
     0
100
AcDbPoint
 10
17.18500000000007
 20
54.40356653835421
 30
0.0
  0
ENDBLK
  5
220
330
21E
100
AcDbEntity
  8
0
100
AcDbBlockEnd
  0
BLOCK
  5
22B
330
22A
100
AcDbEntity
  8
0
100
AcDbBlockBegin
  2
*D9
 70
     1
 10
0.0
 20
0.0
 30
0.0
  3
*D9
  1

  0
LINE
  5
22D
330
22A
100
AcDbEntity
  8
치수문자_일반주서
 62
     0
370
    -2
100
AcDbLine
 10
18.12250000000004
 20
18.81875
 30
0.0
 11
4.37500000000002
 21
18.81874999999995
 31
0.0
  0
LINE
  5
22E
330
22A
100
AcDbEntity
  8
치수문자_일반주서
 62
     0
370
    -2
100
AcDbLine
 10
18.12250000000004
 20
6.118750000000013
 30
0.0
 11
4.375000000000065
 21
6.118749999999963
 31
0.0
  0
LINE
  5
22F
330
22A
100
AcDbEntity
  8
치수문자_일반주서
 62
     0
370
    -2
100
AcDbLine
 10
4.375000000000032
 20
15.51674999999995
 30
0.0
 11
4.375000000000053
 21
9.420749999999963
 31
0.0
  0
SOLID
  5
230
330
22A
100
AcDbEntity
  8
치수문자_일반주서
 62
     0
100
AcDbTrace
 10
4.925333333333366
 20
15.51674999999995
 30
0.0
 11
3.824666666666698
 21
15.51674999999995
 31
0.0
 12
4.37500000000002
 22
18.81874999999995
 32
0.0
 13
4.37500000000002
 23
18.81874999999995
 33
0.0
  0
SOLID
  5
231
330
22A
100
AcDbEntity
  8
치수문자_일반주서
 62
     0
100
AcDbTrace
 10
3.82466666666672
 20
9.42074999999996
 30
0.0
 11
4.925333333333387
 21
9.420749999999964
 31
0.0
 12
4.375000000000065
 22
6.118749999999963
 32
0.0
 13
4.375000000000065
 23
6.118749999999963
 33
0.0
  0
MTEXT
  5
232
330
22A
100
AcDbEntity
  8
치수문자_일반주서
 62
     0
100
AcDbMText
 10
0.0000000000000426
 20
12.46874999999999
 30
0.0
 40
3.5
 41
0.0
 71
     2
 72
     1
  1
\A1;%%c12.70 [1/2]
  7
SLDTEXTSTYLE0
 11
-3.496765431890259E-15
 21
1.0
 31
0.0
 73
     1
 44
1.0
  0
POINT
  5
233
330
22A
100
AcDbEntity
  8
Defpoints
 62
     0
100
AcDbPoint
 10
18.18500000000004
 20
18.81875
 30
0.0
  0
POINT
  5
234
330
22A
100
AcDbEntity
  8
Defpoints
 62
     0
100
AcDbPoint
 10
18.18500000000004
 20
6.118750000000013
 30
0.0
  0
POINT
  5
235
330
22A
100
AcDbEntity
  8
Defpoints
 62
     0
100
AcDbPoint
 10
4.375000000000064
 20
6.118749999999961
 30
0.0
  0
ENDBLK
  5
22C
330
22A
100
AcDbEntity
  8
0
100
AcDbBlockEnd
  0
BLOCK
  5
237
330
236
100
AcDbEntity
  8
0
100
AcDbBlockBegin
  2
*D10
 70
     1
 10
0.0
 20
0.0
 30
0.0
  3
*D10
  1

  0
LINE
  5
239
330
236
100
AcDbEntity
  8
치수문자_일반주서
 62
     0
370
    -2
100
AcDbLine
 10
118.7850000000001
 20
18.87588307670826
 30
0.0
 11
118.7850000000001
 21
39.05000059020875
 31
0.0
  0
LINE
  5
23A
330
236
100
AcDbEntity
  8
치수문자_일반주서
 62
     0
370
    -2
100
AcDbLine
 10
67.98500000000006
 20
17.55722135175577
 30
0.0
 11
67.98500000000006
 21
39.05000059020875
 31
0.0
  0
LINE
  5
23B
330
236
100
AcDbEntity
  8
치수문자_일반주서
 62
     0
370
    -2
100
AcDbLine
 10
115.483
 20
39.05000059020875
 30
0.0
 11
71.28700000000006
 21
39.05000059020875
 31
0.0
  0
SOLID
  5
23C
330
236
100
AcDbEntity
  8
치수문자_일반주서
 62
     0
100
AcDbTrace
 10
115.483
 20
38.49966725687542
 30
0.0
 11
115.483
 21
39.60033392354209
 31
0.0
 12
118.7850000000001
 22
39.05000059020875
 32
0.0
 13
118.7850000000001
 23
39.05000059020875
 33
0.0
  0
SOLID
  5
23D
330
236
100
AcDbEntity
  8
치수문자_일반주서
 62
     0
100
AcDbTrace
 10
71.28700000000006
 20
39.60033392354209
 30
0.0
 11
71.28700000000006
 21
38.49966725687542
 31
0.0
 12
67.98500000000006
 22
39.05000059020875
 32
0.0
 13
67.98500000000006
 23
39.05000059020875
 33
0.0
  0
MTEXT
  5
23E
330
236
100
AcDbEntity
  8
치수문자_일반주서
 62
     0
100
AcDbMText
 10
93.38500000000005
 20
43.42500059020875
 30
0.0
 40
3.5
 41
0.0
 71
     2
 72
     1
  1
\A1;50.8 [2]
  7
SLDTEXTSTYLE0
 73
     1
 44
1.0
  0
POINT
  5
23F
330
236
100
AcDbEntity
  8
Defpoints
 62
     0
100
AcDbPoint
 10
118.7850000000001
 20
18.81338307670826
 30
0.0
  0
POINT
  5
240
330
236
100
AcDbEntity
  8
Defpoints
 62
     0
100
AcDbPoint
 10
67.98500000000006
 20
17.49472135175577
 30
0.0
  0
POINT
  5
241
330
236
100
AcDbEntity
  8
Defpoints
 62
     0
100
AcDbPoint
 10
67.98500000000006
 20
39.05000059020875
 30
0.0
  0
ENDBLK
  5
238
330
236
100
AcDbEntity
  8
0
100
AcDbBlockEnd
  0
BLOCK
  5
243
330
242
100
AcDbEntity
  8
0
100
AcDbBlockBegin
  2
*D11
 70
     1
 10
0.0
 20
0.0
 30
0.0
  3
*D11
  1

  0
LINE
  5
245
330
242
100
AcDbEntity
  8
치수문자_일반주서
 62
     0
370
    -2
100
AcDbLine
 10
118.8475000000001
 20
18.81338307670826
 30
0.0
 11
138.9943537150439
 21
18.81338307670833
 31
0.0
  0
LINE
  5
246
330
242
100
AcDbEntity
  8
치수문자_일반주서
 62
     0
370
    -2
100
AcDbLine
 10
118.8475000000001
 20
6.124116923291762
 30
0.0
 11
138.994353715044
 21
6.12411692329184
 31
0.0
  0
LINE
  5
247
330
242
100
AcDbEntity
  8
치수문자_일반주서
 62
     0
370
    -2
100
AcDbLine
 10
138.9943537150439
 20
18.81338307670833
 30
0.0
 11
138.9943537150438
 21
49.24038307670833
 31
0.0
  0
LINE
  5
248
330
242
100
AcDbEntity
  8
치수문자_일반주서
 62
     0
370
    -2
100
AcDbLine
 10
138.9943537150439
 20
15.51138307670833
 30
0.0
 11
138.9943537150439
 21
9.42611692329184
 31
0.0
  0
SOLID
  5
249
330
242
100
AcDbEntity
  8
치수문자_일반주서
 62
     0
100
AcDbTrace
 10
139.5446870483773
 20
15.51138307670834
 30
0.0
 11
138.4440203817106
 21
15.51138307670833
 31
0.0
 12
138.9943537150439
 22
18.81338307670833
 32
0.0
 13
138.9943537150439
 23
18.81338307670833
 33
0.0
  0
SOLID
  5
24A
330
242
100
AcDbEntity
  8
치수문자_일반주서
 62
     0
100
AcDbTrace
 10
138.4440203817106
 20
9.426116923291838
 30
0.0
 11
139.5446870483773
 21
9.426116923291842
 31
0.0
 12
138.994353715044
 22
6.12411692329184
 32
0.0
 13
138.994353715044
 23
6.12411692329184
 33
0.0
  0
MTEXT
  5
24B
330
242
100
AcDbEntity
  8
치수문자_일반주서
 62
     0
100
AcDbMText
 10
134.6193537150438
 20
35.67788307670831
 30
0.0
 40
3.5
 41
0.0
 71
     2
 72
     1
  1
\A1;%%c12.69 [1/2]
  7
SLDTEXTSTYLE0
 11
-4.479645881294981E-15
 21
1.0
 31
0.0
 73
     1
 44
1.0
  0
POINT
  5
24C
330
242
100
AcDbEntity
  8
Defpoints
 62
     0
100
AcDbPoint
 10
118.7850000000001
 20
18.81338307670826
 30
0.0
  0
POINT
  5
24D
330
242
100
AcDbEntity
  8
Defpoints
 62
     0
100
AcDbPoint
 10
118.7850000000001
 20
6.124116923291762
 30
0.0
  0
POINT
  5
24E
330
242
100
AcDbEntity
  8
Defpoints
 62
     0
100
AcDbPoint
 10
138.9943537150439
 20
6.124116923291838
 30
0.0
  0
ENDBLK
  5
244
330
242
100
AcDbEntity
  8
0
100
AcDbBlockEnd
  0
BLOCK
  5
2A1
330
2A0
100
AcDbEntity
  8
0
100
AcDbBlockBegin
  2
*D12
 70
     1
 10
0.0
 20
0.0
 30
0.0
  3
*D12
  1

  0
LINE
  5
2A3
330
2A0
100
AcDbEntity
  8
치수문자_일반주서
 62
     0
370
    -2
100
AcDbLine
 10
204.2305502678415
 20
-44.20020215331872
 30
0.0
 11
204.2305502678415
 21
-8.67251869167277
 31
0.0
  0
LINE
  5
2A4
330
2A0
100
AcDbEntity
  8
치수문자_일반주서
 62
     0
370
    -2
100
AcDbLine
 10
102.6305502678415
 20
-45.19483523002698
 30
0.0
 11
102.6305502678415
 21
-8.67251869167277
 31
0.0
  0
LINE
  5
2A5
330
2A0
100
AcDbEntity
  8
치수문자_일반주서
 62
     0
370
    -2
100
AcDbLine
 10
200.9285502678415
 20
-8.67251869167277
 30
0.0
 11
105.9325502678415
 21
-8.67251869167277
 31
0.0
  0
SOLID
  5
2A6
330
2A0
100
AcDbEntity
  8
치수문자_일반주서
 62
     0
100
AcDbTrace
 10
200.9285502678415
 20
-9.222852025006103
 30
0.0
 11
200.9285502678415
 21
-8.122185358339438
 31
0.0
 12
204.2305502678415
 22
-8.67251869167277
 32
0.0
 13
204.2305502678415
 23
-8.67251869167277
 33
0.0
  0
SOLID
  5
2A7
330
2A0
100
AcDbEntity
  8
치수문자_일반주서
 62
     0
100
AcDbTrace
 10
105.9325502678415
 20
-8.122185358339438
 30
0.0
 11
105.9325502678415
 21
-9.222852025006103
 31
0.0
 12
102.6305502678415
 22
-8.67251869167277
 32
0.0
 13
102.6305502678415
 23
-8.67251869167277
 33
0.0
  0
MTEXT
  5
2A8
330
2A0
100
AcDbEntity
  8
치수문자_일반주서
 62
     0
100
AcDbMText
 10
153.4305502678415
 20
-4.297518691672771
 30
0.0
 40
3.5
 41
0.0
 71
     2
 72
     1
  1
\A1;101.6 [4]
  7
SLDTEXTSTYLE0
 73
     1
 44
1.0
  0
POINT
  5
2A9
330
2A0
100
AcDbEntity
  8
Defpoints
 62
     0
100
AcDbPoint
 10
204.2305502678415
 20
-44.26270215331872
 30
0.0
  0
POINT
  5
2AA
330
2A0
100
AcDbEntity
  8
Defpoints
 62
     0
100
AcDbPoint
 10
102.6305502678415
 20
-45.25733523002698
 30
0.0
  0
POINT
  5
2AB
330
2A0
100
AcDbEntity
  8
Defpoints
 62
     0
100
AcDbPoint
 10
102.6305502678415
 20
-8.67251869167277
 30
0.0
  0
ENDBLK
  5
2A2
330
2A0
100
AcDbEntity
  8
0
100
AcDbBlockEnd
  0
BLOCK
  5
2AD
330
2AC
100
AcDbEntity
  8
0
100
AcDbBlockBegin
  2
*D13
 70
     1
 10
0.0
 20
0.0
 30
0.0
  3
*D13
  1

  0
LINE
  5
2AF
330
2AC
100
AcDbEntity
  8
치수문자_일반주서
 62
     0
370
    -2
100
AcDbLine
 10
103.5680502678415
 20
-44.25733523002697
 30
0.0
 11
89.82055026784145
 21
-44.25733523002702
 31
0.0
  0
LINE
  5
2B0
330
2AC
100
AcDbEntity
  8
치수문자_일반주서
 62
     0
370
    -2
100
AcDbLine
 10
103.5680502678415
 20
-56.95733523002696
 30
0.0
 11
89.8205502678415
 21
-56.95733523002701
 31
0.0
  0
LINE
  5
2B1
330
2AC
100
AcDbEntity
  8
치수문자_일반주서
 62
     0
370
    -2
100
AcDbLine
 10
89.82055026784147
 20
-47.55933523002702
 30
0.0
 11
89.82055026784148
 21
-53.65533523002701
 31
0.0
  0
SOLID
  5
2B2
330
2AC
100
AcDbEntity
  8
치수문자_일반주서
 62
     0
100
AcDbTrace
 10
90.3708836011748
 20
-47.55933523002702
 30
0.0
 11
89.27021693450814
 21
-47.55933523002702
 31
0.0
 12
89.82055026784145
 22
-44.25733523002702
 32
0.0
 13
89.82055026784145
 23
-44.25733523002702
 33
0.0
  0
SOLID
  5
2B3
330
2AC
100
AcDbEntity
  8
치수문자_일반주서
 62
     0
100
AcDbTrace
 10
89.27021693450816
 20
-53.65533523002701
 30
0.0
 11
90.37088360117481
 21
-53.65533523002701
 31
0.0
 12
89.8205502678415
 22
-56.95733523002701
 32
0.0
 13
89.8205502678415
 23
-56.95733523002701
 33
0.0
  0
MTEXT
  5
2B4
330
2AC
100
AcDbEntity
  8
치수문자_일반주서
 62
     0
100
AcDbMText
 10
85.44555026784147
 20
-50.60733523002699
 30
0.0
 40
3.5
 41
0.0
 71
     2
 72
     1
  1
\A1;%%c12.70 [1/2]
  7
SLDTEXTSTYLE0
 11
-3.356894814614650E-15
 21
1.0
 31
0.0
 73
     1
 44
1.0
  0
POINT
  5
2B5
330
2AC
100
AcDbEntity
  8
Defpoints
 62
     0
100
AcDbPoint
 10
103.6305502678415
 20
-44.25733523002697
 30
0.0
  0
POINT
  5
2B6
330
2AC
100
AcDbEntity
  8
Defpoints
 62
     0
100
AcDbPoint
 10
103.6305502678415
 20
-56.95733523002696
 30
0.0
  0
POINT
  5
2B7
330
2AC
100
AcDbEntity
  8
Defpoints
 62
     0
100
AcDbPoint
 10
89.8205502678415
 20
-56.95733523002701
 30
0.0
  0
ENDBLK
  5
2AE
330
2AC
100
AcDbEntity
  8
0
100
AcDbBlockEnd
  0
BLOCK
  5
2B9
330
2B8
100
AcDbEntity
  8
0
100
AcDbBlockBegin
  2
*D14
 70
     1
 10
0.0
 20
0.0
 30
0.0
  3
*D14
  1

  0
LINE
  5
2BB
330
2B8
100
AcDbEntity
  8
치수문자_일반주서
 62
     0
370
    -2
100
AcDbLine
 10
204.2305502678415
 20
-44.20020215331872
 30
0.0
 11
204.2305502678415
 21
-24.02608463981822
 31
0.0
  0
LINE
  5
2BC
330
2B8
100
AcDbEntity
  8
치수문자_일반주서
 62
     0
370
    -2
100
AcDbLine
 10
153.4305502678415
 20
-45.5188638782712
 30
0.0
 11
153.4305502678415
 21
-24.02608463981822
 31
0.0
  0
LINE
  5
2BD
330
2B8
100
AcDbEntity
  8
치수문자_일반주서
 62
     0
370
    -2
100
AcDbLine
 10
200.9285502678415
 20
-24.02608463981822
 30
0.0
 11
156.7325502678415
 21
-24.02608463981822
 31
0.0
  0
SOLID
  5
2BE
330
2B8
100
AcDbEntity
  8
치수문자_일반주서
 62
     0
100
AcDbTrace
 10
200.9285502678415
 20
-24.57641797315156
 30
0.0
 11
200.9285502678415
 21
-23.47575130648489
 31
0.0
 12
204.2305502678415
 22
-24.02608463981822
 32
0.0
 13
204.2305502678415
 23
-24.02608463981822
 33
0.0
  0
SOLID
  5
2BF
330
2B8
100
AcDbEntity
  8
치수문자_일반주서
 62
     0
100
AcDbTrace
 10
156.7325502678415
 20
-23.47575130648489
 30
0.0
 11
156.7325502678415
 21
-24.57641797315156
 31
0.0
 12
153.4305502678415
 22
-24.02608463981822
 32
0.0
 13
153.4305502678415
 23
-24.02608463981822
 33
0.0
  0
MTEXT
  5
2C0
330
2B8
100
AcDbEntity
  8
치수문자_일반주서
 62
     0
100
AcDbMText
 10
178.8305502678415
 20
-19.65108463981822
 30
0.0
 40
3.5
 41
0.0
 71
     2
 72
     1
  1
\A1;50.8 [2]
  7
SLDTEXTSTYLE0
 73
     1
 44
1.0
  0
POINT
  5
2C1
330
2B8
100
AcDbEntity
  8
Defpoints
 62
     0
100
AcDbPoint
 10
204.2305502678415
 20
-44.26270215331872
 30
0.0
  0
POINT
  5
2C2
330
2B8
100
AcDbEntity
  8
Defpoints
 62
     0
100
AcDbPoint
 10
153.4305502678415
 20
-45.5813638782712
 30
0.0
  0
POINT
  5
2C3
330
2B8
100
AcDbEntity
  8
Defpoints
 62
     0
100
AcDbPoint
 10
153.4305502678415
 20
-24.02608463981822
 30
0.0
  0
ENDBLK
  5
2BA
330
2B8
100
AcDbEntity
  8
0
100
AcDbBlockEnd
  0
BLOCK
  5
2C5
330
2C4
100
AcDbEntity
  8
0
100
AcDbBlockBegin
  2
*D15
 70
     1
 10
0.0
 20
0.0
 30
0.0
  3
*D15
  1

  0
LINE
  5
2C7
330
2C4
100
AcDbEntity
  8
치수문자_일반주서
 62
     0
370
    -2
100
AcDbLine
 10
204.2930502678415
 20
-44.26270215331872
 30
0.0
 11
224.4399039828853
 21
-44.26270215331864
 31
0.0
  0
LINE
  5
2C8
330
2C4
100
AcDbEntity
  8
치수문자_일반주서
 62
     0
370
    -2
100
AcDbLine
 10
204.2930502678415
 20
-56.95196830673521
 30
0.0
 11
224.4399039828854
 21
-56.95196830673513
 31
0.0
  0
LINE
  5
2C9
330
2C4
100
AcDbEntity
  8
치수문자_일반주서
 62
     0
370
    -2
100
AcDbLine
 10
224.4399039828853
 20
-44.26270215331864
 30
0.0
 11
224.4399039828852
 21
-13.83570215331864
 31
0.0
  0
LINE
  5
2CA
330
2C4
100
AcDbEntity
  8
치수문자_일반주서
 62
     0
370
    -2
100
AcDbLine
 10
224.4399039828854
 20
-47.56470215331864
 30
0.0
 11
224.4399039828854
 21
-53.64996830673513
 31
0.0
  0
SOLID
  5
2CB
330
2C4
100
AcDbEntity
  8
치수문자_일반주서
 62
     0
100
AcDbTrace
 10
224.9902373162187
 20
-47.56470215331864
 30
0.0
 11
223.889570649552
 21
-47.56470215331864
 31
0.0
 12
224.4399039828853
 22
-44.26270215331864
 32
0.0
 13
224.4399039828853
 23
-44.26270215331864
 33
0.0
  0
SOLID
  5
2CC
330
2C4
100
AcDbEntity
  8
치수문자_일반주서
 62
     0
100
AcDbTrace
 10
223.889570649552
 20
-53.64996830673513
 30
0.0
 11
224.9902373162187
 21
-53.64996830673513
 31
0.0
 12
224.4399039828854
 22
-56.95196830673513
 32
0.0
 13
224.4399039828854
 23
-56.95196830673513
 33
0.0
  0
MTEXT
  5
2CD
330
2C4
100
AcDbEntity
  8
치수문자_일반주서
 62
     0
100
AcDbMText
 10
220.0649039828853
 20
-27.39820215331866
 30
0.0
 40
3.5
 41
0.0
 71
     2
 72
     1
  1
\A1;%%c12.69 [1/2]
  7
SLDTEXTSTYLE0
 11
-4.479645881294983E-15
 21
1.0
 31
0.0
 73
     1
 44
1.0
  0
POINT
  5
2CE
330
2C4
100
AcDbEntity
  8
Defpoints
 62
     0
100
AcDbPoint
 10
204.2305502678415
 20
-44.26270215331872
 30
0.0
  0
POINT
  5
2CF
330
2C4
100
AcDbEntity
  8
Defpoints
 62
     0
100
AcDbPoint
 10
204.2305502678415
 20
-56.95196830673521
 30
0.0
  0
POINT
  5
2D0
330
2C4
100
AcDbEntity
  8
Defpoints
 62
     0
100
AcDbPoint
 10
224.4399039828854
 20
-56.95196830673513
 30
0.0
  0
ENDBLK
  5
2C6
330
2C4
100
AcDbEntity
  8
0
100
AcDbBlockEnd
  0
ENDSEC
  0
SECTION
  2
ENTITIES
  0
LINE
  5
99
330
1F
100
AcDbEntity
  8
0
  6
Continuous
 62
     4
370
    25
100
AcDbLine
 10
7.970244782175256
 20
6.351074928723893
 30
0.0
 11
-11.06612499999999
 21
6.351074928723892
 31
0.0
  0
LINE
  5
9A
330
1F
100
AcDbEntity
  8
0
  6
Continuous
 62
     4
370
    25
100
AcDbLine
 10
-39.8
 20
-6.348925071276109
 30
0.0
 11
7.970244782175256
 21
-6.348925071276106
 31
0.0
  0
LINE
  5
9B
330
1F
100
AcDbEntity
  8
0
  6
Continuous
 62
     4
370
    25
100
AcDbLine
 10
-39.8
 20
6.351074928723887
 30
0.0
 11
-40.8
 21
5.351074928723885
 31
0.0
  0
LINE
  5
9C
330
1F
100
AcDbEntity
  8
0
  6
Continuous
 62
     4
370
    25
100
AcDbLine
 10
-40.8
 20
-5.348925071276105
 30
0.0
 11
-39.8
 21
-6.348925071276105
 31
0.0
  0
SPLINE
  5
9D
330
1F
100
AcDbEntity
  8
0
  6
Continuous
 62
     4
370
    25
100
AcDbSpline
210
0.0
220
0.0
230
1.0
 70
     8
 71
     3
 72
     9
 73
     5
 74
     0
 42
0.000000001
 43
0.00000001
 40
0.0
 40
0.0
 40
0.0
 40
0.0
 40
0.5606797337524386
 40
1.0
 40
1.0
 40
1.0
 40
1.0
 10
9.999999999999995
 20
4.975183731568435
 30
0.0
 10
9.643983525640847
 20
4.965808355363846
 30
0.0
 10
9.009010558138613
 20
4.949086908804964
 30
0.0
 10
8.38264861620228
 20
4.980412100009018
 30
0.0
 10
8.107475121103471
 20
4.994173891349039
 30
0.0
  0
SPLINE
  5
9E
330
1F
100
AcDbEntity
  8
0
  6
Continuous
 62
     4
370
    25
100
AcDbSpline
210
0.0
220
0.0
230
1.0
 70
     8
 71
     3
 72
     9
 73
     5
 74
     0
 42
0.000000001
 43
0.00000001
 40
0.0
 40
0.0
 40
0.0
 40
0.0
 40
0.4389005882174457
 40
1.0
 40
1.0
 40
1.0
 40
1.0
 10
7.958033717406776
 20
-4.998022944524065
 30
0.0
 10
8.25432114725509
 20
-4.982492629804316
 30
0.0
 10
8.929388435388967
 20
-4.947108045830931
 30
0.0
 10
9.615194577221116
 20
-4.963695242061272
 30
0.0
 10
9.999999999999996
 20
-4.973002308109238
 30
0.0
  0
SPLINE
  5
9F
330
1F
100
AcDbEntity
  8
0
  6
Continuous
 62
     1
370
    25
100
AcDbSpline
210
0.0
220
0.0
230
1.0
 70
     8
 71
     3
 72
     9
 73
     5
 74
     0
 42
0.000000001
 43
0.00000001
 40
0.0
 40
0.0
 40
0.0
 40
0.0
 40
0.4370410677182227
 40
1.0
 40
1.0
 40
1.0
 40
1.0
 10
12.3018514159149
 20
1.628225900774384
 30
0.0
 10
12.15399539687667
 20
1.750224494149522
 30
0.0
 10
11.81568389720416
 20
2.029371243474678
 30
0.0
 10
11.47743500633083
 20
2.336129737356061
 30
0.0
 10
11.28701477187928
 20
2.508822171539891
 30
0.0
  0
SPLINE
  5
A0
330
1F
100
AcDbEntity
  8
0
  6
Continuous
 62
     1
370
    25
100
AcDbSpline
210
0.0
220
0.0
230
1.0
 70
     8
 71
     3
 72
     9
 73
     5
 74
     0
 42
0.000000001
 43
0.00000001
 40
0.0
 40
0.0
 40
0.0
 40
0.0
 40
0.4370433171496724
 40
1.0
 40
1.0
 40
1.0
 40
1.0
 10
32.2509259098016
 20
1.628257351399174
 30
0.0
 10
32.10302909600048
 20
1.750291192194422
 30
0.0
 10
31.76462599498597
 20
2.029517154488349
 30
0.0
 10
31.42629273545085
 20
2.336360138206561
 30
0.0
 10
31.23582576596501
 20
2.509099446476462
 30
0.0
  0
LINE
  5
A1
330
1F
100
AcDbEntity
  8
0
  6
Continuous
 62
     1
370
    25
100
AcDbLine
 10
23.8378956720513
 20
6.351074928723897
 30
0.0
 11
22.06225430583855
 21
6.351074928723897
 31
0.0
  0
LINE
  5
A2
330
1F
100
AcDbEntity
  8
0
  6
Continuous
 62
     1
370
    25
100
AcDbLine
 10
22.06225430583855
 20
-6.34892507127611
 30
0.0
 11
23.83789567205129
 21
-6.34892507127611
 31
0.0
  0
SPLINE
  5
A3
330
1F
100
AcDbEntity
  8
0
  6
Continuous
 62
     1
370
    25
100
AcDbSpline
210
0.0
220
0.0
230
1.0
 70
     8
 71
     3
 72
    20
 73
    16
 74
     0
 42
0.000000001
 43
0.00000001
 40
0.0
 40
0.0
 40
0.0
 40
0.0
 40
0.099492479200522
 40
0.1645695543263457
 40
0.2107796460388542
 40
0.2566913333798531
 40
0.3649984971038828
 40
0.4996599803115011
 40
0.6010876395449339
 40
0.6928656941366912
 40
0.7673864211766609
 40
0.8085833094388194
 40
0.8504406952935507
 40
0.912186958039065
 40
1.0
 40
1.0
 40
1.0
 40
1.0
 10
25.52492194686019
 20
-5.283010076484008
 30
0.0
 10
25.70763932004011
 20
-5.252586420391704
 30
0.0
 10
26.00987037221137
 20
-5.202262943036216
 30
0.0
 10
26.3970266044121
 20
-5.147931714174245
 30
0.0
 10
26.68735775842369
 20
-5.110735371464139
 30
0.0
 10
27.05567323748913
 20
-5.067848135078061
 30
0.0
 10
27.5869087033277
 20
-5.017174647664577
 30
0.0
 10
28.22011163641592
 20
-4.97723194087904
 30
0.0
 10
28.82172868520921
 20
-4.95862790877493
 30
0.0
 10
29.31416489696496
 20
-4.956688538319366
 30
0.0
 10
29.69561581717263
 20
-4.963906182843082
 30
0.0
 10
29.98620996484164
 20
-4.974050545853002
 30
0.0
 10
30.25437425869699
 20
-4.986653891901277
 30
0.0
 10
30.60495605821539
 20
-5.007591507608369
 30
0.0
 10
30.87910145975278
 20
-5.03108127523898
 30
0.0
 10
31.04006464218968
 20
-5.044873181764943
 30
0.0
  0
SPLINE
  5
A4
330
1F
100
AcDbEntity
  8
0
  6
Continuous
 62
     1
370
    25
100
AcDbSpline
210
0.0
220
0.0
230
1.0
 70
     8
 71
     3
 72
    10
 73
     6
 74
     0
 42
0.000000001
 43
0.00000001
 40
0.0
 40
0.0
 40
0.0
 40
0.0
 40
0.4886332227307231
 40
0.8342100470466302
 40
1.0
 40
1.0
 40
1.0
 40
1.0
 10
11.0909932203664
 20
5.047026905727925
 30
0.0
 10
10.91177258835704
 20
5.03185679748354
 30
0.0
 10
10.60580147361225
 20
5.005957910294641
 30
0.0
 10
10.24225086169323
 20
4.98513326084706
 30
0.0
 10
10.05893852387149
 20
4.977823831687034
 30
0.0
 10
9.999506927580603
 20
4.975454045517059
 30
0.0
  0
SPLINE
  5
A5
330
1F
100
AcDbEntity
  8
0
  6
Continuous
 62
     1
370
    25
100
AcDbSpline
210
0.0
220
0.0
230
1.0
 70
     8
 71
     3
 72
    10
 73
     6
 74
     0
 42
0.000000001
 43
0.00000001
 40
0.0
 40
0.0
 40
0.0
 40
0.0
 40
0.1657930042555766
 40
0.5113685645501163
 40
1.0
 40
1.0
 40
1.0
 40
1.0
 10
9.999502987947023
 20
-4.973304023474994
 30
0.0
 10
10.058935894136
 20
-4.975673860246573
 30
0.0
 10
10.24224953913183
 20
-4.982983336503073
 30
0.0
 10
10.60580147020559
 20
-5.0038080484633
 30
0.0
 10
10.91177258709868
 20
-5.029706938416552
 30
0.0
 10
11.0909932203664
 20
-5.044877048280139
 30
0.0
  0
SPLINE
  5
A6
330
1F
100
AcDbEntity
  8
0
  6
Continuous
 62
     1
370
    25
100
AcDbSpline
210
0.0
220
0.0
230
1.0
 70
     8
 71
     3
 72
    15
 73
    11
 74
     0
 42
0.000000001
 43
0.00000001
 40
0.0
 40
0.0
 40
0.0
 40
0.0
 40
0.165437173367928
 40
0.280728175744848
 40
0.3592745549063894
 40
0.4371753106797171
 40
0.5172782094737619
 40
0.7076022223357109
 40
0.9282826087426983
 40
1.0
 40
1.0
 40
1.0
 40
1.0
 10
31.04006464218968
 20
5.047023039212733
 30
0.0
 10
30.87662336984005
 20
5.033034295499117
 30
0.0
 10
30.5992820124289
 20
5.009296979249455
 30
0.0
 10
30.2445416929782
 20
4.988261751398489
 30
0.0
 10
29.97326292889482
 20
4.975658801670705
 30
0.0
 10
29.73816930135696
 20
4.967638090186631
 30
0.0
 10
29.39290575056634
 20
4.9598268063751
 30
0.0
 10
28.90590548366514
 20
4.95930644614808
 30
0.0
 10
28.42853888681195
 20
4.970573715329517
 30
0.0
 10
28.13886944623866
 20
4.987978726588715
 30
0.0
 10
28.06782124344168
 20
4.992247712530689
 30
0.0
  0
SPLINE
  5
A7
330
1F
100
AcDbEntity
  8
0
  6
Continuous
 62
     1
370
    25
100
AcDbSpline
210
0.0
220
0.0
230
1.0
 70
     8
 71
     3
 72
    15
 73
    11
 74
     0
 42
0.000000001
 43
0.00000001
 40
0.0
 40
0.0
 40
0.0
 40
0.0
 40
0.181584929229734
 40
0.3102351176676564
 40
0.4031953333369039
 40
0.5160555927117698
 40
0.6501933467469644
 40
0.8259828347937352
 40
0.9883602471716125
 40
1.0
 40
1.0
 40
1.0
 40
1.0
 10
33.98248803301647
 20
-4.774967434012509
 30
0.0
 10
34.14427091292163
 20
-4.732172181648593
 30
0.0
 10
34.42067452745555
 20
-4.659057137305131
 30
0.0
 10
34.78506276444839
 20
-4.573854507551053
 30
0.0
 10
35.09997419387489
 20
-4.505356314149052
 30
0.0
 10
35.41199566003185
 20
-4.443077820644528
 30
0.0
 10
35.79654691922214
 20
-4.374697445906725
 30
0.0
 10
36.22729661599522
 20
-4.311020824586049
 30
0.0
 10
36.54777129146497
 20
-4.270176676607092
 30
0.0
 10
36.70513536394343
 20
-4.255680654201386
 30
0.0
 10
36.71566121583596
 20
-4.254711036534088
 30
0.0
  0
SPLINE
  5
A8
330
1F
100
AcDbEntity
  8
0
  6
Continuous
 62
     1
370
    25
100
AcDbSpline
210
0.0
220
0.0
230
1.0
 70
     8
 71
     3
 72
    23
 73
    19
 74
     0
 42
0.000000001
 43
0.00000001
 40
0.0
 40
0.0
 40
0.0
 40
0.0
 40
0.0688232066528613
 40
0.1212771004029409
 40
0.1602903381877925
 40
0.2037517377026311
 40
0.2546355620646863
 40
0.3066241791319196
 40
0.3835790849156641
 40
0.4495836225378431
 40
0.5057866119791593
 40
0.5777483165515901
 40
0.6624028697531478
 40
0.7627973295205726
 40
0.8199022216255669
 40
0.8690072532401534
 40
0.9259682151774355
 40
0.9999999999999999
 40
0.9999999999999999
 40
0.9999999999999999
 40
0.9999999999999999
 10
20.43737064709512
 20
4.344127817566048
 30
0.0
 10
20.2964421891308
 20
4.324115780205685
 30
0.0
 10
20.04810451965285
 20
4.288851485177092
 30
0.0
 10
19.71087130394634
 20
4.251992475670535
 30
0.0
 10
19.40872683145683
 20
4.225141189683487
 30
0.0
 10
19.11702863802172
 20
4.204622211347408
 30
0.0
 10
18.80326761041489
 20
4.189068535006939
 30
0.0
 10
18.42044132999644
 20
4.178747784168599
 30
0.0
 10
18.00457795499029
 20
4.179566177452944
 30
0.0
 10
17.57899440936027
 20
4.193893640527593
 30
0.0
 10
17.16364042964524
 20
4.21905423487145
 30
0.0
 10
16.70975964639968
 20
4.259648344105714
 30
0.0
 10
16.16120615571155
 20
4.327211071416174
 30
0.0
 10
15.6454408659976
 20
4.410323475853093
 30
0.0
 10
15.20012255369721
 20
4.496893344144095
 30
0.0
 10
14.83394836030116
 20
4.576013858786181
 30
0.0
 10
14.44648872119593
 20
4.667255794502769
 30
0.0
 10
14.18242614048846
 20
4.737480014551874
 30
0.0
 10
14.03318868545237
 20
4.777167894045987
 30
0.0
  0
SPLINE
  5
A9
330
1F
100
AcDbEntity
  8
0
  6
Continuous
 62
     1
370
    25
100
AcDbSpline
210
0.0
220
0.0
230
1.0
 70
     8
 71
     3
 72
    13
 73
     9
 74
     0
 42
0.000000001
 43
0.00000001
 40
0.0
 40
0.0
 40
0.0
 40
0.0
 40
0.2171473776345834
 40
0.3731363354847886
 40
0.5399922665464019
 40
0.7239625235688946
 40
0.8872424427341732
 40
1.0
 40
1.0
 40
1.0
 40
1.0
 10
14.03318868545237
 20
-4.775018036598198
 30
0.0
 10
14.21992119487948
 20
-4.725583245553498
 30
0.0
 10
14.54079398202758
 20
-4.640636713033467
 30
0.0
 10
15.05625352461275
 20
-4.524287211728132
 30
0.0
 10
15.52853324051888
 20
-4.429393745645144
 30
0.0
 10
15.99559395378713
 20
-4.351214187389036
 30
0.0
 10
16.41589420929048
 20
-4.29224581475083
 30
0.0
 10
16.66733224143525
 20
-4.265669997208977
 30
0.0
 10
16.77004126006173
 20
-4.254814136957298
 30
0.0
  0
SPLINE
  5
AA
330
1F
100
AcDbEntity
  8
0
  6
Continuous
 62
     1
370
    25
100
AcDbSpline
210
0.0
220
0.0
230
1.0
 70
     8
 71
     3
 72
    26
 73
    22
 74
     0
 42
0.000000001
 43
0.00000001
 40
0.0
 40
0.0
 40
0.0
 40
0.0
 40
0.0705703892467664
 40
0.1275762343497411
 40
0.1811449851940673
 40
0.2134524567768698
 40
0.2423527306188774
 40
0.2709608975362588
 40
0.2999950957285367
 40
0.3321384226626976
 40
0.4208159560786338
 40
0.5194120292205137
 40
0.5939105069905141
 40
0.6552540978093687
 40
0.7139303381167185
 40
0.7413738849489577
 40
0.7672347128154717
 40
0.799341012136587
 40
0.8487032991045531
 40
0.9156593190971192
 40
1.0
 40
1.0
 40
1.0
 40
1.0
 10
40.38659703138767
 20
4.344144676598408
 30
0.0
 10
40.23282548788354
 20
4.322466014392042
 30
0.0
 10
39.95483928602475
 20
4.283275610037641
 30
0.0
 10
39.56441814913024
 20
4.242470720666032
 30
0.0
 10
39.25754915799057
 20
4.217403480056048
 30
0.0
 10
39.02112900700583
 20
4.202644249008793
 30
0.0
 10
38.83411253860472
 20
4.193288301693412
 30
0.0
 10
38.65125743434611
 20
4.186409965148672
 30
0.0
 10
38.45924402911512
 20
4.181630569808818
 30
0.0
 10
38.13990961798903
 20
4.178078644319104
 30
0.0
 10
37.67129888717696
 20
4.18554174329566
 30
0.0
 10
37.11213696538162
 20
4.217467876232914
 30
0.0
 10
36.61278874069932
 20
4.265381188949675
 30
0.0
 10
36.19704137127534
 20
4.317229623950442
 30
0.0
 10
35.8815311846279
 20
4.364464850554901
 30
0.0
 10
35.64283543620713
 20
4.404466667818435
 30
0.0
 10
35.46159273845817
 20
4.436848556643748
 30
0.0
 10
35.23415845191741
 20
4.480176150032165
 30
0.0
 10
34.91885063435539
 20
4.545877311504979
 30
0.0
 10
34.48995338736268
 20
4.643474665571129
 30
0.0
 10
34.16412293828296
 20
4.729283157592743
 30
0.0
 10
33.98248803301647
 20
4.777117291460297
 30
0.0
  0
LINE
  5
AB
330
1F
100
AcDbEntity
  8
0
  6
Continuous
 62
     4
370
    25
100
AcDbLine
 10
8.10769559228236
 20
-4.991878197259882
 30
0.0
 11
7.970407844121176
 21
-5.082690902095426
 31
0.0
  0
LINE
  5
AC
330
1F
100
AcDbEntity
  8
0
  6
Continuous
 62
     4
370
    25
100
AcDbLine
 10
7.970244782175256
 20
5.08500382534384
 30
0.0
 11
7.970244782175256
 21
6.351074928723893
 31
0.0
  0
SPLINE
  5
AD
330
1F
100
AcDbEntity
  8
0
  6
Continuous
 62
     4
370
    25
100
AcDbSpline
210
0.0
220
0.0
230
1.0
 70
     8
 71
     3
 72
    10
 73
     6
 74
     0
 42
0.000000001
 43
0.00000001
 40
0.0
 40
0.0
 40
0.0
 40
0.0
 40
0.5
 40
0.5
 40
1.0
 40
1.0
 40
1.0
 40
1.0
 10
9.999999999999991
 20
3.631770177995795
 30
0.0
 10
9.663065608368777
 20
3.908934663548308
 30
0.0
 10
9.321867620739974
 20
4.171747320490057
 30
0.0
 10
8.643935850953584
 20
4.658451103147575
 30
0.0
 10
8.309576550286181
 20
4.881962431800206
 30
0.0
 10
7.970407844121175
 20
5.084840759543212
 30
0.0
  0
LINE
  5
AE
330
1F
100
AcDbEntity
  8
0
  6
Continuous
 62
     4
370
    25
100
AcDbLine
 10
9.999999999999991
 20
3.631770177995795
 30
0.0
 11
9.999999999999991
 21
2.051749056239882
 31
0.0
  0
SPLINE
  5
AF
330
1F
100
AcDbEntity
  8
0
  6
Continuous
 62
     4
370
    25
100
AcDbSpline
210
0.0
220
0.0
230
1.0
 70
     8
 71
     3
 72
    10
 73
     6
 74
     0
 42
0.000000001
 43
0.00000001
 40
0.0
 40
0.0
 40
0.0
 40
0.0
 40
0.5
 40
0.5
 40
1.0
 40
1.0
 40
1.0
 40
1.0
 10
9.999999999999991
 20
2.051749056239882
 30
0.0
 10
9.663038610433961
 20
2.371506226594115
 30
0.0
 10
9.321812940948265
 20
2.683840043445316
 30
0.0
 10
8.643827566543571
 20
3.281631172467681
 30
0.0
 10
8.309441280427901
 20
3.566514095338976
 30
0.0
 10
7.970244782175254
 20
3.836380424615491
 30
0.0
  0
LINE
  5
B0
330
1F
100
AcDbEntity
  8
0
  6
Continuous
 62
     4
370
    25
100
AcDbLine
 10
7.970244782175256
 20
-6.348925071276106
 30
0.0
 11
7.970244782175254
 21
3.83637865514724
 31
0.0
  0
LINE
  5
B1
330
1F
100
AcDbEntity
  8
0
  6
Continuous
 62
     4
370
    25
100
AcDbLine
 10
-39.8
 20
6.351074928723887
 30
0.0
 11
-39.8
 21
-6.348925071276105
 31
0.0
  0
LINE
  5
B2
330
1F
100
AcDbEntity
  8
0
  6
Continuous
 62
     4
370
    25
100
AcDbLine
 10
-40.8
 20
5.351074928723885
 30
0.0
 11
-40.8
 21
-5.348925071276103
 31
0.0
  0
SPLINE
  5
B3
330
1F
100
AcDbEntity
  8
0
  6
Continuous
 62
     4
370
    25
100
AcDbSpline
210
0.0
220
0.0
230
1.0
 70
    24
 71
     3
 72
    11
 73
     7
 74
     0
 42
0.000000001
 43
0.00000001
 40
0.0
 40
0.0
 40
0.0
 40
0.0
 40
0.2589011417852308
 40
0.5504733405507004
 40
0.7732779865038971
 40
1.0
 40
1.0
 40
1.0
 40
1.0
 10
9.99999999999999
 20
1.987025889826211
 30
0.0
 10
9.99999999999999
 20
1.953983125273002
 30
0.0
 10
9.99999999999999
 20
1.883727888624704
 30
0.0
 10
9.999999999999988
 20
1.706617858101722
 30
0.0
 10
9.999999999999991
 20
1.497240079152815
 30
0.0
 10
9.99999999999999
 20
1.341140101657967
 30
0.0
 10
9.99999999999999
 20
1.262409951931843
 30
0.0
  0
SPLINE
  5
B4
330
1F
100
AcDbEntity
  8
0
  6
Continuous
 62
     4
370
    25
100
AcDbSpline
210
0.0
220
0.0
230
1.0
 70
     8
 71
     3
 72
     8
 73
     4
 74
     0
 42
0.000000001
 43
0.00000001
 40
0.0
 40
0.0
 40
0.0
 40
0.0
 40
1.0
 40
1.0
 40
1.0
 40
1.0
 10
9.99999999999185
 20
1.262409951937322
 30
0.0
 10
9.568790310925806
 20
1.552620854492633
 30
0.0
 10
9.130599530019763
 20
1.835511246659832
 30
0.0
 10
8.699037147365217
 20
2.102285457938394
 30
0.0
  0
SPLINE
  5
B5
330
1F
100
AcDbEntity
  8
0
  6
Continuous
 62
     4
370
    25
100
AcDbSpline
210
0.0
220
0.0
230
1.0
 70
     8
 71
     3
 72
    14
 73
    10
 74
     0
 42
0.000000001
 43
0.00000001
 40
0.0
 40
0.0
 40
0.0
 40
0.0
 40
0.25
 40
0.25
 40
0.5
 40
0.5
 40
0.75
 40
0.75
 40
1.0
 40
1.0
 40
1.0
 40
1.0
 10
7.970244782179479
 20
3.327492525259185
 30
0.0
 10
7.970244782178727
 20
3.238248899583414
 30
0.0
 10
8.000032495379505
 20
3.127660936410186
 30
0.0
 10
8.081654381212363
 20
2.905169334367781
 30
0.0
 10
8.135427067046079
 20
2.790059953735737
 30
0.0
 10
8.259684763795867
 20
2.568756297021338
 30
0.0
 10
8.330611199861504
 20
2.461066311700941
 30
0.0
 10
8.497250056834336
 20
2.260113830886417
 30
0.0
 10
8.591496578725497
 20
2.168762638370208
 30
0.0
 10
8.699037147365212
 20
2.102285457938396
 30
0.0
  0
SPLINE
  5
B6
330
1F
100
AcDbEntity
  8
0
  6
Continuous
 62
     4
370
    25
100
AcDbSpline
210
0.0
220
0.0
230
1.0
 70
     8
 71
     3
 72
    12
 73
     8
 74
     0
 42
0.000000001
 43
0.00000001
 40
0.0
 40
0.0
 40
0.0
 40
0.0
 40
0.25
 40
0.25
 40
0.5
 40
0.5
 40
1.0
 40
1.0
 40
1.0
 40
1.0
 10
8.437561758695422
 20
-4.372412668114831
 30
0.0
 10
8.33750874218225
 20
-4.331510436018359
 30
0.0
 10
8.269308790372436
 20
-4.28025627810308
 30
0.0
 10
8.155355881137773
 20
-4.170476145267004
 30
0.0
 10
8.112568930048665
 20
-4.112785408010708
 30
0.0
 10
8.008414378189325
 20
-3.93468435841656
 30
0.0
 10
7.970244782175087
 20
-3.80827074535363
 30
0.0
 10
7.970244782175072
 20
-3.68926914380412
 30
0.0
  0
SPLINE
  5
B7
330
1F
100
AcDbEntity
  8
0
  6
Continuous
 62
     4
370
    25
100
AcDbSpline
210
0.0
220
0.0
230
1.0
 70
     8
 71
     3
 72
     8
 73
     4
 74
     0
 42
0.000000001
 43
0.00000001
 40
0.0
 40
0.0
 40
0.0
 40
0.0
 40
1.0
 40
1.0
 40
1.0
 40
1.0
 10
9.999999999999996
 20
-4.870105989552992
 30
0.0
 10
9.481437813760206
 20
-4.752072255390278
 30
0.0
 10
8.954733869733424
 20
-4.583835516287674
 30
0.0
 10
8.437561758695416
 20
-4.372412668114827
 30
0.0
  0
SPLINE
  5
B8
330
1F
100
AcDbEntity
  8
0
  6
Continuous
 62
     4
370
    25
100
AcDbSpline
210
0.0
220
0.0
230
1.0
 70
    24
 71
     3
 72
    14
 73
    10
 74
     0
 42
0.000000001
 43
0.00000001
 40
0.0
 40
0.0
 40
0.0
 40
0.0
 40
0.25
 40
0.25
 40
0.4999999999999999
 40
0.4999999999999999
 40
0.75
 40
0.75
 40
1.0
 40
1.0
 40
1.0
 40
1.0
 10
9.999999999999991
 20
1.262409951931843
 30
0.0
 10
9.999999999999991
 20
0.701403651963689
 30
0.0
 10
9.999999999999991
 20
0.1173409863786524
 30
0.0
 10
9.999999999999991
 20
-1.044769575598782
 30
0.0
 10
9.999999999999991
 20
-1.622240829009441
 30
0.0
 10
9.999999999999991
 20
-2.712165719053508
 30
0.0
 10
9.999999999999991
 20
-3.224038598137683
 30
0.0
 10
9.999999999999991
 20
-4.136198158672577
 30
0.0
 10
9.999999999999991
 20
-4.536259266809811
 30
0.0
 10
9.999999999999991
 20
-4.870105989552993
 30
0.0
  0
SPLINE
  5
B9
330
1F
100
AcDbEntity
  8
0
  6
Continuous
 62
     4
370
    25
100
AcDbSpline
210
0.0
220
0.0
230
1.0
 70
    24
 71
     3
 72
    12
 73
     8
 74
     0
 42
0.000000001
 43
0.00000001
 40
0.0
 40
0.0
 40
0.0
 40
0.0
 40
0.0921093429725431
 40
0.3635276828759167
 40
0.6428171730236734
 40
0.8872309410879222
 40
1.0
 40
1.0
 40
1.0
 40
1.0
 10
9.99999999999999
 20
4.963757599455946
 30
0.0
 10
9.99999999999999
 20
4.965810698272023
 30
0.0
 10
9.99999999999999
 20
4.973913657551046
 30
0.0
 10
9.99999999999999
 20
4.829298125944264
 30
0.0
 10
9.999999999999991
 20
4.483619714461332
 30
0.0
 10
9.99999999999999
 20
4.089960256697474
 30
0.0
 10
9.99999999999999
 20
3.785554704422923
 30
0.0
 10
9.99999999999999
 20
3.689448382771888
 30
0.0
  0
SPLINE
  5
BA
330
1F
100
AcDbEntity
  8
0
  6
Continuous
 62
     4
370
    25
100
AcDbSpline
210
0.0
220
0.0
230
1.0
 70
    24
 71
     3
 72
     9
 73
     5
 74
     0
 42
0.000000001
 43
0.00000001
 40
0.0
 40
0.0
 40
0.0
 40
0.0
 40
0.6478495886162243
 40
1.0
 40
1.0
 40
1.0
 40
1.0
 10
9.999999999999991
 20
-4.870105989552991
 30
0.0
 10
9.999999999999991
 20
-4.910142293965489
 30
0.0
 10
9.99999999999999
 20
-4.971941058857836
 30
0.0
 10
9.99999999999999
 20
-4.964263720096773
 30
0.0
 10
9.99999999999999
 20
-4.961560142093732
 30
0.0
  0
SPLINE
  5
BB
330
1F
100
AcDbEntity
  8
0
  6
Continuous
 62
     1
370
    25
100
AcDbSpline
210
0.0
220
0.0
230
1.0
 70
     8
 71
     3
 72
    25
 73
    21
 74
     0
 42
0.000000001
 43
0.00000001
 40
0.0
 40
0.0
 40
0.0
 40
0.0
 40
0.0020980732531614
 40
0.0606212590444559
 40
0.1190217497651026
 40
0.1774011257863078
 40
0.2359338591708232
 40
0.2942992418194473
 40
0.3527235331862184
 40
0.411229630885283
 40
0.4695807257945461
 40
0.5280678006628406
 40
0.5865139691669816
 40
0.6448716326072274
 40
0.7041491278749098
 40
0.7633005416625523
 40
0.8224306415298555
 40
0.8817157103252947
 40
0.9408401475075935
 40
1.0
 40
1.0
 40
1.0
 40
1.0
 10
28.06579212772609
 20
-4.991470268710148
 30
0.0
 10
28.05316675382691
 20
-5.000035402405559
 30
0.0
 10
27.68837202584388
 20
-5.247514458590808
 30
0.0
 10
26.97008050486434
 20
-5.607788228067421
 30
0.0
 10
25.91519675410438
 20
-6.042783895551818
 30
0.0
 10
24.86051984795495
 20
-6.295422194590377
 30
0.0
 10
23.80308143954631
 20
-6.378319092205931
 30
0.0
 10
22.74869029918965
 20
-6.284341985130363
 30
0.0
 10
21.69323160393579
 20
-6.017155230927432
 30
0.0
 10
20.63625456231522
 20
-5.58488663105591
 30
0.0
 10
19.5821145443865
 20
-4.996790319622271
 30
0.0
 10
18.52548535597159
 20
-4.272672799703771
 30
0.0
 10
17.4696254047785
 20
-3.430377471524636
 30
0.0
 10
16.41084216622458
 20
-2.487546219645842
 30
0.0
 10
15.34444438402883
 20
-1.474174225247564
 30
0.0
 10
14.2758395052886
 20
-0.4125189608367121
 30
0.0
 10
13.20762061992559
 20
0.6618674733224839
 30
0.0
 10
12.13654325672969
 20
1.7124886286417
 30
0.0
 10
11.0685416415345
 20
2.725354453009651
 30
0.0
 10
10.35625163571254
 20
3.329571300469373
 30
0.0
 10
9.999999999995492
 20
3.631770177999497
 30
0.0
  0
SPLINE
  5
BC
330
1F
100
AcDbEntity
  8
0
  6
Continuous
 62
     1
370
    25
100
AcDbSpline
210
0.0
220
0.0
230
1.0
 70
     8
 71
     3
 72
    20
 73
    16
 74
     0
 42
0.000000001
 43
0.00000001
 40
0.0
 40
0.0
 40
0.0
 40
0.0
 40
0.0503713211116788
 40
0.13018210068362
 40
0.2097463225325401
 40
0.2893973397902341
 40
0.3691688785453483
 40
0.4487120478324048
 40
0.5284555614848918
 40
0.6081388102711611
 40
0.6876916581515689
 40
0.7674941226173951
 40
0.8470998980566664
 40
0.9266931304157792
 40
0.9999999999999999
 40
0.9999999999999999
 40
0.9999999999999999
 40
0.9999999999999999
 10
25.52815699538568
 20
-5.2656600272049
 30
0.0
 10
25.30582126480578
 20
-5.30534840366958
 30
0.0
 10
24.73120595146617
 20
-5.407920980819967
 30
0.0
 10
23.80322797028362
 20
-5.405887907933015
 30
0.0
 10
22.74863507693602
 20
-5.276998981368116
 30
0.0
 10
21.69314702386639
 20
-4.996413274413337
 30
0.0
 10
20.63641681359817
 20
-4.580665958818969
 30
0.0
 10
19.58197146877803
 20
-4.036182752437179
 30
0.0
 10
18.52552804359639
 20
-3.382401794805293
 30
0.0
 10
17.46971364636799
 20
-2.634909802123852
 30
0.0
 10
16.41519745520469
 20
-1.812857135530892
 30
0.0
 10
15.35814691330699
 20
-0.9439547941389428
 30
0.0
 10
14.30316221549046
 20
-0.0473631636565696
 30
0.0
 10
13.27681634508211
 20
0.8298683285071995
 30
0.0
 10
12.6008185840442
 20
1.382310600495421
 30
0.0
 10
12.27671625135906
 20
1.647175130150607
 30
0.0
  0
SPLINE
  5
BD
330
1F
100
AcDbEntity
  8
0
  6
Continuous
 62
     1
370
    25
100
AcDbSpline
210
0.0
220
0.0
230
1.0
 70
     8
 71
     3
 72
    24
 73
    20
 74
     0
 42
0.000000001
 43
0.00000001
 40
0.0
 40
0.0
 40
0.0
 40
0.0
 40
0.05896949998839
 40
0.1178243643841516
 40
0.1768456878485305
 40
0.2357555868883752
 40
0.2946314810946725
 40
0.3536681805819168
 40
0.4125393701441035
 40
0.4714572710838709
 40
0.5304728494092366
 40
0.5893263182456348
 40
0.6483063902485651
 40
0.7072651255138985
 40
0.7661219069458235
 40
0.8251480717081121
 40
0.8840504868939266
 40
0.942931605909492
 40
1.0
 40
1.0
 40
1.0
 40
1.0
 10
41.75
 20
-6.024699590898668
 30
0.0
 10
41.39768703161412
 20
-5.89767640867363
 30
0.0
 10
40.69374598458926
 20
-5.643876974887283
 30
0.0
 10
39.63956799427952
 20
-5.061481123757029
 30
0.0
 10
38.58237147191547
 20
-4.353597251861248
 30
0.0
 10
37.52721294663603
 20
-3.521052767244282
 30
0.0
 10
36.47266669153873
 20
-2.591331247704406
 30
0.0
 10
35.41520252551747
 20
-1.593044275949237
 30
0.0
 10
34.36073996743539
 20
-0.5475583119952361
 30
0.0
 10
33.30543605978863
 20
0.51203473513707
 30
0.0
 10
32.24834057914457
 20
1.555592199360444
 30
0.0
 10
31.19418561602076
 20
2.559800247970154
 30
0.0
 10
30.13773611390688
 20
3.490638866895065
 30
0.0
 10
29.08168070173717
 20
4.325929317380525
 30
0.0
 10
28.02747394973733
 20
5.043209830010408
 30
0.0
 10
26.970180168058
 20
5.620187042447512
 30
0.0
 10
25.91520545130373
 20
6.040073998161945
 30
0.0
 10
24.87212200773297
 20
6.303817840634713
 30
0.0
 10
24.17902588833812
 20
6.333593965813956
 30
0.0
 10
23.8378956720513
 20
6.348249272254637
 30
0.0
  0
SPLINE
  5
BE
330
1F
100
AcDbEntity
  8
0
  6
Continuous
 62
     1
370
    25
100
AcDbSpline
210
0.0
220
0.0
230
1.0
 70
     8
 71
     3
 72
    16
 73
    12
 74
     0
 42
0.000000001
 43
0.00000001
 40
0.0
 40
0.0
 40
0.0
 40
0.0
 40
0.1111858351967522
 40
0.2221380960958489
 40
0.3334295149750189
 40
0.4444939160713255
 40
0.5554890290284458
 40
0.6668117748016643
 40
0.7777973013104111
 40
0.8888780065340706
 40
1.0
 40
1.0
 40
1.0
 40
1.0
 10
41.74999999999999
 20
-5.008898950014275
 30
0.0
 10
41.39770842031891
 20
-4.884304949664581
 30
0.0
 10
40.69386533956612
 20
-4.635378690544708
 30
0.0
 10
39.63939708182512
 20
-4.095491915487948
 30
0.0
 10
38.58248343485755
 20
-3.454875937946819
 30
0.0
 10
37.52724761999027
 20
-2.71482493232845
 30
0.0
 10
36.47250700753667
 20
-1.899752658835112
 30
0.0
 10
35.41536072335126
 20
-1.035016453751288
 30
0.0
 10
34.36072463254933
 20
-0.1392667101393788
 30
0.0
 10
33.30571340029509
 20
0.7619067919879071
 30
0.0
 10
32.60156400897888
 20
1.340231035153733
 30
0.0
 10
32.24942389311923
 20
1.62944688693795
 30
0.0
  0
LINE
  5
BF
330
1F
100
AcDbEntity
  8
0
  6
Continuous
 62
     1
370
    25
100
AcDbLine
 10
41.74999999999971
 20
-6.02469959089867
 30
0.0
 11
41.74999999999999
 21
-5.008898950014275
 31
0.0
  0
SPLINE
  5
C0
330
1F
100
AcDbEntity
  8
0
  6
Continuous
 62
     1
370
    25
100
AcDbSpline
210
0.0
220
0.0
230
1.0
 70
     8
 71
     3
 72
    31
 73
    27
 74
     0
 42
0.000000001
 43
0.00000001
 40
0.0
 40
0.0
 40
0.0
 40
0.0
 40
0.0280253961059482
 40
0.0702931304836686
 40
0.1125903857301763
 40
0.1547893336030531
 40
0.1971003953254949
 40
0.2393522518251076
 40
0.2815615405373854
 40
0.3238918479203394
 40
0.3661112338458681
 40
0.408345917329662
 40
0.4506693080195948
 40
0.4928712519208605
 40
0.5351463202903076
 40
0.5774366543017966
 40
0.6196362285805532
 40
0.6619520449079584
 40
0.7041978075259469
 40
0.7464100905438559
 40
0.7887410439754394
 40
0.8309566928007447
 40
0.8731967309618106
 40
0.9155166570544245
 40
0.9577172300299874
 40
1.0
 40
1.0
 40
1.0
 40
1.0
 10
16.76964837334613
 20
4.25668040357766
 30
0.0
 10
17.00283092004811
 20
4.429853326735052
 30
0.0
 10
17.58769798561502
 20
4.864204614321577
 30
0.0
 10
18.52534354861806
 20
5.413653330087911
 30
0.0
 10
19.58201577371123
 20
5.900206080003603
 30
0.0
 10
20.63615061912299
 20
6.220475773592912
 30
0.0
 10
21.69313582985886
 20
6.369577527229955
 30
0.0
 10
22.7485989731458
 20
6.343251577643207
 30
0.0
 10
23.8029929736114
 20
6.141554471683268
 30
0.0
 10
24.86044649784447
 20
5.771631437411157
 30
0.0
 10
25.91509088762169
 20
5.241470854409763
 30
0.0
 10
26.97011941504752
 20
4.566701761429855
 30
0.0
 10
28.02740508735881
 20
3.768051589637158
 30
0.0
 10
29.08162030758202
 20
2.862555688009053
 30
0.0
 10
30.13768032112168
 20
1.880116804534784
 30
0.0
 10
31.19413474412282
 20
0.8464050876357955
 30
0.0
 10
32.24829477049074
 20
-0.2135607176737822
 30
0.0
 10
33.30539553283172
 20
-1.26396930366731
 30
0.0
 10
34.36070428854872
 20
-2.281518648503564
 30
0.0
 10
35.41517204395743
 20
-3.236957079966595
 30
0.0
 10
36.47264129326297
 20
-4.100289440130346
 30
0.0
 10
37.52719255752979
 20
-4.852995797417927
 30
0.0
 10
38.58235626839894
 20
-5.471890480310762
 30
0.0
 10
39.63955781630838
 20
-5.935675415482842
 30
0.0
 10
40.69374089140829
 20
-6.249595940022673
 30
0.0
 10
41.39768533253793
 20
-6.3122171031756
 30
0.0
 10
41.74999999999999
 20
-6.343558147984344
 30
0.0
  0
SPLINE
  5
C1
330
1F
100
AcDbEntity
  8
0
  6
Continuous
 62
     1
370
    25
100
AcDbSpline
210
0.0
220
0.0
230
1.0
 70
     8
 71
     3
 72
    17
 73
    13
 74
     0
 42
0.000000001
 43
0.00000001
 40
0.0
 40
0.0
 40
0.0
 40
0.0
 40
0.0606761929350552
 40
0.1760765950739359
 40
0.2914065414534386
 40
0.406705445601959
 40
0.5220129520552604
 40
0.6373686412835198
 40
0.7528117356207146
 40
0.8682641698503827
 40
0.9836260096673428
 40
1.0
 40
1.0
 40
1.0
 40
1.0
 10
32.63691764367562
 20
-0.5964958892855866
 30
0.0
 10
32.39008309181615
 20
-0.4260477638531949
 30
0.0
 10
31.67379247871629
 20
0.0685766367744773
 30
0.0
 10
30.48860601796263
 20
0.9032535105082431
 30
0.0
 10
29.08148953223391
 20
1.845215410208993
 30
0.0
 10
27.67486321785913
 20
2.698189084821935
 30
0.0
 10
26.26809431608464
 20
3.419240133754842
 30
0.0
 10
24.8606011115777
 20
3.971814227348016
 30
0.0
 10
23.45211660637671
 20
4.335372839795514
 30
0.0
 10
22.04355850861861
 20
4.466656193451432
 30
0.0
 10
21.03829771702567
 20
4.458180675775616
 30
0.0
 10
20.50261946874434
 20
4.345142405045944
 30
0.0
 10
20.4360378071811
 20
4.3310924115852
 30
0.0
  0
SPLINE
  5
C2
330
1F
100
AcDbEntity
  8
0
  6
Continuous
 62
     1
370
    25
100
AcDbSpline
210
0.0
220
0.0
230
1.0
 70
     8
 71
     3
 72
    19
 73
    15
 74
     0
 42
0.000000001
 43
0.00000001
 40
0.0
 40
0.0
 40
0.0
 40
0.0
 40
0.0886017539742233
 40
0.1771504777215327
 40
0.2659397751017224
 40
0.354496949784327
 40
0.4430861074092312
 40
0.5318640352851717
 40
0.6192664446844504
 40
0.7068014940990772
 40
0.7943976802352741
 40
0.8817902751230805
 40
0.9694150540043328
 40
1.0
 40
1.0
 40
1.0
 40
1.0
 10
9.999999999999995
 20
2.051749056239878
 30
0.0
 10
10.35624482622515
 20
1.708979060395776
 30
0.0
 10
11.06852125779525
 20
1.023644224585908
 30
0.0
 10
12.13650260185001
 20
-0.0509246649857431
 30
0.0
 10
13.20755969192766
 20
-1.116484052634406
 30
0.0
 10
14.2757579193788
 20
-2.154683702032475
 30
0.0
 10
15.34434303996022
 20
-3.131015162237462
 30
0.0
 10
16.41072826180438
 20
-4.012989053162017
 30
0.0
 10
17.46950938600941
 20
-4.782240171470331
 30
0.0
 10
18.52536972761396
 20
-5.413860475970067
 30
0.0
 10
19.58202393649552
 20
-5.899268868418304
 30
0.0
 10
20.63609195600297
 20
-6.211136548187262
 30
0.0
 10
21.46413455150799
 20
-6.355171103866502
 30
0.0
 10
21.93930998076386
 20
-6.334373620110032
 30
0.0
 10
22.06225430583856
 20
-6.32899259144932
 30
0.0
  0
SPLINE
  5
C3
330
1F
100
AcDbEntity
  8
0
  6
Continuous
 62
     1
370
    25
100
AcDbSpline
210
0.0
220
0.0
230
1.0
 70
     8
 71
     3
 72
    12
 73
     8
 74
     0
 42
0.000000001
 43
0.00000001
 40
0.0
 40
0.0
 40
0.0
 40
0.0
 40
0.1610056992286269
 40
0.3706510964269119
 40
0.5806929927258102
 40
0.7901425166519467
 40
1.0
 40
1.0
 40
1.0
 40
1.0
 10
36.71715393690114
 20
4.257920268885765
 30
0.0
 10
36.98714343931721
 20
4.455637762463665
 30
0.0
 10
37.60868606528454
 20
4.910803052441175
 30
0.0
 10
38.58231769637595
 20
5.471678911585241
 30
0.0
 10
39.63956807730726
 20
5.938453463765233
 30
0.0
 10
40.69373832335418
 20
6.251588578073496
 30
0.0
 10
41.39768447596484
 20
6.314314520176617
 30
0.0
 10
41.74999999999999
 20
6.345708005432133
 30
0.0
  0
SPLINE
  5
C4
330
1F
100
AcDbEntity
  8
0
  6
Continuous
 62
     1
370
    25
100
AcDbSpline
210
0.0
220
0.0
230
1.0
 70
    24
 71
     3
 72
    10
 73
     6
 74
     0
 42
0.000000001
 43
0.00000001
 40
0.0
 40
0.0
 40
0.0
 40
0.0
 40
0.5
 40
0.5
 40
1.0
 40
1.0
 40
1.0
 40
1.0
 10
41.74999999999999
 20
4.446074928723897
 30
0.0
 10
41.74999999999999
 20
4.715519759450338
 30
0.0
 10
41.75000000000001
 20
5.028639606030088
 30
0.0
 10
41.75
 20
5.68556420082533
 30
0.0
 10
41.75
 20
6.027691246063248
 30
0.0
 10
41.75
 20
6.345708005432138
 30
0.0
  0
LINE
  5
C5
330
1F
100
AcDbEntity
  8
0
  6
Continuous
 62
     1
370
    25
100
AcDbLine
 10
41.74999999999999
 20
4.446074928723897
 30
0.0
 11
40.38614106806026
 21
4.340730656600871
 31
0.0
  0
SPLINE
  5
C6
330
1F
100
AcDbEntity
  8
0
  6
Continuous
 62
     1
370
    25
100
AcDbSpline
210
0.0
220
0.0
230
1.0
 70
     8
 71
     3
 72
    10
 73
     6
 74
     0
 42
0.000000001
 43
0.00000001
 40
0.0
 40
0.0
 40
0.0
 40
0.0
 40
0.1853920600372618
 40
0.5925219947889105
 40
1.0
 40
1.0
 40
1.0
 40
1.0
 10
12.68920591859744
 20
-0.5976999092395026
 30
0.0
 10
12.52291703772101
 20
-0.483628361463859
 30
0.0
 10
11.99144972791114
 20
-0.1190501749811262
 30
0.0
 10
11.09563648316296
 20
0.517073391634609
 30
0.0
 10
10.36531617956346
 20
1.013893670408656
 30
0.0
 10
9.99999999999185
 20
1.262409951937321
 30
0.0
  0
SPLINE
  5
C7
330
1F
100
AcDbEntity
  8
0
  6
Continuous
 62
     4
370
    25
100
AcDbSpline
210
0.0
220
0.0
230
1.0
 70
    24
 71
     3
 72
    10
 73
     6
 74
     0
 42
0.000000001
 43
0.00000001
 40
0.0
 40
0.0
 40
0.0
 40
0.0
 40
0.5
 40
0.5
 40
1.0
 40
1.0
 40
1.0
 40
1.0
 10
9.999999999999995
 20
2.051749056239878
 30
0.0
 10
9.999999999999995
 20
2.039534111476297
 30
0.0
 10
9.999999999999995
 20
1.960958364309233
 30
0.0
 10
9.999999999999995
 20
1.684618144797462
 30
0.0
 10
9.999999999999995
 20
1.48803835143604
 30
0.0
 10
9.999999999999995
 20
1.262409951931839
 30
0.0
  0
LINE
  5
C8
330
1F
100
AcDbEntity
  8
0
  6
Continuous
 62
     1
370
    25
100
AcDbLine
 10
41.75
 20
-6.343558147984346
 30
0.0
 11
41.75000000000017
 21
-6.024699590898602
 31
0.0
  0
SPLINE
  5
C9
330
1F
100
AcDbEntity
  8
0
  6
Continuous
 62
     1
370
    25
100
AcDbSpline
210
0.0
220
0.0
230
1.0
 70
     8
 71
     3
 72
    14
 73
    10
 74
     0
 42
0.000000001
 43
0.00000001
 40
0.0
 40
0.0
 40
0.0
 40
0.0
 40
0.2500000000000009
 40
0.2500000000000009
 40
0.5000000000000006
 40
0.5000000000000006
 40
0.7500000000000002
 40
0.7500000000000002
 40
1.0
 40
1.0
 40
1.0
 40
1.0
 10
41.74999999999999
 20
-1.695917778564348
 30
0.0
 10
41.34339671263986
 20
-1.375443297526759
 30
0.0
 10
40.94040943562482
 20
-1.045945166944418
 30
0.0
 10
40.14171287590078
 20
-0.3687868808573045
 30
0.0
 10
39.74599797963769
 20
-0.0211407338149404
 30
0.0
 10
38.96281467979557
 20
0.6947304449666512
 30
0.0
 10
38.58388178274959
 20
1.055223480930803
 30
0.0
 10
37.85708702160886
 20
1.779679337496066
 30
0.0
 10
37.50866397291348
 20
2.143966686887429
 30
0.0
 10
37.17992703883075
 20
2.510961469259508
 30
0.0
  0
LINE
  5
CA
330
1F
100
AcDbEntity
  8
0
  6
Continuous
 62
     1
370
    25
100
AcDbLine
 10
37.30275512375333
 20
2.614026470018497
 30
0.0
 11
41.74999999999999
 21
0.0010749287238972
 31
0.0
  0
LINE
  5
CB
330
1F
100
AcDbEntity
  8
0
  6
Continuous
 62
     1
370
    25
100
AcDbLine
 10
41.74999999999999
 20
0.0010749287238972
 30
0.0
 11
41.74999999999999
 21
-1.695917778564348
 31
0.0
  0
SPLINE
  5
CC
330
1F
100
AcDbEntity
  8
0
  6
Continuous
 62
     1
370
    25
100
AcDbSpline
210
0.0
220
0.0
230
1.0
 70
     8
 71
     3
 72
    30
 73
    26
 74
     0
 42
0.000000001
 43
0.00000001
 40
0.0
 40
0.0
 40
0.0
 40
0.0
 40
0.0297364606048541
 40
0.0759125687654228
 40
0.1219479120235671
 40
0.1680931756331724
 40
0.2142199375195785
 40
0.2602581535905851
 40
0.3064434417327599
 40
0.3525212993607596
 40
0.3985806443649246
 40
0.4447743019117387
 40
0.4908214066360164
 40
0.5369200808342461
 40
0.583090425380082
 40
0.6291250098162753
 40
0.6752786610055538
 40
0.7213965343231828
 40
0.7674368641971249
 40
0.8136255679661089
 40
0.8596973841015809
 40
0.9057617099432385
 40
0.9519538000326694
 40
0.9979977262972081
 40
1.0
 40
1.0
 40
1.0
 40
1.0
 10
33.98642936094524
 20
-4.759012716822729
 30
0.0
 10
33.75956071817265
 20
-4.821649443392038
 30
0.0
 10
33.18040028364598
 20
-4.981551284976963
 30
0.0
 10
32.24851475806772
 20
-5.084765769148239
 30
0.0
 10
31.1939834375802
 20
-5.081818678323613
 30
0.0
 10
30.1377305796449
 20
-4.93334639653301
 30
0.0
 10
29.0817907029947
 20
-4.650570564426502
 30
0.0
 10
28.02719643600119
 20
-4.23789244813057
 30
0.0
 10
26.97031798930731
 20
-3.710440628298123
 30
0.0
 10
25.91515270349761
 20
-3.07919620417705
 30
0.0
 10
24.86026807060753
 20
-2.362358118414387
 30
0.0
 10
23.80326139723784
 20
-1.583217134680266
 30
0.0
 10
22.74855305917785
 20
-0.7571593065883716
 30
0.0
 10
21.6930621919838
 20
0.0885576971189695
 30
0.0
 10
20.63641536518408
 20
0.9302470171472985
 30
0.0
 10
19.58185732589293
 20
1.749667702477279
 30
0.0
 10
18.52547758561684
 20
2.51791418954754
 30
0.0
 10
17.46967940116463
 20
3.217699794117125
 30
0.0
 10
16.41506025625522
 20
3.830024669525687
 30
0.0
 10
15.35813130986891
 20
4.334759885934467
 30
0.0
 10
14.30305157187718
 20
4.720548344261806
 30
0.0
 10
13.24811956281293
 20
4.980074755500445
 30
0.0
 10
12.19103604883789
 20
5.086089604486317
 30
0.0
 10
11.47285886176416
 20
5.103257786077878
 30
0.0
 10
11.10617202104317
 20
5.046497805181442
 30
0.0
 10
11.09089074138245
 20
5.044132394031399
 30
0.0
  0
SPLINE
  5
CD
330
1F
100
AcDbEntity
  8
0
  6
Continuous
 62
     4
370
    25
100
AcDbSpline
210
0.0
220
0.0
230
1.0
 70
    24
 71
     3
 72
    12
 73
     8
 74
     0
 42
0.000000001
 43
0.00000001
 40
0.0
 40
0.0
 40
0.0
 40
0.0
 40
0.0937296992192408
 40
0.3646636257198267
 40
0.6434546544432969
 40
0.887432205466655
 40
1.0
 40
1.0
 40
1.0
 40
1.0
 10
9.999999999999996
 20
4.963750055744803
 30
0.0
 10
9.999999999999996
 20
4.965870214409176
 30
0.0
 10
9.999999999999998
 20
4.974118877875419
 30
0.0
 10
9.999999999999996
 20
4.829373832367536
 30
0.0
 10
9.999999999999998
 20
4.483601621072514
 30
0.0
 10
9.999999999999996
 20
4.089961977458546
 30
0.0
 10
9.999999999999996
 20
3.785555117334567
 30
0.0
 10
9.999999999999996
 20
3.689448382771888
 30
0.0
  0
SPLINE
  5
CE
330
1F
100
AcDbEntity
  8
0
  6
Continuous
 62
     1
370
    25
100
AcDbSpline
210
0.0
220
0.0
230
1.0
 70
     8
 71
     3
 72
    15
 73
    11
 74
     0
 42
0.000000001
 43
0.00000001
 40
0.0
 40
0.0
 40
0.0
 40
0.0
 40
0.0336365559713659
 40
0.190699953382542
 40
0.3482395286952985
 40
0.5052890112249806
 40
0.6624767937712792
 40
0.8199538464938952
 40
0.97695084052721
 40
1.0
 40
1.0
 40
1.0
 40
1.0
 10
37.75308316102731
 20
2.99189656000396
 30
0.0
 10
37.67774998072084
 20
3.040058179793273
 30
0.0
 10
37.2506541155903
 20
3.313106902631255
 30
0.0
 10
36.47259215858205
 20
3.771776713014293
 30
0.0
 10
35.41537051876273
 20
4.288082935780157
 30
0.0
 10
34.36065950561446
 20
4.687032766019043
 30
0.0
 10
33.30529449374988
 20
4.95954183573738
 30
0.0
 10
32.24847185049232
 20
5.081976992491001
 30
0.0
 10
31.49435200521312
 20
5.104831977812506
 30
0.0
 10
31.09128612261986
 20
5.045844228572435
 30
0.0
 10
31.03968640985166
 20
5.038292731288551
 30
0.0
  0
SPLINE
  5
CF
330
1F
100
AcDbEntity
  8
0
  6
Continuous
 62
     1
370
    25
100
AcDbSpline
210
0.0
220
0.0
230
1.0
 70
     8
 71
     3
 72
    12
 73
     8
 74
     0
 42
0.000000001
 43
0.00000001
 40
0.0
 40
0.0
 40
0.0
 40
0.0
 40
0.1951460215735579
 40
0.4571629153306756
 40
0.7183393746088536
 40
0.9798708234531782
 40
1.0
 40
1.0
 40
1.0
 40
1.0
 10
14.03612142819995
 20
-4.761885734288855
 30
0.0
 10
13.77373142315585
 20
-4.831477909369148
 30
0.0
 10
13.15903798133041
 20
-4.99450947612808
 30
0.0
 10
12.19100954094043
 20
-5.091160969766357
 30
0.0
 10
11.13679605412168
 20
-5.072718446340338
 30
0.0
 10
10.40529558426224
 20
-4.961119137346339
 30
0.0
 10
10.02703294252116
 20
-4.876176505217371
 30
0.0
 10
9.999999999999996
 20
-4.870105989552992
 30
0.0
  0
SPLINE
  5
D0
330
1F
100
AcDbEntity
  8
0
  6
Continuous
 62
     1
370
    25
100
AcDbSpline
210
0.0
220
0.0
230
1.0
 70
    24
 71
     3
 72
     8
 73
     4
 74
     0
 42
0.000000001
 43
0.00000001
 40
0.0
 40
0.0
 40
0.0
 40
0.0
 40
0.0007770953413342
 40
0.0007770953413342
 40
0.0007770953413342
 40
0.0007770953413342
 10
37.75308316102736
 20
2.99189656000393
 30
0.0
 10
37.56207862499013
 20
2.831624724261894
 30
0.0
 10
37.37101687863806
 20
2.671304883365737
 30
0.0
 10
37.17992703882219
 20
2.510961469254507
 30
0.0
  0
SPLINE
  5
D1
330
1F
100
AcDbEntity
  8
0
  6
Continuous
 62
     1
370
    25
100
AcDbSpline
210
0.0
220
0.0
230
1.0
 70
    24
 71
     3
 72
    10
 73
     6
 74
     0
 42
0.000000001
 43
0.00000001
 40
0.0
 40
0.0
 40
0.0
 40
0.0
 40
0.5
 40
0.5
 40
1.0
 40
1.0
 40
1.0
 40
1.0
 10
41.74999999999999
 20
-5.008898950014273
 30
0.0
 10
41.74999999999999
 20
-4.624845391450263
 30
0.0
 10
41.75000000000001
 20
-4.139578994082178
 30
0.0
 10
41.75000000000001
 20
-3.011381321882921
 30
0.0
 10
41.75
 20
-2.36942733465192
 30
0.0
 10
41.74999999999999
 20
-1.69591777856455
 30
0.0
  0
SPLINE
  5
D2
330
1F
100
AcDbEntity
  8
0
  6
Continuous
 62
     4
370
    25
100
AcDbSpline
210
0.0
220
0.0
230
1.0
 70
    24
 71
     3
 72
     9
 73
     5
 74
     0
 42
0.000000001
 43
0.00000001
 40
0.0
 40
0.0
 40
0.0
 40
0.0
 40
0.664098710729728
 40
1.0
 40
1.0
 40
1.0
 40
1.0
 10
9.999999999999996
 20
-4.870105989552993
 30
0.0
 10
9.999999999999996
 20
-4.910386085313921
 30
0.0
 10
9.999999999999998
 20
-4.971039863299227
 30
0.0
 10
9.999999999999998
 20
-4.96391747421283
 30
0.0
 10
9.999999999999998
 20
-4.961525054536025
 30
0.0
  0
SPLINE
  5
D3
330
1F
100
AcDbEntity
  8
0
  6
Continuous
 62
     1
370
    25
100
AcDbSpline
210
0.0
220
0.0
230
1.0
 70
    24
 71
     3
 72
     8
 73
     4
 74
     0
 42
0.000000001
 43
0.00000001
 40
0.0
 40
0.0
 40
0.0
 40
0.0
 40
1.0
 40
1.0
 40
1.0
 40
1.0
 10
38.42636926677852
 20
3.556850683016513
 30
0.0
 10
38.22368842038039
 20
3.386781259557138
 30
0.0
 10
37.99708561047552
 20
3.196638925342246
 30
0.0
 10
37.75308316102735
 20
2.991896560003932
 30
0.0
  0
SPLINE
  5
D4
330
1F
100
AcDbEntity
  8
0
  6
Continuous
 62
     1
370
    25
100
AcDbSpline
210
0.0
220
0.0
230
1.0
 70
     8
 71
     3
 72
     8
 73
     4
 74
     0
 42
0.000000001
 43
0.00000001
 40
0.0
 40
0.0
 40
0.0
 40
0.0
 40
1.0
 40
1.0
 40
1.0
 40
1.0
 10
41.74999999999999
 20
4.446074928723897
 30
0.0
 10
40.65414361497769
 20
4.077612845911329
 30
0.0
 10
39.54496841761562
 20
3.774826467767958
 30
0.0
 10
38.42636926677518
 20
3.556850683013919
 30
0.0
  0
SPLINE
  5
D5
330
1F
100
AcDbEntity
  8
0
  6
Continuous
 62
     4
370
    25
100
AcDbSpline
210
0.0
220
0.0
230
1.0
 70
    24
 71
     3
 72
    14
 73
    10
 74
     0
 42
0.000000001
 43
0.00000001
 40
0.0
 40
0.0
 40
0.0
 40
0.0
 40
0.25
 40
0.25
 40
0.5
 40
0.5
 40
0.75
 40
0.75
 40
1.0
 40
1.0
 40
1.0
 40
1.0
 10
9.999999999999995
 20
1.26240995193184
 30
0.0
 10
9.999999999999995
 20
0.7014036519636858
 30
0.0
 10
9.999999999999995
 20
0.1173409863786495
 30
0.0
 10
9.999999999999995
 20
-1.044769575598786
 30
0.0
 10
9.999999999999995
 20
-1.622240829009444
 30
0.0
 10
9.999999999999996
 20
-2.712165719053512
 30
0.0
 10
9.999999999999995
 20
-3.224038598137683
 30
0.0
 10
9.999999999999996
 20
-4.136198158672577
 30
0.0
 10
9.999999999999996
 20
-4.536259266809811
 30
0.0
 10
9.999999999999996
 20
-4.870105989552994
 30
0.0
  0
LINE
  5
D6
330
1F
100
AcDbEntity
  8
0
  6
Continuous
 62
     1
370
    25
100
AcDbLine
 10
41.74999999999999
 20
0.0010749287238972
 30
0.0
 11
41.74999999999999
 21
4.446074928723896
 31
0.0
  0
LINE
  5
D7
330
1F
100
AcDbEntity
  8
중심선
100
AcDbLine
 10
-43.79999999999999
 20
0.0010749287238931
 30
0.0
 11
33.25935371504374
 21
0.0010749287238931
 31
0.0
  0
CIRCLE
  5
D8
330
1F
100
AcDbEntity
  8
외형선
100
AcDbCircle
 10
0.0000000000000087
 20
0.0
 30
0.0
 40
3.000000000000004
  0
INSERT
  5
D9
330
1F
100
AcDbEntity
  8
0
  6
Continuous
 62
     7
100
AcDbBlockReference
 66
     1
  2
블럭10
 10
-16.6381869743017
 20
-52.04609937292004
 30
0.0
  0
ATTRIB
  5
DA
330
D9
100
AcDbEntity
  8
FORMAT
 62
     2
100
AcDbText
 10
-25.81948226304298
 20
-49.97073246008785
 30
0.0
 40
4.233333333333333
  1
E5253932 [ 2 FLUTE ]
 41
0.75
  7
SLDTEXTSTYLE0
 11
-25.81948226304298
 21
-52.08739912675452
 31
0.0
100
AcDbAttribute
  2
AUTOATTR0
 70
     0
 74
     1
  0
SEQEND
  5
DB
330
D9
100
AcDbEntity
  8
0
  6
Continuous
 62
     7
  0
HATCH
  5
DC
330
1F
100
AcDbEntity
  8
중심선
100
AcDbHatch
 10
0.0
 20
0.0
 30
0.0
210
0.0
220
0.0
230
1.0
  2
SOLID
 70
     1
 71
     0
 91
        1
 92
        0
 93
        4
 72
     1
 10
-10.92327766992085
 20
-35.7989250712761
 11
-14.36955291375813
 21
-35.7989250712761
 72
     1
 10
-14.36955291375813
 20
-35.7989250712761
 11
-16.49778277296215
 21
-38.3352506518487
 72
     1
 10
-16.49778277296215
 20
-38.3352506518487
 11
-13.05147444401172
 21
-38.33521122254621
 72
     1
 10
-13.05147444401172
 20
-38.33521122254621
 11
-10.92327766992085
 21
-35.7989250712761
 97
        0
 75
     0
 76
     1
 98
        1
 10
0.0
 20
0.0
  0
HATCH
  5
DD
330
1F
100
AcDbEntity
  8
중심선
100
AcDbHatch
 10
0.0
 20
0.0
 30
0.0
210
0.0
220
0.0
230
1.0
  2
SOLID
 70
     1
 71
     0
 91
        1
 92
        0
 93
        4
 72
     1
 10
-5.910513678884898
 20
-35.7989250712761
 11
-9.356788922722181
 21
-35.7989250712761
 72
     1
 10
-9.356788922722181
 20
-35.7989250712761
 11
-13.88792693107957
 21
-41.19892507127612
 72
     1
 10
-13.88792693107957
 20
-41.19892507127612
 11
-10.44165168724229
 21
-41.19892507127612
 72
     1
 10
-10.44165168724229
 20
-41.19892507127612
 11
-5.910513678884898
 21
-35.7989250712761
 97
        0
 75
     0
 76
     1
 98
        1
 10
0.0
 20
0.0
  0
HATCH
  5
DE
330
1F
100
AcDbEntity
  8
중심선
100
AcDbHatch
 10
0.0
 20
0.0
 30
0.0
210
0.0
220
0.0
230
1.0
  2
SOLID
 70
     1
 71
     0
 91
        1
 92
        0
 93
        4
 72
     1
 10
-0.8977496878490032
 20
-35.79892507127613
 11
-4.344024931686119
 21
-35.7989250712761
 72
     1
 10
-4.344024931686119
 20
-35.7989250712761
 11
-11.39246183357537
 21
-44.19892507127612
 72
     1
 10
-11.39246183357537
 20
-44.19892507127612
 11
-7.946186589738086
 21
-44.19892507127612
 72
     1
 10
-7.946186589738086
 20
-44.19892507127612
 11
-0.8977496878490028
 21
-35.79892507127613
 97
        0
 75
     0
 76
     1
 98
        1
 10
0.0
 20
0.0
  0
HATCH
  5
DF
330
1F
100
AcDbEntity
  8
중심선
100
AcDbHatch
 10
0.0
 20
0.0
 30
0.0
210
0.0
220
0.0
230
1.0
  2
SOLID
 70
     1
 71
     0
 91
        1
 92
        0
 93
        6
 72
     3
 10
3.902140743163196
 20
-39.99892507132738
 11
3.960054785062284
 21
1.540850780301639E-10
 40
0.3939339440162633
 50
17.09539180608433
 51
320.0019657685079
 73
     0
 72
     1
 10
5.585140398863792
 20
-38.58681907591441
 11
7.89044227256483
 21
-36.65249236586649
 72
     3
 10
3.902140743110349
 20
-39.99892507127625
 11
6.600054785286829
 21
-1.249000902703301E-13
 40
0.6363583540795982
 50
39.99873849337408
 51
368.4976242363724
 73
     1
 72
     1
 10
10.32747323501096
 20
-39.03892507120613
 11
2.582208049946273
 21
-39.0389250712061
 72
     1
 10
2.582208049946272
 20
-39.0389250712061
 11
2.582183005500338
 21
-40.95892507120602
 72
     1
 10
2.582183005500338
 20
-40.95892507120602
 11
7.023562774972376
 21
-40.95892507120599
 97
        0
 75
     0
 76
     1
 98
        1
 10
0.0
 20
0.0
  0
DIMENSION
  5
E0
330
1F
100
AcDbEntity
  8
치수문자_일반주서
100
AcDbDimension
  2
_D
 10
-40.8
 20
41.93589146707808
 30
0.0
 11
0.4749999999999945
 21
41.93589146707808
 31
0.0
 70
   160
  1
<>
 71
     2
 42
82.55000000000001
  3
SLDDIMSTYLE0
100
AcDbAlignedDimension
 13
41.75
 23
6.345708005432137
 33
0.0
 14
-40.8
 24
5.351074928723885
 34
0.0
100
AcDbRotatedDimension
1001
ACAD
1000
DSTYLE
1002
{
1070
   171
1070
     6
1070
   273
1070
     7
1002
}
  0
DIMENSION
  5
F4
330
1F
100
AcDbEntity
  8
치수문자_일반주서
100
AcDbDimension
  2
_D_1
 10
-53.61
 20
-6.348925071276149
 30
0.0
 11
-53.61000000000002
 21
0.0010749287238906
 31
0.0
 70
   160
  1
%%c<>
 71
     2
 42
12.69999999999999
  3
SLDDIMSTYLE1
100
AcDbAlignedDimension
 13
-39.80000000000002
 23
6.351074928723888
 33
0.0
 14
-39.80000000000002
 24
-6.348925071276101
 34
0.0
 50
90.0000000000002
100
AcDbRotatedDimension
1001
ACAD
1000
DSTYLE
1002
{
1070
   171
1070
     6
1070
   273
1070
     7
1002
}
  0
DIMENSION
  5
109
330
1F
100
AcDbEntity
  8
치수문자_일반주서
100
AcDbDimension
  2
_D_2
 10
9.999999999999996
 20
26.58232551893264
 30
0.0
 11
25.875
 21
26.58232551893264
 31
0.0
 70
   160
  1
<>
 71
     2
 42
31.75
  3
SLDDIMSTYLE0
100
AcDbAlignedDimension
 13
41.75
 23
6.345708005432137
 33
0.0
 14
9.999999999999996
 24
4.975183836099166
 34
0.0
100
AcDbRotatedDimension
1001
ACAD
1000
DSTYLE
1002
{
1070
   171
1070
     6
1070
   273
1070
     7
1002
}
  0
DIMENSION
  5
11C
330
1F
100
AcDbEntity
  8
치수문자_일반주서
100
AcDbDimension
  2
_D_3
 10
61.95935371504384
 20
-6.343558147984275
 30
0.0
 11
61.95935371504374
 21
23.2102080054322
 31
0.0
 70
   160
  1
%%c<>
 71
     2
 42
12.68926615341648
  3
SLDDIMSTYLE0
100
AcDbAlignedDimension
 13
41.75
 23
6.345708005432137
 33
0.0
 14
41.75
 24
-6.343558147984346
 34
0.0
 50
90.0000000000002
100
AcDbRotatedDimension
1001
ACAD
1000
DSTYLE
1002
{
1070
   171
1070
     6
1070
   273
1070
     7
1002
}
  0
INSERT
  5
135
330
1F
100
AcDbEntity
  8
외형선
100
AcDbBlockReference
  2
SW_DOWELSYMBOL_0
 10
0.0000000000000087
 20
0.0
 30
0.0
  0
LINE
  5
2D1
330
1F
100
AcDbEntity
  8
0
  6
Continuous
 62
     4
370
    15
100
AcDbLine
 10
-23.76612499999999
 20
4.827074928723874
 30
0.0
 11
-12.59012500000011
 21
4.827074928723874
 31
0.0
  0
LINE
  5
2D2
330
1F
100
AcDbEntity
  8
0
  6
Continuous
 62
     4
370
    15
100
AcDbLine
 10
-23.76612499999999
 20
4.827074928723874
 30
0.0
 11
-25.29012499999999
 21
6.351074928723875
 31
0.0
  0
LINE
  5
2D3
330
1F
100
AcDbEntity
  8
0
  6
Continuous
 62
     4
370
    15
100
AcDbLine
 10
-12.590125
 20
4.827074928723874
 30
0.0
 11
-11.066125
 21
6.351074928723875
 31
0.0
  0
LINE
  5
2D4
330
1F
100
AcDbEntity
  8
0
  6
Continuous
 62
     4
370
    25
100
AcDbLine
 10
-25.29012500000001
 20
6.351074928723891
 30
0.0
 11
-39.8
 21
6.35107492872389
 31
0.0
  0
ENDSEC
  0
SECTION
  2
OBJECTS
  0
DICTIONARY
  5
C
330
0
100
AcDbDictionary
281
     1
  3
ACAD_GROUP
350
D
  3
ACAD_IMAGE_VARS
350
159
  3
ACAD_LAYOUT
350
1A
  3
ACAD_MLINESTYLE
350
17
  3
ACAD_PLOTSETTINGS
350
19
  3
ACAD_PLOTSTYLENAME
350
E
  3
ACAD_SCALELIST
350
47
  3
APPDATA
350
157
  3
DWGPROPS
350
2D8
  0
DICTIONARY
  5
21A
330
2
100
AcDbDictionary
280
     1
281
     1
  3
ACAD_LAYERSTATES
360
21B
  0
DICTIONARY
  5
2D5
330
1F
100
AcDbDictionary
280
     1
281
     1
  3
ACAD_SORTENTS
360
2D6
  3
DIM_BOUNDING_BOXES_V1
360
2D7
  0
DICTIONARY
  5
D
102
{ACAD_REACTORS
330
C
102
}
330
C
100
AcDbDictionary
281
     1
  0
RASTERVARIABLES
  5
159
102
{ACAD_REACTORS
330
C
102
}
330
C
100
AcDbRasterVariables
 90
        0
 70
     1
 71
     1
 72
     1
  0
DICTIONARY
  5
1A
102
{ACAD_REACTORS
330
C
102
}
330
C
100
AcDbDictionary
281
     1
  3
Layout1
350
1E
  3
Layout2
350
26
  3
Model
350
22
  0
DICTIONARY
  5
17
102
{ACAD_REACTORS
330
C
102
}
330
C
100
AcDbDictionary
281
     1
  3
Standard
350
18
  0
DICTIONARY
  5
19
102
{ACAD_REACTORS
330
C
102
}
330
C
100
AcDbDictionary
281
     1
  0
ACDBDICTIONARYWDFLT
  5
E
102
{ACAD_REACTORS
330
C
102
}
330
C
100
AcDbDictionary
281
     1
  3
Normal
350
F
100
AcDbDictionaryWithDefault
340
F
  0
DICTIONARY
  5
47
102
{ACAD_REACTORS
330
C
102
}
330
C
100
AcDbDictionary
281
     1
  3
A0
350
48
  3
A1
350
49
  3
A2
350
4A
  3
A3
350
4B
  3
A4
350
4C
  3
A5
350
4D
  3
A6
350
4E
  3
A7
350
4F
  3
A8
350
50
  3
A9
350
51
  3
B0
350
52
  3
B1
350
53
  3
B2
350
54
  3
B3
350
55
  3
B4
350
56
  3
B5
350
57
  3
B6
350
58
  3
B7
350
59
  3
B8
350
5A
  3
B9
350
5B
  3
C0
350
5C
  3
C1
350
5D
  3
C2
350
5E
  3
C3
350
5F
  3
C4
350
60
  3
C5
350
61
  3
C6
350
62
  3
C7
350
63
  3
C8
350
64
  3
C9
350
65
  3
D0
350
66
  3
D1
350
67
  3
D2
350
68
  0
DICTIONARY
  5
157
102
{ACAD_REACTORS
330
C
102
}
330
C
100
AcDbDictionary
281
     1
  0
XRECORD
  5
2D8
102
{ACAD_REACTORS
330
C
102
}
330
C
100
AcDbXrecord
280
     1
  1
DWGPROPS COOKIE
  2

  3

  4

  6

  7

  8
12016016
  9

300
=
301
=
302
=
303
=
304
=
305
=
306
=
307
=
308
=
309
=
 40
0.0
 41
2458263.245188299
 42
2459730.970796724
  1

 90
        0
  0
DICTIONARY
  5
21B
102
{ACAD_REACTORS
330
21A
102
}
330
21A
100
AcDbDictionary
281
     1
  0
SORTENTSTABLE
  5
2D6
102
{ACAD_REACTORS
330
2D5
102
}
330
2D5
100
AcDbSortentsTable
330
1F
331
9A
  5
9B
331
9B
  5
9C
331
9C
  5
9D
331
9D
  5
9E
331
9E
  5
9F
331
9F
  5
A0
331
A0
  5
A1
331
A1
  5
A2
331
A2
  5
A3
331
A3
  5
A4
331
A4
  5
A5
331
A5
  5
A6
331
A6
  5
A7
331
A7
  5
A8
331
A8
  5
A9
331
A9
  5
AA
331
AA
  5
AB
331
AB
  5
AC
331
AC
  5
AD
331
AD
  5
AE
331
AE
  5
AF
331
AF
  5
B0
331
B0
  5
B1
331
B1
  5
B2
331
B2
  5
B3
331
B3
  5
B4
331
B4
  5
B5
331
B5
  5
B6
331
B6
  5
B7
331
B7
  5
B8
331
B8
  5
B9
331
B9
  5
BA
331
BA
  5
BB
331
BB
  5
BC
331
BC
  5
BD
331
BD
  5
BE
331
BE
  5
BF
331
BF
  5
C0
331
C0
  5
C1
331
C1
  5
C2
331
C2
  5
C3
331
C3
  5
C4
331
C4
  5
C5
331
C5
  5
C6
331
C6
  5
C7
331
C7
  5
C8
331
C8
  5
C9
331
C9
  5
CA
331
CA
  5
CB
331
CB
  5
CC
331
CC
  5
CD
331
CD
  5
CE
331
CE
  5
CF
331
CF
  5
D0
331
D0
  5
D1
331
D1
  5
D2
331
D2
  5
D3
331
D3
  5
D4
331
D4
  5
D5
331
D5
  5
D6
331
D6
  5
D7
331
D7
  5
D8
331
D8
  5
D9
331
D9
  5
DC
331
DC
  5
DD
331
DD
  5
DE
331
DE
  5
DF
331
DF
  5
E0
331
E0
  5
F4
331
F4
  5
109
331
109
  5
11C
331
11C
  5
135
331
135
  5
24F
331
0
  5
250
331
0
  5
251
331
0
  5
252
331
0
  5
253
331
0
  5
254
331
0
  5
255
331
0
  5
256
331
0
  5
257
331
0
  5
258
331
0
  5
259
331
0
  5
25A
331
0
  5
25B
331
0
  5
25C
331
0
  5
25D
331
0
  5
25E
331
0
  5
25F
331
0
  5
260
331
0
  5
261
331
0
  5
262
331
0
  5
263
331
0
  5
264
331
0
  5
265
331
0
  5
266
331
0
  5
267
331
0
  5
268
331
0
  5
269
331
0
  5
26A
331
0
  5
26B
331
0
  5
26C
331
0
  5
26D
331
0
  5
26E
331
0
  5
26F
331
0
  5
270
331
0
  5
271
331
0
  5
272
331
0
  5
273
331
0
  5
274
331
0
  5
275
331
0
  5
276
331
0
  5
277
331
0
  5
278
331
0
  5
279
331
0
  5
27A
331
0
  5
27B
331
0
  5
27C
331
0
  5
27D
331
0
  5
27E
331
0
  5
27F
331
0
  5
280
331
0
  5
281
331
0
  5
282
331
0
  5
283
331
0
  5
284
331
0
  5
285
331
0
  5
286
331
0
  5
287
331
0
  5
288
331
0
  5
289
331
0
  5
28A
331
0
  5
28B
331
0
  5
28C
331
0
  5
28D
331
0
  5
28E
331
0
  5
28F
331
0
  5
290
331
0
  5
291
331
0
  5
292
331
0
  5
293
331
0
  5
294
331
0
  5
295
331
0
  5
296
331
0
  5
297
331
0
  5
298
331
0
  5
299
331
0
  5
29A
331
0
  5
29B
331
0
  5
29C
331
0
  5
29D
331
0
  5
29E
331
0
  5
29F
331
0
  5
2D1
331
2D1
  5
2D2
331
2D2
  5
2D3
331
2D3
  5
2D4
331
2D4
  5
9A
  0
DICTIONARY
  5
2D7
102
{ACAD_REACTORS
330
2D5
102
}
330
2D5
100
AcDbDictionary
281
     1
  0
LAYOUT
  5
1E
102
{ACAD_REACTORS
330
1A
102
}
330
1A
100
AcDbPlotSettings
  1

  2
none_device
  4

  6

 40
0.0
 41
0.0
 42
0.0
 43
0.0
 44
0.0
 45
0.0
 46
0.0
 47
0.0
 48
0.0
 49
0.0
140
0.0
141
0.0
142
1.0
143
1.0
 70
   688
 72
     1
 73
     0
 74
     5
  7

 75
    16
147
1.0
148
0.0
149
0.0
100
AcDbLayout
  1
Layout1
 70
     1
 71
     1
 10
0.0
 20
0.0
 11
420.0
 21
297.0
 12
0.0
 22
0.0
 32
0.0
 14
1.000000000000000E+20
 24
1.000000000000000E+20
 34
1.000000000000000E+20
 15
-1.000000000000000E+20
 25
-1.000000000000000E+20
 35
-1.000000000000000E+20
146
0.0
 13
0.0
 23
0.0
 33
0.0
 16
1.0
 26
0.0
 36
0.0
 17
0.0
 27
1.0
 37
0.0
 76
     0
330
1B
  0
LAYOUT
  5
26
102
{ACAD_REACTORS
330
1A
102
}
330
1A
100
AcDbPlotSettings
  1

  2
none_device
  4

  6

 40
0.0
 41
0.0
 42
0.0
 43
0.0
 44
0.0
 45
0.0
 46
0.0
 47
0.0
 48
0.0
 49
0.0
140
0.0
141
0.0
142
1.0
143
1.0
 70
   688
 72
     1
 73
     0
 74
     5
  7

 75
    16
147
1.0
148
0.0
149
0.0
100
AcDbLayout
  1
Layout2
 70
     1
 71
     2
 10
0.0
 20
0.0
 11
0.0
 21
0.0
 12
0.0
 22
0.0
 32
0.0
 14
0.0
 24
0.0
 34
0.0
 15
0.0
 25
0.0
 35
0.0
146
0.0
 13
0.0
 23
0.0
 33
0.0
 16
1.0
 26
0.0
 36
0.0
 17
0.0
 27
1.0
 37
0.0
 76
     0
330
23
  0
LAYOUT
  5
22
102
{ACAD_REACTORS
330
1A
102
}
330
1A
100
AcDbPlotSettings
  1

  2
none_device
  4
ANSI_A_(11.00_x_8.50_Inches)
  6

 40
6.35
 41
19.05
 42
6.35000508
 43
19.05000254
 44
279.4
 45
215.9
 46
134.8413487958658
 47
86.81919848395582
 48
0.0
 49
0.0
140
0.0
141
0.0
142
0.0813487781070241
143
1.0
 70
  1696
 72
     0
 73
     0
 74
     0
  7

 75
     0
147
0.0235690232323232
148
0.0
149
0.0
100
AcDbLayout
  1
Model
 70
     1
 71
     0
 10
0.0
 20
0.0
 11
420.0
 21
297.0
 12
0.0
 22
0.0
 32
0.0
 14
-57.98500000000006
 24
-49.97073246008785
 34
0.0
 15
62.50968704837716
 25
46.31089146707808
 35
0.0
146
0.0
 13
0.0
 23
0.0
 33
0.0
 16
1.0
 26
0.0
 36
0.0
 17
0.0
 27
1.0
 37
0.0
 76
     0
330
1F
331
29
  0
MLINESTYLE
  5
18
102
{ACAD_REACTORS
330
17
102
}
330
17
100
AcDbMlineStyle
  2
Standard
 70
     0
  3

 62
   256
 51
90.0
 52
90.0
 71
     2
 49
0.5
 62
   256
  6
BYLAYER
 49
-0.5
 62
   256
  6
BYLAYER
  0
ACDBPLACEHOLDER
  5
F
102
{ACAD_REACTORS
330
E
102
}
330
E
  0
SCALE
  5
48
102
{ACAD_REACTORS
330
47
102
}
330
47
100
AcDbScale
 70
     0
300
1:1
140
1.0
141
1.0
290
     1
  0
SCALE
  5
49
102
{ACAD_REACTORS
330
47
102
}
330
47
100
AcDbScale
 70
     0
300
1:2
140
1.0
141
2.0
290
     0
  0
SCALE
  5
4A
102
{ACAD_REACTORS
330
47
102
}
330
47
100
AcDbScale
 70
     0
300
1:4
140
1.0
141
4.0
290
     0
  0
SCALE
  5
4B
102
{ACAD_REACTORS
330
47
102
}
330
47
100
AcDbScale
 70
     0
300
1:5
140
1.0
141
5.0
290
     0
  0
SCALE
  5
4C
102
{ACAD_REACTORS
330
47
102
}
330
47
100
AcDbScale
 70
     0
300
1:8
140
1.0
141
8.0
290
     0
  0
SCALE
  5
4D
102
{ACAD_REACTORS
330
47
102
}
330
47
100
AcDbScale
 70
     0
300
1:10
140
1.0
141
10.0
290
     0
  0
SCALE
  5
4E
102
{ACAD_REACTORS
330
47
102
}
330
47
100
AcDbScale
 70
     0
300
1:16
140
1.0
141
16.0
290
     0
  0
SCALE
  5
4F
102
{ACAD_REACTORS
330
47
102
}
330
47
100
AcDbScale
 70
     0
300
1:20
140
1.0
141
20.0
290
     0
  0
SCALE
  5
50
102
{ACAD_REACTORS
330
47
102
}
330
47
100
AcDbScale
 70
     0
300
1:30
140
1.0
141
30.0
290
     0
  0
SCALE
  5
51
102
{ACAD_REACTORS
330
47
102
}
330
47
100
AcDbScale
 70
     0
300
1:40
140
1.0
141
40.0
290
     0
  0
SCALE
  5
52
102
{ACAD_REACTORS
330
47
102
}
330
47
100
AcDbScale
 70
     0
300
1:50
140
1.0
141
50.0
290
     0
  0
SCALE
  5
53
102
{ACAD_REACTORS
330
47
102
}
330
47
100
AcDbScale
 70
     0
300
1:100
140
1.0
141
100.0
290
     0
  0
SCALE
  5
54
102
{ACAD_REACTORS
330
47
102
}
330
47
100
AcDbScale
 70
     0
300
2:1
140
2.0
141
1.0
290
     0
  0
SCALE
  5
55
102
{ACAD_REACTORS
330
47
102
}
330
47
100
AcDbScale
 70
     0
300
4:1
140
4.0
141
1.0
290
     0
  0
SCALE
  5
56
102
{ACAD_REACTORS
330
47
102
}
330
47
100
AcDbScale
 70
     0
300
8:1
140
8.0
141
1.0
290
     0
  0
SCALE
  5
57
102
{ACAD_REACTORS
330
47
102
}
330
47
100
AcDbScale
 70
     0
300
10:1
140
10.0
141
1.0
290
     0
  0
SCALE
  5
58
102
{ACAD_REACTORS
330
47
102
}
330
47
100
AcDbScale
 70
     0
300
100:1
140
100.0
141
1.0
290
     0
  0
SCALE
  5
59
102
{ACAD_REACTORS
330
47
102
}
330
47
100
AcDbScale
 70
     0
300
1/128" = 1'-0"
140
0.0078125
141
12.0
290
     0
  0
SCALE
  5
5A
102
{ACAD_REACTORS
330
47
102
}
330
47
100
AcDbScale
 70
     0
300
1/64" = 1'-0"
140
0.015625
141
12.0
290
     0
  0
SCALE
  5
5B
102
{ACAD_REACTORS
330
47
102
}
330
47
100
AcDbScale
 70
     0
300
1/32" = 1'-0"
140
0.03125
141
12.0
290
     0
  0
SCALE
  5
5C
102
{ACAD_REACTORS
330
47
102
}
330
47
100
AcDbScale
 70
     0
300
1/16" = 1'-0"
140
0.0625
141
12.0
290
     0
  0
SCALE
  5
5D
102
{ACAD_REACTORS
330
47
102
}
330
47
100
AcDbScale
 70
     0
300
3/32" = 1'-0"
140
0.09375
141
12.0
290
     0
  0
SCALE
  5
5E
102
{ACAD_REACTORS
330
47
102
}
330
47
100
AcDbScale
 70
     0
300
1/8" = 1'-0"
140
0.125
141
12.0
290
     0
  0
SCALE
  5
5F
102
{ACAD_REACTORS
330
47
102
}
330
47
100
AcDbScale
 70
     0
300
3/16" = 1'-0"
140
0.1875
141
12.0
290
     0
  0
SCALE
  5
60
102
{ACAD_REACTORS
330
47
102
}
330
47
100
AcDbScale
 70
     0
300
1/4" = 1'-0"
140
0.25
141
12.0
290
     0
  0
SCALE
  5
61
102
{ACAD_REACTORS
330
47
102
}
330
47
100
AcDbScale
 70
     0
300
3/8" = 1'-0"
140
0.375
141
12.0
290
     0
  0
SCALE
  5
62
102
{ACAD_REACTORS
330
47
102
}
330
47
100
AcDbScale
 70
     0
300
1/2" = 1'-0"
140
0.5
141
12.0
290
     0
  0
SCALE
  5
63
102
{ACAD_REACTORS
330
47
102
}
330
47
100
AcDbScale
 70
     0
300
3/4" = 1'-0"
140
0.75
141
12.0
290
     0
  0
SCALE
  5
64
102
{ACAD_REACTORS
330
47
102
}
330
47
100
AcDbScale
 70
     0
300
1" = 1'-0"
140
1.0
141
12.0
290
     0
  0
SCALE
  5
65
102
{ACAD_REACTORS
330
47
102
}
330
47
100
AcDbScale
 70
     0
300
1-1/2" = 1'-0"
140
1.5
141
12.0
290
     0
  0
SCALE
  5
66
102
{ACAD_REACTORS
330
47
102
}
330
47
100
AcDbScale
 70
     0
300
3" = 1'-0"
140
3.0
141
12.0
290
     0
  0
SCALE
  5
67
102
{ACAD_REACTORS
330
47
102
}
330
47
100
AcDbScale
 70
     0
300
6" = 1'-0"
140
6.0
141
12.0
290
     0
  0
SCALE
  5
68
102
{ACAD_REACTORS
330
47
102
}
330
47
100
AcDbScale
 70
     0
300
1'-0" = 1'-0"
140
12.0
141
12.0
290
     0
  0
ENDSEC
  0
EOF
