  0
SECTION
  2
HEADER
  9
$ACADVER
  1
AC1015
  9
$ACADMAINTVER
 70
     6
  9
$DWGCODEPAGE
  3
ANSI_949
  9
$INSBASE
 10
0.0
 20
0.0
 30
0.0
  9
$EXTMIN
 10
-51.63500000000004
 20
-49.97073246008785
 30
0.0
  9
$EXTMAX
 10
62.50968704837716
 20
46.31089146707808
 30
0.0
  9
$LIMMIN
 10
0.0
 20
0.0
  9
$LIMMAX
 10
420.0
 20
297.0
  9
$ORTHOMODE
 70
     1
  9
$REGENMODE
 70
     1
  9
$FILLMODE
 70
     1
  9
$QTEXTMODE
 70
     0
  9
$MIRRTEXT
 70
     1
  9
$LTSCALE
 40
1.0
  9
$ATTMODE
 70
     1
  9
$TEXTSIZE
 40
3.5
  9
$TRACEWID
 40
1.0
  9
$TEXTSTYLE
  7
Standard
  9
$CLAYER
  8
0
  9
$CELTYPE
  6
ByLayer
  9
$CECOLOR
 62
   256
  9
$CELTSCALE
 40
1.0
  9
$DISPSILH
 70
     0
  9
$DIMSCALE
 40
1.0
  9
$DIMASZ
 40
3.302
  9
$DIMEXO
 40
1.0
  9
$DIMDLI
 40
3.75
  9
$DIMRND
 40
0.0
  9
$DIMDLE
 40
0.0
  9
$DIMEXE
 40
1.0
  9
$DIMTP
 40
0.0
  9
$DIMTM
 40
0.0
  9
$DIMTXT
 40
3.5
  9
$DIMCEN
 40
2.5
  9
$DIMTSZ
 40
0.0
  9
$DIMTOL
 70
     0
  9
$DIMLIM
 70
     0
  9
$DIMTIH
 70
     1
  9
$DIMTOH
 70
     1
  9
$DIMSE1
 70
     0
  9
$DIMSE2
 70
     0
  9
$DIMTAD
 70
     1
  9
$DIMZIN
 70
     0
  9
$DIMBLK
  1

  9
$DIMASO
 70
     1
  9
$DIMSHO
 70
     1
  9
$DIMPOST
  1

  9
$DIMAPOST
  1

  9
$DIMALT
 70
     0
  9
$DIMALTD
 70
     3
  9
$DIMALTF
 40
0.0393700787401575
  9
$DIMLFAC
 40
1.0
  9
$DIMTOFL
 70
     1
  9
$DIMTVP
 40
0.0
  9
$DIMTIX
 70
     0
  9
$DIMSOXD
 70
     0
  9
$DIMSAH
 70
     0
  9
$DIMBLK1
  1

  9
$DIMBLK2
  1

  9
$DIMSTYLE
  2
ISO-25
  9
$DIMCLRD
 70
     0
  9
$DIMCLRE
 70
     0
  9
$DIMCLRT
 70
     0
  9
$DIMTFAC
 40
1.0
  9
$DIMGAP
 40
1.524
  9
$DIMJUST
 70
     0
  9
$DIMSD1
 70
     0
  9
$DIMSD2
 70
     0
  9
$DIMTOLJ
 70
     0
  9
$DIMTZIN
 70
     0
  9
$DIMALTZ
 70
     0
  9
$DIMALTTZ
 70
     0
  9
$DIMUPT
 70
     0
  9
$DIMDEC
 70
     2
  9
$DIMTDEC
 70
     2
  9
$DIMALTU
 70
     2
  9
$DIMALTTD
 70
     3
  9
$DIMTXSTY
  7
Standard
  9
$DIMAUNIT
 70
     0
  9
$DIMADEC
 70
     2
  9
$DIMALTRND
 40
0.0
  9
$DIMAZIN
 70
     0
  9
$DIMDSEP
 70
    44
  9
$DIMATFIT
 70
     3
  9
$DIMFRAC
 70
     0
  9
$DIMLDRBLK
  1

  9
$DIMLUNIT
 70
     2
  9
$DIMLWD
 70
    -2
  9
$DIMLWE
 70
    -2
  9
$DIMTMOVE
 70
     0
  9
$LUNITS
 70
     2
  9
$LUPREC
 70
     2
  9
$SKETCHINC
 40
1.0
  9
$FILLETRAD
 40
10.0
  9
$AUNITS
 70
     0
  9
$AUPREC
 70
     2
  9
$MENU
  1
.
  9
$ELEVATION
 40
0.0
  9
$PELEVATION
 40
0.0
  9
$THICKNESS
 40
0.0
  9
$LIMCHECK
 70
     0
  9
$CHAMFERA
 40
0.0
  9
$CHAMFERB
 40
0.0
  9
$CHAMFERC
 40
0.0
  9
$CHAMFERD
 40
0.0
  9
$SKPOLY
 70
     0
  9
$TDCREATE
 40
2458263.623401829
  9
$TDUCREATE
 40
2458263.248401829
  9
$TDUPDATE
 40
2458274.719476169
  9
$TDUUPDATE
 40
2458274.344476169
  9
$TDINDWG
 40
0.0019413426
  9
$TDUSRTIMER
 40
2458274.342535081
  9
$USRTIMER
 70
     1
  9
$ANGBASE
 50
0.0
  9
$ANGDIR
 70
     0
  9
$PDMODE
 70
     0
  9
$PDSIZE
 40
-1.0
  9
$PLINEWID
 40
0.0
  9
$SPLFRAME
 70
     0
  9
$SPLINETYPE
 70
     6
  9
$SPLINESEGS
 70
     8
  9
$HANDSEED
  5
15D
  9
$SURFTAB1
 70
     6
  9
$SURFTAB2
 70
     6
  9
$SURFTYPE
 70
     6
  9
$SURFU
 70
     6
  9
$SURFV
 70
     6
  9
$UCSBASE
  2

  9
$UCSNAME
  2

  9
$UCSORG
 10
0.0
 20
0.0
 30
0.0
  9
$UCSXDIR
 10
1.0
 20
0.0
 30
0.0
  9
$UCSYDIR
 10
0.0
 20
1.0
 30
0.0
  9
$UCSORTHOREF
  2

  9
$UCSORTHOVIEW
 70
     0
  9
$UCSORGTOP
 10
0.0
 20
0.0
 30
0.0
  9
$UCSORGBOTTOM
 10
0.0
 20
0.0
 30
0.0
  9
$UCSORGLEFT
 10
0.0
 20
0.0
 30
0.0
  9
$UCSORGRIGHT
 10
0.0
 20
0.0
 30
0.0
  9
$UCSORGFRONT
 10
0.0
 20
0.0
 30
0.0
  9
$UCSORGBACK
 10
0.0
 20
0.0
 30
0.0
  9
$PUCSBASE
  2

  9
$PUCSNAME
  2

  9
$PUCSORG
 10
0.0
 20
0.0
 30
0.0
  9
$PUCSXDIR
 10
1.0
 20
0.0
 30
0.0
  9
$PUCSYDIR
 10
0.0
 20
1.0
 30
0.0
  9
$PUCSORTHOREF
  2

  9
$PUCSORTHOVIEW
 70
     0
  9
$PUCSORGTOP
 10
0.0
 20
0.0
 30
0.0
  9
$PUCSORGBOTTOM
 10
0.0
 20
0.0
 30
0.0
  9
$PUCSORGLEFT
 10
0.0
 20
0.0
 30
0.0
  9
$PUCSORGRIGHT
 10
0.0
 20
0.0
 30
0.0
  9
$PUCSORGFRONT
 10
0.0
 20
0.0
 30
0.0
  9
$PUCSORGBACK
 10
0.0
 20
0.0
 30
0.0
  9
$USERI1
 70
     0
  9
$USERI2
 70
     0
  9
$USERI3
 70
     0
  9
$USERI4
 70
     0
  9
$USERI5
 70
     0
  9
$USERR1
 40
0.0
  9
$USERR2
 40
0.0
  9
$USERR3
 40
0.0
  9
$USERR4
 40
0.0
  9
$USERR5
 40
0.0
  9
$WORLDVIEW
 70
     1
  9
$SHADEDGE
 70
     3
  9
$SHADEDIF
 70
    70
  9
$TILEMODE
 70
     1
  9
$MAXACTVP
 70
    64
  9
$PINSBASE
 10
0.0
 20
0.0
 30
0.0
  9
$PLIMCHECK
 70
     0
  9
$PEXTMIN
 10
1.000000000000000E+20
 20
1.000000000000000E+20
 30
1.000000000000000E+20
  9
$PEXTMAX
 10
-1.000000000000000E+20
 20
-1.000000000000000E+20
 30
-1.000000000000000E+20
  9
$PLIMMIN
 10
0.0
 20
0.0
  9
$PLIMMAX
 10
0.0
 20
0.0
  9
$UNITMODE
 70
     0
  9
$VISRETAIN
 70
     1
  9
$PLINEGEN
 70
     0
  9
$PSLTSCALE
 70
     1
  9
$TREEDEPTH
 70
  3020
  9
$CMLSTYLE
  2
Standard
  9
$CMLJUST
 70
     0
  9
$CMLSCALE
 40
20.0
  9
$PROXYGRAPHICS
 70
     1
  9
$MEASUREMENT
 70
     1
  9
$CELWEIGHT
370
    -1
  9
$ENDCAPS
280
     0
  9
$JOINSTYLE
280
     0
  9
$LWDISPLAY
290
     1
  9
$INSUNITS
 70
     4
  9
$HYPERLINKBASE
  1

  9
$STYLESHEET
  1

  9
$XEDIT
290
     1
  9
$CEPSNTYPE
380
     0
  9
$PSTYLEMODE
290
     1
  9
$FINGERPRINTGUID
  2
{A16308B9-27FE-457C-AB08-F66BE37DA6A4}
  9
$VERSIONGUID
  2
{FAEB1C32-E019-11D5-929B-00C0DF256EC4}
  9
$EXTNAMES
290
     1
  9
$PSVPSCALE
 40
0.0
  9
$OLESTARTUP
290
     0
  0
ENDSEC
  0
SECTION
  2
CLASSES
  0
CLASS
  1
ACDBDICTIONARYWDFLT
  2
AcDbDictionaryWithDefault
  3
ObjectDBX Classes
 90
        0
280
     0
281
     0
  0
CLASS
  1
VISUALSTYLE
  2
AcDbVisualStyle
  3
ObjectDBX Classes
 90
     4095
280
     0
281
     0
  0
CLASS
  1
MATERIAL
  2
AcDbMaterial
  3
ObjectDBX Classes
 90
     1153
280
     0
281
     0
  0
CLASS
  1
SCALE
  2
AcDbScale
  3
ObjectDBX Classes
 90
     1153
280
     0
281
     0
  0
CLASS
  1
TABLESTYLE
  2
AcDbTableStyle
  3
ObjectDBX Classes
 90
     4095
280
     0
281
     0
  0
CLASS
  1
MLEADERSTYLE
  2
AcDbMLeaderStyle
  3
ACDB_MLEADERSTYLE_CLASS
 90
     4095
280
     0
281
     0
  0
CLASS
  1
SUN
  2
AcDbSun
  3
SCENEOE
 90
     1153
280
     0
281
     0
  0
CLASS
  1
ACDBPLACEHOLDER
  2
AcDbPlaceHolder
  3
ObjectDBX Classes
 90
        0
280
     0
281
     0
  0
CLASS
  1
LAYOUT
  2
AcDbLayout
  3
ObjectDBX Classes
 90
        0
280
     0
281
     0
  0
CLASS
  1
RASTERVARIABLES
  2
AcDbRasterVariables
  3
ISM
 90
        0
280
     0
281
     0
  0
ENDSEC
  0
SECTION
  2
TABLES
  0
TABLE
  2
VPORT
  5
8
330
0
100
AcDbSymbolTable
 70
     1
  0
VPORT
  5
29
330
8
100
AcDbSymbolTableRecord
100
AcDbViewportTableRecord
  2
*Active
 70
     0
 10
0.0
 20
0.0
 11
1.0
 21
1.0
 12
63.7907977208295
 22
10.7882279375911
 13
0.0
 23
0.0
 14
10.0
 24
10.0
 15
10.0
 25
10.0
 16
0.0
 26
0.0
 36
1.0
 17
0.0
 27
0.0
 37
0.0
 40
167.0507746188638
 41
1.666023166023166
 42
50.0
 43
0.0
 44
0.0
 50
0.0
 51
0.0
 71
    16
 72
  2000
 73
     1
 74
     3
 75
     0
 76
     0
 77
     0
 78
     0
281
     0
 65
     1
110
0.0
120
0.0
130
0.0
111
1.0
121
0.0
131
0.0
112
0.0
122
1.0
132
0.0
 79
     0
146
0.0
  0
ENDTAB
  0
TABLE
  2
LTYPE
  5
5
330
0
100
AcDbSymbolTable
 70
     6
  0
LTYPE
  5
14
330
5
100
AcDbSymbolTableRecord
100
AcDbLinetypeTableRecord
  2
ByBlock
 70
     0
  3

 72
    65
 73
     0
 40
0.0
  0
LTYPE
  5
15
330
5
100
AcDbSymbolTableRecord
100
AcDbLinetypeTableRecord
  2
ByLayer
 70
     0
  3

 72
    65
 73
     0
 40
0.0
  0
LTYPE
  5
16
330
5
100
AcDbSymbolTableRecord
100
AcDbLinetypeTableRecord
  2
Continuous
 70
     0
  3
Solid line
 72
    65
 73
     0
 40
0.0
  0
LTYPE
  5
6E
330
5
100
AcDbSymbolTableRecord
100
AcDbLinetypeTableRecord
  2
HIDDEN
 70
     0
  3
Hidden __ __ __ __ __ __ __ __ __ __ __ __ __ __
 72
    65
 73
     2
 40
1.905
 49
1.27
 74
     0
 49
-0.635
 74
     0
  0
LTYPE
  5
6F
330
5
100
AcDbSymbolTableRecord
100
AcDbLinetypeTableRecord
  2
PHANTOM
 70
     0
  3
Phantom ______  __  __  ______  __  __  ______
 72
    65
 73
     6
 40
12.7
 49
6.35
 74
     0
 49
-1.27
 74
     0
 49
1.27
 74
     0
 49
-1.27
 74
     0
 49
1.27
 74
     0
 49
-1.27
 74
     0
  0
LTYPE
  5
70
330
5
100
AcDbSymbolTableRecord
100
AcDbLinetypeTableRecord
  2
CENTER
 70
     0
  3
Center ____ _ ____ _ ____ _ ____ _ ____ _ ____
 72
    65
 73
     4
 40
10.16
 49
6.35
 74
     0
 49
-1.27
 74
     0
 49
1.27
 74
     0
 49
-1.27
 74
     0
  0
LTYPE
  5
71
330
5
100
AcDbSymbolTableRecord
100
AcDbLinetypeTableRecord
  2
CENTERX2
 70
     0
  3
Center (2x) ________  __  ________  __  _____
 72
    65
 73
     4
 40
20.32
 49
12.7
 74
     0
 49
-2.54
 74
     0
 49
2.54
 74
     0
 49
-2.54
 74
     0
  0
LTYPE
  5
72
330
5
100
AcDbSymbolTableRecord
100
AcDbLinetypeTableRecord
  2
DOT2
 70
     0
  3
Dot (.5x) ........................................
 72
    65
 73
     2
 40
0.635
 49
0.0
 74
     0
 49
-0.635
 74
     0
  0
ENDTAB
  0
TABLE
  2
LAYER
  5
2
330
0
100
AcDbSymbolTable
 70
    17
  0
LAYER
  5
10
330
2
100
AcDbSymbolTableRecord
100
AcDbLayerTableRecord
  2
0
 70
     0
 62
     7
  6
Continuous
370
    -3
390
F
  0
LAYER
  5
73
330
2
100
AcDbSymbolTableRecord
100
AcDbLayerTableRecord
  2
FORMAT
 70
     0
 62
     2
  6
Continuous
370
    -3
390
F
  0
LAYER
  5
74
330
2
100
AcDbSymbolTableRecord
100
AcDbLayerTableRecord
  2
외형선
 70
     0
 62
   100
  6
Continuous
370
    35
390
F
  0
LAYER
  5
75
330
2
100
AcDbSymbolTableRecord
100
AcDbLayerTableRecord
  2
숨은선
 70
     0
 62
     2
  6
HIDDEN
370
    25
390
F
  0
LAYER
  5
76
330
2
100
AcDbSymbolTableRecord
100
AcDbLayerTableRecord
  2
중심선
 70
     0
 62
     1
  6
CENTERX2
370
    -3
390
F
  0
LAYER
  5
77
330
2
100
AcDbSymbolTableRecord
100
AcDbLayerTableRecord
  2
파단선
 70
     0
 62
     4
  6
Continuous
370
    -3
390
F
  0
LAYER
  5
78
330
2
100
AcDbSymbolTableRecord
100
AcDbLayerTableRecord
  2
해칭선
 70
     0
 62
     4
  6
Continuous
370
    -3
390
F
  0
LAYER
  5
79
330
2
100
AcDbSymbolTableRecord
100
AcDbLayerTableRecord
  2
가는실선
 70
     0
 62
     4
  6
Continuous
370
    -3
390
F
  0
LAYER
  5
7A
330
2
100
AcDbSymbolTableRecord
100
AcDbLayerTableRecord
  2
치수_보조선
 70
     0
 62
     4
  6
Continuous
370
    -3
390
F
  0
LAYER
  5
7B
330
2
100
AcDbSymbolTableRecord
100
AcDbLayerTableRecord
  2
치수문자_일반주서
 70
     0
 62
     7
  6
Continuous
370
    25
390
F
  0
LAYER
  5
7C
330
2
100
AcDbSymbolTableRecord
100
AcDbLayerTableRecord
  2
개별주서
 70
     0
 62
   100
  6
Continuous
370
    35
390
F
  0
LAYER
  5
7D
330
2
100
AcDbSymbolTableRecord
100
AcDbLayerTableRecord
  2
중간선
 70
     0
 62
     2
  6
Continuous
370
    25
390
F
  0
LAYER
  5
7E
330
2
100
AcDbSymbolTableRecord
100
AcDbLayerTableRecord
  2
윤곽선
 70
     0
 62
     3
  6
Continuous
370
    50
390
F
  0
LAYER
  5
7F
330
2
100
AcDbSymbolTableRecord
100
AcDbLayerTableRecord
  2
중심마크
 70
     0
 62
   100
  6
Continuous
370
    35
390
F
  0
LAYER
  5
80
330
2
100
AcDbSymbolTableRecord
100
AcDbLayerTableRecord
  2
가상선
 70
     0
 62
     4
  6
PHANTOM
370
    -3
390
F
  0
LAYER
  5
81
330
2
100
AcDbSymbolTableRecord
100
AcDbLayerTableRecord
  2
특수지정선
 70
     0
 62
     5
  6
CENTERX2
370
    70
390
F
  0
LAYER
  5
15B
330
2
100
AcDbSymbolTableRecord
100
AcDbLayerTableRecord
  2
Defpoints
 70
     0
 62
     7
  6
Continuous
290
     0
370
    -3
390
F
  0
ENDTAB
  0
TABLE
  2
STYLE
  5
3
330
0
100
AcDbSymbolTable
 70
     2
  0
STYLE
  5
11
330
3
100
AcDbSymbolTableRecord
100
AcDbTextStyleTableRecord
  2
Standard
 70
     0
 40
0.0
 41
1.0
 50
0.0
 71
     0
 42
3.5
  3
txt
  4

  0
STYLE
  5
97
330
3
100
AcDbSymbolTableRecord
100
AcDbTextStyleTableRecord
  2
SLDTEXTSTYLE0
 70
     0
 40
0.0
 41
0.75
 50
0.0
 71
     0
 42
3.5
  3
TXT
  4

  0
ENDTAB
  0
TABLE
  2
VIEW
  5
6
330
0
100
AcDbSymbolTable
 70
     0
  0
ENDTAB
  0
TABLE
  2
UCS
  5
7
330
0
100
AcDbSymbolTable
 70
     0
  0
ENDTAB
  0
TABLE
  2
APPID
  5
9
330
0
100
AcDbSymbolTable
 70
     1
  0
APPID
  5
12
330
9
100
AcDbSymbolTableRecord
100
AcDbRegAppTableRecord
  2
ACAD
 70
     0
  0
ENDTAB
  0
TABLE
  2
DIMSTYLE
  5
A
330
0
100
AcDbSymbolTable
 70
     4
100
AcDbDimStyleTable
  0
DIMSTYLE
105
27
330
A
100
AcDbSymbolTableRecord
100
AcDbDimStyleTableRecord
  2
ISO-25
 70
     0
 41
2.5
 42
0.625
 43
3.75
 44
1.25
 73
     0
 74
     0
 77
     1
 78
     8
140
2.5
141
2.5
143
0.03937007874016
147
0.625
171
     3
172
     1
178
     0
271
     2
272
     2
274
     3
278
    44
283
     0
284
     8
340
11
  0
DIMSTYLE
105
E1
102
{ACAD_REACTORS
330
E0
102
}
330
A
100
AcDbSymbolTableRecord
100
AcDbDimStyleTableRecord
  2
SLDDIMSTYLE0
 70
     0
 41
3.302
 44
0.0
 45
0.000000001
 73
     0
 74
     0
 77
     1
 78
     4
 79
     1
140
3.5
143
0.0393700787401575
147
0.875
148
0.000000001
170
     1
173
     1
178
     0
271
     2
272
     2
276
     2
284
    12
340
97
  0
DIMSTYLE
105
F5
102
{ACAD_REACTORS
330
F4
102
}
330
A
100
AcDbSymbolTableRecord
100
AcDbDimStyleTableRecord
  2
SLDDIMSTYLE1
 70
     0
 41
3.302
 44
0.0
 45
0.000000001
 73
     0
 74
     0
 77
     1
 78
     4
 79
     1
140
3.5
143
0.0393700787401575
147
0.875
148
0.000000001
170
     1
172
     1
173
     1
178
     0
271
     2
272
     2
276
     2
284
    12
289
     0
340
97
  0
DIMSTYLE
105
10A
102
{ACAD_REACTORS
330
109
330
11D
102
}
330
A
100
AcDbSymbolTableRecord
100
AcDbDimStyleTableRecord
  2
SLDDIMSTYLE2
 70
     0
 41
3.302
 44
0.0
 45
0.000000001
 73
     0
 74
     0
 77
     1
 78
    12
 79
     3
140
3.5
143
0.0393700787401575
147
0.875
148
0.000000001
170
     1
173
     1
178
     0
271
     2
272
     2
276
     2
284
    12
340
97
  0
ENDTAB
  0
TABLE
  2
BLOCK_RECORD
  5
1
330
0
100
AcDbSymbolTable
 70
     7
  0
BLOCK_RECORD
  5
1F
330
1
100
AcDbSymbolTableRecord
100
AcDbBlockTableRecord
  2
*Model_Space
340
22
  0
BLOCK_RECORD
  5
1B
330
1
100
AcDbSymbolTableRecord
100
AcDbBlockTableRecord
  2
*Paper_Space
340
1E
  0
BLOCK_RECORD
  5
23
330
1
100
AcDbSymbolTableRecord
100
AcDbBlockTableRecord
  2
*Paper_Space0
340
26
  0
BLOCK_RECORD
  5
82
330
1
100
AcDbSymbolTableRecord
100
AcDbBlockTableRecord
  2
블럭10
340
0
102
{BLKREFS
331
D9
102
}
  0
BLOCK_RECORD
  5
E2
330
1
100
AcDbSymbolTableRecord
100
AcDbBlockTableRecord
  2
_D
340
0
  0
BLOCK_RECORD
  5
F6
330
1
100
AcDbSymbolTableRecord
100
AcDbBlockTableRecord
  2
_D_1
340
0
  0
BLOCK_RECORD
  5
10B
330
1
100
AcDbSymbolTableRecord
100
AcDbBlockTableRecord
  2
_D_2
340
0
  0
BLOCK_RECORD
  5
11E
330
1
100
AcDbSymbolTableRecord
100
AcDbBlockTableRecord
  2
_D_3
340
0
  0
BLOCK_RECORD
  5
130
330
1
100
AcDbSymbolTableRecord
100
AcDbBlockTableRecord
  2
SW_DOWELSYMBOL_0
340
0
102
{BLKREFS
331
136
102
}
  0
ENDTAB
  0
ENDSEC
  0
SECTION
  2
BLOCKS
  0
BLOCK
  5
20
330
1F
100
AcDbEntity
  8
0
100
AcDbBlockBegin
  2
*Model_Space
 70
     0
 10
0.0
 20
0.0
 30
0.0
  3
*Model_Space
  1
*Model_Space
  0
ENDBLK
  5
21
330
1F
100
AcDbEntity
  8
0
100
AcDbBlockEnd
  0
BLOCK
  5
1C
330
1B
100
AcDbEntity
 67
     1
  8
0
100
AcDbBlockBegin
  2
*Paper_Space
 70
     0
 10
0.0
 20
0.0
 30
0.0
  3
*Paper_Space
  1
*Paper_Space
  0
ENDBLK
  5
1D
330
1B
100
AcDbEntity
 67
     1
  8
0
100
AcDbBlockEnd
  0
BLOCK
  5
24
330
23
100
AcDbEntity
  8
0
100
AcDbBlockBegin
  2
*Paper_Space0
 70
     0
 10
0.0
 20
0.0
 30
0.0
  3
*Paper_Space0
  1
*Paper_Space0
  0
ENDBLK
  5
25
330
23
100
AcDbEntity
  8
0
100
AcDbBlockEnd
  0
BLOCK
  5
83
330
82
100
AcDbEntity
  8
0
100
AcDbBlockBegin
  2
블럭10
 70
     2
 10
0.0
 20
0.0
 30
0.0
  3
블럭10
  1
블럭10
  0
ELLIPSE
  5
85
330
82
100
AcDbEntity
  8
중심선
100
AcDbEllipse
 10
20.54032771741204
 20
12.0471743016438
 30
0.0
 11
6.600054785286829
 21
-1.261213355974178E-13
 31
0.0
210
0.0
220
0.0
230
1.0
 40
0.636358354079598
 41
0.9219305317359503
 42
6.513795318482858
  0
ELLIPSE
  5
86
330
82
100
AcDbEntity
  8
중심선
100
AcDbEllipse
 10
20.54032771746488
 20
12.04717430159265
 30
0.0
 11
3.960054785062283
 21
1.540847449632565E-10
 31
0.0
210
0.0
220
0.0
230
1.0
 40
0.3939339440162632
 41
1.131841032648279
 42
5.62031148352944
  0
LINE
  5
87
330
82
100
AcDbEntity
  8
중심선
100
AcDbLine
 10
2.268634060543552
 20
16.24717430164393
 30
0.0
 11
5.714909304380834
 21
16.24717430164393
 31
0.0
  0
LINE
  5
88
330
82
100
AcDbEntity
  8
중심선
100
AcDbLine
 10
5.245725140726316
 20
7.84717430164391
 30
0.0
 11
8.692000384563599
 21
7.84717430164391
 31
0.0
  0
LINE
  5
89
330
82
100
AcDbEntity
  8
중심선
100
AcDbLine
 10
15.74043728645272
 20
16.24717430164393
 30
0.0
 11
8.692000384563599
 21
7.84717430164391
 31
0.0
  0
LINE
  5
8A
330
82
100
AcDbEntity
  8
중심선
100
AcDbLine
 10
0.1404042013395286
 20
13.71084872107135
 30
0.0
 11
3.58671253028996
 21
13.71088815037384
 31
0.0
  0
LINE
  5
8B
330
82
100
AcDbEntity
  8
중심선
100
AcDbLine
 10
2.750260043222114
 20
10.84717430164391
 30
0.0
 11
6.196535287059397
 21
10.84717430164391
 31
0.0
  0
LINE
  5
8C
330
82
100
AcDbEntity
  8
중심선
100
AcDbLine
 10
12.29416204261559
 20
16.24717430164393
 30
0.0
 11
5.245725140726316
 21
7.84717430164391
 31
0.0
  0
LINE
  5
8D
330
82
100
AcDbEntity
  8
중심선
100
AcDbLine
 10
10.72767329541681
 20
16.24717430164393
 30
0.0
 11
6.196535287059397
 21
10.84717430164391
 31
0.0
  0
LINE
  5
8E
330
82
100
AcDbEntity
  8
중심선
100
AcDbLine
 10
7.28139805157953
 20
16.24717430164393
 30
0.0
 11
2.750260043222114
 21
10.84717430164391
 31
0.0
  0
LINE
  5
8F
330
82
100
AcDbEntity
  8
중심선
100
AcDbLine
 10
5.714909304380834
 20
16.24717430164393
 30
0.0
 11
3.58671253028996
 21
13.71088815037384
 31
0.0
  0
LINE
  5
90
330
82
100
AcDbEntity
  8
중심선
100
AcDbLine
 10
2.268634060543552
 20
16.24717430164393
 30
0.0
 11
0.1404042013395286
 21
13.71084872107135
 31
0.0
  0
LINE
  5
91
330
82
100
AcDbEntity
  8
중심선
100
AcDbLine
 10
7.28139805157953
 20
16.24717430164393
 30
0.0
 11
10.72767329541681
 21
16.24717430164393
 31
0.0
  0
LINE
  5
92
330
82
100
AcDbEntity
  8
중심선
100
AcDbLine
 10
12.29416204261559
 20
16.24717430164393
 30
0.0
 11
15.74043728645272
 21
16.24717430164393
 31
0.0
  0
LINE
  5
93
330
82
100
AcDbEntity
  8
중심선
100
AcDbLine
 10
19.22036997980202
 20
11.08717430171403
 30
0.0
 11
23.66174974927406
 21
11.08717430171406
 31
0.0
  0
LINE
  5
94
330
82
100
AcDbEntity
  8
중심선
100
AcDbLine
 10
19.22039502424796
 20
13.00717430171391
 30
0.0
 11
19.22036997980202
 21
11.08717430171403
 31
0.0
  0
LINE
  5
95
330
82
100
AcDbEntity
  8
중심선
100
AcDbLine
 10
19.22039502424796
 20
13.00717430171391
 30
0.0
 11
26.96566020931264
 21
13.00717430171391
 31
0.0
  0
LINE
  5
96
330
82
100
AcDbEntity
  8
중심선
100
AcDbLine
 10
22.22332737316547
 20
13.45928029700563
 30
0.0
 11
24.52862924686651
 21
15.39360700705356
 31
0.0
  0
ATTDEF
  5
98
330
82
100
AcDbEntity
  8
FORMAT
 62
     2
100
AcDbText
 10
-9.18129528874128
 20
2.075366912832191
 30
0.0
 40
4.233333333333333
  1
E5254932 [ 2 FLUTE ]
 41
0.75
  7
SLDTEXTSTYLE0
 11
-9.18129528874128
 21
-0.0412997538344756
 31
0.0
100
AcDbAttributeDefinition
  3

  2
AUTOATTR0
 70
     0
 74
     1
  0
ENDBLK
  5
84
330
82
100
AcDbEntity
  8
0
100
AcDbBlockEnd
  0
BLOCK
  5
E3
330
E2
100
AcDbEntity
  8
0
100
AcDbBlockBegin
  2
_D
 70
     0
 10
0.0
 20
0.0
 30
0.0
  3
_D
  1
_D
  0
LINE
  5
E5
330
E2
100
AcDbEntity
  8
치수문자_일반주서
 62
     0
370
    -2
100
AcDbLine
 10
41.75
 20
6.408208005432137
 30
0.0
 11
41.75000000000001
 21
41.93589146707808
 31
0.0
  0
LINE
  5
E6
330
E2
100
AcDbEntity
  8
치수문자_일반주서
 62
     0
370
    -2
100
AcDbLine
 10
-34.45000000000001
 20
5.413574928723887
 30
0.0
 11
-34.45
 21
41.93589146707808
 31
0.0
  0
LINE
  5
E7
330
E2
100
AcDbEntity
  8
치수문자_일반주서
 62
     0
370
    -2
100
AcDbLine
 10
38.44800000000001
 20
41.93589146707808
 30
0.0
 11
-31.148
 21
41.93589146707808
 31
0.0
  0
SOLID
  5
E8
330
E2
100
AcDbEntity
  8
치수문자_일반주서
 62
     0
100
AcDbTrace
 10
38.44800000000001
 20
41.38555813374474
 30
0.0
 11
38.44800000000001
 21
42.48622480041141
 31
0.0
 12
41.75000000000001
 22
41.93589146707808
 32
0.0
 13
41.75000000000001
 23
41.93589146707808
 33
0.0
  0
SOLID
  5
E9
330
E2
100
AcDbEntity
  8
치수문자_일반주서
 62
     0
100
AcDbTrace
 10
-31.148
 20
42.48622480041141
 30
0.0
 11
-31.148
 21
41.38555813374474
 31
0.0
 12
-34.45
 22
41.93589146707808
 32
0.0
 13
-34.45
 23
41.93589146707808
 33
0.0
  0
MTEXT
  5
EA
330
E2
100
AcDbEntity
  8
치수문자_일반주서
 62
     0
100
AcDbMText
 10
3.649999999999991
 20
46.31089146707808
 30
0.0
 40
3.5
 41
0.0
 71
     2
 72
     1
  1
\A1;76.20 [3]
  7
SLDTEXTSTYLE0
 73
     1
 44
1.0
  0
POINT
  5
EB
330
E2
100
AcDbEntity
  8
Defpoints
 62
     0
100
AcDbPoint
 10
41.75
 20
6.345708005432137
 30
0.0
  0
POINT
  5
EC
330
E2
100
AcDbEntity
  8
Defpoints
 62
     0
100
AcDbPoint
 10
-34.45000000000001
 20
5.351074928723887
 30
0.0
  0
POINT
  5
ED
330
E2
100
AcDbEntity
  8
Defpoints
 62
     0
100
AcDbPoint
 10
-34.45000000000001
 20
41.93589146707808
 30
0.0
  0
ENDBLK
  5
E4
330
E2
100
AcDbEntity
  8
0
100
AcDbBlockEnd
  0
BLOCK
  5
F7
330
F6
100
AcDbEntity
  8
0
100
AcDbBlockBegin
  2
_D_1
 70
     0
 10
0.0
 20
0.0
 30
0.0
  3
_D_1
  1
_D_1
  0
LINE
  5
F9
330
F6
100
AcDbEntity
  8
치수문자_일반주서
 62
     0
370
    -2
100
AcDbLine
 10
-33.5125
 20
6.351074928723888
 30
0.0
 11
-47.26000000000002
 21
6.35107492872384
 31
0.0
  0
LINE
  5
FA
330
F6
100
AcDbEntity
  8
치수문자_일반주서
 62
     0
370
    -2
100
AcDbLine
 10
-33.5125
 20
-6.348925071276101
 30
0.0
 11
-47.25999999999998
 21
-6.348925071276149
 31
0.0
  0
LINE
  5
FB
330
F6
100
AcDbEntity
  8
치수문자_일반주서
 62
     0
370
    -2
100
AcDbLine
 10
-47.26000000000001
 20
3.04907492872384
 30
0.0
 11
-47.25999999999999
 21
-3.046925071276149
 31
0.0
  0
SOLID
  5
FC
330
F6
100
AcDbEntity
  8
치수문자_일반주서
 62
     0
100
AcDbTrace
 10
-46.70966666666667
 20
3.049074928723842
 30
0.0
 11
-47.81033333333334
 21
3.049074928723838
 31
0.0
 12
-47.26000000000002
 22
6.35107492872384
 32
0.0
 13
-47.26000000000002
 23
6.35107492872384
 33
0.0
  0
SOLID
  5
FD
330
F6
100
AcDbEntity
  8
치수문자_일반주서
 62
     0
100
AcDbTrace
 10
-47.81033333333333
 20
-3.046925071276151
 30
0.0
 11
-46.70966666666666
 21
-3.046925071276148
 31
0.0
 12
-47.25999999999998
 22
-6.348925071276149
 32
0.0
 13
-47.25999999999998
 23
-6.348925071276149
 33
0.0
  0
MTEXT
  5
FE
330
F6
100
AcDbEntity
  8
치수문자_일반주서
 62
     0
100
AcDbMText
 10
-51.635
 20
0.0010749287238769
 30
0.0
 40
3.5
 41
0.0
 71
     2
 72
     1
  1
\A1;%%c12.70 [1/2]
  7
SLDTEXTSTYLE0
 11
-3.356894814614650E-15
 21
1.0
 31
0.0
 73
     1
 44
1.0
  0
POINT
  5
FF
330
F6
100
AcDbEntity
  8
Defpoints
 62
     0
100
AcDbPoint
 10
-33.45
 20
6.351074928723888
 30
0.0
  0
POINT
  5
100
330
F6
100
AcDbEntity
  8
Defpoints
 62
     0
100
AcDbPoint
 10
-33.45
 20
-6.348925071276101
 30
0.0
  0
POINT
  5
101
330
F6
100
AcDbEntity
  8
Defpoints
 62
     0
100
AcDbPoint
 10
-47.25999999999998
 20
-6.348925071276149
 30
0.0
  0
ENDBLK
  5
F8
330
F6
100
AcDbEntity
  8
0
100
AcDbBlockEnd
  0
BLOCK
  5
10C
330
10B
100
AcDbEntity
  8
0
100
AcDbBlockBegin
  2
_D_2
 70
     0
 10
0.0
 20
0.0
 30
0.0
  3
_D_2
  1
_D_2
  0
LINE
  5
10E
330
10B
100
AcDbEntity
  8
치수문자_일반주서
 62
     0
370
    -2
100
AcDbLine
 10
41.75
 20
6.408208005432137
 30
0.0
 11
41.75
 21
26.58232551893264
 31
0.0
  0
LINE
  5
10F
330
10B
100
AcDbEntity
  8
치수문자_일반주서
 62
     0
370
    -2
100
AcDbLine
 10
9.999999999999996
 20
5.037683836099166
 30
0.0
 11
9.999999999999996
 21
26.58232551893264
 31
0.0
  0
LINE
  5
110
330
10B
100
AcDbEntity
  8
치수문자_일반주서
 62
     0
370
    -2
100
AcDbLine
 10
38.448
 20
26.58232551893264
 30
0.0
 11
13.302
 21
26.58232551893264
 31
0.0
  0
SOLID
  5
111
330
10B
100
AcDbEntity
  8
치수문자_일반주서
 62
     0
100
AcDbTrace
 10
38.448
 20
26.0319921855993
 30
0.0
 11
38.448
 21
27.13265885226597
 31
0.0
 12
41.75
 22
26.58232551893264
 32
0.0
 13
41.75
 23
26.58232551893264
 33
0.0
  0
SOLID
  5
112
330
10B
100
AcDbEntity
  8
치수문자_일반주서
 62
     0
100
AcDbTrace
 10
13.302
 20
27.13265885226597
 30
0.0
 11
13.302
 21
26.0319921855993
 31
0.0
 12
9.999999999999996
 22
26.58232551893264
 32
0.0
 13
9.999999999999996
 23
26.58232551893264
 33
0.0
  0
MTEXT
  5
113
330
10B
100
AcDbEntity
  8
치수문자_일반주서
 62
     0
100
AcDbMText
 10
25.875
 20
30.95732551893264
 30
0.0
 40
3.5
 41
0.0
 71
     2
 72
     1
  1
\A1;31.75 [1 1/4]
  7
SLDTEXTSTYLE0
 73
     1
 44
1.0
  0
POINT
  5
114
330
10B
100
AcDbEntity
  8
Defpoints
 62
     0
100
AcDbPoint
 10
41.75
 20
6.345708005432137
 30
0.0
  0
POINT
  5
115
330
10B
100
AcDbEntity
  8
Defpoints
 62
     0
100
AcDbPoint
 10
9.999999999999996
 20
4.975183836099166
 30
0.0
  0
POINT
  5
116
330
10B
100
AcDbEntity
  8
Defpoints
 62
     0
100
AcDbPoint
 10
9.999999999999996
 20
26.58232551893264
 30
0.0
  0
ENDBLK
  5
10D
330
10B
100
AcDbEntity
  8
0
100
AcDbBlockEnd
  0
BLOCK
  5
11F
330
11E
100
AcDbEntity
  8
0
100
AcDbBlockBegin
  2
_D_3
 70
     0
 10
0.0
 20
0.0
 30
0.0
  3
_D_3
  1
_D_3
  0
LINE
  5
121
330
11E
100
AcDbEntity
  8
치수문자_일반주서
 62
     0
370
    -2
100
AcDbLine
 10
41.8125
 20
6.345708005432137
 30
0.0
 11
61.9593537150438
 21
6.345708005432208
 31
0.0
  0
LINE
  5
122
330
11E
100
AcDbEntity
  8
치수문자_일반주서
 62
     0
370
    -2
100
AcDbLine
 10
41.8125
 20
-6.343558147984346
 30
0.0
 11
61.95935371504384
 21
-6.343558147984275
 31
0.0
  0
LINE
  5
123
330
11E
100
AcDbEntity
  8
치수문자_일반주서
 62
     0
370
    -2
100
AcDbLine
 10
61.9593537150438
 20
6.345708005432208
 30
0.0
 11
61.9593537150437
 21
36.7727080054322
 31
0.0
  0
LINE
  5
124
330
11E
100
AcDbEntity
  8
치수문자_일반주서
 62
     0
370
    -2
100
AcDbLine
 10
61.95935371504381
 20
3.043708005432208
 30
0.0
 11
61.95935371504383
 21
-3.041558147984276
 31
0.0
  0
SOLID
  5
125
330
11E
100
AcDbEntity
  8
치수문자_일반주서
 62
     0
100
AcDbTrace
 10
62.50968704837715
 20
3.04370800543221
 30
0.0
 11
61.40902038171048
 21
3.043708005432206
 31
0.0
 12
61.9593537150438
 22
6.345708005432208
 32
0.0
 13
61.9593537150438
 23
6.345708005432208
 33
0.0
  0
SOLID
  5
126
330
11E
100
AcDbEntity
  8
치수문자_일반주서
 62
     0
100
AcDbTrace
 10
61.40902038171049
 20
-3.041558147984277
 30
0.0
 11
62.50968704837716
 21
-3.041558147984274
 31
0.0
 12
61.95935371504384
 22
-6.343558147984275
 32
0.0
 13
61.95935371504384
 23
-6.343558147984275
 33
0.0
  0
MTEXT
  5
127
330
11E
100
AcDbEntity
  8
치수문자_일반주서
 62
     0
100
AcDbMText
 10
57.58435371504374
 20
23.21020800543219
 30
0.0
 40
3.5
 41
0.0
 71
     2
 72
     1
  1
\A1;%%c12.69 [1/2]
  7
SLDTEXTSTYLE0
 11
-3.359734410971239E-15
 21
1.0
 31
0.0
 73
     1
 44
1.0
  0
POINT
  5
128
330
11E
100
AcDbEntity
  8
Defpoints
 62
     0
100
AcDbPoint
 10
41.75
 20
6.345708005432137
 30
0.0
  0
POINT
  5
129
330
11E
100
AcDbEntity
  8
Defpoints
 62
     0
100
AcDbPoint
 10
41.75
 20
-6.343558147984346
 30
0.0
  0
POINT
  5
12A
330
11E
100
AcDbEntity
  8
Defpoints
 62
     0
100
AcDbPoint
 10
61.95935371504384
 20
-6.343558147984276
 30
0.0
  0
ENDBLK
  5
120
330
11E
100
AcDbEntity
  8
0
100
AcDbBlockEnd
  0
BLOCK
  5
131
330
130
100
AcDbEntity
  8
0
100
AcDbBlockBegin
  2
SW_DOWELSYMBOL_0
 70
     0
 10
0.0
 20
0.0
 30
0.0
  3
SW_DOWELSYMBOL_0
  1
SW_DOWELSYMBOL_0
  0
CIRCLE
  5
133
330
130
100
AcDbEntity
  8
외형선
 62
     0
100
AcDbCircle
 10
0.0
 20
0.0
 30
0.0
 40
3.000000000000003
  0
HATCH
  5
134
330
130
100
AcDbEntity
  8
0
  6
Continuous
 62
     0
370
    35
100
AcDbHatch
 10
0.0
 20
0.0
 30
0.0
210
0.0
220
0.0
230
1.0
  2
SOLID
 70
     1
 71
     0
 91
        1
 92
        0
 93
        3
 72
     2
 10
0.0000000000000087
 20
0.0
 40
3.000000000000003
 50
0.0
 51
90.0
 73
     1
 72
     1
 10
0.0000000000000087
 20
3.000000000000003
 11
0.0000000000000087
 21
0.0
 72
     1
 10
0.0000000000000087
 20
0.0
 11
3.000000000000012
 21
0.0
 97
        0
 75
     0
 76
     1
 98
        1
 10
0.0
 20
0.0
  0
HATCH
  5
135
330
130
100
AcDbEntity
  8
0
  6
Continuous
 62
     0
370
    35
100
AcDbHatch
 10
0.0
 20
0.0
 30
0.0
210
0.0
220
0.0
230
1.0
  2
SOLID
 70
     1
 71
     0
 91
        1
 92
        0
 93
        3
 72
     2
 10
0.0000000000000087
 20
0.0
 40
3.000000000000003
 50
180.0
 51
270.0000000000008
 73
     1
 72
     1
 10
0.0000000000000087
 20
-3.000000000000003
 11
0.0000000000000087
 21
0.0
 72
     1
 10
0.0000000000000087
 20
0.0
 11
-2.999999999999994
 21
0.0
 97
        0
 75
     0
 76
     1
 98
        1
 10
0.0
 20
0.0
  0
ENDBLK
  5
132
330
130
100
AcDbEntity
  8
0
100
AcDbBlockEnd
  0
ENDSEC
  0
SECTION
  2
ENTITIES
  0
LINE
  5
99
330
1F
100
AcDbEntity
  8
0
  6
Continuous
 62
     4
370
    25
100
AcDbLine
 10
7.970244782175256
 20
6.351074928723893
 30
0.0
 11
-33.45000000000001
 21
6.35107492872389
 31
0.0
  0
LINE
  5
9A
330
1F
100
AcDbEntity
  8
0
  6
Continuous
 62
     4
370
    25
100
AcDbLine
 10
-33.45000000000001
 20
-6.348925071276109
 30
0.0
 11
7.970244782175256
 21
-6.348925071276106
 31
0.0
  0
LINE
  5
9B
330
1F
100
AcDbEntity
  8
0
  6
Continuous
 62
     4
370
    25
100
AcDbLine
 10
-33.45000000000001
 20
6.351074928723888
 30
0.0
 11
-34.45000000000001
 21
5.351074928723886
 31
0.0
  0
LINE
  5
9C
330
1F
100
AcDbEntity
  8
0
  6
Continuous
 62
     4
370
    25
100
AcDbLine
 10
-34.45000000000001
 20
-5.348925071276106
 30
0.0
 11
-33.45000000000001
 21
-6.348925071276106
 31
0.0
  0
SPLINE
  5
9D
330
1F
100
AcDbEntity
  8
0
  6
Continuous
 62
     4
370
    25
100
AcDbSpline
210
0.0
220
0.0
230
1.0
 70
     8
 71
     3
 72
     9
 73
     5
 74
     0
 42
0.000000001
 43
0.00000001
 40
0.0
 40
0.0
 40
0.0
 40
0.0
 40
0.5606797337524386
 40
1.0
 40
1.0
 40
1.0
 40
1.0
 10
9.999999999999995
 20
4.975183731568435
 30
0.0
 10
9.643983525640847
 20
4.965808355363846
 30
0.0
 10
9.009010558138613
 20
4.949086908804964
 30
0.0
 10
8.38264861620228
 20
4.980412100009018
 30
0.0
 10
8.107475121103471
 20
4.994173891349039
 30
0.0
  0
SPLINE
  5
9E
330
1F
100
AcDbEntity
  8
0
  6
Continuous
 62
     4
370
    25
100
AcDbSpline
210
0.0
220
0.0
230
1.0
 70
     8
 71
     3
 72
     9
 73
     5
 74
     0
 42
0.000000001
 43
0.00000001
 40
0.0
 40
0.0
 40
0.0
 40
0.0
 40
0.4389005882174457
 40
1.0
 40
1.0
 40
1.0
 40
1.0
 10
7.958033717406776
 20
-4.998022944524065
 30
0.0
 10
8.25432114725509
 20
-4.982492629804316
 30
0.0
 10
8.929388435388967
 20
-4.947108045830931
 30
0.0
 10
9.615194577221116
 20
-4.963695242061272
 30
0.0
 10
9.999999999999996
 20
-4.973002308109238
 30
0.0
  0
SPLINE
  5
9F
330
1F
100
AcDbEntity
  8
0
  6
Continuous
 62
     1
370
    25
100
AcDbSpline
210
0.0
220
0.0
230
1.0
 70
     8
 71
     3
 72
    10
 73
     6
 74
     0
 42
0.000000001
 43
0.00000001
 40
0.0
 40
0.0
 40
0.0
 40
0.0
 40
0.4984839331015999
 40
0.6858709410408234
 40
0.9999999999999999
 40
0.9999999999999999
 40
0.9999999999999999
 40
0.9999999999999999
 10
12.30175669105196
 20
1.628302571594769
 30
0.0
 10
12.13313635759295
 20
1.767899131615357
 30
0.0
 10
11.90112930759926
 20
1.959971970135246
 30
0.0
 10
11.56320106537567
 20
2.257932085524347
 30
0.0
 10
11.39307433574363
 20
2.412479378252047
 30
0.0
 10
11.28651394214822
 20
2.509281452669089
 30
0.0
  0
SPLINE
  5
A0
330
1F
100
AcDbEntity
  8
0
  6
Continuous
 62
     1
370
    25
100
AcDbSpline
210
0.0
220
0.0
230
1.0
 70
     8
 71
     3
 72
     9
 73
     5
 74
     0
 42
0.000000001
 43
0.00000001
 40
0.0
 40
0.0
 40
0.0
 40
0.0
 40
0.5197335179726756
 40
1.0
 40
1.0
 40
1.0
 40
1.0
 10
32.25092151597536
 20
1.628260907787004
 30
0.0
 10
32.07524281528773
 20
1.77378556412075
 30
0.0
 10
31.73722593815252
 20
2.053784162058774
 30
0.0
 10
31.39840259429798
 20
2.361466341152562
 30
0.0
 10
31.23567709891623
 20
2.509235778888437
 30
0.0
  0
LINE
  5
A1
330
1F
100
AcDbEntity
  8
0
  6
Continuous
 62
     1
370
    25
100
AcDbLine
 10
23.8378956720513
 20
6.351074928723897
 30
0.0
 11
22.06225430583855
 21
6.351074928723897
 31
0.0
  0
LINE
  5
A2
330
1F
100
AcDbEntity
  8
0
  6
Continuous
 62
     1
370
    25
100
AcDbLine
 10
22.06225430583855
 20
-6.34892507127611
 30
0.0
 11
23.83789567205129
 21
-6.34892507127611
 31
0.0
  0
SPLINE
  5
A3
330
1F
100
AcDbEntity
  8
0
  6
Continuous
 62
     1
370
    25
100
AcDbSpline
210
0.0
220
0.0
230
1.0
 70
     8
 71
     3
 72
    22
 73
    18
 74
     0
 42
0.000000001
 43
0.00000001
 40
0.0
 40
0.0
 40
0.0
 40
0.0
 40
0.0823167014401715
 40
0.1427120074515667
 40
0.1831095498265849
 40
0.2199734878635501
 40
0.2566912580615543
 40
0.324827574280996
 40
0.4085607507327103
 40
0.4996639718623366
 40
0.6010908219387122
 40
0.6928681443548369
 40
0.767388276892551
 40
0.8085848364992606
 40
0.8504418884293068
 40
0.9121876585831097
 40
1.0
 40
1.0
 40
1.0
 40
1.0
 10
25.52492194686019
 20
-5.283010076484008
 30
0.0
 10
25.67616315453287
 20
-5.257660252933852
 30
0.0
 10
25.93836919509019
 20
-5.213711404837514
 30
0.0
 10
26.27419578473312
 20
-5.164965694671613
 30
0.0
 10
26.52824774574215
 20
-5.130892255854945
 30
0.0
 10
26.73828087272573
 20
-5.104754903553684
 30
0.0
 10
26.99877373593127
 20
-5.074729113733014
 30
0.0
 10
27.34553265969751
 20
-5.03977000472358
 30
0.0
 10
27.79221659796795
 20
-5.003799247626962
 30
0.0
 10
28.30005850819719
 20
-4.974754985305655
 30
0.0
 10
28.82172328613893
 20
-4.958629271238388
 30
0.0
 10
29.31416601832105
 20
-4.956688255343479
 30
0.0
 10
29.69561567654808
 20
-4.963906218329901
 30
0.0
 10
29.98620999306241
 20
-4.974050538731448
 30
0.0
 10
30.25437424711662
 20
-4.986653894823599
 30
0.0
 10
30.60495606322017
 20
-5.007591506345411
 30
0.0
 10
30.87910146160423
 20
-5.031081274771763
 30
0.0
 10
31.04006464218968
 20
-5.044873181764943
 30
0.0
  0
SPLINE
  5
A4
330
1F
100
AcDbEntity
  8
0
  6
Continuous
 62
     1
370
    25
100
AcDbSpline
210
0.0
220
0.0
230
1.0
 70
     8
 71
     3
 72
    10
 73
     6
 74
     0
 42
0.000000001
 43
0.00000001
 40
0.0
 40
0.0
 40
0.0
 40
0.0
 40
0.4886332227307231
 40
0.8342100470466302
 40
1.0
 40
1.0
 40
1.0
 40
1.0
 10
11.0909932203664
 20
5.047026905727925
 30
0.0
 10
10.91177258835704
 20
5.03185679748354
 30
0.0
 10
10.60580147361225
 20
5.005957910294641
 30
0.0
 10
10.24225086169323
 20
4.98513326084706
 30
0.0
 10
10.05893852387149
 20
4.977823831687034
 30
0.0
 10
9.999506927580603
 20
4.975454045517059
 30
0.0
  0
SPLINE
  5
A5
330
1F
100
AcDbEntity
  8
0
  6
Continuous
 62
     1
370
    25
100
AcDbSpline
210
0.0
220
0.0
230
1.0
 70
     8
 71
     3
 72
    10
 73
     6
 74
     0
 42
0.000000001
 43
0.00000001
 40
0.0
 40
0.0
 40
0.0
 40
0.0
 40
0.1657930042555766
 40
0.5113685645501163
 40
1.0
 40
1.0
 40
1.0
 40
1.0
 10
9.999502987947023
 20
-4.973304023474994
 30
0.0
 10
10.058935894136
 20
-4.975673860246573
 30
0.0
 10
10.24224953913183
 20
-4.982983336503073
 30
0.0
 10
10.60580147020559
 20
-5.0038080484633
 30
0.0
 10
10.91177258709868
 20
-5.029706938416552
 30
0.0
 10
11.0909932203664
 20
-5.044877048280139
 30
0.0
  0
SPLINE
  5
A6
330
1F
100
AcDbEntity
  8
0
  6
Continuous
 62
     1
370
    25
100
AcDbSpline
210
0.0
220
0.0
230
1.0
 70
     8
 71
     3
 72
    15
 73
    11
 74
     0
 42
0.000000001
 43
0.00000001
 40
0.0
 40
0.0
 40
0.0
 40
0.0
 40
0.165437173367928
 40
0.280728175744848
 40
0.3592745549063894
 40
0.4371753106797171
 40
0.5172782094737619
 40
0.7076022223357109
 40
0.9282826087426983
 40
1.0
 40
1.0
 40
1.0
 40
1.0
 10
31.04006464218968
 20
5.047023039212733
 30
0.0
 10
30.87662336984005
 20
5.033034295499117
 30
0.0
 10
30.5992820124289
 20
5.009296979249455
 30
0.0
 10
30.2445416929782
 20
4.988261751398489
 30
0.0
 10
29.97326292889482
 20
4.975658801670705
 30
0.0
 10
29.73816930135696
 20
4.967638090186631
 30
0.0
 10
29.39290575056634
 20
4.9598268063751
 30
0.0
 10
28.90590548366514
 20
4.95930644614808
 30
0.0
 10
28.42853888681195
 20
4.970573715329517
 30
0.0
 10
28.13886944623866
 20
4.987978726588715
 30
0.0
 10
28.06782124344168
 20
4.992247712530689
 30
0.0
  0
SPLINE
  5
A7
330
1F
100
AcDbEntity
  8
0
  6
Continuous
 62
     1
370
    25
100
AcDbSpline
210
0.0
220
0.0
230
1.0
 70
     8
 71
     3
 72
    15
 73
    11
 74
     0
 42
0.000000001
 43
0.00000001
 40
0.0
 40
0.0
 40
0.0
 40
0.0
 40
0.181584929229734
 40
0.3102351176676564
 40
0.4031953333369039
 40
0.5160555927117698
 40
0.6501933467469644
 40
0.8259828347937352
 40
0.9883602471716125
 40
1.0
 40
1.0
 40
1.0
 40
1.0
 10
33.98248803301647
 20
-4.774967434012509
 30
0.0
 10
34.14427091292163
 20
-4.732172181648593
 30
0.0
 10
34.42067452745555
 20
-4.659057137305131
 30
0.0
 10
34.78506276444839
 20
-4.573854507551053
 30
0.0
 10
35.09997419387489
 20
-4.505356314149052
 30
0.0
 10
35.41199566003185
 20
-4.443077820644528
 30
0.0
 10
35.79654691922214
 20
-4.374697445906725
 30
0.0
 10
36.22729661599522
 20
-4.311020824586049
 30
0.0
 10
36.54777129146497
 20
-4.270176676607092
 30
0.0
 10
36.70513536394343
 20
-4.255680654201386
 30
0.0
 10
36.71566121583596
 20
-4.254711036534088
 30
0.0
  0
SPLINE
  5
A8
330
1F
100
AcDbEntity
  8
0
  6
Continuous
 62
     1
370
    25
100
AcDbSpline
210
0.0
220
0.0
230
1.0
 70
     8
 71
     3
 72
    23
 73
    19
 74
     0
 42
0.000000001
 43
0.00000001
 40
0.0
 40
0.0
 40
0.0
 40
0.0
 40
0.0688232066528613
 40
0.1212771004029409
 40
0.1602903381877925
 40
0.2037517377026311
 40
0.2546355620646863
 40
0.3066241791319196
 40
0.3835790849156641
 40
0.4495836225378431
 40
0.5057866119791593
 40
0.5777483165515901
 40
0.6624028697531478
 40
0.7627973295205726
 40
0.8199022216255669
 40
0.8690072532401534
 40
0.9259682151774355
 40
0.9999999999999999
 40
0.9999999999999999
 40
0.9999999999999999
 40
0.9999999999999999
 10
20.43737064709512
 20
4.344127817566048
 30
0.0
 10
20.2964421891308
 20
4.324115780205685
 30
0.0
 10
20.04810451965285
 20
4.288851485177092
 30
0.0
 10
19.71087130394634
 20
4.251992475670535
 30
0.0
 10
19.40872683145683
 20
4.225141189683487
 30
0.0
 10
19.11702863802172
 20
4.204622211347408
 30
0.0
 10
18.80326761041489
 20
4.189068535006939
 30
0.0
 10
18.42044132999644
 20
4.178747784168599
 30
0.0
 10
18.00457795499029
 20
4.179566177452944
 30
0.0
 10
17.57899440936027
 20
4.193893640527593
 30
0.0
 10
17.16364042964524
 20
4.21905423487145
 30
0.0
 10
16.70975964639968
 20
4.259648344105714
 30
0.0
 10
16.16120615571155
 20
4.327211071416174
 30
0.0
 10
15.6454408659976
 20
4.410323475853093
 30
0.0
 10
15.20012255369721
 20
4.496893344144095
 30
0.0
 10
14.83394836030116
 20
4.576013858786181
 30
0.0
 10
14.44648872119593
 20
4.667255794502769
 30
0.0
 10
14.18242614048846
 20
4.737480014551874
 30
0.0
 10
14.03318868545237
 20
4.777167894045987
 30
0.0
  0
SPLINE
  5
A9
330
1F
100
AcDbEntity
  8
0
  6
Continuous
 62
     1
370
    25
100
AcDbSpline
210
0.0
220
0.0
230
1.0
 70
     8
 71
     3
 72
    14
 73
    10
 74
     0
 42
0.000000001
 43
0.00000001
 40
0.0
 40
0.0
 40
0.0
 40
0.0
 40
0.1937189453579495
 40
0.3364241246848368
 40
0.4733955357202233
 40
0.6340340241990561
 40
0.7877987562779635
 40
0.9246699587437556
 40
0.9999999999999999
 40
0.9999999999999999
 40
0.9999999999999999
 40
0.9999999999999999
 10
14.03318868545237
 20
-4.775018036598198
 30
0.0
 10
14.19977579410561
 20
-4.730795781498502
 30
0.0
 10
14.48908111790286
 20
-4.653996718629278
 30
0.0
 10
14.93353984407447
 20
-4.551397443298512
 30
0.0
 10
15.35091065067066
 20
-4.463893162274817
 30
0.0
 10
15.76224527209867
 20
-4.388872309104388
 30
0.0
 10
16.17433184386082
 20
-4.325486088713087
 30
0.0
 10
16.50813982169366
 20
-4.281583131202079
 30
0.0
 10
16.70146343204877
 20
-4.261854369414614
 30
0.0
 10
16.77009203802872
 20
-4.254850789165428
 30
0.0
  0
SPLINE
  5
AA
330
1F
100
AcDbEntity
  8
0
  6
Continuous
 62
     1
370
    25
100
AcDbSpline
210
0.0
220
0.0
230
1.0
 70
     8
 71
     3
 72
    26
 73
    22
 74
     0
 42
0.000000001
 43
0.00000001
 40
0.0
 40
0.0
 40
0.0
 40
0.0
 40
0.0705703892467664
 40
0.1275762343497411
 40
0.1811449851940673
 40
0.2134524567768698
 40
0.2423527306188774
 40
0.2709608975362588
 40
0.2999950957285367
 40
0.3321384226626976
 40
0.4208159560786338
 40
0.5194120292205137
 40
0.5939105069905141
 40
0.6552540978093687
 40
0.7139303381167185
 40
0.7413738849489577
 40
0.7672347128154717
 40
0.799341012136587
 40
0.8487032991045531
 40
0.9156593190971192
 40
1.0
 40
1.0
 40
1.0
 40
1.0
 10
40.38659703138767
 20
4.344144676598408
 30
0.0
 10
40.23282548788354
 20
4.322466014392042
 30
0.0
 10
39.95483928602475
 20
4.283275610037641
 30
0.0
 10
39.56441814913024
 20
4.242470720666032
 30
0.0
 10
39.25754915799057
 20
4.217403480056048
 30
0.0
 10
39.02112900700583
 20
4.202644249008793
 30
0.0
 10
38.83411253860472
 20
4.193288301693412
 30
0.0
 10
38.65125743434611
 20
4.186409965148672
 30
0.0
 10
38.45924402911512
 20
4.181630569808818
 30
0.0
 10
38.13990961798903
 20
4.178078644319104
 30
0.0
 10
37.67129888717696
 20
4.18554174329566
 30
0.0
 10
37.11213696538162
 20
4.217467876232914
 30
0.0
 10
36.61278874069932
 20
4.265381188949675
 30
0.0
 10
36.19704137127534
 20
4.317229623950442
 30
0.0
 10
35.8815311846279
 20
4.364464850554901
 30
0.0
 10
35.64283543620713
 20
4.404466667818435
 30
0.0
 10
35.46159273845817
 20
4.436848556643748
 30
0.0
 10
35.23415845191741
 20
4.480176150032165
 30
0.0
 10
34.91885063435539
 20
4.545877311504979
 30
0.0
 10
34.48995338736268
 20
4.643474665571129
 30
0.0
 10
34.16412293828296
 20
4.729283157592743
 30
0.0
 10
33.98248803301647
 20
4.777117291460297
 30
0.0
  0
LINE
  5
AB
330
1F
100
AcDbEntity
  8
0
  6
Continuous
 62
     4
370
    25
100
AcDbLine
 10
8.10769559228236
 20
-4.991878197259882
 30
0.0
 11
7.970407844121176
 21
-5.082690902095426
 31
0.0
  0
LINE
  5
AC
330
1F
100
AcDbEntity
  8
0
  6
Continuous
 62
     4
370
    25
100
AcDbLine
 10
7.970244782175256
 20
5.08500382534384
 30
0.0
 11
7.970244782175256
 21
6.351074928723893
 31
0.0
  0
SPLINE
  5
AD
330
1F
100
AcDbEntity
  8
0
  6
Continuous
 62
     4
370
    25
100
AcDbSpline
210
0.0
220
0.0
230
1.0
 70
     8
 71
     3
 72
    10
 73
     6
 74
     0
 42
0.000000001
 43
0.00000001
 40
0.0
 40
0.0
 40
0.0
 40
0.0
 40
0.5
 40
0.5
 40
1.0
 40
1.0
 40
1.0
 40
1.0
 10
9.999999999999991
 20
3.631770177995795
 30
0.0
 10
9.663065608368777
 20
3.908934663548308
 30
0.0
 10
9.321867620739974
 20
4.171747320490057
 30
0.0
 10
8.643935850953584
 20
4.658451103147575
 30
0.0
 10
8.309576550286181
 20
4.881962431800206
 30
0.0
 10
7.970407844121175
 20
5.084840759543212
 30
0.0
  0
LINE
  5
AE
330
1F
100
AcDbEntity
  8
0
  6
Continuous
 62
     4
370
    25
100
AcDbLine
 10
9.999999999999991
 20
3.631770177995795
 30
0.0
 11
9.999999999999991
 21
2.051749056239882
 31
0.0
  0
SPLINE
  5
AF
330
1F
100
AcDbEntity
  8
0
  6
Continuous
 62
     4
370
    25
100
AcDbSpline
210
0.0
220
0.0
230
1.0
 70
     8
 71
     3
 72
    10
 73
     6
 74
     0
 42
0.000000001
 43
0.00000001
 40
0.0
 40
0.0
 40
0.0
 40
0.0
 40
0.5
 40
0.5
 40
1.0
 40
1.0
 40
1.0
 40
1.0
 10
9.999999999999991
 20
2.051749056239882
 30
0.0
 10
9.663038610433961
 20
2.371506226594115
 30
0.0
 10
9.321812940948265
 20
2.683840043445316
 30
0.0
 10
8.643827566543571
 20
3.281631172467681
 30
0.0
 10
8.309441280427901
 20
3.566514095338976
 30
0.0
 10
7.970244782175254
 20
3.836380424615491
 30
0.0
  0
LINE
  5
B0
330
1F
100
AcDbEntity
  8
0
  6
Continuous
 62
     4
370
    25
100
AcDbLine
 10
7.970244782175256
 20
-6.348925071276106
 30
0.0
 11
7.970244782175254
 21
3.83637865514724
 31
0.0
  0
LINE
  5
B1
330
1F
100
AcDbEntity
  8
0
  6
Continuous
 62
     4
370
    25
100
AcDbLine
 10
-33.45000000000001
 20
6.351074928723888
 30
0.0
 11
-33.45000000000001
 21
-6.348925071276099
 31
0.0
  0
LINE
  5
B2
330
1F
100
AcDbEntity
  8
0
  6
Continuous
 62
     4
370
    25
100
AcDbLine
 10
-34.45000000000001
 20
5.351074928723887
 30
0.0
 11
-34.45000000000001
 21
-5.348925071276112
 31
0.0
  0
SPLINE
  5
B3
330
1F
100
AcDbEntity
  8
0
  6
Continuous
 62
     4
370
    25
100
AcDbSpline
210
0.0
220
0.0
230
1.0
 70
    24
 71
     3
 72
    10
 73
     6
 74
     0
 42
0.000000001
 43
0.00000001
 40
0.0
 40
0.0
 40
0.0
 40
0.0
 40
0.5
 40
0.5
 40
1.0
 40
1.0
 40
1.0
 40
1.0
 10
9.999999999999991
 20
2.051749056239882
 30
0.0
 10
9.999999999999991
 20
2.039534111476299
 30
0.0
 10
9.999999999999991
 20
1.960958364309236
 30
0.0
 10
9.999999999999991
 20
1.684618144797465
 30
0.0
 10
9.999999999999991
 20
1.488038351436042
 30
0.0
 10
9.999999999999991
 20
1.262409951931842
 30
0.0
  0
SPLINE
  5
B4
330
1F
100
AcDbEntity
  8
0
  6
Continuous
 62
     4
370
    25
100
AcDbSpline
210
0.0
220
0.0
230
1.0
 70
     8
 71
     3
 72
     8
 73
     4
 74
     0
 42
0.000000001
 43
0.00000001
 40
0.0
 40
0.0
 40
0.0
 40
0.0
 40
1.0
 40
1.0
 40
1.0
 40
1.0
 10
9.99999999999185
 20
1.262409951937322
 30
0.0
 10
9.568790310925806
 20
1.552620854492633
 30
0.0
 10
9.130599530019763
 20
1.835511246659832
 30
0.0
 10
8.699037147365217
 20
2.102285457938394
 30
0.0
  0
SPLINE
  5
B5
330
1F
100
AcDbEntity
  8
0
  6
Continuous
 62
     4
370
    25
100
AcDbSpline
210
0.0
220
0.0
230
1.0
 70
     8
 71
     3
 72
    14
 73
    10
 74
     0
 42
0.000000001
 43
0.00000001
 40
0.0
 40
0.0
 40
0.0
 40
0.0
 40
0.25
 40
0.25
 40
0.5
 40
0.5
 40
0.75
 40
0.75
 40
1.0
 40
1.0
 40
1.0
 40
1.0
 10
7.970244782179479
 20
3.327492525259185
 30
0.0
 10
7.970244782178727
 20
3.238248899583414
 30
0.0
 10
8.000032495379505
 20
3.127660936410186
 30
0.0
 10
8.081654381212363
 20
2.905169334367781
 30
0.0
 10
8.135427067046079
 20
2.790059953735737
 30
0.0
 10
8.259684763795867
 20
2.568756297021338
 30
0.0
 10
8.330611199861504
 20
2.461066311700941
 30
0.0
 10
8.497250056834336
 20
2.260113830886417
 30
0.0
 10
8.591496578725497
 20
2.168762638370208
 30
0.0
 10
8.699037147365212
 20
2.102285457938396
 30
0.0
  0
SPLINE
  5
B6
330
1F
100
AcDbEntity
  8
0
  6
Continuous
 62
     4
370
    25
100
AcDbSpline
210
0.0
220
0.0
230
1.0
 70
     8
 71
     3
 72
    12
 73
     8
 74
     0
 42
0.000000001
 43
0.00000001
 40
0.0
 40
0.0
 40
0.0
 40
0.0
 40
0.25
 40
0.25
 40
0.5
 40
0.5
 40
1.0
 40
1.0
 40
1.0
 40
1.0
 10
8.437561758695422
 20
-4.372412668114831
 30
0.0
 10
8.33750874218225
 20
-4.331510436018359
 30
0.0
 10
8.269308790372436
 20
-4.28025627810308
 30
0.0
 10
8.155355881137773
 20
-4.170476145267004
 30
0.0
 10
8.112568930048665
 20
-4.112785408010708
 30
0.0
 10
8.008414378189325
 20
-3.93468435841656
 30
0.0
 10
7.970244782175087
 20
-3.80827074535363
 30
0.0
 10
7.970244782175072
 20
-3.68926914380412
 30
0.0
  0
SPLINE
  5
B7
330
1F
100
AcDbEntity
  8
0
  6
Continuous
 62
     4
370
    25
100
AcDbSpline
210
0.0
220
0.0
230
1.0
 70
     8
 71
     3
 72
     8
 73
     4
 74
     0
 42
0.000000001
 43
0.00000001
 40
0.0
 40
0.0
 40
0.0
 40
0.0
 40
1.0
 40
1.0
 40
1.0
 40
1.0
 10
9.999999999999996
 20
-4.870105989552992
 30
0.0
 10
9.481437813760206
 20
-4.752072255390278
 30
0.0
 10
8.954733869733424
 20
-4.583835516287674
 30
0.0
 10
8.437561758695416
 20
-4.372412668114827
 30
0.0
  0
SPLINE
  5
B8
330
1F
100
AcDbEntity
  8
0
  6
Continuous
 62
     4
370
    25
100
AcDbSpline
210
0.0
220
0.0
230
1.0
 70
    24
 71
     3
 72
    14
 73
    10
 74
     0
 42
0.000000001
 43
0.00000001
 40
0.0
 40
0.0
 40
0.0
 40
0.0
 40
0.25
 40
0.25
 40
0.4999999999999999
 40
0.4999999999999999
 40
0.75
 40
0.75
 40
1.0
 40
1.0
 40
1.0
 40
1.0
 10
9.999999999999991
 20
1.262409951931843
 30
0.0
 10
9.999999999999991
 20
0.701403651963689
 30
0.0
 10
9.999999999999991
 20
0.1173409863786524
 30
0.0
 10
9.999999999999991
 20
-1.044769575598782
 30
0.0
 10
9.999999999999991
 20
-1.622240829009441
 30
0.0
 10
9.999999999999991
 20
-2.712165719053508
 30
0.0
 10
9.999999999999991
 20
-3.224038598137683
 30
0.0
 10
9.999999999999991
 20
-4.136198158672577
 30
0.0
 10
9.999999999999991
 20
-4.536259266809811
 30
0.0
 10
9.999999999999991
 20
-4.870105989552993
 30
0.0
  0
SPLINE
  5
B9
330
1F
100
AcDbEntity
  8
0
  6
Continuous
 62
     4
370
    25
100
AcDbSpline
210
0.0
220
0.0
230
1.0
 70
    24
 71
     3
 72
    12
 73
     8
 74
     0
 42
0.000000001
 43
0.00000001
 40
0.0
 40
0.0
 40
0.0
 40
0.0
 40
0.0919528521423529
 40
0.3629100609598933
 40
0.6417250471890883
 40
0.8857235640720789
 40
1.0
 40
1.0
 40
1.0
 40
1.0
 10
9.99999999999999
 20
4.963757599455946
 30
0.0
 10
9.99999999999999
 20
4.965810950609673
 30
0.0
 10
9.99999999999999
 20
4.973914905788987
 30
0.0
 10
9.99999999999999
 20
4.829280284496034
 30
0.0
 10
9.99999999999999
 20
4.483682919947327
 30
0.0
 10
9.99999999999999
 20
4.088749862981115
 30
0.0
 10
9.99999999999999
 20
3.782807175340663
 30
0.0
 10
9.99999999999999
 20
3.685222793101663
 30
0.0
  0
SPLINE
  5
BA
330
1F
100
AcDbEntity
  8
0
  6
Continuous
 62
     4
370
    25
100
AcDbSpline
210
0.0
220
0.0
230
1.0
 70
    24
 71
     3
 72
     9
 73
     5
 74
     0
 42
0.000000001
 43
0.00000001
 40
0.0
 40
0.0
 40
0.0
 40
0.0
 40
0.6478495886162243
 40
1.0
 40
1.0
 40
1.0
 40
1.0
 10
9.999999999999991
 20
-4.870105989552991
 30
0.0
 10
9.999999999999991
 20
-4.910142293965489
 30
0.0
 10
9.99999999999999
 20
-4.971941058857836
 30
0.0
 10
9.99999999999999
 20
-4.964263720096773
 30
0.0
 10
9.99999999999999
 20
-4.961560142093732
 30
0.0
  0
SPLINE
  5
BB
330
1F
100
AcDbEntity
  8
0
  6
Continuous
 62
     1
370
    25
100
AcDbSpline
210
0.0
220
0.0
230
1.0
 70
     8
 71
     3
 72
    25
 73
    21
 74
     0
 42
0.000000001
 43
0.00000001
 40
0.0
 40
0.0
 40
0.0
 40
0.0
 40
0.0022102199688216
 40
0.0607268287780494
 40
0.1191207563054085
 40
0.1774935715062489
 40
0.2360197268357153
 40
0.2943785502365848
 40
0.3527962757352922
 40
0.4112957983726928
 40
0.4696403356398931
 40
0.5281208375843569
 40
0.5865604377618268
 40
0.6449115428218218
 40
0.7041823763362512
 40
0.7633271425399929
 40
0.8224505972187067
 40
0.8817290034097608
 40
0.940846796039857
 40
0.9999999999999999
 40
0.9999999999999999
 40
0.9999999999999999
 40
0.9999999999999999
 10
28.06782124344168
 20
-4.990097855082902
 30
0.0
 10
28.0545195428617
 20
-4.999123210058967
 30
0.0
 10
27.68904908970682
 20
-5.247099064962184
 30
0.0
 10
26.97008106197191
 20
-5.607822105480497
 30
0.0
 10
25.91519660503236
 20
-6.042774830562291
 30
0.0
 10
24.86051988801309
 20
-6.295424630504593
 30
0.0
 10
23.80308142883544
 20
-6.378318440884209
 30
0.0
 10
22.74869030205926
 20
-6.284342159629053
 30
0.0
 10
21.69323160316528
 20
-6.017155184073915
 30
0.0
 10
20.63625456252117
 20
-5.5848866435797
 30
0.0
 10
19.58211454433122
 20
-4.996790316261514
 30
0.0
 10
18.5254853559864
 20
-4.272672800604479
 30
0.0
 10
17.46962540477454
 20
-3.430377471283895
 30
0.0
 10
16.41084216622566
 20
-2.487546219711442
 30
0.0
 10
15.34444438402854
 20
-1.474174225229912
 30
0.0
 10
14.27583950528868
 20
-0.4125189608414366
 30
0.0
 10
13.20762061992557
 20
0.6618674733237532
 30
0.0
 10
12.1365432567297
 20
1.712488628641362
 30
0.0
 10
11.06854164153449
 20
2.725354453009737
 30
0.0
 10
10.35625163571254
 20
3.329571300469402
 30
0.0
 10
9.999999999995492
 20
3.631770177999498
 30
0.0
  0
SPLINE
  5
BC
330
1F
100
AcDbEntity
  8
0
  6
Continuous
 62
     1
370
    25
100
AcDbSpline
210
0.0
220
0.0
230
1.0
 70
     8
 71
     3
 72
    20
 73
    16
 74
     0
 42
0.000000001
 43
0.00000001
 40
0.0
 40
0.0
 40
0.0
 40
0.0
 40
0.0503806077676976
 40
0.1302026046164856
 40
0.2097780090889607
 40
0.289440221169165
 40
0.3692229716858922
 40
0.4487773206376
 40
0.5285320421128169
 40
0.608226490251686
 40
0.6877905191570557
 40
0.767604199731054
 40
0.8472211636341707
 40
0.9268255826942191
 40
1.0
 40
1.0
 40
1.0
 40
1.0
 10
25.5281862254133
 20
-5.265655492072836
 30
0.0
 10
25.30584075614158
 20
-5.305345738568506
 30
0.0
 10
24.73121570681028
 20
-5.407920393789714
 30
0.0
 10
23.80322797278233
 20
-5.405888100392588
 30
0.0
 10
22.74863507626469
 20
-5.276998929849839
 30
0.0
 10
21.69314702405377
 20
-4.996413288084109
 30
0.0
 10
20.63641681352162
 20
-4.580665955779413
 30
0.0
 10
19.58197146889711
 20
-4.036182750968122
 30
0.0
 10
18.52552804319563
 20
-3.382401803752112
 30
0.0
 10
17.4697136478493
 20
-2.63490976786689
 30
0.0
 10
16.41519744968221
 20
-1.812857263564798
 30
0.0
 10
15.35814693396791
 20
-0.9439543150468225
 30
0.0
 10
14.30316213860744
 20
-0.0473649464677987
 30
0.0
 10
13.27744669601646
 20
0.8293362217731625
 30
0.0
 10
12.60208015170494
 20
1.381266463571467
 30
0.0
 10
12.27860895292267
 20
1.645617042471823
 30
0.0
  0
SPLINE
  5
BD
330
1F
100
AcDbEntity
  8
0
  6
Continuous
 62
     1
370
    25
100
AcDbSpline
210
0.0
220
0.0
230
1.0
 70
     8
 71
     3
 72
    24
 73
    20
 74
     0
 42
0.000000001
 43
0.00000001
 40
0.0
 40
0.0
 40
0.0
 40
0.0
 40
0.05896949998839
 40
0.1178243643841516
 40
0.1768456878485305
 40
0.2357555868883752
 40
0.2946314810946725
 40
0.3536681805819168
 40
0.4125393701441035
 40
0.4714572710838709
 40
0.5304728494092366
 40
0.5893263182456348
 40
0.6483063902485651
 40
0.7072651255138985
 40
0.7661219069458235
 40
0.8251480717081121
 40
0.8840504868939266
 40
0.942931605909492
 40
1.0
 40
1.0
 40
1.0
 40
1.0
 10
41.75
 20
-6.024699590898668
 30
0.0
 10
41.39768703161412
 20
-5.89767640867363
 30
0.0
 10
40.69374598458926
 20
-5.643876974887283
 30
0.0
 10
39.63956799427952
 20
-5.061481123757029
 30
0.0
 10
38.58237147191547
 20
-4.353597251861248
 30
0.0
 10
37.52721294663603
 20
-3.521052767244282
 30
0.0
 10
36.47266669153873
 20
-2.591331247704406
 30
0.0
 10
35.41520252551747
 20
-1.593044275949237
 30
0.0
 10
34.36073996743539
 20
-0.5475583119952361
 30
0.0
 10
33.30543605978863
 20
0.51203473513707
 30
0.0
 10
32.24834057914457
 20
1.555592199360444
 30
0.0
 10
31.19418561602076
 20
2.559800247970154
 30
0.0
 10
30.13773611390688
 20
3.490638866895065
 30
0.0
 10
29.08168070173717
 20
4.325929317380525
 30
0.0
 10
28.02747394973733
 20
5.043209830010408
 30
0.0
 10
26.970180168058
 20
5.620187042447512
 30
0.0
 10
25.91520545130373
 20
6.040073998161945
 30
0.0
 10
24.87212200773297
 20
6.303817840634713
 30
0.0
 10
24.17902588833812
 20
6.333593965813956
 30
0.0
 10
23.8378956720513
 20
6.348249272254637
 30
0.0
  0
SPLINE
  5
BE
330
1F
100
AcDbEntity
  8
0
  6
Continuous
 62
     1
370
    25
100
AcDbSpline
210
0.0
220
0.0
230
1.0
 70
     8
 71
     3
 72
    16
 73
    12
 74
     0
 42
0.000000001
 43
0.00000001
 40
0.0
 40
0.0
 40
0.0
 40
0.0
 40
0.1111858095235311
 40
0.2221380448033397
 40
0.333429437984909
 40
0.4444938134360341
 40
0.5554889007639716
 40
0.6668116208323559
 40
0.7777971217141336
 40
0.8888778012888469
 40
1.0
 40
1.0
 40
1.0
 40
1.0
 10
41.74999999999999
 20
-5.008898950014275
 30
0.0
 10
41.39770842031893
 20
-4.88430494966439
 30
0.0
 10
40.69386533956614
 20
-4.635378690544128
 30
0.0
 10
39.63939708182507
 20
-4.095491915490269
 30
0.0
 10
38.58248343485778
 20
-3.454875937938092
 30
0.0
 10
37.52724761998945
 20
-2.714824932360952
 30
0.0
 10
36.47250700753969
 20
-1.899752658713733
 30
0.0
 10
35.41536072333997
 20
-1.035016454205198
 30
0.0
 10
34.36072463259137
 20
-0.139266708450627
 30
0.0
 10
33.30571266900161
 20
0.7619074102027044
 30
0.0
 10
32.60156254587211
 20
1.340232250695828
 30
0.0
 10
32.24942169824452
 20
1.629448701628546
 30
0.0
  0
LINE
  5
BF
330
1F
100
AcDbEntity
  8
0
  6
Continuous
 62
     1
370
    25
100
AcDbLine
 10
41.74999999999971
 20
-6.02469959089867
 30
0.0
 11
41.74999999999999
 21
-5.008898950014275
 31
0.0
  0
SPLINE
  5
C0
330
1F
100
AcDbEntity
  8
0
  6
Continuous
 62
     1
370
    25
100
AcDbSpline
210
0.0
220
0.0
230
1.0
 70
     8
 71
     3
 72
    31
 73
    27
 74
     0
 42
0.000000001
 43
0.00000001
 40
0.0
 40
0.0
 40
0.0
 40
0.0
 40
0.0280253961059482
 40
0.0702931304836686
 40
0.1125903857301763
 40
0.1547893336030531
 40
0.1971003953254949
 40
0.2393522518251076
 40
0.2815615405373854
 40
0.3238918479203394
 40
0.3661112338458681
 40
0.408345917329662
 40
0.4506693080195948
 40
0.4928712519208605
 40
0.5351463202903076
 40
0.5774366543017966
 40
0.6196362285805532
 40
0.6619520449079584
 40
0.7041978075259469
 40
0.7464100905438559
 40
0.7887410439754394
 40
0.8309566928007447
 40
0.8731967309618106
 40
0.9155166570544245
 40
0.9577172300299874
 40
1.0
 40
1.0
 40
1.0
 40
1.0
 10
16.76964837334613
 20
4.25668040357766
 30
0.0
 10
17.00283092004811
 20
4.429853326735052
 30
0.0
 10
17.58769798561502
 20
4.864204614321577
 30
0.0
 10
18.52534354861806
 20
5.413653330087911
 30
0.0
 10
19.58201577371123
 20
5.900206080003603
 30
0.0
 10
20.63615061912299
 20
6.220475773592912
 30
0.0
 10
21.69313582985886
 20
6.369577527229955
 30
0.0
 10
22.7485989731458
 20
6.343251577643207
 30
0.0
 10
23.8029929736114
 20
6.141554471683268
 30
0.0
 10
24.86044649784447
 20
5.771631437411157
 30
0.0
 10
25.91509088762169
 20
5.241470854409763
 30
0.0
 10
26.97011941504752
 20
4.566701761429855
 30
0.0
 10
28.02740508735881
 20
3.768051589637158
 30
0.0
 10
29.08162030758202
 20
2.862555688009053
 30
0.0
 10
30.13768032112168
 20
1.880116804534784
 30
0.0
 10
31.19413474412282
 20
0.8464050876357955
 30
0.0
 10
32.24829477049074
 20
-0.2135607176737822
 30
0.0
 10
33.30539553283172
 20
-1.26396930366731
 30
0.0
 10
34.36070428854872
 20
-2.281518648503564
 30
0.0
 10
35.41517204395743
 20
-3.236957079966595
 30
0.0
 10
36.47264129326297
 20
-4.100289440130346
 30
0.0
 10
37.52719255752979
 20
-4.852995797417927
 30
0.0
 10
38.58235626839894
 20
-5.471890480310762
 30
0.0
 10
39.63955781630838
 20
-5.935675415482842
 30
0.0
 10
40.69374089140829
 20
-6.249595940022673
 30
0.0
 10
41.39768533253793
 20
-6.3122171031756
 30
0.0
 10
41.74999999999999
 20
-6.343558147984344
 30
0.0
  0
SPLINE
  5
C1
330
1F
100
AcDbEntity
  8
0
  6
Continuous
 62
     1
370
    25
100
AcDbSpline
210
0.0
220
0.0
230
1.0
 70
     8
 71
     3
 72
    20
 73
    16
 74
     0
 42
0.000000001
 43
0.00000001
 40
0.0
 40
0.0
 40
0.0
 40
0.0
 40
0.0323169330644665
 40
0.1186617085387538
 40
0.2052240827507494
 40
0.2917498426871695
 40
0.3781003039469986
 40
0.4647419103161234
 40
0.5511708575829001
 40
0.6375631463446859
 40
0.7242213240514751
 40
0.8105893873513851
 40
0.8970595317674682
 40
0.9836715660610332
 40
1.0
 40
1.0
 40
1.0
 40
1.0
 10
32.64252255102843
 20
-0.602048855473291
 30
0.0
 10
32.51095739260014
 20
-0.5115678286776136
 30
0.0
 10
32.02787484104331
 20
-0.1793384921716352
 30
0.0
 10
31.19389588389771
 20
0.4113273239220046
 30
0.0
 10
30.13773417665883
 20
1.139626763532118
 30
0.0
 10
29.08186478387796
 20
1.838269166917745
 30
0.0
 10
28.02705536335182
 20
2.487777389424003
 30
0.0
 10
26.97040310209025
 20
3.065974460330593
 30
0.0
 10
25.91515951327417
 20
3.56152499900121
 30
0.0
 10
24.86013803480541
 20
3.959017442806077
 30
0.0
 10
23.80338229692831
 20
4.245455634224049
 30
0.0
 10
22.74848503054809
 20
4.418861971868594
 30
0.0
 10
21.69301909977447
 20
4.459285243715917
 30
0.0
 10
20.92156647235092
 20
4.428153020187719
 30
0.0
 10
20.50297169099258
 20
4.347617252576828
 30
0.0
 10
20.43657411818218
 20
4.334842655921721
 30
0.0
  0
SPLINE
  5
C2
330
1F
100
AcDbEntity
  8
0
  6
Continuous
 62
     1
370
    25
100
AcDbSpline
210
0.0
220
0.0
230
1.0
 70
     8
 71
     3
 72
    19
 73
    15
 74
     0
 42
0.000000001
 43
0.00000001
 40
0.0
 40
0.0
 40
0.0
 40
0.0
 40
0.0886017539742233
 40
0.1771504777215327
 40
0.2659397751017224
 40
0.354496949784327
 40
0.4430861074092312
 40
0.5318640352851717
 40
0.6192664446844504
 40
0.7068014940990772
 40
0.7943976802352741
 40
0.8817902751230805
 40
0.9694150540043328
 40
1.0
 40
1.0
 40
1.0
 40
1.0
 10
9.999999999999995
 20
2.051749056239878
 30
0.0
 10
10.35624482622515
 20
1.708979060395776
 30
0.0
 10
11.06852125779525
 20
1.023644224585908
 30
0.0
 10
12.13650260185001
 20
-0.0509246649857431
 30
0.0
 10
13.20755969192766
 20
-1.116484052634406
 30
0.0
 10
14.2757579193788
 20
-2.154683702032475
 30
0.0
 10
15.34434303996022
 20
-3.131015162237462
 30
0.0
 10
16.41072826180438
 20
-4.012989053162017
 30
0.0
 10
17.46950938600941
 20
-4.782240171470331
 30
0.0
 10
18.52536972761396
 20
-5.413860475970067
 30
0.0
 10
19.58202393649552
 20
-5.899268868418304
 30
0.0
 10
20.63609195600297
 20
-6.211136548187262
 30
0.0
 10
21.46413455150799
 20
-6.355171103866502
 30
0.0
 10
21.93930998076386
 20
-6.334373620110032
 30
0.0
 10
22.06225430583856
 20
-6.32899259144932
 30
0.0
  0
SPLINE
  5
C3
330
1F
100
AcDbEntity
  8
0
  6
Continuous
 62
     1
370
    25
100
AcDbSpline
210
0.0
220
0.0
230
1.0
 70
     8
 71
     3
 72
    12
 73
     8
 74
     0
 42
0.000000001
 43
0.00000001
 40
0.0
 40
0.0
 40
0.0
 40
0.0
 40
0.1610056992286269
 40
0.3706510964269119
 40
0.5806929927258102
 40
0.7901425166519467
 40
1.0
 40
1.0
 40
1.0
 40
1.0
 10
36.71715393690114
 20
4.257920268885765
 30
0.0
 10
36.98714343931721
 20
4.455637762463665
 30
0.0
 10
37.60868606528454
 20
4.910803052441175
 30
0.0
 10
38.58231769637595
 20
5.471678911585241
 30
0.0
 10
39.63956807730726
 20
5.938453463765233
 30
0.0
 10
40.69373832335418
 20
6.251588578073496
 30
0.0
 10
41.39768447596484
 20
6.314314520176617
 30
0.0
 10
41.74999999999999
 20
6.345708005432133
 30
0.0
  0
SPLINE
  5
C4
330
1F
100
AcDbEntity
  8
0
  6
Continuous
 62
     1
370
    25
100
AcDbSpline
210
0.0
220
0.0
230
1.0
 70
    24
 71
     3
 72
    10
 73
     6
 74
     0
 42
0.000000001
 43
0.00000001
 40
0.0
 40
0.0
 40
0.0
 40
0.0
 40
0.5
 40
0.5
 40
1.0
 40
1.0
 40
1.0
 40
1.0
 10
41.74999999999999
 20
4.446074928723897
 30
0.0
 10
41.74999999999999
 20
4.715519759450338
 30
0.0
 10
41.75000000000001
 20
5.028639606030088
 30
0.0
 10
41.75
 20
5.68556420082533
 30
0.0
 10
41.75
 20
6.027691246063248
 30
0.0
 10
41.75
 20
6.345708005432138
 30
0.0
  0
SPLINE
  5
C5
330
1F
100
AcDbEntity
  8
0
  6
Continuous
 62
     1
370
    25
100
AcDbSpline
210
0.0
220
0.0
230
1.0
 70
     8
 71
     3
 72
     9
 73
     5
 74
     0
 42
0.000000001
 43
0.00000001
 40
0.0
 40
0.0
 40
0.0
 40
0.0
 40
0.7740750671569373
 40
1.0
 40
1.0
 40
1.0
 40
1.0
 10
41.75
 20
4.446074928723897
 30
0.0
 10
41.3977312049294
 20
4.44126237367033
 30
0.0
 10
40.94264769944403
 20
4.435045205261531
 30
0.0
 10
40.48800136091827
 20
4.350590997959149
 30
0.0
 10
40.3852854174195
 20
4.331510686846044
 30
0.0
  0
SPLINE
  5
C6
330
1F
100
AcDbEntity
  8
0
  6
Continuous
 62
     1
370
    25
100
AcDbSpline
210
0.0
220
0.0
230
1.0
 70
     8
 71
     3
 72
    10
 73
     6
 74
     0
 42
0.000000001
 43
0.00000001
 40
0.0
 40
0.0
 40
0.0
 40
0.0
 40
0.1866892910287319
 40
0.5931708874288797
 40
1.0
 40
1.0
 40
1.0
 40
1.0
 10
12.69357555089971
 20
-0.6020386317405881
 30
0.0
 10
12.52582532009067
 20
-0.486447195602609
 30
0.0
 10
11.99282981334739
 20
-0.1191766661827324
 30
0.0
 10
11.0956522261978
 20
0.5167865097735305
 30
0.0
 10
10.36532142873636
 20
1.013798015885383
 30
0.0
 10
9.99999999999185
 20
1.262409951937321
 30
0.0
  0
SPLINE
  5
C7
330
1F
100
AcDbEntity
  8
0
  6
Continuous
 62
     4
370
    25
100
AcDbSpline
210
0.0
220
0.0
230
1.0
 70
    24
 71
     3
 72
    10
 73
     6
 74
     0
 42
0.000000001
 43
0.00000001
 40
0.0
 40
0.0
 40
0.0
 40
0.0
 40
0.5
 40
0.5
 40
1.0
 40
1.0
 40
1.0
 40
1.0
 10
9.999999999999995
 20
2.051749056239878
 30
0.0
 10
9.999999999999995
 20
2.039534111476297
 30
0.0
 10
9.999999999999995
 20
1.960958364309233
 30
0.0
 10
9.999999999999995
 20
1.684618144797462
 30
0.0
 10
9.999999999999995
 20
1.48803835143604
 30
0.0
 10
9.999999999999995
 20
1.262409951931839
 30
0.0
  0
LINE
  5
C8
330
1F
100
AcDbEntity
  8
0
  6
Continuous
 62
     1
370
    25
100
AcDbLine
 10
41.75
 20
-6.343558147984346
 30
0.0
 11
41.75000000000017
 21
-6.024699590898602
 31
0.0
  0
SPLINE
  5
C9
330
1F
100
AcDbEntity
  8
0
  6
Continuous
 62
     1
370
    25
100
AcDbSpline
210
0.0
220
0.0
230
1.0
 70
     8
 71
     3
 72
    14
 73
    10
 74
     0
 42
0.000000001
 43
0.00000001
 40
0.0
 40
0.0
 40
0.0
 40
0.0
 40
0.2500000000000009
 40
0.2500000000000009
 40
0.5000000000000006
 40
0.5000000000000006
 40
0.7500000000000002
 40
0.7500000000000002
 40
1.0
 40
1.0
 40
1.0
 40
1.0
 10
41.74999999999999
 20
-1.695917778564348
 30
0.0
 10
41.34339671263986
 20
-1.375443297526759
 30
0.0
 10
40.94040943562482
 20
-1.045945166944418
 30
0.0
 10
40.14171287590078
 20
-0.3687868808573045
 30
0.0
 10
39.74599797963769
 20
-0.0211407338149404
 30
0.0
 10
38.96281467979557
 20
0.6947304449666512
 30
0.0
 10
38.58388178274959
 20
1.055223480930803
 30
0.0
 10
37.85708702160886
 20
1.779679337496066
 30
0.0
 10
37.50866397291348
 20
2.143966686887429
 30
0.0
 10
37.17992703883075
 20
2.510961469259508
 30
0.0
  0
LINE
  5
CA
330
1F
100
AcDbEntity
  8
0
  6
Continuous
 62
     1
370
    25
100
AcDbLine
 10
37.30275512375333
 20
2.614026470018497
 30
0.0
 11
41.74999999999999
 21
0.0010749287238972
 31
0.0
  0
LINE
  5
CB
330
1F
100
AcDbEntity
  8
0
  6
Continuous
 62
     1
370
    25
100
AcDbLine
 10
41.74999999999999
 20
0.0010749287238972
 30
0.0
 11
41.74999999999999
 21
-1.695917778564348
 31
0.0
  0
SPLINE
  5
CC
330
1F
100
AcDbEntity
  8
0
  6
Continuous
 62
     1
370
    25
100
AcDbSpline
210
0.0
220
0.0
230
1.0
 70
     8
 71
     3
 72
    30
 73
    26
 74
     0
 42
0.000000001
 43
0.00000001
 40
0.0
 40
0.0
 40
0.0
 40
0.0
 40
0.0297364606048541
 40
0.0759125687654228
 40
0.1219479120235671
 40
0.1680931756331724
 40
0.2142199375195785
 40
0.2602581535905851
 40
0.3064434417327599
 40
0.3525212993607596
 40
0.3985806443649246
 40
0.4447743019117387
 40
0.4908214066360164
 40
0.5369200808342461
 40
0.583090425380082
 40
0.6291250098162753
 40
0.6752786610055538
 40
0.7213965343231828
 40
0.7674368641971249
 40
0.8136255679661089
 40
0.8596973841015809
 40
0.9057617099432385
 40
0.9519538000326694
 40
0.9979977262972081
 40
1.0
 40
1.0
 40
1.0
 40
1.0
 10
33.98642936094524
 20
-4.759012716822729
 30
0.0
 10
33.75956071817265
 20
-4.821649443392038
 30
0.0
 10
33.18040028364598
 20
-4.981551284976963
 30
0.0
 10
32.24851475806772
 20
-5.084765769148239
 30
0.0
 10
31.1939834375802
 20
-5.081818678323613
 30
0.0
 10
30.1377305796449
 20
-4.93334639653301
 30
0.0
 10
29.0817907029947
 20
-4.650570564426502
 30
0.0
 10
28.02719643600119
 20
-4.23789244813057
 30
0.0
 10
26.97031798930731
 20
-3.710440628298123
 30
0.0
 10
25.91515270349761
 20
-3.07919620417705
 30
0.0
 10
24.86026807060753
 20
-2.362358118414387
 30
0.0
 10
23.80326139723784
 20
-1.583217134680266
 30
0.0
 10
22.74855305917785
 20
-0.7571593065883716
 30
0.0
 10
21.6930621919838
 20
0.0885576971189695
 30
0.0
 10
20.63641536518408
 20
0.9302470171472985
 30
0.0
 10
19.58185732589293
 20
1.749667702477279
 30
0.0
 10
18.52547758561684
 20
2.51791418954754
 30
0.0
 10
17.46967940116463
 20
3.217699794117125
 30
0.0
 10
16.41506025625522
 20
3.830024669525687
 30
0.0
 10
15.35813130986891
 20
4.334759885934467
 30
0.0
 10
14.30305157187718
 20
4.720548344261806
 30
0.0
 10
13.24811956281293
 20
4.980074755500445
 30
0.0
 10
12.19103604883789
 20
5.086089604486317
 30
0.0
 10
11.47285886176416
 20
5.103257786077878
 30
0.0
 10
11.10617202104317
 20
5.046497805181442
 30
0.0
 10
11.09089074138245
 20
5.044132394031399
 30
0.0
  0
SPLINE
  5
CD
330
1F
100
AcDbEntity
  8
0
  6
Continuous
 62
     4
370
    25
100
AcDbSpline
210
0.0
220
0.0
230
1.0
 70
    24
 71
     3
 72
    12
 73
     8
 74
     0
 42
0.000000001
 43
0.00000001
 40
0.0
 40
0.0
 40
0.0
 40
0.0
 40
0.0935707391835914
 40
0.3640451777420001
 40
0.6423633933418418
 40
0.8859271728442053
 40
1.0
 40
1.0
 40
1.0
 40
1.0
 10
9.999999999999996
 20
4.963750055744803
 30
0.0
 10
9.999999999999996
 20
4.965870475252891
 30
0.0
 10
9.999999999999996
 20
4.974120153554513
 30
0.0
 10
9.999999999999998
 20
4.829355998196066
 30
0.0
 10
9.999999999999996
 20
4.483664833594215
 30
0.0
 10
9.999999999999996
 20
4.088751613465123
 30
0.0
 10
9.999999999999998
 20
3.782807598657743
 30
0.0
 10
9.999999999999998
 20
3.685222793101663
 30
0.0
  0
SPLINE
  5
CE
330
1F
100
AcDbEntity
  8
0
  6
Continuous
 62
     1
370
    25
100
AcDbSpline
210
0.0
220
0.0
230
1.0
 70
     8
 71
     3
 72
    15
 73
    11
 74
     0
 42
0.000000001
 43
0.00000001
 40
0.0
 40
0.0
 40
0.0
 40
0.0
 40
0.0336365559713659
 40
0.190699953382542
 40
0.3482395286952985
 40
0.5052890112249806
 40
0.6624767937712792
 40
0.8199538464938952
 40
0.97695084052721
 40
1.0
 40
1.0
 40
1.0
 40
1.0
 10
37.75308316102731
 20
2.99189656000396
 30
0.0
 10
37.67774998072084
 20
3.040058179793273
 30
0.0
 10
37.2506541155903
 20
3.313106902631255
 30
0.0
 10
36.47259215858205
 20
3.771776713014293
 30
0.0
 10
35.41537051876273
 20
4.288082935780157
 30
0.0
 10
34.36065950561446
 20
4.687032766019043
 30
0.0
 10
33.30529449374988
 20
4.95954183573738
 30
0.0
 10
32.24847185049232
 20
5.081976992491001
 30
0.0
 10
31.49435200521312
 20
5.104831977812506
 30
0.0
 10
31.09128612261986
 20
5.045844228572435
 30
0.0
 10
31.03968640985166
 20
5.038292731288551
 30
0.0
  0
SPLINE
  5
CF
330
1F
100
AcDbEntity
  8
0
  6
Continuous
 62
     1
370
    25
100
AcDbSpline
210
0.0
220
0.0
230
1.0
 70
     8
 71
     3
 72
    12
 73
     8
 74
     0
 42
0.000000001
 43
0.00000001
 40
0.0
 40
0.0
 40
0.0
 40
0.0
 40
0.1951395114283264
 40
0.4571585245363788
 40
0.7183370963675496
 40
0.9798706606362373
 40
1.0
 40
1.0
 40
1.0
 40
1.0
 10
14.03608879067748
 20
-4.761893621061557
 30
0.0
 10
13.77370965948312
 20
-4.831482774289947
 30
0.0
 10
13.15902708900834
 20
-4.994511134773009
 30
0.0
 10
12.19100953861794
 20
-5.091160798373616
 30
0.0
 10
11.1367960547786
 20
-5.072718494819104
 30
0.0
 10
10.4052955842532
 20
-4.961119136679575
 30
0.0
 10
10.02703294252056
 20
-4.876176505172898
 30
0.0
 10
9.999999999999996
 20
-4.870105989552992
 30
0.0
  0
SPLINE
  5
D0
330
1F
100
AcDbEntity
  8
0
  6
Continuous
 62
     1
370
    25
100
AcDbSpline
210
0.0
220
0.0
230
1.0
 70
    24
 71
     3
 72
     8
 73
     4
 74
     0
 42
0.000000001
 43
0.00000001
 40
0.0
 40
0.0
 40
0.0
 40
0.0
 40
0.0007770953413342
 40
0.0007770953413342
 40
0.0007770953413342
 40
0.0007770953413342
 10
37.75308316102736
 20
2.99189656000393
 30
0.0
 10
37.56207862499013
 20
2.831624724261894
 30
0.0
 10
37.37101687863806
 20
2.671304883365737
 30
0.0
 10
37.17992703882219
 20
2.510961469254507
 30
0.0
  0
SPLINE
  5
D1
330
1F
100
AcDbEntity
  8
0
  6
Continuous
 62
     1
370
    25
100
AcDbSpline
210
0.0
220
0.0
230
1.0
 70
    24
 71
     3
 72
    10
 73
     6
 74
     0
 42
0.000000001
 43
0.00000001
 40
0.0
 40
0.0
 40
0.0
 40
0.0
 40
0.5
 40
0.5
 40
1.0
 40
1.0
 40
1.0
 40
1.0
 10
41.74999999999999
 20
-5.008898950014273
 30
0.0
 10
41.74999999999999
 20
-4.624845391450263
 30
0.0
 10
41.75000000000001
 20
-4.139578994082178
 30
0.0
 10
41.75000000000001
 20
-3.011381321882921
 30
0.0
 10
41.75
 20
-2.36942733465192
 30
0.0
 10
41.74999999999999
 20
-1.69591777856455
 30
0.0
  0
SPLINE
  5
D2
330
1F
100
AcDbEntity
  8
0
  6
Continuous
 62
     4
370
    25
100
AcDbSpline
210
0.0
220
0.0
230
1.0
 70
    24
 71
     3
 72
     9
 73
     5
 74
     0
 42
0.000000001
 43
0.00000001
 40
0.0
 40
0.0
 40
0.0
 40
0.0
 40
0.664098710729728
 40
1.0
 40
1.0
 40
1.0
 40
1.0
 10
9.999999999999996
 20
-4.870105989552993
 30
0.0
 10
9.999999999999996
 20
-4.910386085313921
 30
0.0
 10
9.999999999999998
 20
-4.971039863299227
 30
0.0
 10
9.999999999999998
 20
-4.96391747421283
 30
0.0
 10
9.999999999999998
 20
-4.961525054536025
 30
0.0
  0
SPLINE
  5
D3
330
1F
100
AcDbEntity
  8
0
  6
Continuous
 62
     1
370
    25
100
AcDbSpline
210
0.0
220
0.0
230
1.0
 70
    24
 71
     3
 72
     8
 73
     4
 74
     0
 42
0.000000001
 43
0.00000001
 40
0.0
 40
0.0
 40
0.0
 40
0.0
 40
1.0
 40
1.0
 40
1.0
 40
1.0
 10
38.42636926677852
 20
3.556850683016513
 30
0.0
 10
38.22368842038039
 20
3.386781259557138
 30
0.0
 10
37.99708561047552
 20
3.196638925342246
 30
0.0
 10
37.75308316102735
 20
2.991896560003932
 30
0.0
  0
SPLINE
  5
D4
330
1F
100
AcDbEntity
  8
0
  6
Continuous
 62
     1
370
    25
100
AcDbSpline
210
0.0
220
0.0
230
1.0
 70
     8
 71
     3
 72
     8
 73
     4
 74
     0
 42
0.000000001
 43
0.00000001
 40
0.0
 40
0.0
 40
0.0
 40
0.0
 40
1.0
 40
1.0
 40
1.0
 40
1.0
 10
41.74999999999999
 20
4.446074928723897
 30
0.0
 10
40.65414361497769
 20
4.077612845911329
 30
0.0
 10
39.54496841761562
 20
3.774826467767958
 30
0.0
 10
38.42636926677518
 20
3.556850683013919
 30
0.0
  0
SPLINE
  5
D5
330
1F
100
AcDbEntity
  8
0
  6
Continuous
 62
     4
370
    25
100
AcDbSpline
210
0.0
220
0.0
230
1.0
 70
    24
 71
     3
 72
    14
 73
    10
 74
     0
 42
0.000000001
 43
0.00000001
 40
0.0
 40
0.0
 40
0.0
 40
0.0
 40
0.25
 40
0.25
 40
0.5
 40
0.5
 40
0.75
 40
0.75
 40
1.0
 40
1.0
 40
1.0
 40
1.0
 10
9.999999999999995
 20
1.26240995193184
 30
0.0
 10
9.999999999999995
 20
0.7014036519636858
 30
0.0
 10
9.999999999999995
 20
0.1173409863786495
 30
0.0
 10
9.999999999999995
 20
-1.044769575598786
 30
0.0
 10
9.999999999999995
 20
-1.622240829009444
 30
0.0
 10
9.999999999999996
 20
-2.712165719053512
 30
0.0
 10
9.999999999999995
 20
-3.224038598137683
 30
0.0
 10
9.999999999999996
 20
-4.136198158672577
 30
0.0
 10
9.999999999999996
 20
-4.536259266809811
 30
0.0
 10
9.999999999999996
 20
-4.870105989552994
 30
0.0
  0
LINE
  5
D6
330
1F
100
AcDbEntity
  8
0
  6
Continuous
 62
     1
370
    25
100
AcDbLine
 10
41.74999999999999
 20
0.0010749287238972
 30
0.0
 11
41.74999999999999
 21
4.446074928723896
 31
0.0
  0
LINE
  5
D7
330
1F
100
AcDbEntity
  8
중심선
100
AcDbLine
 10
-37.45
 20
0.0010749287238931
 30
0.0
 11
44.74999999999999
 21
0.0010749287238931
 31
0.0
  0
CIRCLE
  5
D8
330
1F
100
AcDbEntity
  8
외형선
100
AcDbCircle
 10
0.0000000000000087
 20
0.0
 30
0.0
 40
3.000000000000003
  0
INSERT
  5
D9
330
1F
100
AcDbEntity
  8
0
  6
Continuous
 62
     7
100
AcDbBlockReference
 66
     1
  2
블럭10
 10
-16.6381869743017
 20
-52.04609937292004
 30
0.0
  0
ATTRIB
  5
DA
330
D9
100
AcDbEntity
  8
FORMAT
 62
     2
100
AcDbText
 10
-25.81948226304298
 20
-49.97073246008785
 30
0.0
 40
4.233333333333333
  1
E5254932 [ 2 FLUTE ]
 41
0.75
  7
SLDTEXTSTYLE0
 11
-25.81948226304298
 21
-52.08739912675452
 31
0.0
100
AcDbAttribute
  2
AUTOATTR0
 70
     0
 74
     1
  0
SEQEND
  5
DB
330
D9
100
AcDbEntity
  8
0
  6
Continuous
 62
     7
  0
HATCH
  5
DC
330
1F
100
AcDbEntity
  8
중심선
100
AcDbHatch
 10
0.0
 20
0.0
 30
0.0
210
0.0
220
0.0
230
1.0
  2
SOLID
 70
     1
 71
     0
 91
        1
 92
        0
 93
        4
 72
     1
 10
-10.92327766992085
 20
-35.7989250712761
 11
-14.36955291375813
 21
-35.7989250712761
 72
     1
 10
-14.36955291375813
 20
-35.7989250712761
 11
-16.49778277296215
 21
-38.3352506518487
 72
     1
 10
-16.49778277296215
 20
-38.3352506518487
 11
-13.05147444401172
 21
-38.33521122254621
 72
     1
 10
-13.05147444401172
 20
-38.33521122254621
 11
-10.92327766992085
 21
-35.7989250712761
 97
        0
 75
     0
 76
     1
 98
        1
 10
0.0
 20
0.0
  0
HATCH
  5
DD
330
1F
100
AcDbEntity
  8
중심선
100
AcDbHatch
 10
0.0
 20
0.0
 30
0.0
210
0.0
220
0.0
230
1.0
  2
SOLID
 70
     1
 71
     0
 91
        1
 92
        0
 93
        4
 72
     1
 10
-5.910513678884898
 20
-35.7989250712761
 11
-9.356788922722181
 21
-35.7989250712761
 72
     1
 10
-9.356788922722181
 20
-35.7989250712761
 11
-13.88792693107957
 21
-41.19892507127612
 72
     1
 10
-13.88792693107957
 20
-41.19892507127612
 11
-10.44165168724229
 21
-41.19892507127612
 72
     1
 10
-10.44165168724229
 20
-41.19892507127612
 11
-5.910513678884898
 21
-35.7989250712761
 97
        0
 75
     0
 76
     1
 98
        1
 10
0.0
 20
0.0
  0
HATCH
  5
DE
330
1F
100
AcDbEntity
  8
중심선
100
AcDbHatch
 10
0.0
 20
0.0
 30
0.0
210
0.0
220
0.0
230
1.0
  2
SOLID
 70
     1
 71
     0
 91
        1
 92
        0
 93
        4
 72
     1
 10
-0.8977496878490032
 20
-35.79892507127613
 11
-4.344024931686119
 21
-35.7989250712761
 72
     1
 10
-4.344024931686119
 20
-35.7989250712761
 11
-11.39246183357537
 21
-44.19892507127612
 72
     1
 10
-11.39246183357537
 20
-44.19892507127612
 11
-7.946186589738086
 21
-44.19892507127612
 72
     1
 10
-7.946186589738086
 20
-44.19892507127612
 11
-0.8977496878490028
 21
-35.79892507127613
 97
        0
 75
     0
 76
     1
 98
        1
 10
0.0
 20
0.0
  0
HATCH
  5
DF
330
1F
100
AcDbEntity
  8
중심선
100
AcDbHatch
 10
0.0
 20
0.0
 30
0.0
210
0.0
220
0.0
230
1.0
  2
SOLID
 70
     1
 71
     0
 91
        1
 92
        0
 93
        6
 72
     3
 10
3.902140743163196
 20
-39.99892507132738
 11
3.960054785062284
 21
1.540850780301639E-10
 40
0.3939339440162633
 50
17.09539180608433
 51
320.0019657685079
 73
     0
 72
     1
 10
5.585140398863792
 20
-38.58681907591441
 11
7.89044227256483
 21
-36.65249236586649
 72
     3
 10
3.902140743110349
 20
-39.99892507127625
 11
6.600054785286829
 21
-1.249000902703301E-13
 40
0.6363583540795982
 50
39.99873849337408
 51
368.4976242363725
 73
     1
 72
     1
 10
10.32747323501096
 20
-39.03892507120613
 11
2.582208049946272
 21
-39.0389250712061
 72
     1
 10
2.582208049946272
 20
-39.0389250712061
 11
2.582183005500338
 21
-40.95892507120602
 72
     1
 10
2.582183005500338
 20
-40.95892507120602
 11
7.023562774972376
 21
-40.95892507120599
 97
        0
 75
     0
 76
     1
 98
        1
 10
0.0
 20
0.0
  0
DIMENSION
  5
E0
330
1F
100
AcDbEntity
  8
치수문자_일반주서
100
AcDbDimension
  2
_D
 10
-34.45
 20
41.93589146707808
 30
0.0
 11
3.649999999999991
 21
41.93589146707808
 31
0.0
 70
   160
  1
<>
 71
     2
 42
76.20000000000002
  3
SLDDIMSTYLE0
100
AcDbAlignedDimension
 13
41.75
 23
6.345708005432137
 33
0.0
 14
-34.45000000000001
 24
5.351074928723887
 34
0.0
100
AcDbRotatedDimension
1001
ACAD
1000
DSTYLE
1002
{
1070
   171
1070
     6
1070
   273
1070
     7
1002
}
  0
DIMENSION
  5
F4
330
1F
100
AcDbEntity
  8
치수문자_일반주서
100
AcDbDimension
  2
_D_1
 10
-47.25999999999998
 20
-6.348925071276149
 30
0.0
 11
-47.26
 21
0.0010749287238914
 31
0.0
 70
   160
  1
%%c<>
 71
     2
 42
12.69999999999999
  3
SLDDIMSTYLE1
100
AcDbAlignedDimension
 13
-33.45
 23
6.351074928723888
 33
0.0
 14
-33.45
 24
-6.348925071276101
 34
0.0
 50
90.0000000000002
100
AcDbRotatedDimension
1001
ACAD
1000
DSTYLE
1002
{
1070
   171
1070
     6
1070
   273
1070
     7
1002
}
  0
DIMENSION
  5
109
330
1F
100
AcDbEntity
  8
치수문자_일반주서
100
AcDbDimension
  2
_D_2
 10
9.999999999999996
 20
26.58232551893264
 30
0.0
 11
25.875
 21
26.58232551893264
 31
0.0
 70
   160
  1
<>
 71
     2
 42
31.75
  3
SLDDIMSTYLE2
100
AcDbAlignedDimension
 13
41.75
 23
6.345708005432137
 33
0.0
 14
9.999999999999996
 24
4.975183836099166
 34
0.0
100
AcDbRotatedDimension
1001
ACAD
1000
DSTYLE
1002
{
1070
   171
1070
     6
1070
   273
1070
     7
1002
}
  0
DIMENSION
  5
11D
330
1F
100
AcDbEntity
  8
치수문자_일반주서
100
AcDbDimension
  2
_D_3
 10
61.95935371504384
 20
-6.343558147984275
 30
0.0
 11
61.95935371504374
 21
23.2102080054322
 31
0.0
 70
   160
  1
%%c<>
 71
     2
 42
12.68926615341648
  3
SLDDIMSTYLE2
100
AcDbAlignedDimension
 13
41.75
 23
6.345708005432137
 33
0.0
 14
41.75
 24
-6.343558147984346
 34
0.0
 50
90.0000000000002
100
AcDbRotatedDimension
1001
ACAD
1000
DSTYLE
1002
{
1070
   171
1070
     6
1070
   273
1070
     7
1002
}
  0
INSERT
  5
136
330
1F
100
AcDbEntity
  8
외형선
100
AcDbBlockReference
  2
SW_DOWELSYMBOL_0
 10
0.0000000000000087
 20
0.0
 30
0.0
  0
ENDSEC
  0
SECTION
  2
OBJECTS
  0
DICTIONARY
  5
C
330
0
100
AcDbDictionary
281
     1
  3
ACAD_GROUP
350
D
  3
ACAD_IMAGE_VARS
350
15A
  3
ACAD_LAYOUT
350
1A
  3
ACAD_MLINESTYLE
350
17
  3
ACAD_PLOTSETTINGS
350
19
  3
ACAD_PLOTSTYLENAME
350
E
  3
ACAD_SCALELIST
350
47
  3
APPDATA
350
158
  3
DWGPROPS
350
15C
  0
DICTIONARY
  5
D
102
{ACAD_REACTORS
330
C
102
}
330
C
100
AcDbDictionary
281
     1
  0
RASTERVARIABLES
  5
15A
102
{ACAD_REACTORS
330
C
102
}
330
C
100
AcDbRasterVariables
 90
        0
 70
     1
 71
     1
 72
     1
  0
DICTIONARY
  5
1A
102
{ACAD_REACTORS
330
C
102
}
330
C
100
AcDbDictionary
281
     1
  3
Layout1
350
1E
  3
Layout2
350
26
  3
Model
350
22
  0
DICTIONARY
  5
17
102
{ACAD_REACTORS
330
C
102
}
330
C
100
AcDbDictionary
281
     1
  3
Standard
350
18
  0
DICTIONARY
  5
19
102
{ACAD_REACTORS
330
C
102
}
330
C
100
AcDbDictionary
281
     1
  0
ACDBDICTIONARYWDFLT
  5
E
102
{ACAD_REACTORS
330
C
102
}
330
C
100
AcDbDictionary
281
     1
  3
Normal
350
F
100
AcDbDictionaryWithDefault
340
F
  0
DICTIONARY
  5
47
102
{ACAD_REACTORS
330
C
102
}
330
C
100
AcDbDictionary
281
     1
  3
A0
350
48
  3
A1
350
49
  3
A2
350
4A
  3
A3
350
4B
  3
A4
350
4C
  3
A5
350
4D
  3
A6
350
4E
  3
A7
350
4F
  3
A8
350
50
  3
A9
350
51
  3
B0
350
52
  3
B1
350
53
  3
B2
350
54
  3
B3
350
55
  3
B4
350
56
  3
B5
350
57
  3
B6
350
58
  3
B7
350
59
  3
B8
350
5A
  3
B9
350
5B
  3
C0
350
5C
  3
C1
350
5D
  3
C2
350
5E
  3
C3
350
5F
  3
C4
350
60
  3
C5
350
61
  3
C6
350
62
  3
C7
350
63
  3
C8
350
64
  3
C9
350
65
  3
D0
350
66
  3
D1
350
67
  3
D2
350
68
  0
DICTIONARY
  5
158
102
{ACAD_REACTORS
330
C
102
}
330
C
100
AcDbDictionary
281
     1
  0
XRECORD
  5
15C
102
{ACAD_REACTORS
330
C
102
}
330
C
100
AcDbXrecord
280
     1
  1
DWGPROPS COOKIE
  2

  3

  4

  6

  7

  8
12016016
  9

300
=
301
=
302
=
303
=
304
=
305
=
306
=
307
=
308
=
309
=
 40
0.0
 41
2458263.248401829
 42
2458274.344476169
  1

 90
        0
  0
LAYOUT
  5
1E
102
{ACAD_REACTORS
330
1A
102
}
330
1A
100
AcDbPlotSettings
  1

  2
none_device
  4

  6

 40
0.0
 41
0.0
 42
0.0
 43
0.0
 44
0.0
 45
0.0
 46
0.0
 47
0.0
 48
0.0
 49
0.0
140
0.0
141
0.0
142
1.0
143
1.0
 70
   688
 72
     1
 73
     0
 74
     5
  7

 75
    16
147
1.0
148
0.0
149
0.0
100
AcDbLayout
  1
Layout1
 70
     1
 71
     1
 10
0.0
 20
0.0
 11
420.0
 21
297.0
 12
0.0
 22
0.0
 32
0.0
 14
1.000000000000000E+20
 24
1.000000000000000E+20
 34
1.000000000000000E+20
 15
-1.000000000000000E+20
 25
-1.000000000000000E+20
 35
-1.000000000000000E+20
146
0.0
 13
0.0
 23
0.0
 33
0.0
 16
1.0
 26
0.0
 36
0.0
 17
0.0
 27
1.0
 37
0.0
 76
     0
330
1B
  0
LAYOUT
  5
26
102
{ACAD_REACTORS
330
1A
102
}
330
1A
100
AcDbPlotSettings
  1

  2
none_device
  4

  6

 40
0.0
 41
0.0
 42
0.0
 43
0.0
 44
0.0
 45
0.0
 46
0.0
 47
0.0
 48
0.0
 49
0.0
140
0.0
141
0.0
142
1.0
143
1.0
 70
   688
 72
     1
 73
     0
 74
     5
  7

 75
    16
147
1.0
148
0.0
149
0.0
100
AcDbLayout
  1
Layout2
 70
     1
 71
     2
 10
0.0
 20
0.0
 11
0.0
 21
0.0
 12
0.0
 22
0.0
 32
0.0
 14
0.0
 24
0.0
 34
0.0
 15
0.0
 25
0.0
 35
0.0
146
0.0
 13
0.0
 23
0.0
 33
0.0
 16
1.0
 26
0.0
 36
0.0
 17
0.0
 27
1.0
 37
0.0
 76
     0
330
23
  0
LAYOUT
  5
22
102
{ACAD_REACTORS
330
1A
102
}
330
1A
100
AcDbPlotSettings
  1

  2
none_device
  4
ANSI_A_(11.00_x_8.50_Inches)
  6

 40
6.35
 41
19.05
 42
6.35000508
 43
19.05000254
 44
279.4
 45
215.9
 46
128.2809765854248
 47
86.81919848395582
 48
0.0
 49
0.0
140
0.0
141
0.0
142
0.0813487781070241
143
1.0
 70
  1696
 72
     0
 73
     0
 74
     0
  7

 75
     0
147
0.0235690232323232
148
0.0
149
0.0
100
AcDbLayout
  1
Model
 70
     1
 71
     0
 10
0.0
 20
0.0
 11
420.0
 21
297.0
 12
0.0
 22
0.0
 32
0.0
 14
-51.63500000000004
 24
-49.97073246008785
 34
0.0
 15
62.50968704837716
 25
46.31089146707808
 35
0.0
146
0.0
 13
0.0
 23
0.0
 33
0.0
 16
1.0
 26
0.0
 36
0.0
 17
0.0
 27
1.0
 37
0.0
 76
     0
330
1F
331
29
  0
MLINESTYLE
  5
18
102
{ACAD_REACTORS
330
17
102
}
330
17
100
AcDbMlineStyle
  2
Standard
 70
     0
  3

 62
   256
 51
90.0
 52
90.0
 71
     2
 49
0.5
 62
   256
  6
BYLAYER
 49
-0.5
 62
   256
  6
BYLAYER
  0
ACDBPLACEHOLDER
  5
F
102
{ACAD_REACTORS
330
E
102
}
330
E
  0
SCALE
  5
48
102
{ACAD_REACTORS
330
47
102
}
330
47
100
AcDbScale
 70
     0
300
1:1
140
1.0
141
1.0
290
     1
  0
SCALE
  5
49
102
{ACAD_REACTORS
330
47
102
}
330
47
100
AcDbScale
 70
     0
300
1:2
140
1.0
141
2.0
290
     0
  0
SCALE
  5
4A
102
{ACAD_REACTORS
330
47
102
}
330
47
100
AcDbScale
 70
     0
300
1:4
140
1.0
141
4.0
290
     0
  0
SCALE
  5
4B
102
{ACAD_REACTORS
330
47
102
}
330
47
100
AcDbScale
 70
     0
300
1:5
140
1.0
141
5.0
290
     0
  0
SCALE
  5
4C
102
{ACAD_REACTORS
330
47
102
}
330
47
100
AcDbScale
 70
     0
300
1:8
140
1.0
141
8.0
290
     0
  0
SCALE
  5
4D
102
{ACAD_REACTORS
330
47
102
}
330
47
100
AcDbScale
 70
     0
300
1:10
140
1.0
141
10.0
290
     0
  0
SCALE
  5
4E
102
{ACAD_REACTORS
330
47
102
}
330
47
100
AcDbScale
 70
     0
300
1:16
140
1.0
141
16.0
290
     0
  0
SCALE
  5
4F
102
{ACAD_REACTORS
330
47
102
}
330
47
100
AcDbScale
 70
     0
300
1:20
140
1.0
141
20.0
290
     0
  0
SCALE
  5
50
102
{ACAD_REACTORS
330
47
102
}
330
47
100
AcDbScale
 70
     0
300
1:30
140
1.0
141
30.0
290
     0
  0
SCALE
  5
51
102
{ACAD_REACTORS
330
47
102
}
330
47
100
AcDbScale
 70
     0
300
1:40
140
1.0
141
40.0
290
     0
  0
SCALE
  5
52
102
{ACAD_REACTORS
330
47
102
}
330
47
100
AcDbScale
 70
     0
300
1:50
140
1.0
141
50.0
290
     0
  0
SCALE
  5
53
102
{ACAD_REACTORS
330
47
102
}
330
47
100
AcDbScale
 70
     0
300
1:100
140
1.0
141
100.0
290
     0
  0
SCALE
  5
54
102
{ACAD_REACTORS
330
47
102
}
330
47
100
AcDbScale
 70
     0
300
2:1
140
2.0
141
1.0
290
     0
  0
SCALE
  5
55
102
{ACAD_REACTORS
330
47
102
}
330
47
100
AcDbScale
 70
     0
300
4:1
140
4.0
141
1.0
290
     0
  0
SCALE
  5
56
102
{ACAD_REACTORS
330
47
102
}
330
47
100
AcDbScale
 70
     0
300
8:1
140
8.0
141
1.0
290
     0
  0
SCALE
  5
57
102
{ACAD_REACTORS
330
47
102
}
330
47
100
AcDbScale
 70
     0
300
10:1
140
10.0
141
1.0
290
     0
  0
SCALE
  5
58
102
{ACAD_REACTORS
330
47
102
}
330
47
100
AcDbScale
 70
     0
300
100:1
140
100.0
141
1.0
290
     0
  0
SCALE
  5
59
102
{ACAD_REACTORS
330
47
102
}
330
47
100
AcDbScale
 70
     0
300
1/128" = 1'-0"
140
0.0078125
141
12.0
290
     0
  0
SCALE
  5
5A
102
{ACAD_REACTORS
330
47
102
}
330
47
100
AcDbScale
 70
     0
300
1/64" = 1'-0"
140
0.015625
141
12.0
290
     0
  0
SCALE
  5
5B
102
{ACAD_REACTORS
330
47
102
}
330
47
100
AcDbScale
 70
     0
300
1/32" = 1'-0"
140
0.03125
141
12.0
290
     0
  0
SCALE
  5
5C
102
{ACAD_REACTORS
330
47
102
}
330
47
100
AcDbScale
 70
     0
300
1/16" = 1'-0"
140
0.0625
141
12.0
290
     0
  0
SCALE
  5
5D
102
{ACAD_REACTORS
330
47
102
}
330
47
100
AcDbScale
 70
     0
300
3/32" = 1'-0"
140
0.09375
141
12.0
290
     0
  0
SCALE
  5
5E
102
{ACAD_REACTORS
330
47
102
}
330
47
100
AcDbScale
 70
     0
300
1/8" = 1'-0"
140
0.125
141
12.0
290
     0
  0
SCALE
  5
5F
102
{ACAD_REACTORS
330
47
102
}
330
47
100
AcDbScale
 70
     0
300
3/16" = 1'-0"
140
0.1875
141
12.0
290
     0
  0
SCALE
  5
60
102
{ACAD_REACTORS
330
47
102
}
330
47
100
AcDbScale
 70
     0
300
1/4" = 1'-0"
140
0.25
141
12.0
290
     0
  0
SCALE
  5
61
102
{ACAD_REACTORS
330
47
102
}
330
47
100
AcDbScale
 70
     0
300
3/8" = 1'-0"
140
0.375
141
12.0
290
     0
  0
SCALE
  5
62
102
{ACAD_REACTORS
330
47
102
}
330
47
100
AcDbScale
 70
     0
300
1/2" = 1'-0"
140
0.5
141
12.0
290
     0
  0
SCALE
  5
63
102
{ACAD_REACTORS
330
47
102
}
330
47
100
AcDbScale
 70
     0
300
3/4" = 1'-0"
140
0.75
141
12.0
290
     0
  0
SCALE
  5
64
102
{ACAD_REACTORS
330
47
102
}
330
47
100
AcDbScale
 70
     0
300
1" = 1'-0"
140
1.0
141
12.0
290
     0
  0
SCALE
  5
65
102
{ACAD_REACTORS
330
47
102
}
330
47
100
AcDbScale
 70
     0
300
1-1/2" = 1'-0"
140
1.5
141
12.0
290
     0
  0
SCALE
  5
66
102
{ACAD_REACTORS
330
47
102
}
330
47
100
AcDbScale
 70
     0
300
3" = 1'-0"
140
3.0
141
12.0
290
     0
  0
SCALE
  5
67
102
{ACAD_REACTORS
330
47
102
}
330
47
100
AcDbScale
 70
     0
300
6" = 1'-0"
140
6.0
141
12.0
290
     0
  0
SCALE
  5
68
102
{ACAD_REACTORS
330
47
102
}
330
47
100
AcDbScale
 70
     0
300
1'-0" = 1'-0"
140
12.0
141
12.0
290
     0
  0
ENDSEC
  0
EOF
