  0
SECTION
  2
HEADER
  9
$ACADVER
  1
AC1015
  9
$ACADMAINTVER
 70
     6
  9
$DWGCODEPAGE
  3
ANSI_949
  9
$INSBASE
 10
0.0
 20
0.0
 30
0.0
  9
$EXTMIN
 10
-61.38165802161213
 20
-49.88227576695243
 30
0.0
  9
$EXTMAX
 10
51.83260855921927
 20
49.32750000000005
 30
0.0
  9
$LIMMIN
 10
0.0
 20
0.0
  9
$LIMMAX
 10
420.0
 20
297.0
  9
$ORTHOMODE
 70
     0
  9
$REGENMODE
 70
     1
  9
$FILLMODE
 70
     1
  9
$QTEXTMODE
 70
     0
  9
$MIRRTEXT
 70
     1
  9
$LTSCALE
 40
1.0
  9
$ATTMODE
 70
     1
  9
$TEXTSIZE
 40
3.5
  9
$TRACEWID
 40
1.0
  9
$TEXTSTYLE
  7
Standard
  9
$CLAYER
  8
0
  9
$CELTYPE
  6
ByLayer
  9
$CECOLOR
 62
   256
  9
$CELTSCALE
 40
1.0
  9
$DISPSILH
 70
     0
  9
$DIMSCALE
 40
1.0
  9
$DIMASZ
 40
3.302
  9
$DIMEXO
 40
1.0
  9
$DIMDLI
 40
3.75
  9
$DIMRND
 40
0.0
  9
$DIMDLE
 40
0.0
  9
$DIMEXE
 40
1.0
  9
$DIMTP
 40
0.0
  9
$DIMTM
 40
0.0
  9
$DIMTXT
 40
3.5
  9
$DIMCEN
 40
2.5
  9
$DIMTSZ
 40
0.0
  9
$DIMTOL
 70
     0
  9
$DIMLIM
 70
     0
  9
$DIMTIH
 70
     1
  9
$DIMTOH
 70
     1
  9
$DIMSE1
 70
     0
  9
$DIMSE2
 70
     0
  9
$DIMTAD
 70
     1
  9
$DIMZIN
 70
     0
  9
$DIMBLK
  1

  9
$DIMASO
 70
     1
  9
$DIMSHO
 70
     1
  9
$DIMPOST
  1

  9
$DIMAPOST
  1

  9
$DIMALT
 70
     0
  9
$DIMALTD
 70
     3
  9
$DIMALTF
 40
0.0393700787401575
  9
$DIMLFAC
 40
1.0
  9
$DIMTOFL
 70
     1
  9
$DIMTVP
 40
0.0
  9
$DIMTIX
 70
     0
  9
$DIMSOXD
 70
     0
  9
$DIMSAH
 70
     0
  9
$DIMBLK1
  1

  9
$DIMBLK2
  1

  9
$DIMSTYLE
  2
ISO-25
  9
$DIMCLRD
 70
     0
  9
$DIMCLRE
 70
     0
  9
$DIMCLRT
 70
     0
  9
$DIMTFAC
 40
1.0
  9
$DIMGAP
 40
1.524
  9
$DIMJUST
 70
     0
  9
$DIMSD1
 70
     0
  9
$DIMSD2
 70
     0
  9
$DIMTOLJ
 70
     0
  9
$DIMTZIN
 70
     0
  9
$DIMALTZ
 70
     0
  9
$DIMALTTZ
 70
     0
  9
$DIMUPT
 70
     0
  9
$DIMDEC
 70
     2
  9
$DIMTDEC
 70
     2
  9
$DIMALTU
 70
     2
  9
$DIMALTTD
 70
     3
  9
$DIMTXSTY
  7
Standard
  9
$DIMAUNIT
 70
     0
  9
$DIMADEC
 70
     2
  9
$DIMALTRND
 40
0.0
  9
$DIMAZIN
 70
     0
  9
$DIMDSEP
 70
    44
  9
$DIMATFIT
 70
     3
  9
$DIMFRAC
 70
     0
  9
$DIMLDRBLK
  1

  9
$DIMLUNIT
 70
     2
  9
$DIMLWD
 70
    -2
  9
$DIMLWE
 70
    -2
  9
$DIMTMOVE
 70
     0
  9
$LUNITS
 70
     2
  9
$LUPREC
 70
     2
  9
$SKETCHINC
 40
1.0
  9
$FILLETRAD
 40
10.0
  9
$AUNITS
 70
     0
  9
$AUPREC
 70
     2
  9
$MENU
  1
.
  9
$ELEVATION
 40
0.0
  9
$PELEVATION
 40
0.0
  9
$THICKNESS
 40
0.0
  9
$LIMCHECK
 70
     0
  9
$CHAMFERA
 40
0.0
  9
$CHAMFERB
 40
0.0
  9
$CHAMFERC
 40
0.0
  9
$CHAMFERD
 40
0.0
  9
$SKPOLY
 70
     0
  9
$TDCREATE
 40
2458269.735470544
  9
$TDUCREATE
 40
2458269.360470544
  9
$TDUPDATE
 40
2458274.784591551
  9
$TDUUPDATE
 40
2458274.409591551
  9
$TDINDWG
 40
0.0035847685
  9
$TDUSRTIMER
 40
2458274.40600706
  9
$USRTIMER
 70
     1
  9
$ANGBASE
 50
0.0
  9
$ANGDIR
 70
     0
  9
$PDMODE
 70
     0
  9
$PDSIZE
 40
-1.0
  9
$PLINEWID
 40
0.0
  9
$SPLFRAME
 70
     0
  9
$SPLINETYPE
 70
     6
  9
$SPLINESEGS
 70
     8
  9
$HANDSEED
  5
16E
  9
$SURFTAB1
 70
     6
  9
$SURFTAB2
 70
     6
  9
$SURFTYPE
 70
     6
  9
$SURFU
 70
     6
  9
$SURFV
 70
     6
  9
$UCSBASE
  2

  9
$UCSNAME
  2

  9
$UCSORG
 10
0.0
 20
0.0
 30
0.0
  9
$UCSXDIR
 10
1.0
 20
0.0
 30
0.0
  9
$UCSYDIR
 10
0.0
 20
1.0
 30
0.0
  9
$UCSORTHOREF
  2

  9
$UCSORTHOVIEW
 70
     0
  9
$UCSORGTOP
 10
0.0
 20
0.0
 30
0.0
  9
$UCSORGBOTTOM
 10
0.0
 20
0.0
 30
0.0
  9
$UCSORGLEFT
 10
0.0
 20
0.0
 30
0.0
  9
$UCSORGRIGHT
 10
0.0
 20
0.0
 30
0.0
  9
$UCSORGFRONT
 10
0.0
 20
0.0
 30
0.0
  9
$UCSORGBACK
 10
0.0
 20
0.0
 30
0.0
  9
$PUCSBASE
  2

  9
$PUCSNAME
  2

  9
$PUCSORG
 10
0.0
 20
0.0
 30
0.0
  9
$PUCSXDIR
 10
1.0
 20
0.0
 30
0.0
  9
$PUCSYDIR
 10
0.0
 20
1.0
 30
0.0
  9
$PUCSORTHOREF
  2

  9
$PUCSORTHOVIEW
 70
     0
  9
$PUCSORGTOP
 10
0.0
 20
0.0
 30
0.0
  9
$PUCSORGBOTTOM
 10
0.0
 20
0.0
 30
0.0
  9
$PUCSORGLEFT
 10
0.0
 20
0.0
 30
0.0
  9
$PUCSORGRIGHT
 10
0.0
 20
0.0
 30
0.0
  9
$PUCSORGFRONT
 10
0.0
 20
0.0
 30
0.0
  9
$PUCSORGBACK
 10
0.0
 20
0.0
 30
0.0
  9
$USERI1
 70
     0
  9
$USERI2
 70
     0
  9
$USERI3
 70
     0
  9
$USERI4
 70
     0
  9
$USERI5
 70
     0
  9
$USERR1
 40
0.0
  9
$USERR2
 40
0.0
  9
$USERR3
 40
0.0
  9
$USERR4
 40
0.0
  9
$USERR5
 40
0.0
  9
$WORLDVIEW
 70
     1
  9
$SHADEDGE
 70
     3
  9
$SHADEDIF
 70
    70
  9
$TILEMODE
 70
     1
  9
$MAXACTVP
 70
    64
  9
$PINSBASE
 10
0.0
 20
0.0
 30
0.0
  9
$PLIMCHECK
 70
     0
  9
$PEXTMIN
 10
1.000000000000000E+20
 20
1.000000000000000E+20
 30
1.000000000000000E+20
  9
$PEXTMAX
 10
-1.000000000000000E+20
 20
-1.000000000000000E+20
 30
-1.000000000000000E+20
  9
$PLIMMIN
 10
0.0
 20
0.0
  9
$PLIMMAX
 10
0.0
 20
0.0
  9
$UNITMODE
 70
     0
  9
$VISRETAIN
 70
     1
  9
$PLINEGEN
 70
     0
  9
$PSLTSCALE
 70
     1
  9
$TREEDEPTH
 70
  3020
  9
$CMLSTYLE
  2
Standard
  9
$CMLJUST
 70
     0
  9
$CMLSCALE
 40
20.0
  9
$PROXYGRAPHICS
 70
     1
  9
$MEASUREMENT
 70
     1
  9
$CELWEIGHT
370
    -1
  9
$ENDCAPS
280
     0
  9
$JOINSTYLE
280
     0
  9
$LWDISPLAY
290
     1
  9
$INSUNITS
 70
     4
  9
$HYPERLINKBASE
  1

  9
$STYLESHEET
  1

  9
$XEDIT
290
     1
  9
$CEPSNTYPE
380
     0
  9
$PSTYLEMODE
290
     1
  9
$FINGERPRINTGUID
  2
{FDAEF2E9-B880-470F-9819-4812C5AAF599}
  9
$VERSIONGUID
  2
{FAEB1C32-E019-11D5-929B-00C0DF256EC4}
  9
$EXTNAMES
290
     1
  9
$PSVPSCALE
 40
0.0
  9
$OLESTARTUP
290
     0
  0
ENDSEC
  0
SECTION
  2
CLASSES
  0
CLASS
  1
ACDBDICTIONARYWDFLT
  2
AcDbDictionaryWithDefault
  3
ObjectDBX Classes
 90
        0
280
     0
281
     0
  0
CLASS
  1
VISUALSTYLE
  2
AcDbVisualStyle
  3
ObjectDBX Classes
 90
     4095
280
     0
281
     0
  0
CLASS
  1
MATERIAL
  2
AcDbMaterial
  3
ObjectDBX Classes
 90
     1153
280
     0
281
     0
  0
CLASS
  1
SCALE
  2
AcDbScale
  3
ObjectDBX Classes
 90
     1153
280
     0
281
     0
  0
CLASS
  1
SUN
  2
AcDbSun
  3
SCENEOE
 90
     1153
280
     0
281
     0
  0
CLASS
  1
ACDBPLACEHOLDER
  2
AcDbPlaceHolder
  3
ObjectDBX Classes
 90
        0
280
     0
281
     0
  0
CLASS
  1
LAYOUT
  2
AcDbLayout
  3
ObjectDBX Classes
 90
        0
280
     0
281
     0
  0
CLASS
  1
TABLESTYLE
  2
AcDbTableStyle
  3
ObjectDBX Classes
 90
     4095
280
     0
281
     0
  0
CLASS
  1
MLEADERSTYLE
  2
AcDbMLeaderStyle
  3
ACDB_MLEADERSTYLE_CLASS
 90
     4095
280
     0
281
     0
  0
CLASS
  1
RASTERVARIABLES
  2
AcDbRasterVariables
  3
ISM
 90
        0
280
     0
281
     0
  0
CLASS
  1
DIMASSOC
  2
AcDbDimAssoc
  3
"AcDbDimAssoc|Product Desc:     AcDim ARX App For Dimension|Company:          Autodesk, Inc.|WEB Address:      www.autodesk.com"
 90
        0
280
     0
281
     0
  0
ENDSEC
  0
SECTION
  2
TABLES
  0
TABLE
  2
VPORT
  5
8
330
0
100
AcDbSymbolTable
 70
     1
  0
VPORT
  5
29
330
8
100
AcDbSymbolTableRecord
100
AcDbViewportTableRecord
  2
*Active
 70
     0
 10
0.0
 20
0.0
 11
1.0
 21
1.0
 12
7.374550675457044
 22
6.921180015192636
 13
0.0
 23
0.0
 14
10.0
 24
10.0
 15
10.0
 25
10.0
 16
0.0
 26
0.0
 36
1.0
 17
0.0
 27
0.0
 37
0.0
 40
56.26839584391944
 41
1.666023166023166
 42
50.0
 43
0.0
 44
0.0
 50
0.0
 51
0.0
 71
    16
 72
  2000
 73
     1
 74
     3
 75
     0
 76
     0
 77
     0
 78
     0
281
     0
 65
     1
110
0.0
120
0.0
130
0.0
111
1.0
121
0.0
131
0.0
112
0.0
122
1.0
132
0.0
 79
     0
146
0.0
  0
ENDTAB
  0
TABLE
  2
LTYPE
  5
5
330
0
100
AcDbSymbolTable
 70
     6
  0
LTYPE
  5
14
330
5
100
AcDbSymbolTableRecord
100
AcDbLinetypeTableRecord
  2
ByBlock
 70
     0
  3

 72
    65
 73
     0
 40
0.0
  0
LTYPE
  5
15
330
5
100
AcDbSymbolTableRecord
100
AcDbLinetypeTableRecord
  2
ByLayer
 70
     0
  3

 72
    65
 73
     0
 40
0.0
  0
LTYPE
  5
16
330
5
100
AcDbSymbolTableRecord
100
AcDbLinetypeTableRecord
  2
Continuous
 70
     0
  3
Solid line
 72
    65
 73
     0
 40
0.0
  0
LTYPE
  5
6A
330
5
100
AcDbSymbolTableRecord
100
AcDbLinetypeTableRecord
  2
HIDDEN
 70
     0
  3
Hidden __ __ __ __ __ __ __ __ __ __ __ __ __ __
 72
    65
 73
     2
 40
1.905
 49
1.27
 74
     0
 49
-0.635
 74
     0
  0
LTYPE
  5
6B
330
5
100
AcDbSymbolTableRecord
100
AcDbLinetypeTableRecord
  2
PHANTOM
 70
     0
  3
Phantom ______  __  __  ______  __  __  ______
 72
    65
 73
     6
 40
12.7
 49
6.35
 74
     0
 49
-1.27
 74
     0
 49
1.27
 74
     0
 49
-1.27
 74
     0
 49
1.27
 74
     0
 49
-1.27
 74
     0
  0
LTYPE
  5
6C
330
5
100
AcDbSymbolTableRecord
100
AcDbLinetypeTableRecord
  2
CENTER
 70
     0
  3
Center ____ _ ____ _ ____ _ ____ _ ____ _ ____
 72
    65
 73
     4
 40
10.16
 49
6.35
 74
     0
 49
-1.27
 74
     0
 49
1.27
 74
     0
 49
-1.27
 74
     0
  0
LTYPE
  5
6D
330
5
100
AcDbSymbolTableRecord
100
AcDbLinetypeTableRecord
  2
CENTERX2
 70
     0
  3
Center (2x) ________  __  ________  __  _____
 72
    65
 73
     4
 40
20.32
 49
12.7
 74
     0
 49
-2.54
 74
     0
 49
2.54
 74
     0
 49
-2.54
 74
     0
  0
LTYPE
  5
6E
330
5
100
AcDbSymbolTableRecord
100
AcDbLinetypeTableRecord
  2
DOT2
 70
     0
  3
Dot (.5x) ........................................
 72
    65
 73
     2
 40
0.635
 49
0.0
 74
     0
 49
-0.635
 74
     0
  0
ENDTAB
  0
TABLE
  2
LAYER
  5
2
330
0
100
AcDbSymbolTable
 70
    17
  0
LAYER
  5
10
330
2
100
AcDbSymbolTableRecord
100
AcDbLayerTableRecord
  2
0
 70
     0
 62
     7
  6
Continuous
370
    -3
390
F
  0
LAYER
  5
6F
330
2
100
AcDbSymbolTableRecord
100
AcDbLayerTableRecord
  2
FORMAT
 70
     0
 62
     2
  6
Continuous
370
    -3
390
F
  0
LAYER
  5
70
330
2
100
AcDbSymbolTableRecord
100
AcDbLayerTableRecord
  2
외형선
 70
     0
 62
   100
  6
Continuous
370
    30
390
F
  0
LAYER
  5
71
330
2
100
AcDbSymbolTableRecord
100
AcDbLayerTableRecord
  2
숨은선
 70
     0
 62
     2
  6
HIDDEN
370
    15
390
F
  0
LAYER
  5
72
330
2
100
AcDbSymbolTableRecord
100
AcDbLayerTableRecord
  2
중심선
 70
     0
 62
     1
  6
CENTERX2
370
    -3
390
F
  0
LAYER
  5
73
330
2
100
AcDbSymbolTableRecord
100
AcDbLayerTableRecord
  2
파단선
 70
     0
 62
     4
  6
Continuous
370
    -3
390
F
  0
LAYER
  5
74
330
2
100
AcDbSymbolTableRecord
100
AcDbLayerTableRecord
  2
해칭선
 70
     0
 62
     4
  6
Continuous
370
    -3
390
F
  0
LAYER
  5
75
330
2
100
AcDbSymbolTableRecord
100
AcDbLayerTableRecord
  2
가는실선
 70
     0
 62
     4
  6
Continuous
370
    -3
390
F
  0
LAYER
  5
76
330
2
100
AcDbSymbolTableRecord
100
AcDbLayerTableRecord
  2
치수_보조선
 70
     0
 62
     4
  6
Continuous
370
    -3
390
F
  0
LAYER
  5
77
330
2
100
AcDbSymbolTableRecord
100
AcDbLayerTableRecord
  2
치수문자_일반주서
 70
     0
 62
     7
  6
Continuous
370
    15
390
F
  0
LAYER
  5
78
330
2
100
AcDbSymbolTableRecord
100
AcDbLayerTableRecord
  2
개별주서
 70
     0
 62
   100
  6
Continuous
370
    30
390
F
  0
LAYER
  5
79
330
2
100
AcDbSymbolTableRecord
100
AcDbLayerTableRecord
  2
중간선
 70
     0
 62
     2
  6
Continuous
370
    15
390
F
  0
LAYER
  5
7A
330
2
100
AcDbSymbolTableRecord
100
AcDbLayerTableRecord
  2
윤곽선
 70
     0
 62
     3
  6
Continuous
370
    40
390
F
  0
LAYER
  5
7B
330
2
100
AcDbSymbolTableRecord
100
AcDbLayerTableRecord
  2
중심마크
 70
     0
 62
   100
  6
Continuous
370
    30
390
F
  0
LAYER
  5
7C
330
2
100
AcDbSymbolTableRecord
100
AcDbLayerTableRecord
  2
가상선
 70
     0
 62
     4
  6
PHANTOM
370
    -3
390
F
  0
LAYER
  5
7D
330
2
100
AcDbSymbolTableRecord
100
AcDbLayerTableRecord
  2
특수지정선
 70
     0
 62
     5
  6
CENTERX2
370
    60
390
F
  0
LAYER
  5
157
330
2
100
AcDbSymbolTableRecord
100
AcDbLayerTableRecord
  2
Defpoints
 70
     0
 62
     7
  6
Continuous
290
     0
370
    -3
390
F
  0
ENDTAB
  0
TABLE
  2
STYLE
  5
3
330
0
100
AcDbSymbolTable
 70
     2
  0
STYLE
  5
11
330
3
100
AcDbSymbolTableRecord
100
AcDbTextStyleTableRecord
  2
Standard
 70
     0
 40
0.0
 41
1.0
 50
0.0
 71
     0
 42
3.5
  3
txt
  4

  0
STYLE
  5
93
330
3
100
AcDbSymbolTableRecord
100
AcDbTextStyleTableRecord
  2
SLDTEXTSTYLE0
 70
     0
 40
0.0
 41
0.75
 50
0.0
 71
     0
 42
3.5
  3
TXT
  4

  0
ENDTAB
  0
TABLE
  2
VIEW
  5
6
330
0
100
AcDbSymbolTable
 70
     0
  0
ENDTAB
  0
TABLE
  2
UCS
  5
7
330
0
100
AcDbSymbolTable
 70
     0
  0
ENDTAB
  0
TABLE
  2
APPID
  5
9
330
0
100
AcDbSymbolTable
 70
     2
  0
APPID
  5
12
330
9
100
AcDbSymbolTableRecord
100
AcDbRegAppTableRecord
  2
ACAD
 70
     0
  0
APPID
  5
16A
330
9
100
AcDbSymbolTableRecord
100
AcDbRegAppTableRecord
  2
PE_DIMMEASUREMENT
 70
     0
  0
ENDTAB
  0
TABLE
  2
DIMSTYLE
  5
A
330
0
100
AcDbSymbolTable
 70
     3
100
AcDbDimStyleTable
  0
DIMSTYLE
105
27
330
A
100
AcDbSymbolTableRecord
100
AcDbDimStyleTableRecord
  2
ISO-25
 70
     0
 41
2.5
 42
0.625
 43
3.75
 44
1.25
 73
     0
 74
     0
 77
     1
 78
     8
140
2.5
141
2.5
143
0.03937007874016
147
0.625
171
     3
172
     1
178
     0
271
     2
272
     2
274
     3
278
    44
283
     0
284
     8
340
11
  0
DIMSTYLE
105
D9
102
{ACAD_REACTORS
330
D8
330
101
330
116
330
158
102
}
330
A
100
AcDbSymbolTableRecord
100
AcDbDimStyleTableRecord
  2
SLDDIMSTYLE0
 70
     0
 41
3.302
 44
0.0
 45
0.000000001
 73
     0
 74
     0
 77
     1
 78
    12
 79
     3
140
3.5
143
0.0393700787401575
147
0.875
148
0.000000001
170
     1
172
     1
173
     1
178
     0
271
     2
272
     2
276
     2
284
    12
289
     0
340
93
  0
DIMSTYLE
105
EE
102
{ACAD_REACTORS
330
ED
102
}
330
A
100
AcDbSymbolTableRecord
100
AcDbDimStyleTableRecord
  2
SLDDIMSTYLE1
 70
     0
 41
3.302
 44
0.0
 45
0.000000001
 73
     0
 74
     0
 77
     1
 78
    12
 79
     3
140
3.5
143
0.0393700787401575
147
0.875
148
0.000000001
170
     1
173
     1
178
     0
271
     2
272
     2
276
     2
284
    12
340
93
  0
ENDTAB
  0
TABLE
  2
BLOCK_RECORD
  5
1
330
0
100
AcDbSymbolTable
 70
     8
  0
BLOCK_RECORD
  5
1F
330
1
100
AcDbSymbolTableRecord
100
AcDbBlockTableRecord
  2
*Model_Space
340
22
  0
BLOCK_RECORD
  5
1B
330
1
100
AcDbSymbolTableRecord
100
AcDbBlockTableRecord
  2
*Paper_Space
340
1E
  0
BLOCK_RECORD
  5
23
330
1
100
AcDbSymbolTableRecord
100
AcDbBlockTableRecord
  2
*Paper_Space0
340
26
  0
BLOCK_RECORD
  5
7E
330
1
100
AcDbSymbolTableRecord
100
AcDbBlockTableRecord
  2
블럭10
340
0
102
{BLKREFS
331
D0
102
}
  0
BLOCK_RECORD
  5
DA
330
1
100
AcDbSymbolTableRecord
100
AcDbBlockTableRecord
  2
_D
340
0
  0
BLOCK_RECORD
  5
EF
330
1
100
AcDbSymbolTableRecord
100
AcDbBlockTableRecord
  2
_D_1
340
0
  0
BLOCK_RECORD
  5
102
330
1
100
AcDbSymbolTableRecord
100
AcDbBlockTableRecord
  2
_D_2
340
0
  0
BLOCK_RECORD
  5
117
330
1
100
AcDbSymbolTableRecord
100
AcDbBlockTableRecord
  2
_D_3
340
0
  0
BLOCK_RECORD
  5
12B
330
1
100
AcDbSymbolTableRecord
100
AcDbBlockTableRecord
  2
SW_DOWELSYMBOL_0
340
0
102
{BLKREFS
331
131
102
}
  0
BLOCK_RECORD
  5
15B
330
1
100
AcDbSymbolTableRecord
100
AcDbBlockTableRecord
  2
*D7
340
0
  0
ENDTAB
  0
ENDSEC
  0
SECTION
  2
BLOCKS
  0
BLOCK
  5
20
330
1F
100
AcDbEntity
  8
0
100
AcDbBlockBegin
  2
*Model_Space
 70
     0
 10
0.0
 20
0.0
 30
0.0
  3
*Model_Space
  1
*Model_Space
  0
ENDBLK
  5
21
330
1F
100
AcDbEntity
  8
0
100
AcDbBlockEnd
  0
BLOCK
  5
1C
330
1B
100
AcDbEntity
 67
     1
  8
0
100
AcDbBlockBegin
  2
*Paper_Space
 70
     0
 10
0.0
 20
0.0
 30
0.0
  3
*Paper_Space
  1
*Paper_Space
  0
ENDBLK
  5
1D
330
1B
100
AcDbEntity
 67
     1
  8
0
100
AcDbBlockEnd
  0
BLOCK
  5
24
330
23
100
AcDbEntity
  8
0
100
AcDbBlockBegin
  2
*Paper_Space0
 70
     0
 10
0.0
 20
0.0
 30
0.0
  3
*Paper_Space0
  1
*Paper_Space0
  0
ENDBLK
  5
25
330
23
100
AcDbEntity
  8
0
100
AcDbBlockEnd
  0
BLOCK
  5
7F
330
7E
100
AcDbEntity
  8
0
100
AcDbBlockBegin
  2
블럭10
 70
     2
 10
0.0
 20
0.0
 30
0.0
  3
블럭10
  1
블럭10
  0
ELLIPSE
  5
81
330
7E
100
AcDbEntity
  8
중심선
100
AcDbEllipse
 10
20.54032771741204
 20
12.0471743016438
 30
0.0
 11
6.600054785286829
 21
-1.261213355974178E-13
 31
0.0
210
0.0
220
0.0
230
1.0
 40
0.636358354079598
 41
0.9219305317359503
 42
6.513795318482858
  0
ELLIPSE
  5
82
330
7E
100
AcDbEntity
  8
중심선
100
AcDbEllipse
 10
20.54032771746488
 20
12.04717430159265
 30
0.0
 11
3.960054785062283
 21
1.540847449632565E-10
 31
0.0
210
0.0
220
0.0
230
1.0
 40
0.3939339440162632
 41
1.131841032648279
 42
5.62031148352944
  0
LINE
  5
83
330
7E
100
AcDbEntity
  8
중심선
100
AcDbLine
 10
2.268634060543552
 20
16.24717430164393
 30
0.0
 11
5.714909304380834
 21
16.24717430164393
 31
0.0
  0
LINE
  5
84
330
7E
100
AcDbEntity
  8
중심선
100
AcDbLine
 10
5.245725140726316
 20
7.84717430164391
 30
0.0
 11
8.692000384563599
 21
7.84717430164391
 31
0.0
  0
LINE
  5
85
330
7E
100
AcDbEntity
  8
중심선
100
AcDbLine
 10
15.74043728645272
 20
16.24717430164393
 30
0.0
 11
8.692000384563599
 21
7.84717430164391
 31
0.0
  0
LINE
  5
86
330
7E
100
AcDbEntity
  8
중심선
100
AcDbLine
 10
0.1404042013395286
 20
13.71084872107135
 30
0.0
 11
3.58671253028996
 21
13.71088815037384
 31
0.0
  0
LINE
  5
87
330
7E
100
AcDbEntity
  8
중심선
100
AcDbLine
 10
2.750260043222114
 20
10.84717430164391
 30
0.0
 11
6.196535287059397
 21
10.84717430164391
 31
0.0
  0
LINE
  5
88
330
7E
100
AcDbEntity
  8
중심선
100
AcDbLine
 10
12.29416204261559
 20
16.24717430164393
 30
0.0
 11
5.245725140726316
 21
7.84717430164391
 31
0.0
  0
LINE
  5
89
330
7E
100
AcDbEntity
  8
중심선
100
AcDbLine
 10
10.72767329541681
 20
16.24717430164393
 30
0.0
 11
6.196535287059397
 21
10.84717430164391
 31
0.0
  0
LINE
  5
8A
330
7E
100
AcDbEntity
  8
중심선
100
AcDbLine
 10
7.28139805157953
 20
16.24717430164393
 30
0.0
 11
2.750260043222114
 21
10.84717430164391
 31
0.0
  0
LINE
  5
8B
330
7E
100
AcDbEntity
  8
중심선
100
AcDbLine
 10
5.714909304380834
 20
16.24717430164393
 30
0.0
 11
3.58671253028996
 21
13.71088815037384
 31
0.0
  0
LINE
  5
8C
330
7E
100
AcDbEntity
  8
중심선
100
AcDbLine
 10
2.268634060543552
 20
16.24717430164393
 30
0.0
 11
0.1404042013395286
 21
13.71084872107135
 31
0.0
  0
LINE
  5
8D
330
7E
100
AcDbEntity
  8
중심선
100
AcDbLine
 10
7.28139805157953
 20
16.24717430164393
 30
0.0
 11
10.72767329541681
 21
16.24717430164393
 31
0.0
  0
LINE
  5
8E
330
7E
100
AcDbEntity
  8
중심선
100
AcDbLine
 10
12.29416204261559
 20
16.24717430164393
 30
0.0
 11
15.74043728645272
 21
16.24717430164393
 31
0.0
  0
LINE
  5
8F
330
7E
100
AcDbEntity
  8
중심선
100
AcDbLine
 10
19.22036997980202
 20
11.08717430171403
 30
0.0
 11
23.66174974927406
 21
11.08717430171406
 31
0.0
  0
LINE
  5
90
330
7E
100
AcDbEntity
  8
중심선
100
AcDbLine
 10
19.22039502424796
 20
13.00717430171391
 30
0.0
 11
19.22036997980202
 21
11.08717430171403
 31
0.0
  0
LINE
  5
91
330
7E
100
AcDbEntity
  8
중심선
100
AcDbLine
 10
19.22039502424796
 20
13.00717430171391
 30
0.0
 11
26.96566020931264
 21
13.00717430171391
 31
0.0
  0
LINE
  5
92
330
7E
100
AcDbEntity
  8
중심선
100
AcDbLine
 10
22.22332737316547
 20
13.45928029700563
 30
0.0
 11
24.52862924686651
 21
15.39360700705356
 31
0.0
  0
ATTDEF
  5
94
330
7E
100
AcDbEntity
  8
FORMAT
 62
     2
100
AcDbText
 10
-9.18129528874128
 20
2.075366912832191
 30
0.0
 40
4.233333333333333
  1
E5975024 [ 3 FLUTE ]
 41
0.75
  7
SLDTEXTSTYLE0
 11
-9.18129528874128
 21
-0.0412997538344756
 31
0.0
100
AcDbAttributeDefinition
  3

  2
AUTOATTR0
 70
     0
 74
     1
  0
ENDBLK
  5
80
330
7E
100
AcDbEntity
  8
0
100
AcDbBlockEnd
  0
BLOCK
  5
DB
330
DA
100
AcDbEntity
  8
0
100
AcDbBlockBegin
  2
_D
 70
     0
 10
0.0
 20
0.0
 30
0.0
  3
_D
  1
_D
  0
LINE
  5
DD
330
DA
100
AcDbEntity
  8
치수문자_일반주서
 62
     0
370
    -2
100
AcDbLine
 10
-44.57270000000001
 20
4.762499999999995
 30
0.0
 11
-57.0066580216121
 21
4.762499999999948
 31
0.0
  0
LINE
  5
DE
330
DA
100
AcDbEntity
  8
치수문자_일반주서
 62
     0
370
    -2
100
AcDbLine
 10
-44.57270000000001
 20
-4.762500000000004
 30
0.0
 11
-57.00665802161206
 21
-4.762500000000051
 31
0.0
  0
LINE
  5
DF
330
DA
100
AcDbEntity
  8
치수문자_일반주서
 62
     0
370
    -2
100
AcDbLine
 10
-57.00665802161208
 20
1.460499999999948
 30
0.0
 11
-57.00665802161208
 21
-1.460500000000051
 31
0.0
  0
SOLID
  5
E0
330
DA
100
AcDbEntity
  8
치수문자_일반주서
 62
     0
100
AcDbTrace
 10
-56.45632468827875
 20
1.46049999999995
 30
0.0
 11
-57.55699135494542
 21
1.460499999999946
 31
0.0
 12
-57.0066580216121
 22
4.762499999999948
 32
0.0
 13
-57.0066580216121
 23
4.762499999999948
 33
0.0
  0
SOLID
  5
E1
330
DA
100
AcDbEntity
  8
치수문자_일반주서
 62
     0
100
AcDbTrace
 10
-57.55699135494541
 20
-1.460500000000053
 30
0.0
 11
-56.45632468827874
 21
-1.460500000000049
 31
0.0
 12
-57.00665802161206
 22
-4.762500000000051
 32
0.0
 13
-57.00665802161206
 23
-4.762500000000051
 33
0.0
  0
MTEXT
  5
E2
330
DA
100
AcDbEntity
  8
치수문자_일반주서
 62
     0
100
AcDbMText
 10
-61.38165802161208
 20
-0.0000000000000207
 30
0.0
 40
3.5
 41
0.0
 71
     2
 72
     1
  1
\A1;%%c9.53 [3/8]
  7
SLDTEXTSTYLE0
 11
-3.729883127349608E-15
 21
1.0
 31
0.0
 73
     1
 44
1.0
  0
POINT
  5
E3
330
DA
100
AcDbEntity
  8
Defpoints
 62
     0
100
AcDbPoint
 10
-44.51020000000001
 20
4.762499999999995
 30
0.0
  0
POINT
  5
E4
330
DA
100
AcDbEntity
  8
Defpoints
 62
     0
100
AcDbPoint
 10
-44.51020000000001
 20
-4.762500000000004
 30
0.0
  0
POINT
  5
E5
330
DA
100
AcDbEntity
  8
Defpoints
 62
     0
100
AcDbPoint
 10
-57.00665802161207
 20
-4.762500000000051
 30
0.0
  0
ENDBLK
  5
DC
330
DA
100
AcDbEntity
  8
0
100
AcDbBlockEnd
  0
BLOCK
  5
F0
330
EF
100
AcDbEntity
  8
0
100
AcDbBlockBegin
  2
_D_1
 70
     0
 10
0.0
 20
0.0
 30
0.0
  3
_D_1
  1
_D_1
  0
LINE
  5
F2
330
EF
100
AcDbEntity
  8
치수문자_일반주서
 62
     0
370
    -2
100
AcDbLine
 10
-45.3202
 20
4.014999999999995
 30
0.0
 11
-45.3202
 21
44.95250000000005
 31
0.0
  0
LINE
  5
F3
330
EF
100
AcDbEntity
  8
치수문자_일반주서
 62
     0
370
    -2
100
AcDbLine
 10
34.0548
 20
0.0625000000000034
 30
0.0
 11
34.0548
 21
44.95250000000005
 31
0.0
  0
LINE
  5
F4
330
EF
100
AcDbEntity
  8
치수문자_일반주서
 62
     0
370
    -2
100
AcDbLine
 10
-42.0182
 20
44.95250000000005
 30
0.0
 11
30.7528
 21
44.95250000000005
 31
0.0
  0
SOLID
  5
F5
330
EF
100
AcDbEntity
  8
치수문자_일반주서
 62
     0
100
AcDbTrace
 10
-42.0182
 20
45.50283333333338
 30
0.0
 11
-42.0182
 21
44.40216666666672
 31
0.0
 12
-45.3202
 22
44.95250000000005
 32
0.0
 13
-45.3202
 23
44.95250000000005
 33
0.0
  0
SOLID
  5
F6
330
EF
100
AcDbEntity
  8
치수문자_일반주서
 62
     0
100
AcDbTrace
 10
30.7528
 20
44.40216666666672
 30
0.0
 11
30.7528
 21
45.50283333333338
 31
0.0
 12
34.0548
 22
44.95250000000005
 32
0.0
 13
34.0548
 23
44.95250000000005
 33
0.0
  0
MTEXT
  5
F7
330
EF
100
AcDbEntity
  8
치수문자_일반주서
 62
     0
100
AcDbMText
 10
-2.599317378328339
 20
49.32750000000005
 30
0.0
 40
3.5
 41
0.0
 71
     2
 72
     1
  1
\A1;79.38 [3 1/8]
  7
SLDTEXTSTYLE0
 73
     1
 44
1.0
  0
POINT
  5
F8
330
EF
100
AcDbEntity
  8
Defpoints
 62
     0
100
AcDbPoint
 10
-45.3202
 20
3.952499999999996
 30
0.0
  0
POINT
  5
F9
330
EF
100
AcDbEntity
  8
Defpoints
 62
     0
100
AcDbPoint
 10
34.0548
 20
0.0000000000000034
 30
0.0
  0
POINT
  5
FA
330
EF
100
AcDbEntity
  8
Defpoints
 62
     0
100
AcDbPoint
 10
34.0548
 20
44.95250000000005
 30
0.0
  0
ENDBLK
  5
F1
330
EF
100
AcDbEntity
  8
0
100
AcDbBlockEnd
  0
BLOCK
  5
103
330
102
100
AcDbEntity
  8
0
100
AcDbBlockBegin
  2
_D_2
 70
     0
 10
0.0
 20
0.0
 30
0.0
  3
_D_2
  1
_D_2
  0
LINE
  5
105
330
102
100
AcDbEntity
  8
치수문자_일반주서
 62
     0
370
    -2
100
AcDbLine
 10
2.304799999999998
 20
4.520200000000004
 30
0.0
 11
2.304799999999997
 21
35.37738223976488
 31
0.0
  0
LINE
  5
106
330
102
100
AcDbEntity
  8
치수문자_일반주서
 62
     0
370
    -2
100
AcDbLine
 10
34.0548
 20
0.0625000000000034
 30
0.0
 11
34.0548
 21
35.37738223976488
 31
0.0
  0
LINE
  5
107
330
102
100
AcDbEntity
  8
치수문자_일반주서
 62
     0
370
    -2
100
AcDbLine
 10
5.606799999999996
 20
35.37738223976488
 30
0.0
 11
30.7528
 21
35.37738223976488
 31
0.0
  0
SOLID
  5
108
330
102
100
AcDbEntity
  8
치수문자_일반주서
 62
     0
100
AcDbTrace
 10
5.606799999999996
 20
35.92771557309821
 30
0.0
 11
5.606799999999996
 21
34.82704890643154
 31
0.0
 12
2.304799999999997
 22
35.37738223976488
 32
0.0
 13
2.304799999999997
 23
35.37738223976488
 33
0.0
  0
SOLID
  5
109
330
102
100
AcDbEntity
  8
치수문자_일반주서
 62
     0
100
AcDbTrace
 10
30.7528
 20
34.82704890643154
 30
0.0
 11
30.7528
 21
35.92771557309821
 31
0.0
 12
34.0548
 22
35.37738223976488
 32
0.0
 13
34.0548
 23
35.37738223976488
 33
0.0
  0
MTEXT
  5
10A
330
102
100
AcDbEntity
  8
치수문자_일반주서
 62
     0
100
AcDbMText
 10
18.63639983492059
 20
39.75238223976488
 30
0.0
 40
3.5
 41
0.0
 71
     2
 72
     1
  1
\A1;31.75 [1 1/4]
  7
SLDTEXTSTYLE0
 73
     1
 44
1.0
  0
POINT
  5
10B
330
102
100
AcDbEntity
  8
Defpoints
 62
     0
100
AcDbPoint
 10
2.304799999999998
 20
4.457700000000004
 30
0.0
  0
POINT
  5
10C
330
102
100
AcDbEntity
  8
Defpoints
 62
     0
100
AcDbPoint
 10
34.0548
 20
0.0000000000000034
 30
0.0
  0
POINT
  5
10D
330
102
100
AcDbEntity
  8
Defpoints
 62
     0
100
AcDbPoint
 10
34.0548
 20
35.37738223976488
 30
0.0
  0
ENDBLK
  5
104
330
102
100
AcDbEntity
  8
0
100
AcDbBlockEnd
  0
BLOCK
  5
118
330
117
100
AcDbEntity
  8
0
100
AcDbBlockBegin
  2
_D_3
 70
     0
 10
0.0
 20
0.0
 30
0.0
  3
_D_3
  1
_D_3
  0
LINE
  5
11A
330
117
100
AcDbEntity
  8
치수문자_일반주서
 62
     0
370
    -2
100
AcDbLine
 10
18.17979999999999
 20
4.814303785156774
 30
0.0
 11
18.17979999999999
 21
27.23041372954489
 31
0.0
  0
LINE
  5
11B
330
117
100
AcDbEntity
  8
치수문자_일반주서
 62
     0
370
    -2
100
AcDbLine
 10
34.0548
 20
0.0625000000000034
 30
0.0
 11
34.0548
 21
27.23041372954489
 31
0.0
  0
LINE
  5
11C
330
117
100
AcDbEntity
  8
치수문자_일반주서
 62
     0
370
    -2
100
AcDbLine
 10
21.48179999999999
 20
27.23041372954489
 30
0.0
 11
30.7528
 21
27.23041372954489
 31
0.0
  0
SOLID
  5
11D
330
117
100
AcDbEntity
  8
치수문자_일반주서
 62
     0
100
AcDbTrace
 10
21.48179999999999
 20
27.78074706287822
 30
0.0
 11
21.48179999999999
 21
26.68008039621155
 31
0.0
 12
18.17979999999999
 22
27.23041372954489
 32
0.0
 13
18.17979999999999
 23
27.23041372954489
 33
0.0
  0
SOLID
  5
11E
330
117
100
AcDbEntity
  8
치수문자_일반주서
 62
     0
100
AcDbTrace
 10
30.7528
 20
26.68008039621155
 30
0.0
 11
30.7528
 21
27.78074706287822
 31
0.0
 12
34.0548
 22
27.23041372954489
 32
0.0
 13
34.0548
 23
27.23041372954489
 33
0.0
  0
MTEXT
  5
11F
330
117
100
AcDbEntity
  8
치수문자_일반주서
 62
     0
100
AcDbMText
 10
25.08608323884475
 20
31.60541372954489
 30
0.0
 40
3.5
 41
0.0
 71
     2
 72
     1
  1
\A1;15.88 [5/8]
  7
SLDTEXTSTYLE0
 73
     1
 44
1.0
  0
POINT
  5
120
330
117
100
AcDbEntity
  8
Defpoints
 62
     0
100
AcDbPoint
 10
18.17979999999999
 20
4.751803785156774
 30
0.0
  0
POINT
  5
121
330
117
100
AcDbEntity
  8
Defpoints
 62
     0
100
AcDbPoint
 10
34.0548
 20
0.0000000000000034
 30
0.0
  0
POINT
  5
122
330
117
100
AcDbEntity
  8
Defpoints
 62
     0
100
AcDbPoint
 10
34.0548
 20
27.23041372954489
 30
0.0
  0
ENDBLK
  5
119
330
117
100
AcDbEntity
  8
0
100
AcDbBlockEnd
  0
BLOCK
  5
12C
330
12B
100
AcDbEntity
  8
0
100
AcDbBlockBegin
  2
SW_DOWELSYMBOL_0
 70
     0
 10
0.0
 20
0.0
 30
0.0
  3
SW_DOWELSYMBOL_0
  1
SW_DOWELSYMBOL_0
  0
CIRCLE
  5
12E
330
12B
100
AcDbEntity
  8
외형선
 62
     0
100
AcDbCircle
 10
0.0
 20
0.0
 30
0.0
 40
3.000000000000004
  0
HATCH
  5
12F
330
12B
100
AcDbEntity
  8
0
  6
Continuous
 62
     0
370
    30
100
AcDbHatch
 10
0.0
 20
0.0
 30
0.0
210
0.0
220
0.0
230
1.0
  2
SOLID
 70
     1
 71
     0
 91
        1
 92
        0
 93
        3
 72
     2
 10
0.0
 20
0.0
 40
3.000000000000004
 50
0.0
 51
90.0
 73
     1
 72
     1
 10
0.0
 20
3.000000000000004
 11
0.0
 21
0.0
 72
     1
 10
0.0
 20
0.0
 11
3.000000000000006
 21
0.0
 97
        0
 75
     0
 76
     1
 98
        1
 10
0.0
 20
0.0
  0
HATCH
  5
130
330
12B
100
AcDbEntity
  8
0
  6
Continuous
 62
     0
370
    30
100
AcDbHatch
 10
0.0
 20
0.0
 30
0.0
210
0.0
220
0.0
230
1.0
  2
SOLID
 70
     1
 71
     0
 91
        1
 92
        0
 93
        3
 72
     2
 10
0.0
 20
0.0
 40
3.000000000000004
 50
180.0
 51
270.0000000000008
 73
     1
 72
     1
 10
0.0
 20
-3.000000000000004
 11
0.0
 21
0.0
 72
     1
 10
0.0
 20
0.0
 11
-3.000000000000006
 21
0.0
 97
        0
 75
     0
 76
     1
 98
        1
 10
0.0
 20
0.0
  0
ENDBLK
  5
12D
330
12B
100
AcDbEntity
  8
0
100
AcDbBlockEnd
  0
BLOCK
  5
15C
330
15B
100
AcDbEntity
  8
0
100
AcDbBlockBegin
  2
*D7
 70
     1
 10
0.0
 20
0.0
 30
0.0
  3
*D7
  1
*D7
  0
LINE
  5
15E
330
15B
100
AcDbEntity
  8
치수문자_일반주서
 62
     0
370
    -2
100
AcDbLine
 10
20.88909292927489
 20
4.762500000000003
 30
0.0
 11
51.05838229031438
 21
4.762500000000003
 31
0.0
  0
LINE
  5
15F
330
15B
100
AcDbEntity
  8
치수문자_일반주서
 62
     0
370
    -2
100
AcDbLine
 10
27.50706261961916
 20
-4.762499999999996
 30
0.0
 11
51.05838229031438
 21
-4.762499999999996
 31
0.0
  0
LINE
  5
160
330
15B
100
AcDbEntity
  8
치수문자_일반주서
 62
     0
370
    -2
100
AcDbLine
 10
51.05838229031438
 20
4.762500000000003
 30
0.0
 11
51.05838229031438
 21
37.6165
 31
0.0
  0
LINE
  5
161
330
15B
100
AcDbEntity
  8
치수문자_일반주서
 62
     0
370
    -2
100
AcDbLine
 10
51.05838229031438
 20
4.762500000000003
 30
0.0
 11
51.05838229031438
 21
-4.762499999999996
 31
0.0
  0
LINE
  5
162
330
15B
100
AcDbEntity
  8
치수문자_일반주서
 62
     0
370
    -2
100
AcDbLine
 10
51.05838229031438
 20
8.064500000000002
 30
0.0
 11
51.05838229031438
 21
11.3665
 31
0.0
  0
LINE
  5
163
330
15B
100
AcDbEntity
  8
치수문자_일반주서
 62
     0
370
    -2
100
AcDbLine
 10
51.05838229031438
 20
-8.064499999999995
 30
0.0
 11
51.05838229031438
 21
-11.36649999999999
 31
0.0
  0
SOLID
  5
164
330
15B
100
AcDbEntity
  8
치수문자_일반주서
 62
     0
100
AcDbTrace
 10
50.50804895698105
 20
8.064500000000002
 30
0.0
 11
51.60871562364772
 21
8.064500000000002
 31
0.0
 12
51.05838229031438
 22
4.762500000000003
 32
0.0
 13
51.05838229031438
 23
4.762500000000003
 33
0.0
  0
SOLID
  5
165
330
15B
100
AcDbEntity
  8
치수문자_일반주서
 62
     0
100
AcDbTrace
 10
51.60871562364772
 20
-8.064499999999995
 30
0.0
 11
50.50804895698105
 21
-8.064499999999995
 31
0.0
 12
51.05838229031438
 22
-4.762499999999996
 32
0.0
 13
51.05838229031438
 23
-4.762499999999996
 33
0.0
  0
MTEXT
  5
166
330
15B
100
AcDbEntity
  8
치수문자_일반주서
 62
     0
100
AcDbMText
 10
48.43338229031438
 20
24.4915
 30
0.0
 40
3.5
 41
0.0
 71
     5
 72
     1
  1
\A1;{%%c9.53 [3/8]}
  7
SLDTEXTSTYLE0
 11
0.0
 21
1.0
 31
0.0
 73
     1
 44
1.0
  0
POINT
  5
167
330
15B
100
AcDbEntity
  8
Defpoints
 62
     0
100
AcDbPoint
 10
20.82659292927489
 20
4.762500000000003
 30
0.0
  0
POINT
  5
168
330
15B
100
AcDbEntity
  8
Defpoints
 62
     0
100
AcDbPoint
 10
27.44456261961916
 20
-4.762499999999996
 30
0.0
  0
POINT
  5
16B
330
15B
100
AcDbEntity
  8
Defpoints
 62
     0
100
AcDbPoint
 10
51.05838229031438
 20
-4.762499999999998
 30
0.0
  0
ENDBLK
  5
15D
330
15B
100
AcDbEntity
  8
0
100
AcDbBlockEnd
  0
ENDSEC
  0
SECTION
  2
ENTITIES
  0
LINE
  5
95
330
1F
100
AcDbEntity
  8
0
  6
Continuous
 62
     4
370
    15
100
AcDbLine
 10
2.0
 20
4.762500000000002
 30
0.0
 11
-44.51020000000001
 21
4.762499999999997
 31
0.0
  0
LINE
  5
96
330
1F
100
AcDbEntity
  8
0
  6
Continuous
 62
     4
370
    15
100
AcDbLine
 10
-44.51020000000001
 20
-4.762500000000004
 30
0.0
 11
2.0
 21
-4.762499999999998
 31
0.0
  0
LINE
  5
97
330
1F
100
AcDbEntity
  8
0
  6
Continuous
 62
     4
370
    15
100
AcDbLine
 10
2.0
 20
-4.762499999999999
 30
0.0
 11
2.304799999999998
 21
-4.4577
 31
0.0
  0
LINE
  5
98
330
1F
100
AcDbEntity
  8
0
  6
Continuous
 62
     4
370
    15
100
AcDbLine
 10
2.304799999999998
 20
4.457700000000004
 30
0.0
 11
2.0
 21
4.762500000000003
 31
0.0
  0
LINE
  5
99
330
1F
100
AcDbEntity
  8
0
  6
Continuous
 62
     4
370
    15
100
AcDbLine
 10
-44.51020000000001
 20
4.762499999999995
 30
0.0
 11
-45.3202
 21
3.952499999999996
 31
0.0
  0
LINE
  5
9A
330
1F
100
AcDbEntity
  8
0
  6
Continuous
 62
     4
370
    15
100
AcDbLine
 10
-45.3202
 20
-3.952500000000005
 30
0.0
 11
-44.51020000000001
 21
-4.762500000000004
 31
0.0
  0
LINE
  5
9B
330
1F
100
AcDbEntity
  8
0
  6
Continuous
 62
     4
370
    15
100
AcDbLine
 10
16.6597637303469
 20
4.457700000000004
 30
0.0
 11
2.304799999999998
 21
4.457700000000003
 31
0.0
  0
LINE
  5
9C
330
1F
100
AcDbEntity
  8
0
  6
Continuous
 62
     4
370
    15
100
AcDbLine
 10
2.304799999999998
 20
-4.457699999999999
 30
0.0
 11
16.6597637303469
 21
-4.457699999999997
 31
0.0
  0
ARC
  5
9D
330
1F
100
AcDbEntity
  8
0
  6
Continuous
 62
     1
370
    15
100
AcDbCircle
 10
29.29229999999999
 20
0.0000000000000034
 30
0.0
 40
4.762500000000003
100
AcDbArc
 50
353.5800701243586
 51
0.0
  0
ARC
  5
9E
330
1F
100
AcDbEntity
  8
0
  6
Continuous
 62
     1
370
    15
100
AcDbCircle
 10
29.29229999999999
 20
0.0000000000000034
 30
0.0
 40
4.762500000000003
100
AcDbArc
 50
0.0
 51
60.0772142652586
  0
LINE
  5
9F
102
{ACAD_REACTORS
102
}
330
1F
100
AcDbEntity
  8
0
  6
Continuous
 62
     1
370
    15
100
AcDbLine
 10
20.82659292927489
 20
4.762500000000003
 30
0.0
 11
18.60444710441589
 21
4.762500000000003
 31
0.0
  0
LINE
  5
A0
102
{ACAD_REACTORS
102
}
330
1F
100
AcDbEntity
  8
0
  6
Continuous
 62
     1
370
    15
100
AcDbLine
 10
25.22203552035858
 20
-4.762499999999996
 30
0.0
 11
27.44456261961916
 21
-4.762499999999996
 31
0.0
  0
LINE
  5
A1
330
1F
100
AcDbEntity
  8
0
  6
Continuous
 62
     4
370
    15
100
AcDbLine
 10
2.0
 20
4.762500000000003
 30
0.0
 11
2.0
 21
-4.762500000000003
 31
0.0
  0
LINE
  5
A2
330
1F
100
AcDbEntity
  8
0
  6
Continuous
 62
     4
370
    15
100
AcDbLine
 10
-44.51020000000001
 20
4.762499999999996
 30
0.0
 11
-44.51020000000001
 21
-4.762500000000006
 31
0.0
  0
LINE
  5
A3
330
1F
100
AcDbEntity
  8
0
  6
Continuous
 62
     4
370
    15
100
AcDbLine
 10
2.304799999999998
 20
4.457700000000004
 30
0.0
 11
2.304799999999998
 21
-4.457700000000007
 31
0.0
  0
LINE
  5
A4
330
1F
100
AcDbEntity
  8
0
  6
Continuous
 62
     4
370
    15
100
AcDbLine
 10
-45.3202
 20
3.952499999999996
 30
0.0
 11
-45.3202
 21
-3.952500000000005
 31
0.0
  0
SPLINE
  5
A5
330
1F
100
AcDbEntity
  8
0
  6
Continuous
 62
     4
370
    15
100
AcDbSpline
210
0.0
220
0.0
230
1.0
 70
     8
 71
     3
 72
    10
 73
     6
 74
     0
 42
0.000000001
 43
0.00000001
 40
0.0
 40
0.0
 40
0.0
 40
0.0
 40
0.5
 40
0.5
 40
1.0
 40
1.0
 40
1.0
 40
1.0
 10
18.1798
 20
-0.4301578304711954
 30
0.0
 10
17.92539621136723
 20
-0.2520128090194197
 30
0.0
 10
17.6727147093805
 20
-0.0732322243782255
 30
0.0
 10
17.16887258645782
 20
0.2834622728256698
 30
0.0
 10
16.91428153883775
 20
0.4621846193301767
 30
0.0
 10
16.6597637303469
 20
0.6393409456427402
 30
0.0
  0
SPLINE
  5
A6
330
1F
100
AcDbEntity
  8
0
  6
Continuous
 62
     4
370
    15
100
AcDbSpline
210
0.0
220
0.0
230
1.0
 70
     8
 71
     3
 72
    10
 73
     6
 74
     0
 42
0.000000001
 43
0.00000001
 40
0.0
 40
0.0
 40
0.0
 40
0.0
 40
0.5
 40
0.5
 40
1.0
 40
1.0
 40
1.0
 40
1.0
 10
18.17980000000001
 20
2.279079863375259
 30
0.0
 10
17.92539621136723
 20
2.374122062822437
 30
0.0
 10
17.6727147093805
 20
2.463435156114072
 30
0.0
 10
17.16887258645783
 20
2.629652799314115
 30
0.0
 10
16.91428153883775
 20
2.706914518226422
 30
0.0
 10
16.6597637303469
 20
2.77742834156702
 30
0.0
  0
SPLINE
  5
A7
330
1F
100
AcDbEntity
  8
0
  6
Continuous
 62
     1
370
    15
100
AcDbSpline
210
0.0
220
0.0
230
1.0
 70
    24
 71
     3
 72
    14
 73
    10
 74
     0
 42
0.000000001
 43
0.00000001
 40
0.0
 40
0.0
 40
0.0
 40
0.0
 40
0.25
 40
0.25
 40
0.4999999999999999
 40
0.4999999999999999
 40
0.75
 40
0.75
 40
1.0
 40
1.0
 40
1.0
 40
1.0
 10
18.1798
 20
2.27907986337526
 30
0.0
 10
18.1798
 20
2.04120489436127
 30
0.0
 10
18.17980000000001
 20
1.78329688223779
 30
0.0
 10
18.1798
 20
1.251106914514077
 30
0.0
 10
18.1798
 20
0.9769052527903044
 30
0.0
 10
18.1798
 20
0.458896721196448
 30
0.0
 10
18.1798
 20
0.2159688525144645
 30
0.0
 10
18.1798
 20
-0.1823616366259606
 30
0.0
 10
18.1798
 20
-0.3366475045798309
 30
0.0
 10
18.1798
 20
-0.4301578304711963
 30
0.0
  0
SPLINE
  5
A8
330
1F
100
AcDbEntity
  8
0
  6
Continuous
 62
     4
370
    15
100
AcDbSpline
210
0.0
220
0.0
230
1.0
 70
     8
 71
     3
 72
    10
 73
     6
 74
     0
 42
0.000000001
 43
0.00000001
 40
0.0
 40
0.0
 40
0.0
 40
0.0
 40
0.5
 40
0.5
 40
1.0
 40
1.0
 40
1.0
 40
1.0
 10
16.65978676238016
 20
4.259504275261176
 30
0.0
 10
16.91430073698747
 20
4.312286589466236
 30
0.0
 10
17.16888786473884
 20
4.354733251042248
 30
0.0
 10
17.672722228142
 20
4.418250730469582
 30
0.0
 10
17.92540004831978
 20
4.439500006230187
 30
0.0
 10
18.17980000000006
 20
4.450009015680789
 30
0.0
  0
SPLINE
  5
A9
330
1F
100
AcDbEntity
  8
0
  6
Continuous
 62
     4
370
    15
100
AcDbSpline
210
0.0
220
0.0
230
1.0
 70
     8
 71
     3
 72
    10
 73
     6
 74
     0
 42
0.000000001
 43
0.00000001
 40
0.0
 40
0.0
 40
0.0
 40
0.0
 40
0.5
 40
0.5
 40
1.0
 40
1.0
 40
1.0
 40
1.0
 10
16.65978676238016
 20
-0.9914268483244781
 30
0.0
 10
16.91430073698747
 20
-1.16594778111156
 30
0.0
 10
17.16888786473884
 20
-1.338075820920376
 30
0.0
 10
17.67272222814202
 20
-1.673886462952936
 30
0.0
 10
17.92540004831978
 20
-1.83834277882743
 30
0.0
 10
18.17980000000006
 20
-1.998328995775621
 30
0.0
  0
SPLINE
  5
AA
330
1F
100
AcDbEntity
  8
0
  6
Continuous
 62
     4
370
    15
100
AcDbSpline
210
0.0
220
0.0
230
1.0
 70
     8
 71
     3
 72
    10
 73
     6
 74
     0
 42
0.000000001
 43
0.00000001
 40
0.0
 40
0.0
 40
0.0
 40
0.0
 40
0.4999999999999999
 40
0.4999999999999999
 40
1.0
 40
1.0
 40
1.0
 40
1.0
 10
18.1798
 20
-3.627386458474762
 30
0.0
 10
17.92539621136723
 20
-3.731416256088889
 30
0.0
 10
17.6727147093805
 20
-3.82643499108623
 30
0.0
 10
17.16887258645782
 20
-3.997496028162041
 30
0.0
 10
16.91428153883774
 20
-4.073895796095907
 30
0.0
 10
16.6597637303469
 20
-4.140239714952493
 30
0.0
  0
LINE
  5
AB
330
1F
100
AcDbEntity
  8
0
  6
Continuous
 62
     4
370
    15
100
AcDbLine
 10
16.6597637303469
 20
-4.457699999999997
 30
0.0
 11
16.6597637303469
 21
-0.9912034432843841
 31
0.0
  0
LINE
  5
AC
330
1F
100
AcDbEntity
  8
0
  6
Continuous
 62
     1
370
    15
100
AcDbLine
 10
18.1798
 20
-0.4301578304711974
 30
0.0
 11
18.1798
 21
-0.4988183397313771
 31
0.0
  0
LINE
  5
AD
330
1F
100
AcDbEntity
  8
0
  6
Continuous
 62
     4
370
    15
100
AcDbLine
 10
16.6597637303469
 20
0.6391391003870208
 30
0.0
 11
16.6597637303469
 21
4.457700000000004
 31
0.0
  0
SPLINE
  5
AE
330
1F
100
AcDbEntity
  8
0
  6
Continuous
 62
     4
370
    15
100
AcDbSpline
210
0.0
220
0.0
230
1.0
 70
     8
 71
     3
 72
    10
 73
     6
 74
     0
 42
0.000000001
 43
0.00000001
 40
0.0
 40
0.0
 40
0.0
 40
0.0
 40
0.5
 40
0.5
 40
1.0
 40
1.0
 40
1.0
 40
1.0
 10
18.1798
 20
-3.189534691243181
 30
0.0
 10
17.92539621136723
 20
-3.157808479996355
 30
0.0
 10
17.67271470938051
 20
-3.118438976111405
 30
0.0
 10
17.16887258645782
 20
-3.025030137945245
 30
0.0
 10
16.91428153883775
 20
-2.970754828031291
 30
0.0
 10
16.6597637303469
 20
-2.909421617182187
 30
0.0
  0
SPLINE
  5
AF
330
1F
100
AcDbEntity
  8
0
  6
Continuous
 62
     1
370
    15
100
AcDbSpline
210
0.0
220
0.0
230
1.0
 70
    24
 71
     3
 72
    11
 73
     7
 74
     0
 42
0.000000001
 43
0.00000001
 40
0.0
 40
0.0
 40
0.0
 40
0.0
 40
0.0098857495410906
 40
0.2877523493103055
 40
0.5656189490795203
 40
0.9999999999999999
 40
0.9999999999999999
 40
0.9999999999999999
 40
0.9999999999999999
 10
18.17980000000001
 20
-2.099631593727143
 30
0.0
 10
18.1798
 20
-2.10135722685983
 30
0.0
 10
18.17980000000003
 20
-2.15158659853412
 30
0.0
 10
18.17979999999999
 20
-2.321893506659121
 30
0.0
 10
18.1798
 20
-2.656235563958128
 30
0.0
 10
18.1798
 20
-2.987503262028344
 30
0.0
 10
18.1798
 20
-3.189534691243181
 30
0.0
  0
SPLINE
  5
B0
330
1F
100
AcDbEntity
  8
0
  6
Continuous
 62
     1
370
    15
100
AcDbSpline
210
0.0
220
0.0
230
1.0
 70
    24
 71
     3
 72
    14
 73
    10
 74
     0
 42
0.000000001
 43
0.00000001
 40
0.0
 40
0.0
 40
0.0
 40
0.0
 40
0.25
 40
0.25
 40
0.5
 40
0.5
 40
0.75
 40
0.75
 40
1.0
 40
1.0
 40
1.0
 40
1.0
 10
18.1798
 20
4.450009015680836
 30
0.0
 10
18.1798
 20
4.120524655763524
 30
0.0
 10
18.1798
 20
3.802845962691364
 30
0.0
 10
18.1798
 20
3.247924617846254
 30
0.0
 10
18.1798
 20
3.011291730129061
 30
0.0
 10
18.1798
 20
2.642230249240838
 30
0.0
 10
18.1798
 20
2.509311290521662
 30
0.0
 10
18.17980000000001
 20
2.334165599783095
 30
0.0
 10
18.1798
 20
2.291221452764891
 30
0.0
 10
18.1798
 20
2.279079863375262
 30
0.0
  0
LINE
  5
B1
330
1F
100
AcDbEntity
  8
0
  6
Continuous
 62
     1
370
    15
100
AcDbLine
 10
18.17979999999999
 20
-3.244512100652204
 30
0.0
 11
18.1798
 21
-3.627386458474761
 31
0.0
  0
SPLINE
  5
B2
330
1F
100
AcDbEntity
  8
0
  6
Continuous
 62
     1
370
    15
100
AcDbSpline
210
0.0
220
0.0
230
1.0
 70
     8
 71
     3
 72
     8
 73
     4
 74
     0
 42
0.000000001
 43
0.00000001
 40
0.0
 40
0.0
 40
0.0
 40
0.0
 40
1.0
 40
1.0
 40
1.0
 40
1.0
 10
30.99128571481884
 20
-3.129263329936196
 30
0.0
 10
30.83616537589119
 20
-3.017658000109244
 30
0.0
 10
30.67822457966238
 20
-2.906412392913562
 30
0.0
 10
30.51604488681865
 20
-2.795707416857153
 30
0.0
  0
SPLINE
  5
B3
330
1F
100
AcDbEntity
  8
0
  6
Continuous
 62
     1
370
    15
100
AcDbSpline
210
0.0
220
0.0
230
1.0
 70
     8
 71
     3
 72
    38
 73
    34
 74
     0
 42
0.000000001
 43
0.00000001
 40
0.0
 40
0.0
 40
0.0
 40
0.0
 40
0.0625
 40
0.0625
 40
0.125
 40
0.125
 40
0.1875
 40
0.1875
 40
0.25
 40
0.25
 40
0.3125000000000001
 40
0.3125000000000001
 40
0.375
 40
0.375
 40
0.4375
 40
0.4375
 40
0.5
 40
0.5
 40
0.5625
 40
0.5625
 40
0.625
 40
0.625
 40
0.6875
 40
0.6875
 40
0.7499999999999999
 40
0.7499999999999999
 40
0.8124999999999999
 40
0.8124999999999999
 40
0.8749999999999999
 40
0.8749999999999999
 40
0.9374999999999999
 40
0.9374999999999999
 40
1.0
 40
1.0
 40
1.0
 40
1.0
 10
30.99128571494678
 20
-3.129263329956518
 30
0.0
 10
30.72491450690675
 20
-3.086948474547845
 30
0.0
 10
30.46052699510016
 20
-3.036402659496403
 30
0.0
 10
29.92515034270032
 20
-2.918911746106705
 30
0.0
 10
29.65635968062678
 20
-2.852072394263074
 30
0.0
 10
29.1230275766282
 20
-2.703870213230839
 30
0.0
 10
28.8589911095759
 20
-2.622611855291261
 30
0.0
 10
28.32393531952914
 20
-2.44579491208714
 30
0.0
 10
28.05509034480902
 20
-2.350424647307062
 30
0.0
 10
27.52122443715359
 20
-2.148080268839431
 30
0.0
 10
27.25739227028946
 20
-2.041305862012064
 30
0.0
 10
26.72271383361988
 20
-1.816484568121371
 30
0.0
 10
26.45384325637788
 20
-1.698673699067621
 30
0.0
 10
25.9194996169779
 20
-1.455088088227453
 30
0.0
 10
25.6557249340456
 20
-1.329607371047544
 30
0.0
 10
25.1214802087387
 20
-1.07116847151614
 30
0.0
 10
24.8526127482494
 20
-0.9384429006794655
 30
0.0
 10
24.3178476171513
 20
-0.6691633400896079
 30
0.0
 10
24.05398358172072
 20
-0.5329699463878258
 30
0.0
 10
23.52022877299577
 20
-0.257442772338161
 30
0.0
 10
23.25139314741978
 20
-0.1182822077922339
 30
0.0
 10
22.71626291316362
 20
0.1594921915398495
 30
0.0
 10
22.45216272016215
 20
0.2977241230902621
 30
0.0
 10
21.91895386085734
 20
0.572726997630774
 30
0.0
 10
21.65017877697841
 20
0.7094319524951419
 30
0.0
 10
21.11473995684773
 20
0.9779511128625656
 30
0.0
 10
20.85025688406847
 20
1.109413057023135
 30
0.0
 10
20.31764981515328
 20
1.366324000333374
 30
0.0
 10
20.04896395812397
 20
1.491841050604022
 30
0.0
 10
19.51327317830022
 20
1.733940558923047
 30
0.0
 10
19.2482606378494
 20
1.850244487236876
 30
0.0
 10
18.71631098907817
 20
2.072665430496132
 30
0.0
 10
18.44774301218176
 20
2.17897957264801
 30
0.0
 10
18.17980000000001
 20
2.279079863375259
 30
0.0
  0
SPLINE
  5
B4
330
1F
100
AcDbEntity
  8
0
  6
Continuous
 62
     1
370
    15
100
AcDbSpline
210
0.0
220
0.0
230
1.0
 70
     8
 71
     3
 72
    34
 73
    30
 74
     0
 42
0.000000001
 43
0.00000001
 40
0.0
 40
0.0
 40
0.0
 40
0.0
 40
0.0624999999999994
 40
0.0624999999999994
 40
0.1249999999999989
 40
0.1249999999999989
 40
0.1874999999999982
 40
0.1874999999999982
 40
0.2499999999999977
 40
0.2499999999999977
 40
0.3749999999999972
 40
0.3749999999999972
 40
0.4374999999999972
 40
0.4374999999999972
 40
0.4999999999999973
 40
0.4999999999999973
 40
0.5624999999999974
 40
0.5624999999999974
 40
0.6249999999999976
 40
0.6249999999999976
 40
0.7499999999999983
 40
0.7499999999999983
 40
0.8124999999999988
 40
0.8124999999999988
 40
0.8749999999999991
 40
0.8749999999999991
 40
0.9374999999999996
 40
0.9374999999999996
 40
1.0
 40
1.0
 40
1.0
 40
1.0
 10
18.1798
 20
4.751803785156715
 30
0.0
 10
18.41220928880874
 20
4.763504915895284
 30
0.0
 10
18.64509024532485
 20
4.765595389674298
 30
0.0
 10
19.10758715152694
 20
4.75061294387405
 30
0.0
 10
19.33649203417462
 20
4.733614604358987
 30
0.0
 10
19.79997205697588
 20
4.680514441914664
 30
0.0
 10
20.03299057160746
 20
4.644405963424994
 30
0.0
 10
20.49736802697083
 20
4.553689491986917
 30
0.0
 10
20.72732094387051
 20
4.499217066775948
 30
0.0
 10
21.41870377817351
 20
4.30900016965537
 30
0.0
 10
21.88792899337203
 20
4.145404299658159
 30
0.0
 10
22.57902821757748
 20
3.853637919970064
 30
0.0
 10
22.80916084052054
 20
3.748497562327137
 30
0.0
 10
23.27361118378471
 20
3.522888119001249
 30
0.0
 10
23.50661836564733
 20
3.402602250943502
 30
0.0
 10
23.96998084839279
 20
3.149277643859327
 30
0.0
 10
24.1988430522282
 20
3.016558390238898
 30
0.0
 10
24.66148509147324
 20
2.738605977096027
 30
0.0
 10
24.89439146851413
 20
2.593506444582901
 30
0.0
 10
25.5915518755983
 20
2.143701230168928
 30
0.0
 10
26.04984671599322
 20
1.825546933486896
 30
0.0
 10
26.74727734018429
 20
1.327884553318115
 30
0.0
 10
26.98003710991208
 20
1.158907333243703
 30
0.0
 10
27.44192134994062
 20
0.8178611893488905
 30
0.0
 10
27.67112221779478
 20
0.6457850486712943
 30
0.0
 10
28.13502354427886
 20
0.2983614730360725
 30
0.0
 10
28.36806554479259
 20
0.1234241051343981
 30
0.0
 10
28.83211423288884
 20
-0.2257357363269444
 30
0.0
 10
29.06148719156536
 20
-0.3995466324912794
 30
0.0
 10
29.29230000000004
 20
-0.5725683967506885
 30
0.0
  0
SPLINE
  5
B5
330
1F
100
AcDbEntity
  8
0
  6
Continuous
 62
     1
370
    15
100
AcDbSpline
210
0.0
220
0.0
230
1.0
 70
     8
 71
     3
 72
    14
 73
    10
 74
     0
 42
0.000000001
 43
0.00000001
 40
0.0
 40
0.0
 40
0.0
 40
0.0
 40
0.2499999999999999
 40
0.2499999999999999
 40
0.4999999999999998
 40
0.4999999999999998
 40
0.7499999999999999
 40
0.7499999999999999
 40
1.0
 40
1.0
 40
1.0
 40
1.0
 10
32.68117771293389
 20
-2.427156879933432
 30
0.0
 10
32.49023331310806
 20
-2.368944522295149
 30
0.0
 10
32.25287298907439
 20
-2.298993199513106
 30
0.0
 10
31.73467652981319
 20
-2.101714598664146
 30
0.0
 10
31.44725834220977
 20
-1.972404687314309
 30
0.0
 10
30.85781743407024
 20
-1.65480679257613
 30
0.0
 10
30.55331701514367
 20
-1.465307604840701
 30
0.0
 10
29.92541239809781
 20
-1.040993436408736
 30
0.0
 10
29.61147386659851
 20
-0.8118273264387064
 30
0.0
 10
29.29230000000024
 20
-0.5725683967508428
 30
0.0
  0
SPLINE
  5
B6
330
1F
100
AcDbEntity
  8
0
  6
Continuous
 62
     1
370
    15
100
AcDbSpline
210
0.0
220
0.0
230
1.0
 70
     8
 71
     3
 72
    14
 73
    10
 74
     0
 42
0.000000001
 43
0.00000001
 40
0.0
 40
0.0
 40
0.0
 40
0.0
 40
0.0551566702601333
 40
0.1698130142331137
 40
0.2874482959309521
 40
0.442298618513675
 40
0.6015753573607283
 40
0.7982535097647965
 40
1.0
 40
1.0
 40
1.0
 40
1.0
 10
32.51639388834913
 20
-2.376870504557172
 30
0.0
 10
32.48876854777706
 20
-2.370772207913033
 30
0.0
 10
32.40371732315387
 20
-2.351997141725302
 30
0.0
 10
32.23439669776535
 20
-2.343210237246184
 30
0.0
 10
31.98825978970371
 20
-2.354862764680496
 30
0.0
 10
31.69306094869666
 20
-2.400091508075739
 30
0.0
 10
31.33249906042248
 20
-2.488116453384569
 30
0.0
 10
30.93385350915218
 20
-2.617044257101633
 30
0.0
 10
30.65649053394502
 20
-2.73565010412994
 30
0.0
 10
30.51604488681196
 20
-2.795707416852434
 30
0.0
  0
SPLINE
  5
B7
330
1F
100
AcDbEntity
  8
0
  6
Continuous
 62
     4
370
    15
100
AcDbSpline
210
0.0
220
0.0
230
1.0
 70
    24
 71
     3
 72
    14
 73
    10
 74
     0
 42
0.000000001
 43
0.00000001
 40
0.0
 40
0.0
 40
0.0
 40
0.0
 40
0.25
 40
0.25
 40
0.5
 40
0.5
 40
0.75
 40
0.75
 40
1.0
 40
1.0
 40
1.0
 40
1.0
 10
18.17979999999999
 20
4.751803785155868
 30
0.0
 10
18.1798
 20
4.393337035278178
 30
0.0
 10
18.17979999999999
 20
4.036832336551037
 30
0.0
 10
18.1798
 20
3.404065217391334
 30
0.0
 10
18.1798
 20
3.129044820855568
 30
0.0
 10
18.1798
 20
2.699236830540605
 30
0.0
 10
18.17979999999999
 20
2.543931051147549
 30
0.0
 10
18.17979999999999
 20
2.340906152967066
 30
0.0
 10
18.17979999999999
 20
2.29214164088551
 30
0.0
 10
18.1798
 20
2.279079863375263
 30
0.0
  0
SPLINE
  5
B8
330
1F
100
AcDbEntity
  8
0
  6
Continuous
 62
     1
370
    15
100
AcDbSpline
210
0.0
220
0.0
230
1.0
 70
     8
 71
     3
 72
    26
 73
    22
 74
     0
 42
0.000000001
 43
0.00000001
 40
0.0
 40
0.0
 40
0.0
 40
0.0
 40
0.1250000000000005
 40
0.1250000000000005
 40
0.2500000000000009
 40
0.2500000000000009
 40
0.3750000000000014
 40
0.3750000000000014
 40
0.5000000000000019
 40
0.5000000000000019
 40
0.6250000000000022
 40
0.6250000000000022
 40
0.6875000000000018
 40
0.6875000000000018
 40
0.7500000000000013
 40
0.7500000000000013
 40
0.812500000000001
 40
0.812500000000001
 40
0.8750000000000007
 40
0.8750000000000007
 40
1.0
 40
1.0
 40
1.0
 40
1.0
 10
29.29229999999999
 20
1.090926095187108
 30
0.0
 10
29.50819218356405
 20
0.9322412348329123
 30
0.0
 10
29.72196027738649
 20
0.7715190268717484
 30
0.0
 10
30.15015500945203
 20
0.4526433833510367
 30
0.0
 10
30.36586206087572
 20
0.2934239149047092
 30
0.0
 10
30.79867045715423
 20
-0.0086898448837885
 30
0.0
 10
31.0125232993119
 20
-0.1492221594301396
 30
0.0
 10
31.44570998685721
 20
-0.3902949525859862
 30
0.0
 10
31.66471022597028
 20
-0.4912102770695074
 30
0.0
 10
32.09682555115624
 20
-0.6115830326001972
 30
0.0
 10
32.31444305178539
 20
-0.6325327542790482
 30
0.0
 10
32.61215375710138
 20
-0.5450618250702935
 30
0.0
 10
32.70648315498828
 20
-0.4950712154187114
 30
0.0
 10
32.86988820104494
 20
-0.3504869801891232
 30
0.0
 10
32.93929311260086
 20
-0.2550812106200762
 30
0.0
 10
33.04155560435628
 20
-0.0324881420857479
 30
0.0
 10
33.07457756018961
 20
0.0947893783309754
 30
0.0
 10
33.1061878969398
 20
0.3553910434145335
 30
0.0
 10
33.10555522524955
 20
0.4913088118799175
 30
0.0
 10
33.0663161552152
 20
0.8931172023123741
 30
0.0
 10
32.99233495766745
 20
1.155554694168988
 30
0.0
 10
32.89130283902982
 20
1.406472858118033
 30
0.0
  0
SPLINE
  5
B9
330
1F
100
AcDbEntity
  8
0
  6
Continuous
 62
     1
370
    15
100
AcDbSpline
210
0.0
220
0.0
230
1.0
 70
     8
 71
     3
 72
    14
 73
    10
 74
     0
 42
0.000000001
 43
0.00000001
 40
0.0
 40
0.0
 40
0.0
 40
0.0
 40
0.1469872929444322
 40
0.2938525398189775
 40
0.4408285025158831
 40
0.5880486062954892
 40
0.7350446851292612
 40
0.8792808648734176
 40
1.0
 40
1.0
 40
1.0
 40
1.0
 10
29.29229999999999
 20
1.090926095187049
 30
0.0
 10
28.87747930557989
 20
1.39110010614321
 30
0.0
 10
28.04818234947566
 20
1.991198888426816
 30
0.0
 10
26.80466495039068
 20
2.80398351486153
 30
0.0
 10
25.56019425738747
 20
3.510998945440065
 30
0.0
 10
24.31417651210574
 20
4.082065391107223
 30
0.0
 10
23.07695711468009
 20
4.488769844052149
 30
0.0
 10
21.9150030212071
 20
4.727684290661524
 30
0.0
 10
21.16727384542584
 20
4.743236964610314
 30
0.0
 10
20.82659292927489
 20
4.750323085335687
 30
0.0
  0
SPLINE
  5
BA
330
1F
100
AcDbEntity
  8
0
  6
Continuous
 62
     1
370
    15
100
AcDbSpline
210
0.0
220
0.0
230
1.0
 70
     8
 71
     3
 72
    11
 73
     7
 74
     0
 42
0.000000001
 43
0.00000001
 40
0.0
 40
0.0
 40
0.0
 40
0.0
 40
0.2559276353479388
 40
0.5442110705780183
 40
0.8324925349413493
 40
0.9999999999999999
 40
0.9999999999999999
 40
0.9999999999999999
 40
0.9999999999999999
 10
30.99128571494668
 20
2.432914764421813
 30
0.0
 10
30.56260196907423
 20
2.573287236056613
 30
0.0
 10
29.65103788587754
 20
2.871778850548343
 30
0.0
 10
28.25644608544918
 20
3.156265028642424
 30
0.0
 10
27.01003656289914
 20
3.300800517492009
 30
0.0
 10
26.24649147895593
 20
3.270517834948758
 30
0.0
 10
25.9658802284117
 20
3.259388614687905
 30
0.0
  0
SPLINE
  5
BB
330
1F
100
AcDbEntity
  8
0
  6
Continuous
 62
     1
370
    15
100
AcDbSpline
210
0.0
220
0.0
230
1.0
 70
     8
 71
     3
 72
    10
 73
     6
 74
     0
 42
0.000000001
 43
0.00000001
 40
0.0
 40
0.0
 40
0.0
 40
0.0
 40
0.5
 40
0.5
 40
1.0
 40
1.0
 40
1.0
 40
1.0
 10
30.17675792747277
 20
2.193192579058334
 30
0.0
 10
30.30890404038181
 20
2.251077115992483
 30
0.0
 10
30.44524576374481
 20
2.297242174890149
 30
0.0
 10
30.71928768430925
 20
2.375220746595858
 30
0.0
 10
30.85552404846115
 20
2.40642332082677
 30
0.0
 10
30.99128571481884
 20
2.432914764466553
 30
0.0
  0
SPLINE
  5
BC
330
1F
100
AcDbEntity
  8
0
  6
Continuous
 62
     1
370
    15
100
AcDbSpline
210
0.0
220
0.0
230
1.0
 70
     8
 71
     3
 72
     8
 73
     4
 74
     0
 42
0.000000001
 43
0.00000001
 40
0.0
 40
0.0
 40
0.0
 40
0.0
 40
1.0
 40
1.0
 40
1.0
 40
1.0
 10
30.1767579274728
 20
2.193192579058333
 30
0.0
 10
31.07458137874432
 20
1.948399686278756
 30
0.0
 10
31.98133072148923
 20
1.681646795053657
 30
0.0
 10
32.89130283902965
 20
1.406472858117392
 30
0.0
  0
SPLINE
  5
BD
330
1F
100
AcDbEntity
  8
0
  6
Continuous
 62
     1
370
    15
100
AcDbSpline
210
0.0
220
0.0
230
1.0
 70
     8
 71
     3
 72
    13
 73
     9
 74
     0
 42
0.000000001
 43
0.00000001
 40
0.0
 40
0.0
 40
0.0
 40
0.0
 40
0.2186753638975703
 40
0.4431184790628088
 40
0.6129751473010118
 40
0.7867973474094778
 40
0.8966136931101685
 40
1.0
 40
1.0
 40
1.0
 40
1.0
 10
29.29229999999999
 20
-4.560243848413057
 30
0.0
 10
29.48993373564803
 20
-4.506791864919868
 30
0.0
 10
29.89041396712432
 20
-4.398478055781833
 30
0.0
 10
30.44673589883683
 20
-4.125971248563782
 30
0.0
 10
30.96118759257796
 20
-3.813218449316896
 30
0.0
 10
31.37448191112805
 20
-3.526248246971288
 30
0.0
 10
31.72735896590312
 20
-3.266821670098115
 30
0.0
 10
31.92007655028982
 20
-3.124588066545185
 30
0.0
 10
32.01352923054675
 20
-3.055616096411153
 30
0.0
  0
ARC
  5
BE
330
1F
100
AcDbEntity
  8
0
  6
Continuous
 62
     1
370
    15
100
AcDbCircle
 10
29.23172218328025
 20
0.0310163591249261
 30
0.0
 40
4.82545400281738
100
AcDbArc
 50
319.322552388157
 51
352.5506376613329
  0
ARC
  5
BF
330
1F
100
AcDbEntity
  8
0
  6
Continuous
 62
     1
370
    15
100
AcDbCircle
 10
30.94019704426311
 20
0.231462727259447
 30
0.0
 40
3.177935163661426
100
AcDbArc
 50
303.2185371643401
 51
346.0897731372116
  0
ARC
  5
C0
330
1F
100
AcDbEntity
  8
0
  6
Continuous
 62
     1
370
    15
100
AcDbCircle
 10
31.46098306957325
 20
-1.050428640290212
 30
0.0
 40
2.842917447935372
100
AcDbArc
 50
25.37562354098767
 51
59.79357343828309
  0
ARC
  5
C1
330
1F
100
AcDbEntity
  8
0
  6
Continuous
 62
     1
370
    15
100
AcDbCircle
 10
29.61977498134951
 20
0.0314542775492262
 30
0.0
 40
4.411944900605453
100
AcDbArc
 50
1.772312394737197
 51
46.06120051427146
  0
SPLINE
  5
C2
330
1F
100
AcDbEntity
  8
0
  6
Continuous
 62
     1
370
    15
100
AcDbSpline
210
0.0
220
0.0
230
1.0
 70
     8
 71
     3
 72
    14
 73
    10
 74
     0
 42
0.000000001
 43
0.00000001
 40
0.0
 40
0.0
 40
0.0
 40
0.0
 40
0.2500000000000001
 40
0.2500000000000001
 40
0.5
 40
0.5
 40
0.75
 40
0.75
 40
1.0
 40
1.0
 40
1.0
 40
1.0
 10
32.6811777129339
 20
3.20841369199352
 30
0.0
 10
32.49023331310809
 20
3.475714601623348
 30
0.0
 10
32.25287298907439
 20
3.716742724724071
 30
0.0
 10
31.7346765298132
 20
4.107279841574679
 30
0.0
 10
31.44725834220976
 20
4.261467831740331
 30
0.0
 10
30.85781743407022
 20
4.465549975245195
 30
0.0
 10
30.55331701514366
 20
4.517827272590815
 30
0.0
 10
29.92541239809781
 20
4.52263763698687
 30
0.0
 10
29.61147386659852
 20
4.475351003575367
 30
0.0
 10
29.29230000000024
 20
4.380814545165098
 30
0.0
  0
SPLINE
  5
C3
330
1F
100
AcDbEntity
  8
0
  6
Continuous
 62
     1
370
    15
100
AcDbSpline
210
0.0
220
0.0
230
1.0
 70
     8
 71
     3
 72
    34
 73
    30
 74
     0
 42
0.000000001
 43
0.00000001
 40
0.0
 40
0.0
 40
0.0
 40
0.0
 40
0.0625
 40
0.0625
 40
0.1250000000000001
 40
0.1250000000000001
 40
0.1875000000000001
 40
0.1875000000000001
 40
0.2500000000000002
 40
0.2500000000000002
 40
0.3750000000000003
 40
0.3750000000000003
 40
0.4375000000000003
 40
0.4375000000000003
 40
0.5000000000000003
 40
0.5000000000000003
 40
0.5625000000000003
 40
0.5625000000000003
 40
0.6250000000000004
 40
0.6250000000000004
 40
0.7499999999999999
 40
0.7499999999999999
 40
0.8125
 40
0.8125
 40
0.875
 40
0.875
 40
0.9375000000000001
 40
0.9375000000000001
 40
1.0
 40
1.0
 40
1.0
 40
1.0
 10
29.29229999999999
 20
-4.560243848413147
 30
0.0
 10
29.06148719156533
 20
-4.610495462874429
 30
0.0
 10
28.8321142328888
 20
-4.651509132944582
 30
0.0
 10
28.36806554479255
 20
-4.71495226906062
 30
0.0
 10
28.13502354427881
 20
-4.737250702067718
 30
0.0
 10
27.67112221779476
 20
-4.76260372861456
 30
0.0
 10
27.44192134994057
 20
-4.765688554835275
 30
0.0
 10
26.98003710991203
 20
-4.752760877236925
 30
0.0
 10
26.74727734018426
 20
-4.736687044455626
 30
0.0
 10
26.04984671599319
 20
-4.659882366984071
 30
0.0
 10
25.59155187559828
 20
-4.570973573231854
 30
0.0
 10
24.89439146851412
 20
-4.383030723001358
 30
0.0
 10
24.66148509147323
 20
-4.311338756060076
 30
0.0
 10
24.19884305222818
 20
-4.151243174871809
 30
0.0
 10
23.96998084839278
 20
-4.063000493665474
 30
0.0
 10
23.50661836564733
 20
-3.869820931058073
 30
0.0
 10
23.2736111837847
 20
-3.76503543598276
 30
0.0
 10
22.80916084052053
 20
-3.540933392128122
 30
0.0
 10
22.57902821757748
 20
-3.421861163946661
 30
0.0
 10
21.88792899337202
 20
-3.044706377088516
 30
0.0
 10
21.4187037781735
 20
-2.764981272629327
 30
0.0
 10
20.72732094387052
 20
-2.317965616892707
 30
0.0
 10
20.49736802697084
 20
-2.164125553890432
 30
0.0
 10
20.03299057160747
 20
-1.847348041432232
 30
0.0
 10
19.79997205697588
 20
-1.684714419470879
 30
0.0
 10
19.33649203417463
 20
-1.353914494722279
 30
0.0
 10
19.10758715152695
 20
-1.186140990870506
 30
0.0
 10
18.64509024532486
 20
-0.8453758136222193
 30
0.0
 10
18.41220928880874
 20
-0.672543988297248
 30
0.0
 10
18.17980000000001
 20
-0.4988183397313706
 30
0.0
  0
SPLINE
  5
C4
330
1F
100
AcDbEntity
  8
0
  6
Continuous
 62
     1
370
    15
100
AcDbSpline
210
0.0
220
0.0
230
1.0
 70
     8
 71
     3
 72
    12
 73
     8
 74
     0
 42
0.000000001
 43
0.00000001
 40
0.0
 40
0.0
 40
0.0
 40
0.0
 40
0.0498277824199903
 40
0.3444230150477106
 40
0.6394282803721424
 40
0.9345081586974202
 40
1.0
 40
1.0
 40
1.0
 40
1.0
 10
30.70711548190475
 20
-2.928070353198548
 30
0.0
 10
30.74312077152937
 20
-2.932884259007331
 30
0.0
 10
30.99199900387081
 20
-2.966159268897222
 30
0.0
 10
31.45697390673829
 20
-3.011185260896135
 30
0.0
 10
32.10135937212337
 20
-3.064654886082865
 30
0.0
 10
32.57994951954301
 20
-3.096399399554384
 30
0.0
 10
32.84344354276803
 20
-3.111475885209495
 30
0.0
 10
32.89130283902966
 20
-3.114214277468723
 30
0.0
  0
SPLINE
  5
C5
330
1F
100
AcDbEntity
  8
0
  6
Continuous
 62
     4
370
    15
100
AcDbSpline
210
0.0
220
0.0
230
1.0
 70
    24
 71
     3
 72
    14
 73
    10
 74
     0
 42
0.000000001
 43
0.00000001
 40
0.0
 40
0.0
 40
0.0
 40
0.0
 40
0.25
 40
0.25
 40
0.5
 40
0.5
 40
0.75
 40
0.75
 40
1.0
 40
1.0
 40
1.0
 40
1.0
 10
18.1798
 20
2.27907986337526
 30
0.0
 10
18.1798
 20
2.023176799879155
 30
0.0
 10
18.1798
 20
1.743912344433512
 30
0.0
 10
18.1798
 20
1.16925727587494
 30
0.0
 10
18.1798
 20
0.8740618300849649
 30
0.0
 10
18.1798
 20
0.3285809589256049
 30
0.0
 10
18.1798
 20
0.0797077892774087
 30
0.0
 10
18.1798
 20
-0.3037963605556231
 30
0.0
 10
18.1798
 20
-0.4370383952589117
 30
0.0
 10
18.1798
 20
-0.4988183397312226
 30
0.0
  0
SPLINE
  5
C6
330
1F
100
AcDbEntity
  8
0
  6
Continuous
 62
     1
370
    15
100
AcDbSpline
210
0.0
220
0.0
230
1.0
 70
     8
 71
     3
 72
    15
 73
    11
 74
     0
 42
0.000000001
 43
0.00000001
 40
0.0
 40
0.0
 40
0.0
 40
0.0
 40
0.1688185328814734
 40
0.3398290388882736
 40
0.4636272657961375
 40
0.588286326300356
 40
0.7117652727673577
 40
0.8360995682468825
 40
0.9594998191557966
 40
1.0
 40
1.0
 40
1.0
 40
1.0
 10
18.1798
 20
-2.099631593727139
 30
0.0
 10
18.57598252586137
 20
-2.36068016968408
 30
0.0
 10
19.373491689635
 20
-2.886166827792193
 30
0.0
 10
20.46350759324603
 20
-3.489340735572338
 30
0.0
 10
21.44659904527234
 20
-3.951140369686986
 30
0.0
 10
22.32081258843709
 20
-4.282125233296974
 30
0.0
 10
23.19408040411416
 20
-4.535103789566246
 30
0.0
 10
24.0660634501722
 20
-4.693774247345807
 30
0.0
 10
24.74227560893543
 20
-4.766591898452187
 30
0.0
 10
25.12697532006106
 20
-4.755273725856411
 30
0.0
 10
25.22203552035858
 20
-4.752476978879897
 30
0.0
  0
LINE
  5
C7
330
1F
100
AcDbEntity
  8
0
  6
Continuous
 62
     4
370
    15
100
AcDbLine
 10
18.17979999999999
 20
-2.099631593727175
 30
0.0
 11
18.1798
 21
-0.4988183397313771
 31
0.0
  0
SPLINE
  5
C8
330
1F
100
AcDbEntity
  8
0
  6
Continuous
 62
     1
370
    15
100
AcDbSpline
210
0.0
220
0.0
230
1.0
 70
     8
 71
     3
 72
     9
 73
     5
 74
     0
 42
0.000000001
 43
0.00000001
 40
0.0
 40
0.0
 40
0.0
 40
0.0
 40
0.2594298620140378
 40
1.0
 40
1.0
 40
1.0
 40
1.0
 10
20.08838418384765
 20
-3.261565427817755
 30
0.0
 10
19.92332382874479
 20
-3.271975071266004
 30
0.0
 10
19.28708113169579
 20
-3.312100149263717
 30
0.0
 10
18.65092111290043
 20
-3.241683304032557
 30
0.0
 10
18.1798
 20
-3.18953469124318
 30
0.0
  0
SPLINE
  5
C9
330
1F
100
AcDbEntity
  8
0
  6
Continuous
 62
     4
370
    15
100
AcDbSpline
210
0.0
220
0.0
230
1.0
 70
    24
 71
     3
 72
    12
 73
     8
 74
     0
 42
0.000000001
 43
0.00000001
 40
0.0
 40
0.0
 40
0.0
 40
0.0
 40
0.1074770347534062
 40
0.3818109917392984
 40
0.6561449487251879
 40
0.9304789057110775
 40
0.9999999999999999
 40
0.9999999999999999
 40
0.9999999999999999
 40
0.9999999999999999
 10
18.1798
 20
-2.099631593727141
 30
0.0
 10
18.1798
 20
-2.120812237601947
 30
0.0
 10
18.1798
 20
-2.196056243561654
 30
0.0
 10
18.17979999999999
 20
-2.402180811788348
 30
0.0
 10
18.17979999999999
 20
-2.710997637046793
 30
0.0
 10
18.17980000000001
 20
-2.988360687641604
 30
0.0
 10
18.17979999999999
 20
-3.15570149350558
 30
0.0
 10
18.17979999999999
 20
-3.189534691243181
 30
0.0
  0
SPLINE
  5
CA
330
1F
100
AcDbEntity
  8
0
  6
Continuous
 62
     1
370
    15
100
AcDbSpline
210
0.0
220
0.0
230
1.0
 70
     8
 71
     3
 72
    10
 73
     6
 74
     0
 42
0.000000001
 43
0.00000001
 40
0.0
 40
0.0
 40
0.0
 40
0.0
 40
0.3175641554601654
 40
0.6575769797698486
 40
1.0
 40
1.0
 40
1.0
 40
1.0
 10
26.70744203986074
 20
3.274662807076566
 30
0.0
 10
26.98096609170035
 20
3.419385900856244
 30
0.0
 10
27.54734966116356
 20
3.719062590666176
 30
0.0
 10
28.40979548447975
 20
4.093735909735323
 30
0.0
 10
28.99744002272987
 20
4.284896622447499
 30
0.0
 10
29.29230000000004
 20
4.380814545165039
 30
0.0
  0
SPLINE
  5
CB
330
1F
100
AcDbEntity
  8
0
  6
Continuous
 62
     1
370
    15
100
AcDbSpline
210
0.0
220
0.0
230
1.0
 70
     8
 71
     3
 72
    16
 73
    12
 74
     0
 42
0.000000001
 43
0.00000001
 40
0.0
 40
0.0
 40
0.0
 40
0.0
 40
0.125
 40
0.125
 40
0.25
 40
0.25
 40
0.5
 40
0.5
 40
0.75
 40
0.75
 40
1.0
 40
1.0
 40
1.0
 40
1.0
 10
32.68117771293389
 20
3.208413691993515
 30
0.0
 10
32.62436957625145
 20
3.122052580487391
 30
0.0
 10
32.55974759039943
 20
3.042334989091665
 30
0.0
 10
32.41435107414009
 20
2.896633083236908
 30
0.0
 10
32.33394672395518
 20
2.831395665335936
 30
0.0
 10
32.08041899423355
 20
2.664333741482768
 30
0.0
 10
31.8898898011318
 20
2.587551051731588
 30
0.0
 10
31.50292969898421
 20
2.496572756933495
 30
0.0
 10
31.30099048495977
 20
2.480529668590797
 30
0.0
 10
30.90509166335788
 20
2.496629343128911
 30
0.0
 10
30.70952663394362
 20
2.528290967799331
 30
0.0
 10
30.51604488681183
 20
2.580582689074844
 30
0.0
  0
LINE
  5
CC
330
1F
100
AcDbEntity
  8
0
  6
Continuous
 62
     1
370
    15
100
AcDbLine
 10
19.3487605155377
 20
-3.268782490221989
 30
0.0
 11
18.17980000000001
 21
-3.852351413769175
 31
0.0
  0
SPLINE
  5
CD
330
1F
100
AcDbEntity
  8
0
  6
Continuous
 62
     4
370
    15
100
AcDbSpline
210
0.0
220
0.0
230
1.0
 70
    24
 71
     3
 72
    10
 73
     6
 74
     0
 42
0.000000001
 43
0.00000001
 40
0.0
 40
0.0
 40
0.0
 40
0.0
 40
0.3732624842159564
 40
0.8896762757886708
 40
1.0
 40
1.0
 40
1.0
 40
1.0
 10
18.1798
 20
-3.244522100652204
 30
0.0
 10
18.1798
 20
-3.306596796378751
 30
0.0
 10
18.1798
 20
-3.454552689215698
 30
0.0
 10
18.17979999999998
 20
-3.675918305850658
 30
0.0
 10
18.17980000000001
 20
-3.825942810950996
 30
0.0
 10
18.17980000000001
 20
-3.852351413769235
 30
0.0
  0
LINE
  5
CE
330
1F
100
AcDbEntity
  8
중심선
100
AcDbLine
 10
-48.3202
 20
-0.0000000000000122
 30
0.0
 11
37.02960930719634
 21
-0.0000000000000122
 31
0.0
  0
CIRCLE
  5
CF
330
1F
100
AcDbEntity
  8
외형선
100
AcDbCircle
 10
0.0
 20
0.0
 30
0.0
 40
3.000000000000004
  0
INSERT
  5
D0
330
1F
100
AcDbEntity
  8
0
  6
Continuous
 62
     7
100
AcDbBlockReference
 66
     1
  2
블럭10
 10
1.21807051462724
 20
-51.95764267978461
 30
0.0
  0
ATTRIB
  5
D1
330
D0
100
AcDbEntity
  8
FORMAT
 62
     2
100
AcDbText
 10
-7.96322477411404
 20
-49.88227576695243
 30
0.0
 40
4.233333333333333
  1
E5975024 [ 3 FLUTE ]
 41
0.75
  7
SLDTEXTSTYLE0
 11
-7.96322477411404
 21
-51.99894243361909
 31
0.0
100
AcDbAttribute
  2
AUTOATTR0
 70
     0
 74
     1
  0
SEQEND
  5
D2
330
D0
100
AcDbEntity
  8
0
  6
Continuous
 62
     7
  0
HATCH
  5
D3
330
1F
100
AcDbEntity
  8
중심선
100
AcDbHatch
 10
0.0
 20
0.0
 30
0.0
210
0.0
220
0.0
230
1.0
  2
SOLID
 70
     1
 71
     0
 91
        1
 92
        0
 93
        4
 72
     1
 10
6.932979819008089
 20
-35.71046837814068
 11
3.486704575170807
 21
-35.71046837814068
 72
     1
 10
3.486704575170807
 20
-35.71046837814068
 11
1.358474715966784
 21
-38.24679395871328
 72
     1
 10
1.358474715966784
 20
-38.24679395871328
 11
4.804783044917215
 21
-38.24675452941079
 72
     1
 10
4.804783044917215
 20
-38.24675452941079
 11
6.932979819008089
 21
-35.71046837814068
 97
        0
 75
     0
 76
     1
 98
        1
 10
0.0
 20
0.0
  0
HATCH
  5
D4
330
1F
100
AcDbEntity
  8
중심선
100
AcDbHatch
 10
0.0
 20
0.0
 30
0.0
210
0.0
220
0.0
230
1.0
  2
SOLID
 70
     1
 71
     0
 91
        1
 92
        0
 93
        4
 72
     1
 10
11.94574381004404
 20
-35.71046837814068
 11
8.499468566206758
 21
-35.71046837814068
 72
     1
 10
8.499468566206758
 20
-35.71046837814068
 11
3.96833055784937
 21
-41.11046837814069
 72
     1
 10
3.96833055784937
 20
-41.11046837814069
 11
7.414605801686652
 21
-41.11046837814069
 72
     1
 10
7.414605801686652
 20
-41.11046837814069
 11
11.94574381004404
 21
-35.71046837814068
 97
        0
 75
     0
 76
     1
 98
        1
 10
0.0
 20
0.0
  0
HATCH
  5
D5
330
1F
100
AcDbEntity
  8
중심선
100
AcDbHatch
 10
0.0
 20
0.0
 30
0.0
210
0.0
220
0.0
230
1.0
  2
SOLID
 70
     1
 71
     0
 91
        1
 92
        0
 93
        4
 72
     1
 10
16.95850780107994
 20
-35.71046837814071
 11
13.51223255724282
 21
-35.71046837814068
 72
     1
 10
13.51223255724282
 20
-35.71046837814068
 11
6.463795655353572
 21
-44.1104683781407
 72
     1
 10
6.463795655353572
 20
-44.1104683781407
 11
9.910070899190854
 21
-44.1104683781407
 72
     1
 10
9.910070899190854
 20
-44.1104683781407
 11
16.95850780107994
 21
-35.71046837814071
 97
        0
 75
     0
 76
     1
 98
        1
 10
0.0
 20
0.0
  0
HATCH
  5
D6
330
1F
100
AcDbEntity
  8
중심선
100
AcDbHatch
 10
0.0
 20
0.0
 30
0.0
210
0.0
220
0.0
230
1.0
  2
SOLID
 70
     1
 71
     0
 91
        1
 92
        0
 93
        6
 72
     3
 10
21.75839823209213
 20
-39.91046837819196
 11
3.960054785062284
 21
1.540850780301639E-10
 40
0.3939339440162633
 50
17.09539180608432
 51
320.0019657685081
 73
     0
 72
     1
 10
23.44139788779273
 20
-38.49836238277899
 11
25.74669976149377
 21
-36.56403567273106
 72
     3
 10
21.75839823203929
 20
-39.91046837814083
 11
6.600054785286829
 21
-1.249000902703301E-13
 40
0.6363583540795982
 50
39.9987384933741
 51
368.4976242363725
 73
     1
 72
     1
 10
28.1837307239399
 20
-38.9504683780707
 11
20.43846553887521
 21
-38.95046837807067
 72
     1
 10
20.43846553887521
 20
-38.95046837807067
 11
20.43844049442928
 21
-40.8704683780706
 72
     1
 10
20.43844049442928
 20
-40.8704683780706
 11
24.87982026390132
 21
-40.87046837807057
 97
        0
 75
     0
 76
     1
 98
        1
 10
0.0
 20
0.0
  0
POINT
  5
D7
330
1F
100
AcDbEntity
  8
치수문자_일반주서
100
AcDbPoint
 10
-45.3202
 20
-0.0000000000000122
 30
0.0
  0
DIMENSION
  5
D8
330
1F
100
AcDbEntity
  8
치수문자_일반주서
100
AcDbDimension
  2
_D
 10
-57.00665802161206
 20
-4.762500000000051
 30
0.0
 11
-57.00665802161208
 21
-0.0000000000000044
 31
0.0
 70
   160
  1
%%c<>
 71
     2
 42
9.524999999999999
 52
-270.0
  3
SLDDIMSTYLE0
100
AcDbAlignedDimension
 13
-44.51020000000001
 23
4.762499999999995
 33
0.0
 14
-44.51020000000001
 24
-4.762500000000004
 34
0.0
 50
90.0000000000002
100
AcDbRotatedDimension
1001
ACAD
1000
DSTYLE
1002
{
1070
   171
1070
     6
1070
   273
1070
     7
1002
}
  0
DIMENSION
  5
ED
330
1F
100
AcDbEntity
  8
치수문자_일반주서
100
AcDbDimension
  2
_D_1
 10
34.0548
 20
44.95250000000005
 30
0.0
 11
-2.599317378328339
 21
44.95250000000005
 31
0.0
 70
   160
  1
<>
 71
     2
 42
79.375
  3
SLDDIMSTYLE1
100
AcDbAlignedDimension
 13
-45.3202
 23
3.952499999999996
 33
0.0
 14
34.0548
 24
0.0000000000000034
 34
0.0
100
AcDbRotatedDimension
1001
ACAD
1000
DSTYLE
1002
{
1070
   171
1070
     6
1070
   273
1070
     7
1002
}
  0
DIMENSION
  5
101
330
1F
100
AcDbEntity
  8
치수문자_일반주서
100
AcDbDimension
  2
_D_2
 10
34.0548
 20
35.37738223976488
 30
0.0
 11
18.63639983492059
 21
35.37738223976488
 31
0.0
 70
   160
  1
<>
 71
     2
 42
31.75
  3
SLDDIMSTYLE0
100
AcDbAlignedDimension
 13
2.304799999999998
 23
4.457700000000004
 33
0.0
 14
34.0548
 24
0.0000000000000034
 34
0.0
100
AcDbRotatedDimension
1001
ACAD
1000
DSTYLE
1002
{
1070
   171
1070
     6
1070
   273
1070
     7
1002
}
  0
DIMENSION
  5
116
330
1F
100
AcDbEntity
  8
치수문자_일반주서
100
AcDbDimension
  2
_D_3
 10
34.0548
 20
27.23041372954489
 30
0.0
 11
25.08608323884475
 21
27.23041372954489
 31
0.0
 70
   160
  1
<>
 71
     2
 42
15.875
  3
SLDDIMSTYLE0
100
AcDbAlignedDimension
 13
18.17979999999999
 23
4.751803785156774
 33
0.0
 14
34.0548
 24
0.0000000000000034
 34
0.0
 50
0.0000000000000514
100
AcDbRotatedDimension
1001
ACAD
1000
DSTYLE
1002
{
1070
   171
1070
     6
1070
   273
1070
     7
1002
}
  0
INSERT
  5
131
330
1F
100
AcDbEntity
  8
외형선
100
AcDbBlockReference
  2
SW_DOWELSYMBOL_0
 10
0.0
 20
0.0
 30
0.0
  0
DIMENSION
  5
158
102
{ACAD_REACTORS
102
}
102
{ACAD_XDICTIONARY
360
159
102
}
330
1F
100
AcDbEntity
  8
치수문자_일반주서
100
AcDbDimension
  2
*D7
 10
51.05838229031438
 20
-4.762499999999996
 30
0.0
 11
51.05838229031438
 21
24.4915
 31
0.0
 70
   160
  1
{%%c<>[]}
 71
     5
 42
9.524999999999999
  3
SLDDIMSTYLE0
100
AcDbAlignedDimension
 13
20.82659292927489
 23
4.762500000000003
 33
0.0
 14
27.44456261961916
 24
-4.762499999999996
 34
0.0
 50
90.0
100
AcDbRotatedDimension
1001
ACAD
1000
DSTYLE
1002
{
1070
   283
1070
     1
1070
   170
1070
     1
1070
   171
1070
     6
1070
   273
1070
     7
1002
}
  0
ENDSEC
  0
SECTION
  2
OBJECTS
  0
DICTIONARY
  5
C
330
0
100
AcDbDictionary
281
     1
  3
ACAD_GROUP
350
D
  3
ACAD_IMAGE_VARS
350
155
  3
ACAD_LAYOUT
350
1A
  3
ACAD_MLINESTYLE
350
17
  3
ACAD_PLOTSETTINGS
350
19
  3
ACAD_PLOTSTYLENAME
350
E
  3
ACAD_SCALELIST
350
47
  3
APPDATA
350
153
  3
DWGPROPS
350
16D
  0
DICTIONARY
  5
159
330
158
100
AcDbDictionary
280
     1
281
     1
  0
DICTIONARY
  5
D
102
{ACAD_REACTORS
330
C
102
}
330
C
100
AcDbDictionary
281
     1
  0
RASTERVARIABLES
  5
155
102
{ACAD_REACTORS
330
C
102
}
330
C
100
AcDbRasterVariables
 90
        0
 70
     1
 71
     1
 72
     1
  0
DICTIONARY
  5
1A
102
{ACAD_REACTORS
330
C
102
}
330
C
100
AcDbDictionary
281
     1
  3
Layout1
350
1E
  3
Layout2
350
26
  3
Model
350
22
  0
DICTIONARY
  5
17
102
{ACAD_REACTORS
330
C
102
}
330
C
100
AcDbDictionary
281
     1
  3
Standard
350
18
  0
DICTIONARY
  5
19
102
{ACAD_REACTORS
330
C
102
}
330
C
100
AcDbDictionary
281
     1
  0
ACDBDICTIONARYWDFLT
  5
E
102
{ACAD_REACTORS
330
C
102
}
330
C
100
AcDbDictionary
281
     1
  3
Normal
350
F
100
AcDbDictionaryWithDefault
340
F
  0
DICTIONARY
  5
47
102
{ACAD_REACTORS
330
C
102
}
330
C
100
AcDbDictionary
281
     1
  3
A0
350
48
  3
A1
350
49
  3
A2
350
4A
  3
A3
350
4B
  3
A4
350
4C
  3
A5
350
4D
  3
A6
350
4E
  3
A7
350
4F
  3
A8
350
50
  3
A9
350
51
  3
B0
350
52
  3
B1
350
53
  3
B2
350
54
  3
B3
350
55
  3
B4
350
56
  3
B5
350
57
  3
B6
350
58
  3
B7
350
59
  3
B8
350
5A
  3
B9
350
5B
  3
C0
350
5C
  3
C1
350
5D
  3
C2
350
5E
  3
C3
350
5F
  3
C4
350
60
  3
C5
350
61
  3
C6
350
62
  3
C7
350
63
  3
C8
350
64
  3
C9
350
65
  3
D0
350
66
  3
D1
350
67
  3
D2
350
68
  0
DICTIONARY
  5
153
102
{ACAD_REACTORS
330
C
102
}
330
C
100
AcDbDictionary
281
     1
  0
XRECORD
  5
16D
102
{ACAD_REACTORS
330
C
102
}
330
C
100
AcDbXrecord
280
     1
  1
DWGPROPS COOKIE
  2

  3

  4

  6

  7

  8
12016016
  9

300
=
301
=
302
=
303
=
304
=
305
=
306
=
307
=
308
=
309
=
 40
0.0
 41
2458269.360470544
 42
2458274.409591551
  1

 90
        0
  0
LAYOUT
  5
1E
102
{ACAD_REACTORS
330
1A
102
}
330
1A
100
AcDbPlotSettings
  1

  2
none_device
  4

  6

 40
0.0
 41
0.0
 42
0.0
 43
0.0
 44
0.0
 45
0.0
 46
0.0
 47
0.0
 48
0.0
 49
0.0
140
0.0
141
0.0
142
1.0
143
1.0
 70
   688
 72
     1
 73
     0
 74
     5
  7

 75
    16
147
1.0
148
0.0
149
0.0
100
AcDbLayout
  1
Layout1
 70
     1
 71
     1
 10
0.0
 20
0.0
 11
420.0
 21
297.0
 12
0.0
 22
0.0
 32
0.0
 14
1.000000000000000E+20
 24
1.000000000000000E+20
 34
1.000000000000000E+20
 15
-1.000000000000000E+20
 25
-1.000000000000000E+20
 35
-1.000000000000000E+20
146
0.0
 13
0.0
 23
0.0
 33
0.0
 16
1.0
 26
0.0
 36
0.0
 17
0.0
 27
1.0
 37
0.0
 76
     0
330
1B
  0
LAYOUT
  5
26
102
{ACAD_REACTORS
330
1A
102
}
330
1A
100
AcDbPlotSettings
  1

  2
none_device
  4

  6

 40
0.0
 41
0.0
 42
0.0
 43
0.0
 44
0.0
 45
0.0
 46
0.0
 47
0.0
 48
0.0
 49
0.0
140
0.0
141
0.0
142
1.0
143
1.0
 70
   688
 72
     1
 73
     0
 74
     5
  7

 75
    16
147
1.0
148
0.0
149
0.0
100
AcDbLayout
  1
Layout2
 70
     1
 71
     2
 10
0.0
 20
0.0
 11
0.0
 21
0.0
 12
0.0
 22
0.0
 32
0.0
 14
0.0
 24
0.0
 34
0.0
 15
0.0
 25
0.0
 35
0.0
146
0.0
 13
0.0
 23
0.0
 33
0.0
 16
1.0
 26
0.0
 36
0.0
 17
0.0
 27
1.0
 37
0.0
 76
     0
330
23
  0
LAYOUT
  5
22
102
{ACAD_REACTORS
330
1A
102
}
330
1A
100
AcDbPlotSettings
  1

  2
none_device
  4
ANSI_A_(11.00_x_8.50_Inches)
  6

 40
6.35
 41
19.05
 42
6.35000508
 43
19.05000254
 44
279.4
 45
215.9
 46
141.0979822379504
 47
83.75685004638136
 48
0.0
 49
0.0
140
0.0
141
0.0
142
0.0791094442784534
143
1.0
 70
  1696
 72
     0
 73
     0
 74
     0
  7

 75
     0
147
0.0235690232323232
148
0.0
149
0.0
100
AcDbLayout
  1
Model
 70
     1
 71
     0
 10
0.0
 20
0.0
 11
420.0
 21
297.0
 12
0.0
 22
0.0
 32
0.0
 14
-61.38165802161213
 24
-49.88227576695243
 34
0.0
 15
51.83260855921927
 25
49.32750000000005
 35
0.0
146
0.0
 13
0.0
 23
0.0
 33
0.0
 16
1.0
 26
0.0
 36
0.0
 17
0.0
 27
1.0
 37
0.0
 76
     0
330
1F
331
29
  0
MLINESTYLE
  5
18
102
{ACAD_REACTORS
330
17
102
}
330
17
100
AcDbMlineStyle
  2
Standard
 70
     0
  3

 62
   256
 51
90.0
 52
90.0
 71
     2
 49
0.5
 62
   256
  6
BYLAYER
 49
-0.5
 62
   256
  6
BYLAYER
  0
ACDBPLACEHOLDER
  5
F
102
{ACAD_REACTORS
330
E
102
}
330
E
  0
SCALE
  5
48
102
{ACAD_REACTORS
330
47
102
}
330
47
100
AcDbScale
 70
     0
300
1:1
140
1.0
141
1.0
290
     1
  0
SCALE
  5
49
102
{ACAD_REACTORS
330
47
102
}
330
47
100
AcDbScale
 70
     0
300
1:2
140
1.0
141
2.0
290
     0
  0
SCALE
  5
4A
102
{ACAD_REACTORS
330
47
102
}
330
47
100
AcDbScale
 70
     0
300
1:4
140
1.0
141
4.0
290
     0
  0
SCALE
  5
4B
102
{ACAD_REACTORS
330
47
102
}
330
47
100
AcDbScale
 70
     0
300
1:5
140
1.0
141
5.0
290
     0
  0
SCALE
  5
4C
102
{ACAD_REACTORS
330
47
102
}
330
47
100
AcDbScale
 70
     0
300
1:8
140
1.0
141
8.0
290
     0
  0
SCALE
  5
4D
102
{ACAD_REACTORS
330
47
102
}
330
47
100
AcDbScale
 70
     0
300
1:10
140
1.0
141
10.0
290
     0
  0
SCALE
  5
4E
102
{ACAD_REACTORS
330
47
102
}
330
47
100
AcDbScale
 70
     0
300
1:16
140
1.0
141
16.0
290
     0
  0
SCALE
  5
4F
102
{ACAD_REACTORS
330
47
102
}
330
47
100
AcDbScale
 70
     0
300
1:20
140
1.0
141
20.0
290
     0
  0
SCALE
  5
50
102
{ACAD_REACTORS
330
47
102
}
330
47
100
AcDbScale
 70
     0
300
1:30
140
1.0
141
30.0
290
     0
  0
SCALE
  5
51
102
{ACAD_REACTORS
330
47
102
}
330
47
100
AcDbScale
 70
     0
300
1:40
140
1.0
141
40.0
290
     0
  0
SCALE
  5
52
102
{ACAD_REACTORS
330
47
102
}
330
47
100
AcDbScale
 70
     0
300
1:50
140
1.0
141
50.0
290
     0
  0
SCALE
  5
53
102
{ACAD_REACTORS
330
47
102
}
330
47
100
AcDbScale
 70
     0
300
1:100
140
1.0
141
100.0
290
     0
  0
SCALE
  5
54
102
{ACAD_REACTORS
330
47
102
}
330
47
100
AcDbScale
 70
     0
300
2:1
140
2.0
141
1.0
290
     0
  0
SCALE
  5
55
102
{ACAD_REACTORS
330
47
102
}
330
47
100
AcDbScale
 70
     0
300
4:1
140
4.0
141
1.0
290
     0
  0
SCALE
  5
56
102
{ACAD_REACTORS
330
47
102
}
330
47
100
AcDbScale
 70
     0
300
8:1
140
8.0
141
1.0
290
     0
  0
SCALE
  5
57
102
{ACAD_REACTORS
330
47
102
}
330
47
100
AcDbScale
 70
     0
300
10:1
140
10.0
141
1.0
290
     0
  0
SCALE
  5
58
102
{ACAD_REACTORS
330
47
102
}
330
47
100
AcDbScale
 70
     0
300
100:1
140
100.0
141
1.0
290
     0
  0
SCALE
  5
59
102
{ACAD_REACTORS
330
47
102
}
330
47
100
AcDbScale
 70
     0
300
1/128" = 1'-0"
140
0.0078125
141
12.0
290
     0
  0
SCALE
  5
5A
102
{ACAD_REACTORS
330
47
102
}
330
47
100
AcDbScale
 70
     0
300
1/64" = 1'-0"
140
0.015625
141
12.0
290
     0
  0
SCALE
  5
5B
102
{ACAD_REACTORS
330
47
102
}
330
47
100
AcDbScale
 70
     0
300
1/32" = 1'-0"
140
0.03125
141
12.0
290
     0
  0
SCALE
  5
5C
102
{ACAD_REACTORS
330
47
102
}
330
47
100
AcDbScale
 70
     0
300
1/16" = 1'-0"
140
0.0625
141
12.0
290
     0
  0
SCALE
  5
5D
102
{ACAD_REACTORS
330
47
102
}
330
47
100
AcDbScale
 70
     0
300
3/32" = 1'-0"
140
0.09375
141
12.0
290
     0
  0
SCALE
  5
5E
102
{ACAD_REACTORS
330
47
102
}
330
47
100
AcDbScale
 70
     0
300
1/8" = 1'-0"
140
0.125
141
12.0
290
     0
  0
SCALE
  5
5F
102
{ACAD_REACTORS
330
47
102
}
330
47
100
AcDbScale
 70
     0
300
3/16" = 1'-0"
140
0.1875
141
12.0
290
     0
  0
SCALE
  5
60
102
{ACAD_REACTORS
330
47
102
}
330
47
100
AcDbScale
 70
     0
300
1/4" = 1'-0"
140
0.25
141
12.0
290
     0
  0
SCALE
  5
61
102
{ACAD_REACTORS
330
47
102
}
330
47
100
AcDbScale
 70
     0
300
3/8" = 1'-0"
140
0.375
141
12.0
290
     0
  0
SCALE
  5
62
102
{ACAD_REACTORS
330
47
102
}
330
47
100
AcDbScale
 70
     0
300
1/2" = 1'-0"
140
0.5
141
12.0
290
     0
  0
SCALE
  5
63
102
{ACAD_REACTORS
330
47
102
}
330
47
100
AcDbScale
 70
     0
300
3/4" = 1'-0"
140
0.75
141
12.0
290
     0
  0
SCALE
  5
64
102
{ACAD_REACTORS
330
47
102
}
330
47
100
AcDbScale
 70
     0
300
1" = 1'-0"
140
1.0
141
12.0
290
     0
  0
SCALE
  5
65
102
{ACAD_REACTORS
330
47
102
}
330
47
100
AcDbScale
 70
     0
300
1-1/2" = 1'-0"
140
1.5
141
12.0
290
     0
  0
SCALE
  5
66
102
{ACAD_REACTORS
330
47
102
}
330
47
100
AcDbScale
 70
     0
300
3" = 1'-0"
140
3.0
141
12.0
290
     0
  0
SCALE
  5
67
102
{ACAD_REACTORS
330
47
102
}
330
47
100
AcDbScale
 70
     0
300
6" = 1'-0"
140
6.0
141
12.0
290
     0
  0
SCALE
  5
68
102
{ACAD_REACTORS
330
47
102
}
330
47
100
AcDbScale
 70
     0
300
1'-0" = 1'-0"
140
12.0
141
12.0
290
     0
  0
ENDSEC
  0
EOF
