  0
SECTION
  2
HEADER
  9
$ACADVER
  1
AC1015
  9
$ACADMAINTVER
 70
     6
  9
$DWGCODEPAGE
  3
ANSI_949
  9
$INSBASE
 10
0.0
 20
0.0
 30
0.0
  9
$EXTMIN
 10
1.000000000000000E+20
 20
1.000000000000000E+20
 30
1.000000000000000E+20
  9
$EXTMAX
 10
-1.000000000000000E+20
 20
-1.000000000000000E+20
 30
-1.000000000000000E+20
  9
$LIMMIN
 10
0.0
 20
0.0
  9
$LIMMAX
 10
420.0
 20
297.0
  9
$ORTHOMODE
 70
     0
  9
$REGENMODE
 70
     1
  9
$FILLMODE
 70
     1
  9
$QTEXTMODE
 70
     0
  9
$MIRRTEXT
 70
     1
  9
$LTSCALE
 40
1.0
  9
$ATTMODE
 70
     1
  9
$TEXTSIZE
 40
3.5
  9
$TRACEWID
 40
1.0
  9
$TEXTSTYLE
  7
Standard
  9
$CLAYER
  8
0
  9
$CELTYPE
  6
ByLayer
  9
$CECOLOR
 62
   256
  9
$CELTSCALE
 40
1.0
  9
$DISPSILH
 70
     0
  9
$DIMSCALE
 40
1.0
  9
$DIMASZ
 40
3.302
  9
$DIMEXO
 40
1.0
  9
$DIMDLI
 40
3.75
  9
$DIMRND
 40
0.0
  9
$DIMDLE
 40
0.0
  9
$DIMEXE
 40
1.0
  9
$DIMTP
 40
0.0
  9
$DIMTM
 40
0.0
  9
$DIMTXT
 40
3.5
  9
$DIMCEN
 40
2.5
  9
$DIMTSZ
 40
0.0
  9
$DIMTOL
 70
     0
  9
$DIMLIM
 70
     0
  9
$DIMTIH
 70
     1
  9
$DIMTOH
 70
     1
  9
$DIMSE1
 70
     0
  9
$DIMSE2
 70
     0
  9
$DIMTAD
 70
     1
  9
$DIMZIN
 70
     0
  9
$DIMBLK
  1

  9
$DIMASO
 70
     1
  9
$DIMSHO
 70
     1
  9
$DIMPOST
  1

  9
$DIMAPOST
  1

  9
$DIMALT
 70
     0
  9
$DIMALTD
 70
     3
  9
$DIMALTF
 40
0.0393700787401575
  9
$DIMLFAC
 40
1.0
  9
$DIMTOFL
 70
     1
  9
$DIMTVP
 40
0.0
  9
$DIMTIX
 70
     0
  9
$DIMSOXD
 70
     0
  9
$DIMSAH
 70
     0
  9
$DIMBLK1
  1

  9
$DIMBLK2
  1

  9
$DIMSTYLE
  2
ISO-25
  9
$DIMCLRD
 70
     0
  9
$DIMCLRE
 70
     0
  9
$DIMCLRT
 70
     0
  9
$DIMTFAC
 40
1.0
  9
$DIMGAP
 40
1.524
  9
$DIMJUST
 70
     0
  9
$DIMSD1
 70
     0
  9
$DIMSD2
 70
     0
  9
$DIMTOLJ
 70
     0
  9
$DIMTZIN
 70
     0
  9
$DIMALTZ
 70
     0
  9
$DIMALTTZ
 70
     0
  9
$DIMUPT
 70
     0
  9
$DIMDEC
 70
     2
  9
$DIMTDEC
 70
     2
  9
$DIMALTU
 70
     2
  9
$DIMALTTD
 70
     3
  9
$DIMTXSTY
  7
Standard
  9
$DIMAUNIT
 70
     0
  9
$DIMADEC
 70
     2
  9
$DIMALTRND
 40
0.0
  9
$DIMAZIN
 70
     0
  9
$DIMDSEP
 70
    44
  9
$DIMATFIT
 70
     3
  9
$DIMFRAC
 70
     0
  9
$DIMLDRBLK
  1

  9
$DIMLUNIT
 70
     2
  9
$DIMLWD
 70
    -2
  9
$DIMLWE
 70
    -2
  9
$DIMTMOVE
 70
     0
  9
$LUNITS
 70
     2
  9
$LUPREC
 70
     2
  9
$SKETCHINC
 40
1.0
  9
$FILLETRAD
 40
10.0
  9
$AUNITS
 70
     0
  9
$AUPREC
 70
     2
  9
$MENU
  1
.
  9
$ELEVATION
 40
0.0
  9
$PELEVATION
 40
0.0
  9
$THICKNESS
 40
0.0
  9
$LIMCHECK
 70
     0
  9
$CHAMFERA
 40
0.0
  9
$CHAMFERB
 40
0.0
  9
$CHAMFERC
 40
0.0
  9
$CHAMFERD
 40
0.0
  9
$SKPOLY
 70
     0
  9
$TDCREATE
 40
2458263.667407569
  9
$TDUCREATE
 40
2458263.292407569
  9
$TDUPDATE
 40
2458274.802779456
  9
$TDUUPDATE
 40
2458274.427779456
  9
$TDINDWG
 40
0.0009502546
  9
$TDUSRTIMER
 40
2458274.426829456
  9
$USRTIMER
 70
     1
  9
$ANGBASE
 50
0.0
  9
$ANGDIR
 70
     0
  9
$PDMODE
 70
     0
  9
$PDSIZE
 40
-1.0
  9
$PLINEWID
 40
0.0
  9
$SPLFRAME
 70
     0
  9
$SPLINETYPE
 70
     6
  9
$SPLINESEGS
 70
     8
  9
$HANDSEED
  5
26F
  9
$SURFTAB1
 70
     6
  9
$SURFTAB2
 70
     6
  9
$SURFTYPE
 70
     6
  9
$SURFU
 70
     6
  9
$SURFV
 70
     6
  9
$UCSBASE
  2

  9
$UCSNAME
  2

  9
$UCSORG
 10
0.0
 20
0.0
 30
0.0
  9
$UCSXDIR
 10
1.0
 20
0.0
 30
0.0
  9
$UCSYDIR
 10
0.0
 20
1.0
 30
0.0
  9
$UCSORTHOREF
  2

  9
$UCSORTHOVIEW
 70
     0
  9
$UCSORGTOP
 10
0.0
 20
0.0
 30
0.0
  9
$UCSORGBOTTOM
 10
0.0
 20
0.0
 30
0.0
  9
$UCSORGLEFT
 10
0.0
 20
0.0
 30
0.0
  9
$UCSORGRIGHT
 10
0.0
 20
0.0
 30
0.0
  9
$UCSORGFRONT
 10
0.0
 20
0.0
 30
0.0
  9
$UCSORGBACK
 10
0.0
 20
0.0
 30
0.0
  9
$PUCSBASE
  2

  9
$PUCSNAME
  2

  9
$PUCSORG
 10
0.0
 20
0.0
 30
0.0
  9
$PUCSXDIR
 10
1.0
 20
0.0
 30
0.0
  9
$PUCSYDIR
 10
0.0
 20
1.0
 30
0.0
  9
$PUCSORTHOREF
  2

  9
$PUCSORTHOVIEW
 70
     0
  9
$PUCSORGTOP
 10
0.0
 20
0.0
 30
0.0
  9
$PUCSORGBOTTOM
 10
0.0
 20
0.0
 30
0.0
  9
$PUCSORGLEFT
 10
0.0
 20
0.0
 30
0.0
  9
$PUCSORGRIGHT
 10
0.0
 20
0.0
 30
0.0
  9
$PUCSORGFRONT
 10
0.0
 20
0.0
 30
0.0
  9
$PUCSORGBACK
 10
0.0
 20
0.0
 30
0.0
  9
$USERI1
 70
     0
  9
$USERI2
 70
     0
  9
$USERI3
 70
     0
  9
$USERI4
 70
     0
  9
$USERI5
 70
     0
  9
$USERR1
 40
0.0
  9
$USERR2
 40
0.0
  9
$USERR3
 40
0.0
  9
$USERR4
 40
0.0
  9
$USERR5
 40
0.0
  9
$WORLDVIEW
 70
     1
  9
$SHADEDGE
 70
     3
  9
$SHADEDIF
 70
    70
  9
$TILEMODE
 70
     1
  9
$MAXACTVP
 70
    64
  9
$PINSBASE
 10
0.0
 20
0.0
 30
0.0
  9
$PLIMCHECK
 70
     0
  9
$PEXTMIN
 10
1.000000000000000E+20
 20
1.000000000000000E+20
 30
1.000000000000000E+20
  9
$PEXTMAX
 10
-1.000000000000000E+20
 20
-1.000000000000000E+20
 30
-1.000000000000000E+20
  9
$PLIMMIN
 10
0.0
 20
0.0
  9
$PLIMMAX
 10
0.0
 20
0.0
  9
$UNITMODE
 70
     0
  9
$VISRETAIN
 70
     1
  9
$PLINEGEN
 70
     0
  9
$PSLTSCALE
 70
     1
  9
$TREEDEPTH
 70
  3020
  9
$CMLSTYLE
  2
Standard
  9
$CMLJUST
 70
     0
  9
$CMLSCALE
 40
20.0
  9
$PROXYGRAPHICS
 70
     1
  9
$MEASUREMENT
 70
     1
  9
$CELWEIGHT
370
    -1
  9
$ENDCAPS
280
     0
  9
$JOINSTYLE
280
     0
  9
$LWDISPLAY
290
     1
  9
$INSUNITS
 70
     4
  9
$HYPERLINKBASE
  1

  9
$STYLESHEET
  1

  9
$XEDIT
290
     1
  9
$CEPSNTYPE
380
     0
  9
$PSTYLEMODE
290
     1
  9
$FINGERPRINTGUID
  2
{601AB1F2-0D12-4E37-B31C-20F959F6CCC3}
  9
$VERSIONGUID
  2
{FAEB1C32-E019-11D5-929B-00C0DF256EC4}
  9
$EXTNAMES
290
     1
  9
$PSVPSCALE
 40
0.0
  9
$OLESTARTUP
290
     0
  0
ENDSEC
  0
SECTION
  2
CLASSES
  0
CLASS
  1
ACDBDICTIONARYWDFLT
  2
AcDbDictionaryWithDefault
  3
ObjectDBX Classes
 90
        0
280
     0
281
     0
  0
CLASS
  1
VISUALSTYLE
  2
AcDbVisualStyle
  3
ObjectDBX Classes
 90
     4095
280
     0
281
     0
  0
CLASS
  1
MATERIAL
  2
AcDbMaterial
  3
ObjectDBX Classes
 90
     1153
280
     0
281
     0
  0
CLASS
  1
SCALE
  2
AcDbScale
  3
ObjectDBX Classes
 90
     1153
280
     0
281
     0
  0
CLASS
  1
TABLESTYLE
  2
AcDbTableStyle
  3
ObjectDBX Classes
 90
     4095
280
     0
281
     0
  0
CLASS
  1
MLEADERSTYLE
  2
AcDbMLeaderStyle
  3
ACDB_MLEADERSTYLE_CLASS
 90
     4095
280
     0
281
     0
  0
CLASS
  1
SUN
  2
AcDbSun
  3
SCENEOE
 90
     1153
280
     0
281
     0
  0
CLASS
  1
ACDBPLACEHOLDER
  2
AcDbPlaceHolder
  3
ObjectDBX Classes
 90
        0
280
     0
281
     0
  0
CLASS
  1
LAYOUT
  2
AcDbLayout
  3
ObjectDBX Classes
 90
        0
280
     0
281
     0
  0
CLASS
  1
RASTERVARIABLES
  2
AcDbRasterVariables
  3
ISM
 90
        0
280
     0
281
     0
  0
ENDSEC
  0
SECTION
  2
TABLES
  0
TABLE
  2
VPORT
  5
8
330
0
100
AcDbSymbolTable
 70
     1
  0
VPORT
  5
29
330
8
100
AcDbSymbolTableRecord
100
AcDbViewportTableRecord
  2
*Active
 70
     0
 10
0.0
 20
0.0
 11
1.0
 21
1.0
 12
-1.433391704067461
 22
14.9171831566707
 13
0.0
 23
0.0
 14
10.0
 24
10.0
 15
10.0
 25
10.0
 16
0.0
 26
0.0
 36
1.0
 17
0.0
 27
0.0
 37
0.0
 40
162.2370248847761
 41
1.666023166023166
 42
50.0
 43
0.0
 44
0.0
 50
0.0
 51
0.0
 71
    16
 72
  2000
 73
     1
 74
     3
 75
     0
 76
     0
 77
     0
 78
     0
281
     0
 65
     1
110
0.0
120
0.0
130
0.0
111
1.0
121
0.0
131
0.0
112
0.0
122
1.0
132
0.0
 79
     0
146
0.0
  0
ENDTAB
  0
TABLE
  2
LTYPE
  5
5
330
0
100
AcDbSymbolTable
 70
     6
  0
LTYPE
  5
14
330
5
100
AcDbSymbolTableRecord
100
AcDbLinetypeTableRecord
  2
ByBlock
 70
     0
  3

 72
    65
 73
     0
 40
0.0
  0
LTYPE
  5
15
330
5
100
AcDbSymbolTableRecord
100
AcDbLinetypeTableRecord
  2
ByLayer
 70
     0
  3

 72
    65
 73
     0
 40
0.0
  0
LTYPE
  5
16
330
5
100
AcDbSymbolTableRecord
100
AcDbLinetypeTableRecord
  2
Continuous
 70
     0
  3
Solid line
 72
    65
 73
     0
 40
0.0
  0
LTYPE
  5
6E
330
5
100
AcDbSymbolTableRecord
100
AcDbLinetypeTableRecord
  2
HIDDEN
 70
     0
  3
Hidden __ __ __ __ __ __ __ __ __ __ __ __ __ __
 72
    65
 73
     2
 40
1.905
 49
1.27
 74
     0
 49
-0.635
 74
     0
  0
LTYPE
  5
6F
330
5
100
AcDbSymbolTableRecord
100
AcDbLinetypeTableRecord
  2
PHANTOM
 70
     0
  3
Phantom ______  __  __  ______  __  __  ______
 72
    65
 73
     6
 40
12.7
 49
6.35
 74
     0
 49
-1.27
 74
     0
 49
1.27
 74
     0
 49
-1.27
 74
     0
 49
1.27
 74
     0
 49
-1.27
 74
     0
  0
LTYPE
  5
70
330
5
100
AcDbSymbolTableRecord
100
AcDbLinetypeTableRecord
  2
CENTER
 70
     0
  3
Center ____ _ ____ _ ____ _ ____ _ ____ _ ____
 72
    65
 73
     4
 40
10.16
 49
6.35
 74
     0
 49
-1.27
 74
     0
 49
1.27
 74
     0
 49
-1.27
 74
     0
  0
LTYPE
  5
71
330
5
100
AcDbSymbolTableRecord
100
AcDbLinetypeTableRecord
  2
CENTERX2
 70
     0
  3
Center (2x) ________  __  ________  __  _____
 72
    65
 73
     4
 40
20.32
 49
12.7
 74
     0
 49
-2.54
 74
     0
 49
2.54
 74
     0
 49
-2.54
 74
     0
  0
LTYPE
  5
72
330
5
100
AcDbSymbolTableRecord
100
AcDbLinetypeTableRecord
  2
DOT2
 70
     0
  3
Dot (.5x) ........................................
 72
    65
 73
     2
 40
0.635
 49
0.0
 74
     0
 49
-0.635
 74
     0
  0
ENDTAB
  0
TABLE
  2
LAYER
  5
2
330
0
100
AcDbSymbolTable
 70
    17
  0
LAYER
  5
10
330
2
100
AcDbSymbolTableRecord
100
AcDbLayerTableRecord
  2
0
 70
     0
 62
     7
  6
Continuous
370
    -3
390
F
  0
LAYER
  5
73
330
2
100
AcDbSymbolTableRecord
100
AcDbLayerTableRecord
  2
FORMAT
 70
     0
 62
     2
  6
Continuous
370
    -3
390
F
  0
LAYER
  5
74
330
2
100
AcDbSymbolTableRecord
100
AcDbLayerTableRecord
  2
외형선
 70
     0
 62
   100
  6
Continuous
370
    35
390
F
  0
LAYER
  5
75
330
2
100
AcDbSymbolTableRecord
100
AcDbLayerTableRecord
  2
숨은선
 70
     0
 62
     2
  6
HIDDEN
370
    25
390
F
  0
LAYER
  5
76
330
2
100
AcDbSymbolTableRecord
100
AcDbLayerTableRecord
  2
중심선
 70
     0
 62
     1
  6
CENTERX2
370
    -3
390
F
  0
LAYER
  5
77
330
2
100
AcDbSymbolTableRecord
100
AcDbLayerTableRecord
  2
파단선
 70
     0
 62
     4
  6
Continuous
370
    -3
390
F
  0
LAYER
  5
78
330
2
100
AcDbSymbolTableRecord
100
AcDbLayerTableRecord
  2
해칭선
 70
     0
 62
     4
  6
Continuous
370
    -3
390
F
  0
LAYER
  5
79
330
2
100
AcDbSymbolTableRecord
100
AcDbLayerTableRecord
  2
가는실선
 70
     0
 62
     4
  6
Continuous
370
    -3
390
F
  0
LAYER
  5
7A
330
2
100
AcDbSymbolTableRecord
100
AcDbLayerTableRecord
  2
치수_보조선
 70
     0
 62
     4
  6
Continuous
370
    -3
390
F
  0
LAYER
  5
7B
330
2
100
AcDbSymbolTableRecord
100
AcDbLayerTableRecord
  2
치수문자_일반주서
 70
     0
 62
     7
  6
Continuous
370
    25
390
F
  0
LAYER
  5
7C
330
2
100
AcDbSymbolTableRecord
100
AcDbLayerTableRecord
  2
개별주서
 70
     0
 62
   100
  6
Continuous
370
    35
390
F
  0
LAYER
  5
7D
330
2
100
AcDbSymbolTableRecord
100
AcDbLayerTableRecord
  2
중간선
 70
     0
 62
     2
  6
Continuous
370
    25
390
F
  0
LAYER
  5
7E
330
2
100
AcDbSymbolTableRecord
100
AcDbLayerTableRecord
  2
윤곽선
 70
     0
 62
     3
  6
Continuous
370
    50
390
F
  0
LAYER
  5
7F
330
2
100
AcDbSymbolTableRecord
100
AcDbLayerTableRecord
  2
중심마크
 70
     0
 62
   100
  6
Continuous
370
    35
390
F
  0
LAYER
  5
80
330
2
100
AcDbSymbolTableRecord
100
AcDbLayerTableRecord
  2
가상선
 70
     0
 62
     4
  6
PHANTOM
370
    -3
390
F
  0
LAYER
  5
81
330
2
100
AcDbSymbolTableRecord
100
AcDbLayerTableRecord
  2
특수지정선
 70
     0
 62
     5
  6
CENTERX2
370
    70
390
F
  0
LAYER
  5
156
330
2
100
AcDbSymbolTableRecord
100
AcDbLayerTableRecord
  2
Defpoints
 70
     0
 62
     7
  6
Continuous
290
     0
370
    -3
390
F
  0
ENDTAB
  0
TABLE
  2
STYLE
  5
3
330
0
100
AcDbSymbolTable
 70
     2
  0
STYLE
  5
11
330
3
100
AcDbSymbolTableRecord
100
AcDbTextStyleTableRecord
  2
Standard
 70
     0
 40
0.0
 41
1.0
 50
0.0
 71
     0
 42
3.5
  3
txt
  4

  0
STYLE
  5
97
330
3
100
AcDbSymbolTableRecord
100
AcDbTextStyleTableRecord
  2
SLDTEXTSTYLE0
 70
     0
 40
0.0
 41
0.75
 50
0.0
 71
     0
 42
3.5
  3
TXT
  4

  0
ENDTAB
  0
TABLE
  2
VIEW
  5
6
330
0
100
AcDbSymbolTable
 70
     0
  0
ENDTAB
  0
TABLE
  2
UCS
  5
7
330
0
100
AcDbSymbolTable
 70
     0
  0
ENDTAB
  0
TABLE
  2
APPID
  5
9
330
0
100
AcDbSymbolTable
 70
     3
  0
APPID
  5
12
330
9
100
AcDbSymbolTableRecord
100
AcDbRegAppTableRecord
  2
ACAD
 70
     0
  0
APPID
  5
26D
330
9
100
AcDbSymbolTableRecord
100
AcDbRegAppTableRecord
  2
ACAD_DSTYLE_DIMFLIPARROW_SYMBOL
 70
     0
  0
APPID
  5
26E
330
9
100
AcDbSymbolTableRecord
100
AcDbRegAppTableRecord
  2
ACAD_DSTYLE_DIMFLIPARROW_WHICH_SYMBOL
 70
     0
  0
ENDTAB
  0
TABLE
  2
DIMSTYLE
  5
A
330
0
100
AcDbSymbolTable
 70
     4
100
AcDbDimStyleTable
  0
DIMSTYLE
105
27
330
A
100
AcDbSymbolTableRecord
100
AcDbDimStyleTableRecord
  2
ISO-25
 70
     0
 41
2.5
 42
0.625
 43
3.75
 44
1.25
 73
     0
 74
     0
 77
     1
 78
     8
140
2.5
141
2.5
143
0.03937007874016
147
0.625
171
     3
172
     1
178
     0
271
     2
272
     2
274
     3
278
    44
283
     0
284
     8
340
11
  0
DIMSTYLE
105
C8
102
{ACAD_REACTORS
330
18D
330
205
102
}
330
A
100
AcDbSymbolTableRecord
100
AcDbDimStyleTableRecord
  2
SLDDIMSTYLE0
 70
     0
 41
3.302
 44
0.0
 45
0.000000001
 73
     0
 74
     0
 77
     1
 78
    12
 79
     3
140
3.5
143
0.0393700787401575
147
0.875
148
0.000000001
170
     1
172
     1
173
     1
178
     0
271
     2
272
     2
276
     2
284
    12
289
     0
340
97
  0
DIMSTYLE
105
DD
102
{ACAD_REACTORS
330
19A
330
1A8
330
1B5
330
206
330
207
330
208
102
}
330
A
100
AcDbSymbolTableRecord
100
AcDbDimStyleTableRecord
  2
SLDDIMSTYLE1
 70
     0
 41
3.302
 44
0.0
 45
0.000000001
 73
     0
 74
     0
 77
     1
 78
    12
 79
     3
140
3.5
143
0.0393700787401575
147
0.875
148
0.000000001
170
     1
173
     1
178
     0
271
     2
272
     2
276
     2
284
    12
340
97
  0
DIMSTYLE
105
162
102
{ACAD_REACTORS
330
1C2
330
209
102
}
330
A
100
AcDbSymbolTableRecord
100
AcDbDimStyleTableRecord
  2
SLDDIMSTYLE2
 70
     0
 41
3.302
 44
0.0
 45
0.000000001
 73
     0
 74
     0
 77
     1
 78
     4
 79
     1
140
3.5
143
0.0393700787401575
147
0.875
148
0.000000001
170
     1
173
     1
178
     0
271
     2
272
     2
276
     2
284
    12
340
97
  0
ENDTAB
  0
TABLE
  2
BLOCK_RECORD
  5
1
330
0
100
AcDbSymbolTable
 70
    19
  0
BLOCK_RECORD
  5
1F
330
1
100
AcDbSymbolTableRecord
100
AcDbBlockTableRecord
  2
*Model_Space
340
22
  0
BLOCK_RECORD
  5
1B
330
1
100
AcDbSymbolTableRecord
100
AcDbBlockTableRecord
  2
*Paper_Space
340
1E
  0
BLOCK_RECORD
  5
23
330
1
100
AcDbSymbolTableRecord
100
AcDbBlockTableRecord
  2
*Paper_Space0
340
26
  0
BLOCK_RECORD
  5
82
330
1
100
AcDbSymbolTableRecord
100
AcDbBlockTableRecord
  2
블럭10
340
0
102
{BLKREFS
331
C0
102
}
  0
BLOCK_RECORD
  5
C9
330
1
100
AcDbSymbolTableRecord
100
AcDbBlockTableRecord
  2
_D
340
0
  0
BLOCK_RECORD
  5
DE
330
1
100
AcDbSymbolTableRecord
100
AcDbBlockTableRecord
  2
_D_1
340
0
  0
BLOCK_RECORD
  5
F1
330
1
100
AcDbSymbolTableRecord
100
AcDbBlockTableRecord
  2
_D_2
340
0
  0
BLOCK_RECORD
  5
105
330
1
100
AcDbSymbolTableRecord
100
AcDbBlockTableRecord
  2
_D_3
340
0
  0
BLOCK_RECORD
  5
119
330
1
100
AcDbSymbolTableRecord
100
AcDbBlockTableRecord
  2
_D_4
340
0
  0
BLOCK_RECORD
  5
12B
330
1
100
AcDbSymbolTableRecord
100
AcDbBlockTableRecord
  2
SW_DOWELSYMBOL_0
340
0
102
{BLKREFS
331
0
331
1CF
331
20A
102
}
  0
BLOCK_RECORD
  5
18E
330
1
100
AcDbSymbolTableRecord
100
AcDbBlockTableRecord
  2
*D9
340
0
  0
BLOCK_RECORD
  5
19B
330
1
100
AcDbSymbolTableRecord
100
AcDbBlockTableRecord
  2
*D10
340
0
  0
BLOCK_RECORD
  5
1A9
330
1
100
AcDbSymbolTableRecord
100
AcDbBlockTableRecord
  2
*D11
340
0
  0
BLOCK_RECORD
  5
1B6
330
1
100
AcDbSymbolTableRecord
100
AcDbBlockTableRecord
  2
*D12
340
0
  0
BLOCK_RECORD
  5
1C3
330
1
100
AcDbSymbolTableRecord
100
AcDbBlockTableRecord
  2
*D13
340
0
  0
BLOCK_RECORD
  5
22B
330
1
100
AcDbSymbolTableRecord
100
AcDbBlockTableRecord
  2
*D14
340
0
  0
BLOCK_RECORD
  5
237
330
1
100
AcDbSymbolTableRecord
100
AcDbBlockTableRecord
  2
*D15
340
0
  0
BLOCK_RECORD
  5
244
330
1
100
AcDbSymbolTableRecord
100
AcDbBlockTableRecord
  2
*D16
340
0
  0
BLOCK_RECORD
  5
250
330
1
100
AcDbSymbolTableRecord
100
AcDbBlockTableRecord
  2
*D17
340
0
  0
BLOCK_RECORD
  5
25C
330
1
100
AcDbSymbolTableRecord
100
AcDbBlockTableRecord
  2
*D18
340
0
  0
ENDTAB
  0
ENDSEC
  0
SECTION
  2
BLOCKS
  0
BLOCK
  5
20
330
1F
100
AcDbEntity
  8
0
100
AcDbBlockBegin
  2
*Model_Space
 70
     0
 10
0.0
 20
0.0
 30
0.0
  3
*Model_Space
  1
*Model_Space
  0
ENDBLK
  5
21
330
1F
100
AcDbEntity
  8
0
100
AcDbBlockEnd
  0
BLOCK
  5
1C
330
1B
100
AcDbEntity
 67
     1
  8
0
100
AcDbBlockBegin
  2
*Paper_Space
 70
     0
 10
0.0
 20
0.0
 30
0.0
  3
*Paper_Space
  1
*Paper_Space
  0
ENDBLK
  5
1D
330
1B
100
AcDbEntity
 67
     1
  8
0
100
AcDbBlockEnd
  0
BLOCK
  5
24
330
23
100
AcDbEntity
  8
0
100
AcDbBlockBegin
  2
*Paper_Space0
 70
     0
 10
0.0
 20
0.0
 30
0.0
  3
*Paper_Space0
  1
*Paper_Space0
  0
ENDBLK
  5
25
330
23
100
AcDbEntity
  8
0
100
AcDbBlockEnd
  0
BLOCK
  5
83
330
82
100
AcDbEntity
  8
0
100
AcDbBlockBegin
  2
블럭10
 70
     2
 10
0.0
 20
0.0
 30
0.0
  3
블럭10
  1
블럭10
  0
ELLIPSE
  5
85
330
82
100
AcDbEntity
  8
중심선
100
AcDbEllipse
 10
20.54032771741204
 20
12.0471743016438
 30
0.0
 11
6.600054785286829
 21
-1.261213355974178E-13
 31
0.0
210
0.0
220
0.0
230
1.0
 40
0.636358354079598
 41
0.9219305317359503
 42
6.513795318482858
  0
ELLIPSE
  5
86
330
82
100
AcDbEntity
  8
중심선
100
AcDbEllipse
 10
20.54032771746488
 20
12.04717430159265
 30
0.0
 11
3.960054785062283
 21
1.540847449632565E-10
 31
0.0
210
0.0
220
0.0
230
1.0
 40
0.3939339440162632
 41
1.131841032648279
 42
5.62031148352944
  0
LINE
  5
87
330
82
100
AcDbEntity
  8
중심선
100
AcDbLine
 10
2.268634060543552
 20
16.24717430164393
 30
0.0
 11
5.714909304380834
 21
16.24717430164393
 31
0.0
  0
LINE
  5
88
330
82
100
AcDbEntity
  8
중심선
100
AcDbLine
 10
5.245725140726316
 20
7.84717430164391
 30
0.0
 11
8.692000384563599
 21
7.84717430164391
 31
0.0
  0
LINE
  5
89
330
82
100
AcDbEntity
  8
중심선
100
AcDbLine
 10
15.74043728645272
 20
16.24717430164393
 30
0.0
 11
8.692000384563599
 21
7.84717430164391
 31
0.0
  0
LINE
  5
8A
330
82
100
AcDbEntity
  8
중심선
100
AcDbLine
 10
0.1404042013395286
 20
13.71084872107135
 30
0.0
 11
3.58671253028996
 21
13.71088815037384
 31
0.0
  0
LINE
  5
8B
330
82
100
AcDbEntity
  8
중심선
100
AcDbLine
 10
2.750260043222114
 20
10.84717430164391
 30
0.0
 11
6.196535287059397
 21
10.84717430164391
 31
0.0
  0
LINE
  5
8C
330
82
100
AcDbEntity
  8
중심선
100
AcDbLine
 10
12.29416204261559
 20
16.24717430164393
 30
0.0
 11
5.245725140726316
 21
7.84717430164391
 31
0.0
  0
LINE
  5
8D
330
82
100
AcDbEntity
  8
중심선
100
AcDbLine
 10
10.72767329541681
 20
16.24717430164393
 30
0.0
 11
6.196535287059397
 21
10.84717430164391
 31
0.0
  0
LINE
  5
8E
330
82
100
AcDbEntity
  8
중심선
100
AcDbLine
 10
7.28139805157953
 20
16.24717430164393
 30
0.0
 11
2.750260043222114
 21
10.84717430164391
 31
0.0
  0
LINE
  5
8F
330
82
100
AcDbEntity
  8
중심선
100
AcDbLine
 10
5.714909304380834
 20
16.24717430164393
 30
0.0
 11
3.58671253028996
 21
13.71088815037384
 31
0.0
  0
LINE
  5
90
330
82
100
AcDbEntity
  8
중심선
100
AcDbLine
 10
2.268634060543552
 20
16.24717430164393
 30
0.0
 11
0.1404042013395286
 21
13.71084872107135
 31
0.0
  0
LINE
  5
91
330
82
100
AcDbEntity
  8
중심선
100
AcDbLine
 10
7.28139805157953
 20
16.24717430164393
 30
0.0
 11
10.72767329541681
 21
16.24717430164393
 31
0.0
  0
LINE
  5
92
330
82
100
AcDbEntity
  8
중심선
100
AcDbLine
 10
12.29416204261559
 20
16.24717430164393
 30
0.0
 11
15.74043728645272
 21
16.24717430164393
 31
0.0
  0
LINE
  5
93
330
82
100
AcDbEntity
  8
중심선
100
AcDbLine
 10
19.22036997980202
 20
11.08717430171403
 30
0.0
 11
23.66174974927406
 21
11.08717430171406
 31
0.0
  0
LINE
  5
94
330
82
100
AcDbEntity
  8
중심선
100
AcDbLine
 10
19.22039502424796
 20
13.00717430171391
 30
0.0
 11
19.22036997980202
 21
11.08717430171403
 31
0.0
  0
LINE
  5
95
330
82
100
AcDbEntity
  8
중심선
100
AcDbLine
 10
19.22039502424796
 20
13.00717430171391
 30
0.0
 11
26.96566020931264
 21
13.00717430171391
 31
0.0
  0
LINE
  5
96
330
82
100
AcDbEntity
  8
중심선
100
AcDbLine
 10
22.22332737316547
 20
13.45928029700563
 30
0.0
 11
24.52862924686651
 21
15.39360700705356
 31
0.0
  0
ATTDEF
  5
98
330
82
100
AcDbEntity
  8
FORMAT
 62
     2
100
AcDbText
 10
-9.18129528874128
 20
2.075366912832191
 30
0.0
 40
4.233333333333333
  1
E5976048 [ 2 FLUTE ]
 41
0.75
  7
SLDTEXTSTYLE0
 11
-9.18129528874128
 21
-0.0412997538344756
 31
0.0
100
AcDbAttributeDefinition
  3

  2
AUTOATTR0
 70
     0
 74
     1
  0
ENDBLK
  5
84
330
82
100
AcDbEntity
  8
0
100
AcDbBlockEnd
  0
BLOCK
  5
CA
330
C9
100
AcDbEntity
  8
0
100
AcDbBlockBegin
  2
_D
 70
     0
 10
0.0
 20
0.0
 30
0.0
  3
_D
  1
_D
  0
SOLID
  5
CC
330
C9
100
AcDbEntity
  8
치수문자_일반주서
100
AcDbTrace
 10
-96.6976509022191
 20
9.526074928723887
 30
0.0
 11
-96.1896509022191
 21
12.82807492872389
 31
0.0
 12
-97.20565090221909
 22
12.82807492872389
 32
0.0
 13
-97.20565090221909
 23
12.82807492872389
 33
0.0
  0
SOLID
  5
CD
330
C9
100
AcDbEntity
  8
치수문자_일반주서
100
AcDbTrace
 10
-96.6976509022191
 20
-9.523925071276107
 30
0.0
 11
-97.20565090221909
 21
-12.82592507127611
 31
0.0
 12
-96.1896509022191
 22
-12.82592507127611
 32
0.0
 13
-96.1896509022191
 23
-12.82592507127611
 33
0.0
  0
LINE
  5
CE
330
C9
100
AcDbEntity
  8
치수문자_일반주서
100
AcDbLine
 10
-107.4905326182618
 20
-4.524619601733443
 30
0.0
 11
-107.4905326182618
 21
-5.591025859184024
 31
0.0
  0
LINE
  5
CF
330
C9
100
AcDbEntity
  8
치수문자_일반주서
100
AcDbLine
 10
-107.4905326182618
 20
-5.591025859184024
 30
0.0
 11
-101.9342826272025
 21
-5.591025859183985
 31
0.0
  0
LINE
  5
D0
330
C9
100
AcDbEntity
  8
치수문자_일반주서
100
AcDbLine
 10
-101.9342826272025
 20
-5.591025859183985
 30
0.0
 11
-101.9342826272025
 21
-4.524619601733404
 31
0.0
  0
LINE
  5
D1
330
C9
100
AcDbEntity
  8
치수문자_일반주서
100
AcDbLine
 10
-107.4905326182619
 20
4.526769459181073
 30
0.0
 11
-107.4905326182619
 21
5.593175716631654
 31
0.0
  0
LINE
  5
D2
330
C9
100
AcDbEntity
  8
치수문자_일반주서
100
AcDbLine
 10
-107.4905326182619
 20
5.593175716631654
 30
0.0
 11
-101.9342826272026
 21
5.593175716631693
 31
0.0
  0
LINE
  5
D3
330
C9
100
AcDbEntity
  8
치수문자_일반주서
100
AcDbLine
 10
-101.9342826272026
 20
5.593175716631693
 30
0.0
 11
-101.9342826272026
 21
4.526769459181113
 31
0.0
  0
LINE
  5
D4
330
C9
100
AcDbEntity
  8
치수문자_일반주서
100
AcDbLine
 10
-85.20119288060702
 20
9.526074928723887
 30
0.0
 11
-97.6976509022191
 21
9.526074928723887
 31
0.0
  0
LINE
  5
D5
330
C9
100
AcDbEntity
  8
치수문자_일반주서
100
AcDbLine
 10
-85.20119288060702
 20
-9.523925071276107
 30
0.0
 11
-97.6976509022191
 21
-9.523925071276107
 31
0.0
  0
LINE
  5
D6
330
C9
100
AcDbEntity
  8
치수문자_일반주서
100
AcDbLine
 10
-96.6976509022191
 20
9.526074928723887
 30
0.0
 11
-96.6976509022191
 21
15.87607492872389
 31
0.0
  0
LINE
  5
D7
330
C9
100
AcDbEntity
  8
치수문자_일반주서
100
AcDbLine
 10
-96.6976509022191
 20
9.526074928723887
 30
0.0
 11
-96.6976509022191
 21
-9.523925071276107
 31
0.0
  0
LINE
  5
D8
330
C9
100
AcDbEntity
  8
치수문자_일반주서
100
AcDbLine
 10
-96.6976509022191
 20
-9.523925071276107
 30
0.0
 11
-96.6976509022191
 21
-15.87392507127611
 31
0.0
  0
MTEXT
  5
D9
330
C9
100
AcDbEntity
  8
치수문자_일반주서
100
AcDbMText
 10
-106.4460195417814
 20
-4.524619601733436
 30
0.0
 40
3.5
 41
0.0
 71
     1
 72
     1
  1
0.75
  7
SLDTEXTSTYLE0
 11
-7.044195017643634E-15
 21
1.0
 31
0.0
 73
     1
 44
1.0
  0
MTEXT
  5
DA
330
C9
100
AcDbEntity
  8
치수문자_일반주서
100
AcDbMText
 10
-101.2093879914209
 20
-8.456894014097168
 30
0.0
 40
3.5
 41
0.0
 71
     1
 72
     1
  1
%%c
  7
SLDTEXTSTYLE0
 11
-7.044195017643634E-15
 21
1.0
 31
0.0
 73
     1
 44
1.0
  0
MTEXT
  5
DB
330
C9
100
AcDbEntity
  8
치수문자_일반주서
100
AcDbMText
 10
-101.209387991421
 20
-3.178456615723087
 30
0.0
 40
3.5
 41
0.0
 71
     1
 72
     1
  1
19.05
  7
SLDTEXTSTYLE0
 11
-7.044195017643634E-15
 21
1.0
 31
0.0
 73
     1
 44
1.0
  0
ENDBLK
  5
CB
330
C9
100
AcDbEntity
  8
0
100
AcDbBlockEnd
  0
BLOCK
  5
DF
330
DE
100
AcDbEntity
  8
0
100
AcDbBlockBegin
  2
_D_1
 70
     0
 10
0.0
 20
0.0
 30
0.0
  3
_D_1
  1
_D_1
  0
SOLID
  5
E1
330
DE
100
AcDbEntity
  8
치수문자_일반주서
100
AcDbTrace
 10
76.94223132094031
 20
9.518024543786254
 30
0.0
 11
76.43423132094031
 21
6.216024543786254
 31
0.0
 12
77.4502313209403
 22
6.216024543786254
 32
0.0
 13
77.4502313209403
 23
6.216024543786254
 33
0.0
  0
SOLID
  5
E2
330
DE
100
AcDbEntity
  8
치수문자_일반주서
100
AcDbTrace
 10
76.94223132094031
 20
-9.515874686338464
 30
0.0
 11
77.4502313209403
 21
-6.213874686338464
 31
0.0
 12
76.43423132094031
 22
-6.213874686338464
 32
0.0
 13
76.43423132094031
 23
-6.213874686338464
 33
0.0
  0
LINE
  5
E3
330
DE
100
AcDbEntity
  8
치수문자_일반주서
100
AcDbLine
 10
66.14934960489757
 20
26.77142725872731
 30
0.0
 11
66.14934960489758
 21
25.70502100127673
 31
0.0
  0
LINE
  5
E4
330
DE
100
AcDbEntity
  8
치수문자_일반주서
100
AcDbLine
 10
66.14934960489758
 20
25.70502100127673
 30
0.0
 11
71.70559959595688
 21
25.70502100127677
 31
0.0
  0
LINE
  5
E5
330
DE
100
AcDbEntity
  8
치수문자_일반주서
100
AcDbLine
 10
71.70559959595688
 20
25.70502100127677
 30
0.0
 11
71.70559959595687
 21
26.77142725872735
 31
0.0
  0
LINE
  5
E6
330
DE
100
AcDbEntity
  8
치수문자_일반주서
100
AcDbLine
 10
66.14934960489751
 20
35.82281631964183
 30
0.0
 11
66.1493496048975
 21
36.88922257709241
 31
0.0
  0
LINE
  5
E7
330
DE
100
AcDbEntity
  8
치수문자_일반주서
100
AcDbLine
 10
66.1493496048975
 20
36.88922257709241
 30
0.0
 11
71.7055995959568
 21
36.88922257709245
 31
0.0
  0
LINE
  5
E8
330
DE
100
AcDbEntity
  8
치수문자_일반주서
100
AcDbLine
 10
71.7055995959568
 20
36.88922257709245
 30
0.0
 11
71.70559959595681
 21
35.82281631964187
 31
0.0
  0
LINE
  5
E9
330
DE
100
AcDbEntity
  8
치수문자_일반주서
100
AcDbLine
 10
42.79880711939298
 20
9.518024543786256
 30
0.0
 11
77.94223132094031
 21
9.518024543786254
 31
0.0
  0
LINE
  5
EA
330
DE
100
AcDbEntity
  8
치수문자_일반주서
100
AcDbLine
 10
42.79880711939298
 20
-9.515874686338462
 30
0.0
 11
77.94223132094031
 21
-9.515874686338464
 31
0.0
  0
LINE
  5
EB
330
DE
100
AcDbEntity
  8
치수문자_일반주서
100
AcDbLine
 10
76.94223132094031
 20
9.518024543786254
 30
0.0
 11
76.94223132094031
 21
39.75509073200567
 31
0.0
  0
LINE
  5
EC
330
DE
100
AcDbEntity
  8
치수문자_일반주서
100
AcDbLine
 10
76.94223132094031
 20
9.518024543786254
 30
0.0
 11
76.94223132094031
 21
-9.515874686338464
 31
0.0
  0
MTEXT
  5
ED
330
DE
100
AcDbEntity
  8
치수문자_일반주서
100
AcDbMText
 10
67.19386268137798
 20
26.77142725872732
 30
0.0
 40
3.5
 41
0.0
 71
     1
 72
     1
  1
0.75
  7
SLDTEXTSTYLE0
 11
-7.044195017643634E-15
 21
1.0
 31
0.0
 73
     1
 44
1.0
  0
MTEXT
  5
EE
330
DE
100
AcDbEntity
  8
치수문자_일반주서
100
AcDbMText
 10
72.43049423173848
 20
22.83915284636359
 30
0.0
 40
3.5
 41
0.0
 71
     1
 72
     1
  1
%%c
  7
SLDTEXTSTYLE0
 11
-7.044195017643634E-15
 21
1.0
 31
0.0
 73
     1
 44
1.0
  0
MTEXT
  5
EF
330
DE
100
AcDbEntity
  8
치수문자_일반주서
100
AcDbMText
 10
72.43049423173844
 20
28.11759024473767
 30
0.0
 40
3.5
 41
0.0
 71
     1
 72
     1
  1
19.03
  7
SLDTEXTSTYLE0
 11
-7.044195017643634E-15
 21
1.0
 31
0.0
 73
     1
 44
1.0
  0
ENDBLK
  5
E0
330
DE
100
AcDbEntity
  8
0
100
AcDbBlockEnd
  0
BLOCK
  5
F2
330
F1
100
AcDbEntity
  8
0
100
AcDbBlockBegin
  2
_D_2
 70
     0
 10
0.0
 20
0.0
 30
0.0
  3
_D_2
  1
_D_2
  0
SOLID
  5
F4
330
F1
100
AcDbEntity
  8
치수문자_일반주서
100
AcDbTrace
 10
41.79880711939298
 20
16.34839146707805
 30
0.0
 11
38.49680711939298
 21
16.85639146707804
 31
0.0
 12
38.49680711939298
 22
15.84039146707805
 32
0.0
 13
38.49680711939298
 23
15.84039146707805
 33
0.0
  0
SOLID
  5
F5
330
F1
100
AcDbEntity
  8
치수문자_일반주서
100
AcDbTrace
 10
25.92380711939298
 20
16.34839146707805
 30
0.0
 11
29.22580711939298
 21
15.84039146707805
 31
0.0
 12
29.22580711939298
 22
16.85639146707804
 32
0.0
 13
29.22580711939298
 23
16.85639146707804
 33
0.0
  0
LINE
  5
F6
330
F1
100
AcDbEntity
  8
치수문자_일반주서
100
AcDbLine
 10
51.6320105518268
 20
27.14127318312078
 30
0.0
 11
50.56560429437621
 21
27.14127318312079
 31
0.0
  0
LINE
  5
F7
330
F1
100
AcDbEntity
  8
치수문자_일반주서
100
AcDbLine
 10
50.56560429437621
 20
27.14127318312079
 30
0.0
 11
50.56560429437617
 21
21.58502319206148
 31
0.0
  0
LINE
  5
F8
330
F1
100
AcDbEntity
  8
치수문자_일반주서
100
AcDbLine
 10
50.56560429437617
 20
21.58502319206148
 30
0.0
 11
51.63201055182675
 21
21.58502319206148
 31
0.0
  0
LINE
  5
F9
330
F1
100
AcDbEntity
  8
치수문자_일반주서
100
AcDbLine
 10
60.68339961274131
 20
27.14127318312071
 30
0.0
 11
61.74980587019189
 21
27.14127318312071
 31
0.0
  0
LINE
  5
FA
330
F1
100
AcDbEntity
  8
치수문자_일반주서
100
AcDbLine
 10
61.74980587019189
 20
27.14127318312071
 30
0.0
 11
61.74980587019185
 21
21.5850231920614
 31
0.0
  0
LINE
  5
FB
330
F1
100
AcDbEntity
  8
치수문자_일반주서
100
AcDbLine
 10
61.74980587019185
 20
21.5850231920614
 30
0.0
 11
60.68339961274127
 21
21.58502319206141
 31
0.0
  0
LINE
  5
FC
330
F1
100
AcDbEntity
  8
치수문자_일반주서
100
AcDbLine
 10
41.79880711939298
 20
7.345708005432138
 30
0.0
 11
41.79880711939298
 21
17.34839146707805
 31
0.0
  0
LINE
  5
FD
330
F1
100
AcDbEntity
  8
치수문자_일반주서
100
AcDbLine
 10
25.92380711939298
 20
6.039853687543346
 30
0.0
 11
25.92380711939298
 21
17.34839146707805
 31
0.0
  0
LINE
  5
FE
330
F1
100
AcDbEntity
  8
치수문자_일반주서
100
AcDbLine
 10
41.79880711939298
 20
16.34839146707805
 30
0.0
 11
64.10926702591193
 21
16.34839146707805
 31
0.0
  0
LINE
  5
FF
330
F1
100
AcDbEntity
  8
치수문자_일반주서
100
AcDbLine
 10
41.79880711939298
 20
16.34839146707805
 30
0.0
 11
25.92380711939298
 21
16.34839146707805
 31
0.0
  0
MTEXT
  5
100
330
F1
100
AcDbEntity
  8
치수문자_일반주서
100
AcDbMText
 10
49.51864244016418
 20
20.91360073293977
 30
0.0
 40
3.5
 41
0.0
 71
     1
 72
     1
  1

  7
SLDTEXTSTYLE0
 73
     1
 44
1.0
  0
MTEXT
  5
101
330
F1
100
AcDbEntity
  8
치수문자_일반주서
100
AcDbMText
 10
51.63201055182679
 20
26.09676010664037
 30
0.0
 40
3.5
 41
0.0
 71
     1
 72
     1
  1
0.63
  7
SLDTEXTSTYLE0
 73
     1
 44
1.0
  0
MTEXT
  5
102
330
F1
100
AcDbEntity
  8
치수문자_일반주서
100
AcDbMText
 10
50.33895483865002
 20
20.86012855627991
 30
0.0
 40
3.5
 41
0.0
 71
     1
 72
     1
  1
15.88
  7
SLDTEXTSTYLE0
 73
     1
 44
1.0
  0
MTEXT
  5
103
330
F1
100
AcDbEntity
  8
치수문자_일반주서
100
AcDbMText
 10
64.12871224405774
 20
20.91360073293966
 30
0.0
 40
3.5
 41
0.0
 71
     1
 72
     1
  1

  7
SLDTEXTSTYLE0
 73
     1
 44
1.0
  0
ENDBLK
  5
F3
330
F1
100
AcDbEntity
  8
0
100
AcDbBlockEnd
  0
BLOCK
  5
106
330
105
100
AcDbEntity
  8
0
100
AcDbBlockBegin
  2
_D_3
 70
     0
 10
0.0
 20
0.0
 30
0.0
  3
_D_3
  1
_D_3
  0
SOLID
  5
108
330
105
100
AcDbEntity
  8
치수문자_일반주서
100
AcDbTrace
 10
41.79880711939298
 20
34.53847169450146
 30
0.0
 11
38.49680711939298
 21
35.04647169450146
 31
0.0
 12
38.49680711939298
 22
34.03047169450146
 32
0.0
 13
38.49680711939298
 23
34.03047169450146
 33
0.0
  0
SOLID
  5
109
330
105
100
AcDbEntity
  8
치수문자_일반주서
100
AcDbTrace
 10
-15.35119288060704
 20
34.53847169450145
 30
0.0
 11
-12.04919288060704
 21
34.03047169450145
 31
0.0
 12
-12.04919288060704
 22
35.04647169450146
 32
0.0
 13
-12.04919288060704
 23
35.04647169450146
 33
0.0
  0
LINE
  5
10A
330
105
100
AcDbEntity
  8
치수문자_일반주서
100
AcDbLine
 10
45.88845150636875
 20
45.33135341054424
 30
0.0
 11
44.82204524891817
 21
45.33135341054423
 31
0.0
  0
LINE
  5
10B
330
105
100
AcDbEntity
  8
치수문자_일반주서
100
AcDbLine
 10
44.82204524891817
 20
45.33135341054423
 30
0.0
 11
44.82204524891822
 21
39.77510341948493
 31
0.0
  0
LINE
  5
10C
330
105
100
AcDbEntity
  8
치수문자_일반주서
100
AcDbLine
 10
44.82204524891822
 20
39.77510341948493
 30
0.0
 11
45.8884515063688
 21
39.77510341948494
 31
0.0
  0
LINE
  5
10D
330
105
100
AcDbEntity
  8
치수문자_일반주서
100
AcDbLine
 10
54.93984056728327
 20
45.3313534105443
 30
0.0
 11
56.00624682473385
 21
45.3313534105443
 31
0.0
  0
LINE
  5
10E
330
105
100
AcDbEntity
  8
치수문자_일반주서
100
AcDbLine
 10
56.00624682473385
 20
45.3313534105443
 30
0.0
 11
56.00624682473389
 21
39.775103419485
 31
0.0
  0
LINE
  5
10F
330
105
100
AcDbEntity
  8
치수문자_일반주서
100
AcDbLine
 10
56.00624682473389
 20
39.775103419485
 30
0.0
 11
54.93984056728331
 21
39.77510341948499
 31
0.0
  0
LINE
  5
110
330
105
100
AcDbEntity
  8
치수문자_일반주서
100
AcDbLine
 10
41.79880711939298
 20
10.51802454378626
 30
0.0
 11
41.79880711939298
 21
35.53847169450146
 31
0.0
  0
LINE
  5
111
330
105
100
AcDbEntity
  8
치수문자_일반주서
100
AcDbLine
 10
-15.35119288060703
 20
10.00107492872389
 30
0.0
 11
-15.35119288060704
 21
35.53847169450145
 31
0.0
  0
LINE
  5
112
330
105
100
AcDbEntity
  8
치수문자_일반주서
100
AcDbLine
 10
41.79880711939298
 20
34.53847169450146
 30
0.0
 11
58.36570798045391
 21
34.53847169450146
 31
0.0
  0
LINE
  5
113
330
105
100
AcDbEntity
  8
치수문자_일반주서
100
AcDbLine
 10
41.79880711939298
 20
34.53847169450146
 30
0.0
 11
-15.35119288060704
 21
34.53847169450145
 31
0.0
  0
MTEXT
  5
114
330
105
100
AcDbEntity
  8
치수문자_일반주서
100
AcDbMText
 10
43.77508339470624
 20
39.10368096036319
 30
0.0
 40
3.5
 41
0.0
 71
     1
 72
     1
  1

  7
SLDTEXTSTYLE0
 73
     1
 44
1.0
  0
MTEXT
  5
115
330
105
100
AcDbEntity
  8
치수문자_일반주서
100
AcDbMText
 10
45.88845150636876
 20
44.28684033406383
 30
0.0
 40
3.5
 41
0.0
 71
     1
 72
     1
  1
2.25
  7
SLDTEXTSTYLE0
 73
     1
 44
1.0
  0
MTEXT
  5
116
330
105
100
AcDbEntity
  8
치수문자_일반주서
100
AcDbMText
 10
44.59539579319208
 20
39.05020878370335
 30
0.0
 40
3.5
 41
0.0
 71
     1
 72
     1
  1
57.15
  7
SLDTEXTSTYLE0
 73
     1
 44
1.0
  0
MTEXT
  5
117
330
105
100
AcDbEntity
  8
치수문자_일반주서
100
AcDbMText
 10
58.3851531985998
 20
39.1036809603633
 30
0.0
 40
3.5
 41
0.0
 71
     1
 72
     1
  1

  7
SLDTEXTSTYLE0
 73
     1
 44
1.0
  0
ENDBLK
  5
107
330
105
100
AcDbEntity
  8
0
100
AcDbBlockEnd
  0
BLOCK
  5
11A
330
119
100
AcDbEntity
  8
0
100
AcDbBlockBegin
  2
_D_4
 70
     0
 10
0.0
 20
0.0
 30
0.0
  3
_D_4
  1
_D_4
  0
SOLID
  5
11C
330
119
100
AcDbEntity
  8
치수문자_일반주서
100
AcDbTrace
 10
41.79880711939298
 20
64.36444455702717
 30
0.0
 11
38.49680711939298
 21
64.87244455702717
 31
0.0
 12
38.49680711939298
 22
63.85644455702717
 32
0.0
 13
38.49680711939298
 23
63.85644455702717
 33
0.0
  0
SOLID
  5
11D
330
119
100
AcDbEntity
  8
치수문자_일반주서
100
AcDbTrace
 10
-85.20119288060702
 20
64.36444455702714
 30
0.0
 11
-81.89919288060702
 21
63.85644455702714
 31
0.0
 12
-81.89919288060702
 22
64.87244455702714
 32
0.0
 13
-81.89919288060702
 23
64.87244455702714
 33
0.0
  0
LINE
  5
11E
330
119
100
AcDbEntity
  8
치수문자_일반주서
100
AcDbLine
 10
-28.51198913978217
 20
75.15732627306987
 30
0.0
 11
-29.57839539723275
 21
75.15732627306988
 31
0.0
  0
LINE
  5
11F
330
119
100
AcDbEntity
  8
치수문자_일반주서
100
AcDbLine
 10
-29.57839539723275
 20
75.15732627306988
 30
0.0
 11
-29.57839539723279
 21
69.60107628201058
 31
0.0
  0
LINE
  5
120
330
119
100
AcDbEntity
  8
치수문자_일반주서
100
AcDbLine
 10
-29.57839539723279
 20
69.60107628201058
 30
0.0
 11
-28.51198913978221
 21
69.60107628201057
 31
0.0
  0
LINE
  5
121
330
119
100
AcDbEntity
  8
치수문자_일반주서
100
AcDbLine
 10
-19.46060007886765
 20
75.1573262730698
 30
0.0
 11
-18.39419382141707
 21
75.15732627306978
 31
0.0
  0
LINE
  5
122
330
119
100
AcDbEntity
  8
치수문자_일반주서
100
AcDbLine
 10
-18.39419382141707
 20
75.15732627306978
 30
0.0
 11
-18.39419382141711
 21
69.60107628201048
 31
0.0
  0
LINE
  5
123
330
119
100
AcDbEntity
  8
치수문자_일반주서
100
AcDbLine
 10
-18.39419382141711
 20
69.60107628201048
 30
0.0
 11
-19.46060007886769
 21
69.6010762820105
 31
0.0
  0
LINE
  5
124
330
119
100
AcDbEntity
  8
치수문자_일반주서
100
AcDbLine
 10
41.79880711939298
 20
10.51802454378625
 30
0.0
 11
41.79880711939298
 21
65.36444455702717
 31
0.0
  0
LINE
  5
125
330
119
100
AcDbEntity
  8
치수문자_일반주서
100
AcDbLine
 10
-85.20119288060702
 20
9.526074928723885
 30
0.0
 11
-85.20119288060702
 21
65.36444455702714
 31
0.0
  0
LINE
  5
126
330
119
100
AcDbEntity
  8
치수문자_일반주서
100
AcDbLine
 10
41.79880711939298
 20
64.36444455702717
 30
0.0
 11
-85.20119288060702
 21
64.36444455702714
 31
0.0
  0
MTEXT
  5
127
330
119
100
AcDbEntity
  8
치수문자_일반주서
100
AcDbMText
 10
-30.62535725144478
 20
68.92965382288887
 30
0.0
 40
3.5
 41
0.0
 71
     1
 72
     1
  1

  7
SLDTEXTSTYLE0
 73
     1
 44
1.0
  0
MTEXT
  5
128
330
119
100
AcDbEntity
  8
치수문자_일반주서
100
AcDbMText
 10
-28.51198913978217
 20
74.11281319658947
 30
0.0
 40
3.5
 41
0.0
 71
     1
 72
     1
  1
5.00
  7
SLDTEXTSTYLE0
 73
     1
 44
1.0
  0
MTEXT
  5
129
330
119
100
AcDbEntity
  8
치수문자_일반주서
100
AcDbMText
 10
-27.86546128319385
 20
68.876181646229
 30
0.0
 40
3.5
 41
0.0
 71
     1
 72
     1
  1
127
  7
SLDTEXTSTYLE0
 73
     1
 44
1.0
  0
MTEXT
  5
12A
330
119
100
AcDbEntity
  8
치수문자_일반주서
100
AcDbMText
 10
-16.01528744755121
 20
68.92965382288877
 30
0.0
 40
3.5
 41
0.0
 71
     1
 72
     1
  1

  7
SLDTEXTSTYLE0
 73
     1
 44
1.0
  0
ENDBLK
  5
11B
330
119
100
AcDbEntity
  8
0
100
AcDbBlockEnd
  0
BLOCK
  5
12C
330
12B
100
AcDbEntity
  8
0
100
AcDbBlockBegin
  2
SW_DOWELSYMBOL_0
 70
     0
 10
0.0
 20
0.0
 30
0.0
  3
SW_DOWELSYMBOL_0
  1
SW_DOWELSYMBOL_0
  0
CIRCLE
  5
12E
330
12B
100
AcDbEntity
  8
외형선
 62
     0
100
AcDbCircle
 10
0.0
 20
0.0
 30
0.0
 40
3.000000000000004
  0
HATCH
  5
12F
330
12B
100
AcDbEntity
  8
0
  6
Continuous
 62
     0
370
    35
100
AcDbHatch
 10
0.0
 20
0.0
 30
0.0
210
0.0
220
0.0
230
1.0
  2
SOLID
 70
     1
 71
     0
 91
        1
 92
        0
 93
        3
 72
     2
 10
0.0000000000000104
 20
0.0
 40
3.000000000000004
 50
0.0
 51
90.0
 73
     1
 72
     1
 10
0.0000000000000104
 20
3.000000000000004
 11
0.0000000000000104
 21
0.0
 72
     1
 10
0.0000000000000104
 20
0.0
 11
3.000000000000015
 21
0.0
 97
        0
 75
     0
 76
     1
 98
        1
 10
0.0
 20
0.0
  0
HATCH
  5
130
330
12B
100
AcDbEntity
  8
0
  6
Continuous
 62
     0
370
    35
100
AcDbHatch
 10
0.0
 20
0.0
 30
0.0
210
0.0
220
0.0
230
1.0
  2
SOLID
 70
     1
 71
     0
 91
        1
 92
        0
 93
        3
 72
     2
 10
0.0000000000000104
 20
0.0
 40
3.000000000000004
 50
180.0
 51
270.0000000000008
 73
     1
 72
     1
 10
0.0000000000000104
 20
-3.000000000000004
 11
0.0000000000000104
 21
0.0
 72
     1
 10
0.0000000000000104
 20
0.0
 11
-2.999999999999994
 21
0.0
 97
        0
 75
     0
 76
     1
 98
        1
 10
0.0
 20
0.0
  0
ENDBLK
  5
12D
330
12B
100
AcDbEntity
  8
0
100
AcDbBlockEnd
  0
BLOCK
  5
18F
330
18E
100
AcDbEntity
  8
0
100
AcDbBlockBegin
  2
*D9
 70
     1
 10
0.0
 20
0.0
 30
0.0
  3
*D9
  1
*D9
  0
LINE
  5
190
330
18E
100
AcDbEntity
  8
치수문자_일반주서
 62
     0
370
    -2
100
AcDbLine
 10
16.8089580216121
 20
22.43125000000002
 30
0.0
 11
4.37500000000001
 21
22.43124999999997
 31
0.0
  0
LINE
  5
191
330
18E
100
AcDbEntity
  8
치수문자_일반주서
 62
     0
370
    -2
100
AcDbLine
 10
16.8089580216121
 20
3.381250000000022
 30
0.0
 11
4.375000000000076
 21
3.381249999999977
 31
0.0
  0
LINE
  5
192
330
18E
100
AcDbEntity
  8
치수문자_일반주서
 62
     0
370
    -2
100
AcDbLine
 10
4.375000000000021
 20
19.12924999999997
 30
0.0
 11
4.375000000000065
 21
6.683249999999976
 31
0.0
  0
SOLID
  5
193
330
18E
100
AcDbEntity
  8
치수문자_일반주서
 62
     0
100
AcDbTrace
 10
4.925333333333355
 20
19.12924999999997
 30
0.0
 11
3.824666666666688
 21
19.12924999999997
 31
0.0
 12
4.37500000000001
 22
22.43124999999997
 32
0.0
 13
4.37500000000001
 23
22.43124999999997
 33
0.0
  0
SOLID
  5
194
330
18E
100
AcDbEntity
  8
치수문자_일반주서
 62
     0
100
AcDbTrace
 10
3.824666666666732
 20
6.683249999999974
 30
0.0
 11
4.925333333333398
 21
6.683249999999978
 31
0.0
 12
4.375000000000076
 22
3.381249999999977
 32
0.0
 13
4.375000000000076
 23
3.381249999999977
 33
0.0
  0
MTEXT
  5
195
330
18E
100
AcDbEntity
  8
치수문자_일반주서
 62
     0
100
AcDbMText
 10
0.0000000000000426
 20
12.90625000000001
 30
0.0
 40
3.5
 41
0.0
 71
     2
 72
     1
  1
\A1;%%c19.05 [3/4]
  7
SLDTEXTSTYLE0
 11
-3.496765431890258E-15
 21
1.0
 31
0.0
 73
     1
 44
1.0
  0
POINT
  5
196
330
18E
100
AcDbEntity
  8
Defpoints
 62
     0
100
AcDbPoint
 10
16.8714580216121
 20
22.43125000000002
 30
0.0
  0
POINT
  5
197
330
18E
100
AcDbEntity
  8
Defpoints
 62
     0
100
AcDbPoint
 10
16.8714580216121
 20
3.381250000000023
 30
0.0
  0
POINT
  5
198
330
18E
100
AcDbEntity
  8
Defpoints
 62
     0
100
AcDbPoint
 10
4.375000000000085
 20
3.381249999999976
 30
0.0
  0
ENDBLK
  5
199
330
18E
100
AcDbEntity
  8
0
100
AcDbBlockEnd
  0
BLOCK
  5
19C
330
19B
100
AcDbEntity
  8
0
100
AcDbBlockBegin
  2
*D10
 70
     1
 10
0.0
 20
0.0
 30
0.0
  3
*D10
  1
*D10
  0
LINE
  5
19D
330
19B
100
AcDbEntity
  8
치수문자_일반주서
 62
     0
370
    -2
100
AcDbLine
 10
168.3339580216121
 20
22.4231996150624
 30
0.0
 11
192.4352044467647
 21
22.42319961506249
 31
0.0
  0
LINE
  5
19E
330
19B
100
AcDbEntity
  8
치수문자_일반주서
 62
     0
370
    -2
100
AcDbLine
 10
168.3339580216121
 20
3.38930038493767
 30
0.0
 11
192.4352044467648
 21
3.389300384937755
 31
0.0
  0
LINE
  5
19F
330
19B
100
AcDbEntity
  8
치수문자_일반주서
 62
     0
370
    -2
100
AcDbLine
 10
192.4352044467647
 20
22.42319961506249
 30
0.0
 11
192.4352044467646
 21
57.5781011583471
 31
0.0
  0
LINE
  5
1A0
330
19B
100
AcDbEntity
  8
치수문자_일반주서
 62
     0
370
    -2
100
AcDbLine
 10
192.4352044467647
 20
19.12119961506249
 30
0.0
 11
192.4352044467648
 21
6.691300384937755
 31
0.0
  0
SOLID
  5
1A1
330
19B
100
AcDbEntity
  8
치수문자_일반주서
 62
     0
100
AcDbTrace
 10
192.985537780098
 20
19.12119961506249
 30
0.0
 11
191.8848711134314
 21
19.12119961506249
 31
0.0
 12
192.4352044467647
 22
22.42319961506249
 32
0.0
 13
192.4352044467647
 23
22.42319961506249
 33
0.0
  0
SOLID
  5
1A2
330
19B
100
AcDbEntity
  8
치수문자_일반주서
 62
     0
100
AcDbTrace
 10
191.8848711134314
 20
6.691300384937753
 30
0.0
 11
192.9855377800981
 21
6.691300384937756
 31
0.0
 12
192.4352044467648
 22
3.389300384937755
 32
0.0
 13
192.4352044467648
 23
3.389300384937755
 33
0.0
  0
MTEXT
  5
1A3
330
19B
100
AcDbEntity
  8
치수문자_일반주서
 62
     0
100
AcDbMText
 10
188.0602044467647
 20
43.79685115834708
 30
0.0
 40
3.5
 41
0.0
 71
     2
 72
     1
  1
\A1;%%c19.03 [3/4]
  7
SLDTEXTSTYLE0
 11
-2.986430587529990E-15
 21
1.0
 31
0.0
 73
     1
 44
1.0
  0
POINT
  5
1A4
330
19B
100
AcDbEntity
  8
Defpoints
 62
     0
100
AcDbPoint
 10
168.2714580216121
 20
22.4231996150624
 30
0.0
  0
POINT
  5
1A5
330
19B
100
AcDbEntity
  8
Defpoints
 62
     0
100
AcDbPoint
 10
168.2714580216121
 20
3.38930038493767
 30
0.0
  0
POINT
  5
1A6
330
19B
100
AcDbEntity
  8
Defpoints
 62
     0
100
AcDbPoint
 10
192.4352044467648
 20
3.38930038493776
 30
0.0
  0
ENDBLK
  5
1A7
330
19B
100
AcDbEntity
  8
0
100
AcDbBlockEnd
  0
BLOCK
  5
1AA
330
1A9
100
AcDbEntity
  8
0
100
AcDbBlockBegin
  2
*D11
 70
     1
 10
0.0
 20
0.0
 30
0.0
  3
*D11
  1
*D11
  0
LINE
  5
1AB
330
1A9
100
AcDbEntity
  8
치수문자_일반주서
 62
     0
370
    -2
100
AcDbLine
 10
168.2714580216121
 20
22.48569961506125
 30
0.0
 11
168.2714580216121
 21
37.27750945565636
 31
0.0
  0
LINE
  5
1AC
330
1A9
100
AcDbEntity
  8
치수문자_일반주서
 62
     0
370
    -2
100
AcDbLine
 10
142.8714580216121
 20
22.49375000000003
 30
0.0
 11
142.8714580216121
 21
37.27750945565636
 31
0.0
  0
LINE
  5
1AD
330
1A9
100
AcDbEntity
  8
치수문자_일반주서
 62
     0
370
    -2
100
AcDbLine
 10
164.9694580216121
 20
37.27750945565636
 30
0.0
 11
146.1734580216121
 21
37.27750945565636
 31
0.0
  0
SOLID
  5
1AE
330
1A9
100
AcDbEntity
  8
치수문자_일반주서
 62
     0
100
AcDbTrace
 10
164.9694580216121
 20
36.72717612232303
 30
0.0
 11
164.9694580216121
 21
37.8278427889897
 31
0.0
 12
168.2714580216121
 22
37.27750945565636
 32
0.0
 13
168.2714580216121
 23
37.27750945565636
 33
0.0
  0
SOLID
  5
1AF
330
1A9
100
AcDbEntity
  8
치수문자_일반주서
 62
     0
100
AcDbTrace
 10
146.1734580216121
 20
37.8278427889897
 30
0.0
 11
146.1734580216121
 21
36.72717612232303
 31
0.0
 12
142.8714580216121
 22
37.27750945565636
 32
0.0
 13
142.8714580216121
 23
37.27750945565636
 33
0.0
  0
MTEXT
  5
1B0
330
1A9
100
AcDbEntity
  8
치수문자_일반주서
 62
     0
100
AcDbMText
 10
154.7948287162935
 20
41.65250945565636
 30
0.0
 40
3.5
 41
0.0
 71
     2
 72
     1
  1
\A1;25.4 [1]
  7
SLDTEXTSTYLE0
 73
     1
 44
1.0
  0
POINT
  5
1B1
330
1A9
100
AcDbEntity
  8
Defpoints
 62
     0
100
AcDbPoint
 10
168.2714580216121
 20
22.42319961506125
 30
0.0
  0
POINT
  5
1B2
330
1A9
100
AcDbEntity
  8
Defpoints
 62
     0
100
AcDbPoint
 10
142.8714580216121
 20
22.43125000000003
 30
0.0
  0
POINT
  5
1B3
330
1A9
100
AcDbEntity
  8
Defpoints
 62
     0
100
AcDbPoint
 10
142.8714580216121
 20
37.27750945565636
 30
0.0
  0
ENDBLK
  5
1B4
330
1A9
100
AcDbEntity
  8
0
100
AcDbBlockEnd
  0
BLOCK
  5
1B7
330
1B6
100
AcDbEntity
  8
0
100
AcDbBlockBegin
  2
*D12
 70
     1
 10
0.0
 20
0.0
 30
0.0
  3
*D12
  1
*D12
  0
LINE
  5
1B8
330
1B6
100
AcDbEntity
  8
치수문자_일반주서
 62
     0
370
    -2
100
AcDbLine
 10
168.2714580216121
 20
22.4856996150624
 30
0.0
 11
168.2714580216121
 21
47.4436467657776
 31
0.0
  0
LINE
  5
1B9
330
1B6
100
AcDbEntity
  8
치수문자_일반주서
 62
     0
370
    -2
100
AcDbLine
 10
85.72145802161211
 20
21.96875000000003
 30
0.0
 11
85.72145802161211
 21
47.4436467657776
 31
0.0
  0
LINE
  5
1BA
330
1B6
100
AcDbEntity
  8
치수문자_일반주서
 62
     0
370
    -2
100
AcDbLine
 10
164.9694580216121
 20
47.4436467657776
 30
0.0
 11
89.0234580216121
 21
47.4436467657776
 31
0.0
  0
SOLID
  5
1BB
330
1B6
100
AcDbEntity
  8
치수문자_일반주서
 62
     0
100
AcDbTrace
 10
164.9694580216121
 20
46.89331343244427
 30
0.0
 11
164.9694580216121
 21
47.99398009911094
 31
0.0
 12
168.2714580216121
 22
47.4436467657776
 32
0.0
 13
168.2714580216121
 23
47.4436467657776
 33
0.0
  0
SOLID
  5
1BC
330
1B6
100
AcDbEntity
  8
치수문자_일반주서
 62
     0
100
AcDbTrace
 10
89.0234580216121
 20
47.99398009911094
 30
0.0
 11
89.0234580216121
 21
46.89331343244427
 31
0.0
 12
85.72145802161211
 22
47.4436467657776
 32
0.0
 13
85.72145802161211
 23
47.4436467657776
 33
0.0
  0
MTEXT
  5
1BD
330
1B6
100
AcDbEntity
  8
치수문자_일반주서
 62
     0
100
AcDbMText
 10
114.2964580216121
 20
51.8186467657776
 30
0.0
 40
3.5
 41
0.0
 71
     2
 72
     1
  1
\A1;82.55 [3 1/4]
  7
SLDTEXTSTYLE0
 73
     1
 44
1.0
  0
POINT
  5
1BE
330
1B6
100
AcDbEntity
  8
Defpoints
 62
     0
100
AcDbPoint
 10
168.2714580216121
 20
22.4231996150624
 30
0.0
  0
POINT
  5
1BF
330
1B6
100
AcDbEntity
  8
Defpoints
 62
     0
100
AcDbPoint
 10
85.72145802161211
 20
21.90625000000003
 30
0.0
  0
POINT
  5
1C0
330
1B6
100
AcDbEntity
  8
Defpoints
 62
     0
100
AcDbPoint
 10
85.72145802161211
 20
47.4436467657776
 30
0.0
  0
ENDBLK
  5
1C1
330
1B6
100
AcDbEntity
  8
0
100
AcDbBlockEnd
  0
BLOCK
  5
1C4
330
1C3
100
AcDbEntity
  8
0
100
AcDbBlockBegin
  2
*D13
 70
     1
 10
0.0
 20
0.0
 30
0.0
  3
*D13
  1
*D13
  0
LINE
  5
1C5
330
1C3
100
AcDbEntity
  8
치수문자_일반주서
 62
     0
370
    -2
100
AcDbLine
 10
168.2714580216121
 20
22.4856996150624
 30
0.0
 11
168.2714580216121
 21
77.26961962830329
 31
0.0
  0
LINE
  5
1C6
330
1C3
100
AcDbEntity
  8
치수문자_일반주서
 62
     0
370
    -2
100
AcDbLine
 10
15.8714580216121
 20
21.49375000000002
 30
0.0
 11
15.8714580216121
 21
77.26961962830329
 31
0.0
  0
LINE
  5
1C7
330
1C3
100
AcDbEntity
  8
치수문자_일반주서
 62
     0
370
    -2
100
AcDbLine
 10
164.9694580216121
 20
77.26961962830329
 30
0.0
 11
19.1734580216121
 21
77.26961962830329
 31
0.0
  0
SOLID
  5
1C8
330
1C3
100
AcDbEntity
  8
치수문자_일반주서
 62
     0
100
AcDbTrace
 10
164.9694580216121
 20
76.71928629496996
 30
0.0
 11
164.9694580216121
 21
77.81995296163662
 31
0.0
 12
168.2714580216121
 22
77.26961962830329
 32
0.0
 13
168.2714580216121
 23
77.26961962830329
 33
0.0
  0
SOLID
  5
1C9
330
1C3
100
AcDbEntity
  8
치수문자_일반주서
 62
     0
100
AcDbTrace
 10
19.1734580216121
 20
77.81995296163662
 30
0.0
 11
19.1734580216121
 21
76.71928629496996
 31
0.0
 12
15.8714580216121
 22
77.26961962830329
 32
0.0
 13
15.8714580216121
 23
77.26961962830329
 33
0.0
  0
MTEXT
  5
1CA
330
1C3
100
AcDbEntity
  8
치수문자_일반주서
 62
     0
100
AcDbMText
 10
92.0714580216121
 20
81.64461962830329
 30
0.0
 40
3.5
 41
0.0
 71
     2
 72
     1
  1
\A1;152.40 [6]
  7
SLDTEXTSTYLE0
 73
     1
 44
1.0
  0
POINT
  5
1CB
330
1C3
100
AcDbEntity
  8
Defpoints
 62
     0
100
AcDbPoint
 10
168.2714580216121
 20
22.4231996150624
 30
0.0
  0
POINT
  5
1CC
330
1C3
100
AcDbEntity
  8
Defpoints
 62
     0
100
AcDbPoint
 10
15.8714580216121
 20
21.43125000000002
 30
0.0
  0
POINT
  5
1CD
330
1C3
100
AcDbEntity
  8
Defpoints
 62
     0
100
AcDbPoint
 10
15.8714580216121
 20
77.26961962830329
 30
0.0
  0
ENDBLK
  5
1CE
330
1C3
100
AcDbEntity
  8
0
100
AcDbBlockEnd
  0
BLOCK
  5
22C
330
22B
100
AcDbEntity
  8
0
100
AcDbBlockBegin
  2
*D14
 70
     1
 10
0.0
 20
0.0
 30
0.0
  3
*D14
  1
*D14
  0
LINE
  5
22E
330
22B
100
AcDbEntity
  8
치수문자_일반주서
 62
     0
370
    -2
100
AcDbLine
 10
-66.38750000000002
 20
9.52499999999999
 30
0.0
 11
-78.8214580216121
 21
9.524999999999944
 31
0.0
  0
LINE
  5
22F
330
22B
100
AcDbEntity
  8
치수문자_일반주서
 62
     0
370
    -2
100
AcDbLine
 10
-66.38750000000002
 20
-9.525000000000004
 30
0.0
 11
-78.82145802161203
 21
-9.52500000000005
 31
0.0
  0
LINE
  5
230
330
22B
100
AcDbEntity
  8
치수문자_일반주서
 62
     0
370
    -2
100
AcDbLine
 10
-78.82145802161209
 20
6.222999999999944
 30
0.0
 11
-78.82145802161205
 21
-6.22300000000005
 31
0.0
  0
SOLID
  5
231
330
22B
100
AcDbEntity
  8
치수문자_일반주서
 62
     0
100
AcDbTrace
 10
-78.27112468827876
 20
6.222999999999946
 30
0.0
 11
-79.37179135494542
 21
6.222999999999942
 31
0.0
 12
-78.8214580216121
 22
9.524999999999944
 32
0.0
 13
-78.8214580216121
 23
9.524999999999944
 33
0.0
  0
SOLID
  5
232
330
22B
100
AcDbEntity
  8
치수문자_일반주서
 62
     0
100
AcDbTrace
 10
-79.37179135494537
 20
-6.223000000000052
 30
0.0
 11
-78.27112468827872
 21
-6.223000000000049
 31
0.0
 12
-78.82145802161203
 22
-9.52500000000005
 32
0.0
 13
-78.82145802161203
 23
-9.52500000000005
 33
0.0
  0
MTEXT
  5
233
330
22B
100
AcDbEntity
  8
치수문자_일반주서
 62
     0
100
AcDbMText
 10
-83.19645802161207
 20
-0.0000000000000234
 30
0.0
 40
3.5
 41
0.0
 71
     2
 72
     1
  1
\A1;%%c19.05 [3/4]
  7
SLDTEXTSTYLE0
 11
-3.729883127349609E-15
 21
1.0
 31
0.0
 73
     1
 44
1.0
  0
POINT
  5
234
330
22B
100
AcDbEntity
  8
Defpoints
 62
     0
100
AcDbPoint
 10
-66.32500000000002
 20
9.52499999999999
 30
0.0
  0
POINT
  5
235
330
22B
100
AcDbEntity
  8
Defpoints
 62
     0
100
AcDbPoint
 10
-66.32500000000002
 20
-9.525000000000004
 30
0.0
  0
POINT
  5
236
330
22B
100
AcDbEntity
  8
Defpoints
 62
     0
100
AcDbPoint
 10
-78.82145802161205
 20
-9.52500000000005
 30
0.0
  0
ENDBLK
  5
22D
330
22B
100
AcDbEntity
  8
0
100
AcDbBlockEnd
  0
BLOCK
  5
238
330
237
100
AcDbEntity
  8
0
100
AcDbBlockBegin
  2
*D15
 70
     1
 10
0.0
 20
0.0
 30
0.0
  3
*D15
  1
*D15
  0
LINE
  5
23A
330
237
100
AcDbEntity
  8
치수문자_일반주서
 62
     0
370
    -2
100
AcDbLine
 10
59.73749999999998
 20
9.516949615062371
 30
0.0
 11
83.83874642515264
 21
9.516949615062462
 31
0.0
  0
LINE
  5
23B
330
237
100
AcDbEntity
  8
치수문자_일반주서
 62
     0
370
    -2
100
AcDbLine
 10
59.73749999999998
 20
-9.516949615062357
 30
0.0
 11
83.8387464251527
 21
-9.516949615062266
 31
0.0
  0
LINE
  5
23C
330
237
100
AcDbEntity
  8
치수문자_일반주서
 62
     0
370
    -2
100
AcDbLine
 10
83.83874642515264
 20
9.516949615062462
 30
0.0
 11
83.8387464251525
 21
44.67185115834707
 31
0.0
  0
LINE
  5
23D
330
237
100
AcDbEntity
  8
치수문자_일반주서
 62
     0
370
    -2
100
AcDbLine
 10
83.83874642515265
 20
6.214949615062462
 30
0.0
 11
83.83874642515269
 21
-6.214949615062267
 31
0.0
  0
SOLID
  5
23E
330
237
100
AcDbEntity
  8
치수문자_일반주서
 62
     0
100
AcDbTrace
 10
84.38907975848598
 20
6.214949615062464
 30
0.0
 11
83.28841309181932
 21
6.21494961506246
 31
0.0
 12
83.83874642515264
 22
9.516949615062462
 32
0.0
 13
83.83874642515264
 23
9.516949615062462
 33
0.0
  0
SOLID
  5
23F
330
237
100
AcDbEntity
  8
치수문자_일반주서
 62
     0
100
AcDbTrace
 10
83.28841309181936
 20
-6.214949615062269
 30
0.0
 11
84.38907975848602
 21
-6.214949615062265
 31
0.0
 12
83.8387464251527
 22
-9.516949615062266
 32
0.0
 13
83.8387464251527
 23
-9.516949615062266
 33
0.0
  0
MTEXT
  5
240
330
237
100
AcDbEntity
  8
치수문자_일반주서
 62
     0
100
AcDbMText
 10
79.46374642515255
 20
30.89060115834705
 30
0.0
 40
3.5
 41
0.0
 71
     2
 72
     1
  1
\A1;%%c19.03 [3/4]
  7
SLDTEXTSTYLE0
 11
-3.733038234412487E-15
 21
1.0
 31
0.0
 73
     1
 44
1.0
  0
POINT
  5
241
330
237
100
AcDbEntity
  8
Defpoints
 62
     0
100
AcDbPoint
 10
59.67499999999998
 20
9.516949615062371
 30
0.0
  0
POINT
  5
242
330
237
100
AcDbEntity
  8
Defpoints
 62
     0
100
AcDbPoint
 10
59.67499999999998
 20
-9.516949615062357
 30
0.0
  0
POINT
  5
243
330
237
100
AcDbEntity
  8
Defpoints
 62
     0
100
AcDbPoint
 10
83.83874642515269
 20
-9.516949615062266
 30
0.0
  0
ENDBLK
  5
239
330
237
100
AcDbEntity
  8
0
100
AcDbBlockEnd
  0
BLOCK
  5
245
330
244
100
AcDbEntity
  8
0
100
AcDbBlockBegin
  2
*D16
 70
     1
 10
0.0
 20
0.0
 30
0.0
  3
*D16
  1
*D16
  0
LINE
  5
247
330
244
100
AcDbEntity
  8
치수문자_일반주서
 62
     0
370
    -2
100
AcDbLine
 10
59.67499999999998
 20
9.579449615061224
 30
0.0
 11
59.67499999999998
 21
24.37125945565634
 31
0.0
  0
LINE
  5
248
330
244
100
AcDbEntity
  8
치수문자_일반주서
 62
     0
370
    -2
100
AcDbLine
 10
34.27500000000003
 20
9.587500000000007
 30
0.0
 11
34.27500000000003
 21
24.37125945565634
 31
0.0
  0
LINE
  5
249
330
244
100
AcDbEntity
  8
치수문자_일반주서
 62
     0
370
    -2
100
AcDbLine
 10
56.37299999999998
 20
24.37125945565634
 30
0.0
 11
37.57700000000003
 21
24.37125945565634
 31
0.0
  0
SOLID
  5
24A
330
244
100
AcDbEntity
  8
치수문자_일반주서
 62
     0
100
AcDbTrace
 10
56.37299999999998
 20
23.820926122323
 30
0.0
 11
56.37299999999998
 21
24.92159278898967
 31
0.0
 12
59.67499999999998
 22
24.37125945565634
 32
0.0
 13
59.67499999999998
 23
24.37125945565634
 33
0.0
  0
SOLID
  5
24B
330
244
100
AcDbEntity
  8
치수문자_일반주서
 62
     0
100
AcDbTrace
 10
37.57700000000003
 20
24.92159278898967
 30
0.0
 11
37.57700000000003
 21
23.820926122323
 31
0.0
 12
34.27500000000003
 22
24.37125945565634
 32
0.0
 13
34.27500000000003
 23
24.37125945565634
 33
0.0
  0
MTEXT
  5
24C
330
244
100
AcDbEntity
  8
치수문자_일반주서
 62
     0
100
AcDbMText
 10
46.19837069468141
 20
28.74625945565634
 30
0.0
 40
3.5
 41
0.0
 71
     2
 72
     1
  1
\A1;25.4 [1]
  7
SLDTEXTSTYLE0
 73
     1
 44
1.0
  0
POINT
  5
24D
330
244
100
AcDbEntity
  8
Defpoints
 62
     0
100
AcDbPoint
 10
59.67499999999998
 20
9.516949615061224
 30
0.0
  0
POINT
  5
24E
330
244
100
AcDbEntity
  8
Defpoints
 62
     0
100
AcDbPoint
 10
34.27500000000003
 20
9.525000000000007
 30
0.0
  0
POINT
  5
24F
330
244
100
AcDbEntity
  8
Defpoints
 62
     0
100
AcDbPoint
 10
34.27500000000003
 20
24.37125945565634
 30
0.0
  0
ENDBLK
  5
246
330
244
100
AcDbEntity
  8
0
100
AcDbBlockEnd
  0
BLOCK
  5
251
330
250
100
AcDbEntity
  8
0
100
AcDbBlockBegin
  2
*D17
 70
     1
 10
0.0
 20
0.0
 30
0.0
  3
*D17
  1
*D17
  0
LINE
  5
253
330
250
100
AcDbEntity
  8
치수문자_일반주서
 62
     0
370
    -2
100
AcDbLine
 10
59.67499999999998
 20
9.579449615062371
 30
0.0
 11
59.67499999999998
 21
34.53739676577757
 31
0.0
  0
LINE
  5
254
330
250
100
AcDbEntity
  8
치수문자_일반주서
 62
     0
370
    -2
100
AcDbLine
 10
2.524999999999991
 20
9.0625
 30
0.0
 11
2.524999999999991
 21
34.53739676577757
 31
0.0
  0
LINE
  5
255
330
250
100
AcDbEntity
  8
치수문자_일반주서
 62
     0
370
    -2
100
AcDbLine
 10
59.67499999999998
 20
34.53739676577757
 30
0.0
 11
2.524999999999991
 21
34.53739676577757
 31
0.0
  0
LINE
  5
256
330
250
100
AcDbEntity
  8
치수문자_일반주서
 62
     0
370
    -2
100
AcDbLine
 10
62.97699999999998
 20
34.53739676577757
 30
0.0
 11
66.27899999999997
 21
34.53739676577757
 31
0.0
  0
LINE
  5
257
330
250
100
AcDbEntity
  8
치수문자_일반주서
 62
     0
370
    -2
100
AcDbLine
 10
-0.7770000000000081
 20
34.53739676577757
 30
0.0
 11
-4.079000000000008
 21
34.53739676577757
 31
0.0
  0
SOLID
  5
258
330
250
100
AcDbEntity
  8
치수문자_일반주서
 62
     0
100
AcDbTrace
 10
62.97699999999998
 20
35.08773009911091
 30
0.0
 11
62.97699999999998
 21
33.98706343244424
 31
0.0
 12
59.67499999999998
 22
34.53739676577757
 32
0.0
 13
59.67499999999998
 23
34.53739676577757
 33
0.0
  0
SOLID
  5
259
330
250
100
AcDbEntity
  8
치수문자_일반주서
 62
     0
100
AcDbTrace
 10
-0.7770000000000081
 20
33.98706343244424
 30
0.0
 11
-0.7770000000000081
 21
35.08773009911091
 31
0.0
 12
2.524999999999991
 22
34.53739676577757
 32
0.0
 13
2.524999999999991
 23
34.53739676577757
 33
0.0
  0
MTEXT
  5
25A
330
250
100
AcDbEntity
  8
치수문자_일반주서
 62
     0
100
AcDbMText
 10
34.27500000000001
 20
38.91239676577757
 30
0.0
 40
3.5
 41
0.0
 71
     2
 72
     1
  1
\A1;57.15 [2 1/4]
  7
SLDTEXTSTYLE0
 73
     1
 44
1.0
  0
POINT
  5
25B
330
250
100
AcDbEntity
  8
Defpoints
 62
     0
100
AcDbPoint
 10
59.67499999999998
 20
9.516949615062371
 30
0.0
  0
POINT
  5
26A
330
250
100
AcDbEntity
  8
Defpoints
 62
     0
100
AcDbPoint
 10
2.524999999999991
 20
9.0
 30
0.0
  0
POINT
  5
26B
330
250
100
AcDbEntity
  8
Defpoints
 62
     0
100
AcDbPoint
 10
2.524999999999991
 20
34.53739676577757
 30
0.0
  0
ENDBLK
  5
252
330
250
100
AcDbEntity
  8
0
100
AcDbBlockEnd
  0
BLOCK
  5
25D
330
25C
100
AcDbEntity
  8
0
100
AcDbBlockBegin
  2
*D18
 70
     1
 10
0.0
 20
0.0
 30
0.0
  3
*D18
  1
*D18
  0
LINE
  5
25F
330
25C
100
AcDbEntity
  8
치수문자_일반주서
 62
     0
370
    -2
100
AcDbLine
 10
59.67499999999998
 20
9.579449615062371
 30
0.0
 11
59.67499999999998
 21
64.36336962830326
 31
0.0
  0
LINE
  5
260
330
25C
100
AcDbEntity
  8
치수문자_일반주서
 62
     0
370
    -2
100
AcDbLine
 10
-67.32500000000002
 20
8.587499999999995
 30
0.0
 11
-67.32500000000002
 21
64.36336962830326
 31
0.0
  0
LINE
  5
261
330
25C
100
AcDbEntity
  8
치수문자_일반주서
 62
     0
370
    -2
100
AcDbLine
 10
56.37299999999998
 20
64.36336962830326
 30
0.0
 11
-64.02300000000002
 21
64.36336962830326
 31
0.0
  0
SOLID
  5
262
330
25C
100
AcDbEntity
  8
치수문자_일반주서
 62
     0
100
AcDbTrace
 10
56.37299999999998
 20
63.81303629496993
 30
0.0
 11
56.37299999999998
 21
64.91370296163659
 31
0.0
 12
59.67499999999998
 22
64.36336962830326
 32
0.0
 13
59.67499999999998
 23
64.36336962830326
 33
0.0
  0
SOLID
  5
263
330
25C
100
AcDbEntity
  8
치수문자_일반주서
 62
     0
100
AcDbTrace
 10
-64.02300000000002
 20
64.91370296163659
 30
0.0
 11
-64.02300000000002
 21
63.81303629496993
 31
0.0
 12
-67.32500000000002
 22
64.36336962830326
 32
0.0
 13
-67.32500000000002
 23
64.36336962830326
 33
0.0
  0
MTEXT
  5
264
330
25C
100
AcDbEntity
  8
치수문자_일반주서
 62
     0
100
AcDbMText
 10
-3.825000000000003
 20
68.73836962830326
 30
0.0
 40
3.5
 41
0.0
 71
     2
 72
     1
  1
\A1;127.00 [5]
  7
SLDTEXTSTYLE0
 73
     1
 44
1.0
  0
POINT
  5
265
330
25C
100
AcDbEntity
  8
Defpoints
 62
     0
100
AcDbPoint
 10
59.67499999999998
 20
9.516949615062371
 30
0.0
  0
POINT
  5
266
330
25C
100
AcDbEntity
  8
Defpoints
 62
     0
100
AcDbPoint
 10
-67.32500000000002
 20
8.524999999999995
 30
0.0
  0
POINT
  5
267
330
25C
100
AcDbEntity
  8
Defpoints
 62
     0
100
AcDbPoint
 10
-67.32500000000002
 20
64.36336962830326
 30
0.0
  0
ENDBLK
  5
25E
330
25C
100
AcDbEntity
  8
0
100
AcDbBlockEnd
  0
ENDSEC
  0
SECTION
  2
ENTITIES
  0
INSERT
  5
C0
330
1F
100
AcDbEntity
  8
0
  6
Continuous
 62
     7
100
AcDbBlockReference
 66
     1
  2
블럭10
 10
-22.93944368806589
 20
-52.04609937292004
 30
0.0
  0
ATTRIB
  5
C1
330
C0
100
AcDbEntity
  8
FORMAT
 62
     2
100
AcDbText
 10
-32.12073897680717
 20
-49.97073246008785
 30
0.0
 40
4.233333333333333
  1
E5976048 [ 2 FLUTE ]
 41
0.75
  7
SLDTEXTSTYLE0
 11
-32.12073897680717
 21
-52.08739912675452
 31
0.0
100
AcDbAttribute
  2
AUTOATTR0
 70
     0
 74
     1
  0
SEQEND
  5
C2
330
C0
100
AcDbEntity
  8
0
  6
Continuous
 62
     7
  0
HATCH
  5
C3
330
1F
100
AcDbEntity
  8
중심선
100
AcDbHatch
 10
0.0
 20
0.0
 30
0.0
210
0.0
220
0.0
230
1.0
  2
SOLID
 70
     1
 71
     0
 91
        1
 92
        0
 93
        4
 72
     1
 10
-17.22453438368504
 20
-35.7989250712761
 11
-20.67080962752232
 21
-35.7989250712761
 72
     1
 10
-20.67080962752232
 20
-35.7989250712761
 11
-22.79903948672635
 21
-38.3352506518487
 72
     1
 10
-22.79903948672635
 20
-38.3352506518487
 11
-19.35273115777591
 21
-38.33521122254621
 72
     1
 10
-19.35273115777591
 20
-38.33521122254621
 11
-17.22453438368504
 21
-35.7989250712761
 97
        0
 75
     0
 76
     1
 98
        1
 10
0.0
 20
0.0
  0
HATCH
  5
C4
330
1F
100
AcDbEntity
  8
중심선
100
AcDbHatch
 10
0.0
 20
0.0
 30
0.0
210
0.0
220
0.0
230
1.0
  2
SOLID
 70
     1
 71
     0
 91
        1
 92
        0
 93
        4
 72
     1
 10
-12.21177039264909
 20
-35.7989250712761
 11
-15.65804563648637
 21
-35.7989250712761
 72
     1
 10
-15.65804563648637
 20
-35.7989250712761
 11
-20.18918364484376
 21
-41.19892507127612
 72
     1
 10
-20.18918364484376
 20
-41.19892507127612
 11
-16.74290840100648
 21
-41.19892507127612
 72
     1
 10
-16.74290840100648
 20
-41.19892507127612
 11
-12.21177039264909
 21
-35.7989250712761
 97
        0
 75
     0
 76
     1
 98
        1
 10
0.0
 20
0.0
  0
HATCH
  5
C5
330
1F
100
AcDbEntity
  8
중심선
100
AcDbHatch
 10
0.0
 20
0.0
 30
0.0
210
0.0
220
0.0
230
1.0
  2
SOLID
 70
     1
 71
     0
 91
        1
 92
        0
 93
        4
 72
     1
 10
-7.199006401613195
 20
-35.79892507127613
 11
-10.64528164545031
 21
-35.7989250712761
 72
     1
 10
-10.64528164545031
 20
-35.7989250712761
 11
-17.69371854733956
 21
-44.19892507127612
 72
     1
 10
-17.69371854733956
 20
-44.19892507127612
 11
-14.24744330350228
 21
-44.19892507127612
 72
     1
 10
-14.24744330350228
 20
-44.19892507127612
 11
-7.199006401613195
 21
-35.79892507127613
 97
        0
 75
     0
 76
     1
 98
        1
 10
0.0
 20
0.0
  0
HATCH
  5
C6
330
1F
100
AcDbEntity
  8
중심선
100
AcDbHatch
 10
0.0
 20
0.0
 30
0.0
210
0.0
220
0.0
230
1.0
  2
SOLID
 70
     1
 71
     0
 91
        1
 92
        0
 93
        6
 72
     3
 10
-2.399115970600996
 20
-39.99892507132738
 11
3.960054785062284
 21
1.540850780301639E-10
 40
0.3939339440162633
 50
17.09539180608433
 51
320.0019657685079
 73
     0
 72
     1
 10
-0.7161163149004002
 20
-38.58681907591441
 11
1.589185558800638
 21
-36.65249236586649
 72
     3
 10
-2.399115970653842
 20
-39.99892507127625
 11
6.600054785286829
 21
-1.249000902703301E-13
 40
0.6363583540795982
 50
39.99873849337408
 51
368.4976242363725
 73
     1
 72
     1
 10
4.026216521246767
 20
-39.03892507120613
 11
-3.71904866381792
 21
-39.0389250712061
 72
     1
 10
-3.71904866381792
 20
-39.0389250712061
 11
-3.719073708263854
 21
-40.95892507120602
 72
     1
 10
-3.719073708263854
 20
-40.95892507120602
 11
0.7223060612081831
 21
-40.95892507120599
 97
        0
 75
     0
 76
     1
 98
        1
 10
0.0
 20
0.0
  0
LINE
  5
1F9
330
1F
100
AcDbEntity
  8
0
  6
Continuous
 62
     4
370
    25
100
AcDbLine
 10
2.0
 20
-9.525
 30
0.0
 11
2.524999999999991
 21
-9.0
 31
0.0
  0
LINE
  5
1FA
330
1F
100
AcDbEntity
  8
0
  6
Continuous
 62
     4
370
    25
100
AcDbLine
 10
2.524999999999991
 20
8.999999999999998
 30
0.0
 11
2.0
 21
9.525
 31
0.0
  0
LINE
  5
1FB
330
1F
100
AcDbEntity
  8
0
  6
Continuous
 62
     4
370
    25
100
AcDbLine
 10
1.999999999999982
 20
9.525000000000018
 30
0.0
 11
-66.32500000000002
 21
9.52499999999999
 31
0.0
  0
LINE
  5
1FC
330
1F
100
AcDbEntity
  8
0
  6
Continuous
 62
     4
370
    25
100
AcDbLine
 10
-66.32500000000002
 20
-9.525000000000004
 30
0.0
 11
2.0
 21
-9.52499999999999
 31
0.0
  0
LINE
  5
1FD
330
1F
100
AcDbEntity
  8
0
  6
Continuous
 62
     4
370
    25
100
AcDbLine
 10
-66.32500000000002
 20
9.52499999999999
 30
0.0
 11
-67.32500000000002
 21
8.52499999999999
 31
0.0
  0
LINE
  5
1FE
330
1F
100
AcDbEntity
  8
0
  6
Continuous
 62
     4
370
    25
100
AcDbLine
 10
-67.32500000000002
 20
-8.525000000000002
 30
0.0
 11
-66.32500000000002
 21
-9.525000000000004
 31
0.0
  0
LINE
  5
1FF
330
1F
100
AcDbEntity
  8
0
  6
Continuous
 62
     4
370
    25
100
AcDbLine
 10
2.0
 20
9.525
 30
0.0
 11
2.0
 21
-9.525
 31
0.0
  0
LINE
  5
200
330
1F
100
AcDbEntity
  8
0
  6
Continuous
 62
     4
370
    25
100
AcDbLine
 10
-66.32500000000002
 20
9.52499999999999
 30
0.0
 11
-66.32500000000002
 21
-9.525000000000004
 31
0.0
  0
LINE
  5
201
330
1F
100
AcDbEntity
  8
0
  6
Continuous
 62
     1
370
    25
100
AcDbLine
 10
59.67499999999998
 20
-9.516949615062357
 30
0.0
 11
59.67499999999929
 21
-9.03866177943381
 31
0.0
  0
LINE
  5
202
330
1F
100
AcDbEntity
  8
0
  6
Continuous
 62
     4
370
    25
100
AcDbLine
 10
34.27500000000003
 20
0.0
 30
0.0
 11
34.27500000000003
 21
9.525
 31
0.0
  0
LINE
  5
203
330
1F
100
AcDbEntity
  8
0
  6
Continuous
 62
     4
370
    25
100
AcDbLine
 10
34.27500000000003
 20
-9.525000000000002
 30
0.0
 11
34.27500000000003
 21
0.0
 31
0.0
  0
CIRCLE
  5
204
330
1F
100
AcDbEntity
  8
외형선
100
AcDbCircle
 10
0.0
 20
0.0
 30
0.0
 40
3.000000000000005
  0
DIMENSION
  5
205
330
1F
100
AcDbEntity
  8
치수문자_일반주서
100
AcDbDimension
  2
*D14
 10
-78.82145802161203
 20
-9.52500000000005
 30
0.0
 11
-78.82145802161207
 21
-0.0000000000000071
 31
0.0
 70
   160
  1
%%c<>
 71
     2
 42
19.04999999999999
 52
-270.0
  3
SLDDIMSTYLE0
100
AcDbAlignedDimension
 13
-66.32500000000002
 23
9.52499999999999
 33
0.0
 14
-66.32500000000002
 24
-9.525000000000004
 34
0.0
 50
90.0000000000002
100
AcDbRotatedDimension
1001
ACAD
1000
DSTYLE
1002
{
1070
   171
1070
     6
1070
   273
1070
     7
1002
}
  0
DIMENSION
  5
206
330
1F
100
AcDbEntity
  8
치수문자_일반주서
100
AcDbDimension
  2
*D15
 10
83.8387464251527
 20
-9.516949615062266
 30
0.0
 11
83.83874642515255
 21
30.89060115834707
 31
0.0
 70
   160
  1
%%c<>
 71
     2
 42
19.03389923012473
 52
-270.0
  3
SLDDIMSTYLE1
100
AcDbAlignedDimension
 13
59.67499999999998
 23
9.516949615062371
 33
0.0
 14
59.67499999999998
 24
-9.516949615062357
 34
0.0
 50
90.0000000000002
100
AcDbRotatedDimension
1001
ACAD
1000
DSTYLE
1002
{
1070
   171
1070
     6
1070
   273
1070
     7
1002
}
  0
DIMENSION
  5
207
330
1F
100
AcDbEntity
  8
치수문자_일반주서
100
AcDbDimension
  2
*D16
 10
34.27500000000003
 20
24.37125945565634
 30
0.0
 11
46.19837069468141
 21
24.37125945565634
 31
0.0
 70
   160
  1
<>
 71
     2
 42
25.39999999999995
  3
SLDDIMSTYLE1
100
AcDbAlignedDimension
 13
59.67499999999998
 23
9.516949615061224
 33
0.0
 14
34.27500000000003
 24
9.525000000000007
 34
0.0
 50
0.0000000000000769
100
AcDbRotatedDimension
1001
ACAD
1000
DSTYLE
1002
{
1070
   171
1070
     6
1070
   273
1070
     7
1002
}
  0
DIMENSION
  5
208
330
1F
100
AcDbEntity
  8
치수문자_일반주서
100
AcDbDimension
  2
*D17
 10
2.524999999999991
 20
34.53739676577757
 30
0.0
 11
34.27500000000001
 21
34.53739676577757
 31
0.0
 70
   160
  1
<>
 71
     2
 42
57.14999999999998
  3
SLDDIMSTYLE1
100
AcDbAlignedDimension
 13
59.67499999999998
 23
9.516949615062371
 33
0.0
 14
2.524999999999991
 24
9.0
 34
0.0
 50
0.0000000000000038
100
AcDbRotatedDimension
1001
ACAD
1000
DSTYLE
1002
{
1070
   171
1070
     6
1070
   273
1070
     7
1002
}
1001
ACAD_DSTYLE_DIMFLIPARROW_SYMBOL
1070
   385
1070
     0
1001
ACAD_DSTYLE_DIMFLIPARROW_WHICH_SYMBOL
1070
   386
1070
     3
  0
DIMENSION
  5
209
330
1F
100
AcDbEntity
  8
치수문자_일반주서
100
AcDbDimension
  2
*D18
 10
-67.32500000000002
 20
64.36336962830326
 30
0.0
 11
-3.825000000000003
 21
64.36336962830326
 31
0.0
 70
   160
  1
<>
 71
     2
 42
127.0
  3
SLDDIMSTYLE2
100
AcDbAlignedDimension
 13
59.67499999999998
 23
9.516949615062371
 33
0.0
 14
-67.32500000000002
 24
8.524999999999995
 34
0.0
 50
0.0000000000000046
100
AcDbRotatedDimension
1001
ACAD
1000
DSTYLE
1002
{
1070
   171
1070
     6
1070
   273
1070
     7
1002
}
  0
INSERT
  5
20A
330
1F
100
AcDbEntity
  8
외형선
100
AcDbBlockReference
  2
SW_DOWELSYMBOL_0
 10
0.0
 20
0.0
 30
0.0
  0
SPLINE
  5
20B
330
1F
100
AcDbEntity
  8
0
  6
Continuous
 62
     1
370
    25
100
AcDbSpline
210
0.0
220
0.0
230
1.0
 70
     8
 71
     3
 72
    10
 73
     6
 74
     0
 42
0.000000001
 43
0.00000001
 40
0.0
 40
0.0
 40
0.0
 40
0.0
 40
0.4986084808761478
 40
0.686370282973484
 40
1.0
 40
1.0
 40
1.0
 40
1.0
 10
45.42666180615335
 20
2.503524509721743
 30
0.0
 10
45.17366477362653
 20
2.712833124154244
 30
0.0
 10
44.82539623936142
 20
3.000961422061195
 30
0.0
 10
44.31823064578426
 20
3.447530789449859
 30
0.0
 10
44.0628080125987
 20
3.679526792876219
 30
0.0
 10
43.90303640675236
 20
3.824644606262938
 30
0.0
  0
SPLINE
  5
20C
330
1F
100
AcDbEntity
  8
0
  6
Continuous
 62
     1
370
    25
100
AcDbSpline
210
0.0
220
0.0
230
1.0
 70
     8
 71
     3
 72
    16
 73
    12
 74
     0
 42
0.000000001
 43
0.00000001
 40
0.0
 40
0.0
 40
0.0
 40
0.0
 40
0.1941720139669036
 40
0.3522959434866412
 40
0.4783096698708971
 40
0.5808812543787809
 40
0.6641828517565965
 40
0.7295639255449898
 40
0.8001341023675773
 40
0.9036991479347433
 40
1.0
 40
1.0
 40
1.0
 40
1.0
 10
43.60976951006986
 20
7.631436033572145
 30
0.0
 10
43.34198852660372
 20
7.608244428543758
 30
0.0
 10
42.85614016828125
 20
7.566166745938931
 30
0.0
 10
42.15850776807982
 20
7.526212022775939
 30
0.0
 10
41.55349276381818
 20
7.507906142397518
 30
0.0
 10
41.06325890817603
 20
7.501239150792701
 30
0.0
 10
40.67053923302878
 20
7.500502823177316
 30
0.0
 10
40.3434008632092
 20
7.504037957488963
 30
0.0
 10
40.00126052908669
 20
7.511313922444673
 30
0.0
 10
39.59639796817302
 20
7.523922839389046
 30
0.0
 10
39.29728616279211
 20
7.540058374794016
 30
0.0
 10
39.1531659198583
 20
7.547832916756578
 30
0.0
  0
SPLINE
  5
20D
330
1F
100
AcDbEntity
  8
0
  6
Continuous
 62
     1
370
    25
100
AcDbSpline
210
0.0
220
0.0
230
1.0
 70
     8
 71
     3
 72
    25
 73
    21
 74
     0
 42
0.000000001
 43
0.00000001
 40
0.0
 40
0.0
 40
0.0
 40
0.0
 40
0.0496213043095171
 40
0.093306880058656
 40
0.1316407302373808
 40
0.1659869383864845
 40
0.2197224060798303
 40
0.2676130018378585
 40
0.30813300674357
 40
0.3486357127468914
 40
0.4295496596358367
 40
0.5189257462930795
 40
0.5740574536983691
 40
0.6116247073872514
 40
0.6464295994259235
 40
0.6907742841395366
 40
0.7453771335296635
 40
0.8124591480647826
 40
0.8966346743566441
 40
1.0
 40
1.0
 40
1.0
 40
1.0
 10
35.33935444617418
 20
-7.863604427650912
 30
0.0
 10
35.44427737022652
 20
-7.845216576429621
 30
0.0
 10
35.64157227865723
 20
-7.810640439177362
 30
0.0
 10
35.95428078967199
 20
-7.756284721914042
 30
0.0
 10
36.25753447868049
 20
-7.707497579368649
 30
0.0
 10
36.62007478306196
 20
-7.656011731525965
 30
0.0
 10
37.02054705068212
 20
-7.610668503556369
 30
0.0
 10
37.43268462339278
 20
-7.564383831141086
 30
0.0
 10
37.81413142785726
 20
-7.524459880014334
 30
0.0
 10
38.25970905826539
 20
-7.482907864226163
 30
0.0
 10
38.85653003700681
 20
-7.436693426253882
 30
0.0
 10
39.48905925816708
 20
-7.403079905764358
 30
0.0
 10
40.00128253783631
 20
-7.386201067540313
 30
0.0
 10
40.34339638550536
 20
-7.379060917943789
 30
0.0
 10
40.6705407446025
 20
-7.375495072239218
 30
0.0
 10
41.06325835140463
 20
-7.376242005767764
 30
0.0
 10
41.55349296572231
 20
-7.382905107090167
 30
0.0
 10
42.15850769339394
 20
-7.401212405747273
 30
0.0
 10
42.85614019413403
 20
-7.441166613375017
 30
0.0
 10
43.34198853578979
 20
-7.48324438144239
 30
0.0
 10
43.60976951006986
 20
-7.506436033574417
 30
0.0
  0
SPLINE
  5
20E
330
1F
100
AcDbEntity
  8
0
  6
Continuous
 62
     1
370
    25
100
AcDbSpline
210
0.0
220
0.0
230
1.0
 70
     8
 71
     3
 72
    16
 73
    12
 74
     0
 42
0.000000001
 43
0.00000001
 40
0.0
 40
0.0
 40
0.0
 40
0.0
 40
0.1823841237764758
 40
0.3057963013879125
 40
0.3823717293960797
 40
0.4679089912320402
 40
0.6315530842439341
 40
0.7811281007597892
 40
0.8892766344200357
 40
0.9804499315243187
 40
1.0
 40
1.0
 40
1.0
 40
1.0
 10
48.02492080124804
 20
-7.101594184905608
 30
0.0
 10
48.27121164391914
 20
-7.03644702029662
 30
0.0
 10
48.68415783240882
 20
-6.927217326555578
 30
0.0
 10
49.19933160102632
 20
-6.806027215157584
 30
0.0
 10
49.59751091662891
 20
-6.718934217908256
 30
0.0
 10
50.04701736068559
 20
-6.62700465663842
 30
0.0
 10
50.59154483062436
 20
-6.527363293827889
 30
0.0
 10
51.16435752766093
 20
-6.437303689153694
 30
0.0
 10
51.6386970674367
 20
-6.374746010532462
 30
0.0
 10
51.93715006651322
 20
-6.339036140204357
 30
0.0
 10
52.08794066717498
 20
-6.324690315765466
 30
0.0
 10
52.1145652784572
 20
-6.322157319693233
 30
0.0
  0
SPLINE
  5
20F
330
1F
100
AcDbEntity
  8
0
  6
Continuous
 62
     1
370
    25
100
AcDbSpline
210
0.0
220
0.0
230
1.0
 70
     8
 71
     3
 72
    25
 73
    21
 74
     0
 42
0.000000001
 43
0.00000001
 40
0.0
 40
0.0
 40
0.0
 40
0.0
 40
0.091953045879095
 40
0.1686517802760872
 40
0.2323147780751881
 40
0.2854752458157814
 40
0.3283472220646143
 40
0.3708749900292995
 40
0.4249475124477378
 40
0.4868822562131395
 40
0.5532059516895428
 40
0.6063015126312729
 40
0.6604490657290695
 40
0.7309863150668467
 40
0.7736540286732893
 40
0.812046170281257
 40
0.8444507037288571
 40
0.875975545277655
 40
0.9270690801243574
 40
1.0
 40
1.0
 40
1.0
 40
1.0
 10
57.6312365203253
 20
6.577154829105256
 30
0.0
 10
57.38043558610089
 20
6.540984080499657
 30
0.0
 10
56.92043968659075
 20
6.474643035589922
 30
0.0
 10
56.20051513944625
 20
6.399297254639452
 30
0.0
 10
55.52678533006505
 20
6.358187404754107
 30
0.0
 10
54.96555831599809
 20
6.337493009848957
 30
0.0
 10
54.50136007016621
 20
6.32971177642982
 30
0.0
 10
54.06847573325737
 20
6.330920805097223
 30
0.0
 10
53.55381498909352
 20
6.342946213439847
 30
0.0
 10
52.96988782889095
 20
6.372224373471754
 30
0.0
 10
52.38621828284877
 20
6.417743848187813
 30
0.0
 10
51.82712588129296
 20
6.4759066090124
 30
0.0
 10
51.25519453247286
 20
6.548774814476944
 30
0.0
 10
50.71771485638768
 20
6.631889723956776
 30
0.0
 10
50.22911718899362
 20
6.718406824149371
 30
0.0
 10
49.8611061730202
 20
6.789625926130656
 30
0.0
 10
49.52627802918604
 20
6.8591985660796
 30
0.0
 10
49.1485457325667
 20
6.942734916731853
 30
0.0
 10
48.65367553868295
 20
7.060054419303087
 30
0.0
 10
48.25774339606627
 20
7.164925909407474
 30
0.0
 10
48.02492080124804
 20
7.226594184903336
 30
0.0
  0
SPLINE
  5
210
330
1F
100
AcDbEntity
  8
0
  6
Continuous
 62
     1
370
    25
100
AcDbSpline
210
0.0
220
0.0
230
1.0
 70
     8
 71
     3
 72
    16
 73
    12
 74
     0
 42
0.000000001
 43
0.00000001
 40
0.0
 40
0.0
 40
0.0
 40
0.0
 40
0.1202450037516647
 40
0.2403935607851451
 40
0.3605087008731699
 40
0.480653746324457
 40
0.6008917576297806
 40
0.7211434566215406
 40
0.8412957194983725
 40
0.9614110547498754
 40
1.0
 40
1.0
 40
1.0
 40
1.0
 10
59.67499999999998
 20
-7.452460818108406
 30
0.0
 10
59.10298762274547
 20
-7.248184309303738
 30
0.0
 10
57.95942167080468
 20
-6.839795138825409
 30
0.0
 10
56.24523449426632
 20
-5.938790046725998
 30
0.0
 10
54.53163191219621
 20
-4.861459516571571
 30
0.0
 10
52.8175060211594
 20
-3.620024559768993
 30
0.0
 10
51.10201734521544
 20
-2.261495960622781
 30
0.0
 10
49.38635724917005
 20
-0.8260740412557794
 30
0.0
 10
47.67208832879665
 20
0.6324540046499152
 30
0.0
 10
46.34628687345545
 20
1.763775797280843
 30
0.0
 10
45.59162024965618
 20
2.364246844976222
 30
0.0
 10
45.40812306271308
 20
2.510251378127819
 30
0.0
  0
LINE
  5
211
330
1F
100
AcDbEntity
  8
0
  6
Continuous
 62
     1
370
    25
100
AcDbLine
 10
59.67499999999969
 20
-8.976161779434975
 30
0.0
 11
59.67499999999998
 21
-7.452460818108406
 31
0.0
  0
LINE
  5
212
330
1F
100
AcDbEntity
  8
0
  6
Continuous
 62
     1
370
    25
100
AcDbLine
 10
59.67499999999998
 20
-9.454449615063496
 30
0.0
 11
59.67499999999941
 21
-8.976161779434975
 31
0.0
  0
SPLINE
  5
213
330
1F
100
AcDbEntity
  8
0
  6
Continuous
 62
     1
370
    25
100
AcDbSpline
210
0.0
220
0.0
230
1.0
 70
     8
 71
     3
 72
    13
 73
     9
 74
     0
 42
0.000000001
 43
0.00000001
 40
0.0
 40
0.0
 40
0.0
 40
0.0
 40
0.0279844596091273
 40
0.22224712488316
 40
0.4168299561943969
 40
0.6112488111673252
 40
0.8054938766215859
 40
1.0
 40
1.0
 40
1.0
 40
1.0
 10
52.11550193066576
 20
6.447884510474283
 30
0.0
 10
52.1860108811563
 20
6.503029127350475
 30
0.0
 10
52.74597922587096
 20
6.940976928548126
 30
0.0
 10
53.79538995942996
 20
7.618551802209241
 30
0.0
 10
55.2664645135957
 20
8.43912808788268
 30
0.0
 10
56.73617778523461
 20
9.043106750633727
 30
0.0
 10
58.20460113943536
 20
9.453756567273318
 30
0.0
 10
59.18464766973218
 20
9.537533179640706
 30
0.0
 10
59.67499999999998
 20
9.579449615061224
 30
0.0
  0
SPLINE
  5
214
330
1F
100
AcDbEntity
  8
0
  6
Continuous
 62
     1
370
    25
100
AcDbSpline
210
0.0
220
0.0
230
1.0
 70
     8
 71
     3
 72
    15
 73
    11
 74
     0
 42
0.000000001
 43
0.00000001
 40
0.0
 40
0.0
 40
0.0
 40
0.0
 40
0.0129435813911723
 40
0.1678394143502637
 40
0.3228583396240179
 40
0.4778954051883895
 40
0.6328008042713165
 40
0.7876573000763916
 40
0.9425487366675045
 40
1.0
 40
1.0
 40
1.0
 40
1.0
 10
54.67499999999998
 20
3.881757799665239
 30
0.0
 10
54.62724746582924
 20
3.914663013526949
 30
0.0
 10
54.00804037570887
 20
4.341344907564876
 30
0.0
 10
52.81754534271428
 20
5.114645707985789
 30
0.0
 10
51.10197217566527
 20
6.064278227246932
 30
0.0
 10
49.38635323744355
 20
6.818882567702319
 30
0.0
 10
47.67208102878904
 20
7.359600467888201
 30
0.0
 10
45.95843825721359
 20
7.648453047018039
 30
0.0
 10
44.60422810423042
 20
7.729992188416434
 30
0.0
 10
43.82080112344149
 20
7.629841390511119
 30
0.0
 10
43.60883777461307
 20
7.602744674374962
 30
0.0
  0
SPLINE
  5
215
330
1F
100
AcDbEntity
  8
0
  6
Continuous
 62
     1
370
    25
100
AcDbSpline
210
0.0
220
0.0
230
1.0
 70
    24
 71
     3
 72
     8
 73
     4
 74
     0
 42
0.000000001
 43
0.00000001
 40
0.0
 40
0.0
 40
0.0
 40
0.0
 40
1.0
 40
1.0
 40
1.0
 40
1.0
 10
54.67499999999998
 20
1.896209911242792
 30
0.0
 10
54.67499999999998
 20
2.587373011822748
 30
0.0
 10
54.67499999999998
 20
3.254892590627195
 30
0.0
 10
54.67499999999998
 20
3.881757799665239
 30
0.0
  0
SPLINE
  5
216
330
1F
100
AcDbEntity
  8
0
  6
Continuous
 62
     1
370
    25
100
AcDbSpline
210
0.0
220
0.0
230
1.0
 70
     8
 71
     3
 72
    12
 73
     8
 74
     0
 42
0.000000001
 43
0.00000001
 40
0.0
 40
0.0
 40
0.0
 40
0.0
 40
0.5
 40
0.5
 40
0.75
 40
0.75
 40
1.0
 40
1.0
 40
1.0
 40
1.0
 10
59.67499999999998
 20
-2.482989060933519
 30
0.0
 10
58.81587526318955
 20
-1.805854763403644
 30
0.0
 10
57.96738695688949
 20
-1.102088827980694
 30
0.0
 10
56.71129642070016
 20
-0.0047716533627948
 30
0.0
 10
56.29427218818321
 20
0.3690751412119795
 30
0.0
 10
55.47166457882857
 20
1.127856166476064
 30
0.0
 10
55.06869868701411
 20
1.510323285790307
 30
0.0
 10
54.67500000000009
 20
1.896209911242735
 30
0.0
  0
SPLINE
  5
217
330
1F
100
AcDbEntity
  8
0
  6
Continuous
 62
     1
370
    25
100
AcDbSpline
210
0.0
220
0.0
230
1.0
 70
    24
 71
     3
 72
    10
 73
     6
 74
     0
 42
0.000000001
 43
0.00000001
 40
0.0
 40
0.0
 40
0.0
 40
0.0
 40
0.5
 40
0.5
 40
1.0
 40
1.0
 40
1.0
 40
1.0
 10
59.67499999999998
 20
-7.452460818108406
 30
0.0
 10
59.67499999999998
 20
-6.87638048026237
 30
0.0
 10
59.67499999999998
 20
-6.148480884210258
 30
0.0
 10
59.67499999999998
 20
-4.456184375911377
 30
0.0
 10
59.67500000000003
 20
-3.493253395064855
 30
0.0
 10
59.67499999999998
 20
-2.482989060933804
 30
0.0
  0
LINE
  5
218
330
1F
100
AcDbEntity
  8
0
  6
Continuous
 62
     1
370
    25
100
AcDbLine
 10
54.67499999999998
 20
3.000219435295449
 30
0.0
 11
59.67499999999998
 21
0.0624999999988773
 31
0.0
  0
LINE
  5
219
330
1F
100
AcDbEntity
  8
0
  6
Continuous
 62
     1
370
    25
100
AcDbLine
 10
59.67499999999998
 20
0.0624999999988773
 30
0.0
 11
59.67499999999998
 21
-2.482989060933491
 31
0.0
  0
SPLINE
  5
21A
330
1F
100
AcDbEntity
  8
0
  6
Continuous
 62
     1
370
    25
100
AcDbSpline
210
0.0
220
0.0
230
1.0
 70
    24
 71
     3
 72
     8
 73
     4
 74
     0
 42
0.000000001
 43
0.00000001
 40
0.0
 40
0.0
 40
0.0
 40
0.0
 40
1.0
 40
1.0
 40
1.0
 40
1.0
 10
54.68974882202971
 20
5.396327190300257
 30
0.0
 10
54.68484286635313
 20
5.392210604701477
 30
0.0
 10
54.67992657400989
 20
5.388085345609499
 30
0.0
 10
54.67500000000003
 20
5.383951459174812
 30
0.0
  0
SPLINE
  5
21B
330
1F
100
AcDbEntity
  8
0
  6
Continuous
 62
     1
370
    25
100
AcDbSpline
210
0.0
220
0.0
230
1.0
 70
    24
 71
     3
 72
     8
 73
     4
 74
     0
 42
0.000000001
 43
0.00000001
 40
0.0
 40
0.0
 40
0.0
 40
0.0
 40
1.0
 40
1.0
 40
1.0
 40
1.0
 10
54.67500000000003
 20
3.881757799665239
 30
0.0
 10
54.67500000000003
 20
4.46931547642116
 30
0.0
 10
54.67499999999998
 20
4.984153760081243
 30
0.0
 10
54.67499999999998
 20
5.383951459177768
 30
0.0
  0
SPLINE
  5
21C
330
1F
100
AcDbEntity
  8
0
  6
Continuous
 62
     1
370
    25
100
AcDbSpline
210
0.0
220
0.0
230
1.0
 70
     8
 71
     3
 72
     9
 73
     5
 74
     0
 42
0.000000001
 43
0.00000001
 40
0.0
 40
0.0
 40
0.0
 40
0.0
 40
0.8389902582317775
 40
1.0
 40
1.0
 40
1.0
 40
1.0
 10
59.67499999999998
 20
6.729999999998869
 30
0.0
 10
59.10297025674756
 20
6.723744440718109
 30
0.0
 10
58.42116288456426
 20
6.716288383607337
 30
0.0
 10
57.73960502757361
 20
6.582359594338998
 30
0.0
 10
57.62986757301942
 20
6.560795754563587
 30
0.0
  0
SPLINE
  5
21D
330
1F
100
AcDbEntity
  8
0
  6
Continuous
 62
     1
370
    25
100
AcDbSpline
210
0.0
220
0.0
230
1.0
 70
     8
 71
     3
 72
    10
 73
     6
 74
     0
 42
0.000000001
 43
0.00000001
 40
0.0
 40
0.0
 40
0.0
 40
0.0
 40
0.5
 40
0.5
 40
1.0
 40
1.0
 40
1.0
 40
1.0
 10
59.67499999999998
 20
6.729999999998869
 30
0.0
 10
58.85301137772731
 20
6.453813305693034
 30
0.0
 10
58.02636092561797
 20
6.200737973521131
 30
0.0
 10
56.36441061716405
 20
5.753948355195051
 30
0.0
 10
55.52910114551636
 20
5.560957887410483
 30
0.0
 10
54.68974882201004
 20
5.396327190293549
 30
0.0
  0
SPLINE
  5
21E
330
1F
100
AcDbEntity
  8
0
  6
Continuous
 62
     1
370
    25
100
AcDbSpline
210
0.0
220
0.0
230
1.0
 70
    24
 71
     3
 72
    10
 73
     6
 74
     0
 42
0.000000001
 43
0.00000001
 40
0.0
 40
0.0
 40
0.0
 40
0.0
 40
0.5
 40
0.5
 40
1.0
 40
1.0
 40
1.0
 40
1.0
 10
59.67499999999998
 20
6.729999999998869
 30
0.0
 10
59.67499999999998
 20
7.134167246088525
 30
0.0
 10
59.67499999999998
 20
7.603847015958154
 30
0.0
 10
59.67499999999998
 20
8.589233908151003
 30
0.0
 10
59.67499999999998
 20
9.102424476007899
 30
0.0
 10
59.67499999999998
 20
9.579449615061224
 30
0.0
  0
LINE
  5
21F
330
1F
100
AcDbEntity
  8
0
  6
Continuous
 62
     1
370
    25
100
AcDbLine
 10
59.67499999999998
 20
0.0624999999988773
 30
0.0
 11
59.67499999999998
 21
6.729999999998869
 31
0.0
  0
SPLINE
  5
220
330
1F
100
AcDbEntity
  8
0
  6
Continuous
 62
     1
370
    25
100
AcDbSpline
210
0.0
220
0.0
230
1.0
 70
     8
 71
     3
 72
    15
 73
    11
 74
     0
 42
0.000000001
 43
0.00000001
 40
0.0
 40
0.0
 40
0.0
 40
0.0
 40
0.0032373480303081
 40
0.0968352631955731
 40
0.1905087339407898
 40
0.2842045181266358
 40
0.3778146376631866
 40
0.4713905999487424
 40
0.564985875272094
 40
0.641241436838535
 40
0.641241436838535
 40
0.641241436838535
 40
0.641241436838535
 10
46.01783846420729
 20
-0.8469985513074079
 30
0.0
 10
45.9980801371918
 20
-0.8335210125646171
 30
0.0
 10
45.40707083607972
 20
-0.4303820855266594
 30
0.0
 10
44.24431844507685
 20
0.3961189701970937
 30
0.0
 10
42.52895504903469
 20
1.585687080680785
 30
0.0
 10
40.81330005162319
 20
2.730590219214648
 30
0.0
 10
39.09892793910674
 20
3.788507798999364
 30
0.0
 10
37.3852759944267
 20
4.726059277493862
 30
0.0
 10
35.7774864347005
 20
5.464290209953075
 30
0.0
 10
34.74056800639681
 20
5.843119367390729
 30
0.0
 10
34.27500000000003
 20
5.992138587733619
 30
0.0
  0
SPLINE
  5
221
330
1F
100
AcDbEntity
  8
0
  6
Continuous
 62
     1
370
    25
100
AcDbSpline
210
0.0
220
0.0
230
1.0
 70
     8
 71
     3
 72
    16
 73
    12
 74
     0
 42
0.000000001
 43
0.00000001
 40
0.0
 40
0.0
 40
0.0
 40
0.0
 40
0.0134857417608155
 40
0.0782646775347313
 40
0.143058229595312
 40
0.2079013419987522
 40
0.2727590883478568
 40
0.3375606436227599
 40
0.4023397960147059
 40
0.4671316169127125
 40
0.51991855334789
 40
0.51991855334789
 40
0.51991855334789
 40
0.51991855334789
 10
48.02864142198788
 20
-7.081511763615353
 30
0.0
 10
47.9097316289677
 20
-7.119802635605012
 30
0.0
 10
47.21963710013099
 20
-7.342024208726102
 30
0.0
 10
45.95847602988382
 20
-7.521129590150835
 30
0.0
 10
44.24436334717111
 20
-7.592745730285586
 30
0.0
 10
42.52898024759306
 20
-7.397279245656463
 30
0.0
 10
40.81326212692189
 20
-6.966140182738982
 30
0.0
 10
39.09892601588322
 20
-6.306220594861387
 30
0.0
 10
37.38529730694869
 20
-5.44099360858327
 30
0.0
 10
35.77752653046627
 20
-4.46237183346231
 30
0.0
 10
34.74058071674664
 20
-3.752640239165791
 30
0.0
 10
34.27500000000003
 20
-3.421583557109409
 30
0.0
  0
SPLINE
  5
222
330
1F
100
AcDbEntity
  8
0
  6
Continuous
 62
     1
370
    25
100
AcDbSpline
210
0.0
220
0.0
230
1.0
 70
     8
 71
     3
 72
    25
 73
    21
 74
     0
 42
0.000000001
 43
0.00000001
 40
0.0
 40
0.0
 40
0.0
 40
0.0
 40
0.0547301970533263
 40
0.1093869369730014
 40
0.1640925814180599
 40
0.2188443604753143
 40
0.273506051259479
 40
0.3281920536009474
 40
0.3829545627002924
 40
0.4376261511232314
 40
0.4922974380644332
 40
0.5470598140985088
 40
0.6017462387604234
 40
0.6564077491504837
 40
0.7111591291501727
 40
0.765865316405939
 40
0.8205219971681602
 40
0.8752515343022124
 40
0.9299823894928961
 40
0.9454162445049812
 40
0.9454162445049812
 40
0.9454162445049812
 40
0.9454162445049812
 10
59.67499999999998
 20
-8.976161779434975
 30
0.0
 10
59.18464946727405
 20
-8.800883540368702
 30
0.0
 10
58.20460653474608
 20
-8.450562315126248
 30
0.0
 10
56.73619554081105
 20
-7.664450028466902
 30
0.0
 10
55.26646668263381
 20
-6.710511540136352
 30
0.0
 10
53.79548121053758
 20
-5.59250142809735
 30
0.0
 10
52.32693035307746
 20
-4.339598405560153
 30
0.0
 10
50.8577233285359
 20
-2.982073190807498
 30
0.0
 10
49.38644574249118
 20
-1.554133737367394
 30
0.0
 10
47.91762521740892
 20
-0.085639952659804
 30
0.0
 10
46.44881282783373
 20
1.386378470196732
 30
0.0
 10
44.97753887226374
 20
2.824805731699669
 30
0.0
 10
43.50832055285147
 20
4.199439178980855
 30
0.0
 10
42.03977478497315
 20
5.476096515593627
 30
0.0
 10
40.56879981797245
 20
6.622368524472124
 30
0.0
 10
39.09905792798369
 20
7.614094284635728
 30
0.0
 10
37.63064368587663
 20
8.425571115015531
 30
0.0
 10
36.16028715894515
 20
9.042158511374213
 30
0.0
 10
35.04124113832579
 20
9.336066936119332
 30
0.0
 10
34.41314789156268
 20
9.45785321503528
 30
0.0
 10
34.27500000000003
 20
9.481383047411102
 30
0.0
  0
SPLINE
  5
223
330
1F
100
AcDbEntity
  8
0
  6
Continuous
 62
     1
370
    25
100
AcDbSpline
210
0.0
220
0.0
230
1.0
 70
     8
 71
     3
 72
     8
 73
     4
 74
     0
 42
0.000000001
 43
0.00000001
 40
0.0
 40
0.0
 40
0.0
 40
0.0
 40
0.0773739504207746
 40
0.0773739504207746
 40
0.0773739504207746
 40
0.0773739504207746
 10
35.34020772095669
 20
-7.843352009389704
 30
0.0
 10
34.98514864983644
 20
-7.89871703349367
 30
0.0
 10
34.63008957871619
 20
-7.95408205759762
 30
0.0
 10
34.27500000000003
 20
-7.991180975483724
 30
0.0
  0
SPLINE
  5
224
330
1F
100
AcDbEntity
  8
0
  6
Continuous
 62
     1
370
    25
100
AcDbSpline
210
0.0
220
0.0
230
1.0
 70
     8
 71
     3
 72
    25
 73
    21
 74
     0
 42
0.000000001
 43
0.00000001
 40
0.3221767566122786
 40
0.3221767566122786
 40
0.3221767566122786
 40
0.3221767566122786
 40
0.3332382956588112
 40
0.3724782345388726
 40
0.411717198427458
 40
0.4509039412163185
 40
0.4901261894436362
 40
0.5293808212121919
 40
0.5685710248653686
 40
0.607779100134072
 40
0.6470416209699146
 40
0.6862388332318154
 40
0.7254362685277435
 40
0.7646988878210869
 40
0.8039066506462053
 40
0.8430969877396449
 40
0.8823519147783847
 40
0.9215737614104256
 40
0.9607605479355217
 40
1.0
 40
1.0
 40
1.0
 40
1.0
 10
34.27500000000003
 20
8.704989970034662
 30
0.0
 10
34.4131112013
 20
8.646889011600928
 30
0.0
 10
35.04121916618811
 20
8.370300800478917
 30
0.0
 10
36.16016806510168
 20
7.779817815392152
 30
0.0
 10
37.63054932477922
 20
6.820666653600499
 30
0.0
 10
39.09896505273698
 20
5.699815830231687
 30
0.0
 10
40.56871521865602
 20
4.445657870492157
 30
0.0
 10
42.03969609526566
 20
3.088469697495142
 30
0.0
 10
43.50824840087247
 20
1.657446090176066
 30
0.0
 10
44.97747347919007
 20
0.1889415378457642
 30
0.0
 10
46.44875391672766
 20
-1.280699211669386
 30
0.0
 10
47.91757271981512
 20
-2.720601512213065
 30
0.0
 10
49.38639991995554
 20
-4.09427813332168
 30
0.0
 10
50.85768409693528
 20
-5.367267980618706
 30
0.0
 10
52.32689754691076
 20
-6.512990334790501
 30
0.0
 10
53.79545500402431
 20
-7.502288995160384
 30
0.0
 10
55.26644709470698
 20
-8.311788274823854
 30
0.0
 10
56.73618242377542
 20
-8.918729828178684
 30
0.0
 10
58.2045999784145
 20
-9.328600611757665
 30
0.0
 10
59.18464728255199
 20
-9.412481171202487
 30
0.0
 10
59.67499999999998
 20
-9.454449615063496
 30
0.0
  0
SPLINE
  5
225
330
1F
100
AcDbEntity
  8
0
  6
Continuous
 62
     1
370
    25
100
AcDbSpline
210
0.0
220
0.0
230
1.0
 70
     8
 71
     3
 72
    12
 73
     8
 74
     0
 42
0.000000001
 43
0.00000001
 40
0.0
 40
0.0
 40
0.0
 40
0.0
 40
0.0029746044807649
 40
0.0865213117907382
 40
0.1701793853580134
 40
0.2538394736706061
 40
0.277429386933996
 40
0.277429386933996
 40
0.277429386933996
 40
0.277429386933996
 10
39.15108653215585
 20
-7.424229921851818
 30
0.0
 10
39.1336585943051
 20
-7.435970565918879
 30
0.0
 10
38.62673807616348
 20
-7.777466698436328
 30
0.0
 10
37.63073150991277
 20
-8.288953644956663
 30
0.0
 10
36.16024987785806
 20
-8.917595607460456
 30
0.0
 10
35.04128967651962
 20
-9.218680203959023
 30
0.0
 10
34.41314873599213
 20
-9.328269030899937
 30
0.0
 10
34.27500000000003
 20
-9.525000000000002
 30
0.0
  0
LINE
  5
228
330
1F
100
AcDbEntity
  8
중심선
100
AcDbLine
 10
-74.32499958175461
 20
0.01617809748942
 30
0.0
 11
66.6749995817546
 21
0.064919800739208
 31
0.0
  0
LINE
  5
229
330
1F
100
AcDbEntity
  8
0
  6
Continuous
 62
     4
370
    25
100
AcDbLine
 10
2.524999999999991
 20
-8.999999999999995
 30
0.0
 11
34.27500000000003
 21
-8.999999999999993
 31
0.0
  0
LINE
  5
22A
330
1F
100
AcDbEntity
  8
0
  6
Continuous
 62
     4
370
    25
100
AcDbLine
 10
34.27500000000003
 20
9.000000000000002
 30
0.0
 11
2.524999999999995
 21
9.000000000000002
 31
0.0
  0
LINE
  5
268
330
1F
100
AcDbEntity
  8
0
  6
Continuous
 62
     4
370
    25
100
AcDbLine
 10
-67.32500000000002
 20
8.524999999999995
 30
0.0
 11
-67.32500000000002
 21
-8.525000000000002
 31
0.0
  0
LINE
  5
269
330
1F
100
AcDbEntity
  8
0
  6
Continuous
 62
     4
370
    25
100
AcDbLine
 10
2.524999999999991
 20
9.0
 30
0.0
 11
2.524999999999991
 21
-9.0
 31
0.0
  0
ENDSEC
  0
SECTION
  2
OBJECTS
  0
DICTIONARY
  5
C
330
0
100
AcDbDictionary
281
     1
  3
ACAD_GROUP
350
D
  3
ACAD_IMAGE_VARS
350
155
  3
ACAD_LAYOUT
350
1A
  3
ACAD_MLINESTYLE
350
17
  3
ACAD_PLOTSETTINGS
350
19
  3
ACAD_PLOTSTYLENAME
350
E
  3
ACAD_SCALELIST
350
47
  3
APPDATA
350
153
  3
DWGPROPS
350
26C
  0
DICTIONARY
  5
D
102
{ACAD_REACTORS
330
C
102
}
330
C
100
AcDbDictionary
281
     1
  0
RASTERVARIABLES
  5
155
102
{ACAD_REACTORS
330
C
102
}
330
C
100
AcDbRasterVariables
 90
        0
 70
     1
 71
     1
 72
     1
  0
DICTIONARY
  5
1A
102
{ACAD_REACTORS
330
C
102
}
330
C
100
AcDbDictionary
281
     1
  3
Layout1
350
1E
  3
Layout2
350
26
  3
Model
350
22
  0
DICTIONARY
  5
17
102
{ACAD_REACTORS
330
C
102
}
330
C
100
AcDbDictionary
281
     1
  3
Standard
350
18
  0
DICTIONARY
  5
19
102
{ACAD_REACTORS
330
C
102
}
330
C
100
AcDbDictionary
281
     1
  0
ACDBDICTIONARYWDFLT
  5
E
102
{ACAD_REACTORS
330
C
102
}
330
C
100
AcDbDictionary
281
     1
  3
Normal
350
F
100
AcDbDictionaryWithDefault
340
F
  0
DICTIONARY
  5
47
102
{ACAD_REACTORS
330
C
102
}
330
C
100
AcDbDictionary
281
     1
  3
A0
350
48
  3
A1
350
49
  3
A2
350
4A
  3
A3
350
4B
  3
A4
350
4C
  3
A5
350
4D
  3
A6
350
4E
  3
A7
350
4F
  3
A8
350
50
  3
A9
350
51
  3
B0
350
52
  3
B1
350
53
  3
B2
350
54
  3
B3
350
55
  3
B4
350
56
  3
B5
350
57
  3
B6
350
58
  3
B7
350
59
  3
B8
350
5A
  3
B9
350
5B
  3
C0
350
5C
  3
C1
350
5D
  3
C2
350
5E
  3
C3
350
5F
  3
C4
350
60
  3
C5
350
61
  3
C6
350
62
  3
C7
350
63
  3
C8
350
64
  3
C9
350
65
  3
D0
350
66
  3
D1
350
67
  3
D2
350
68
  0
DICTIONARY
  5
153
102
{ACAD_REACTORS
330
C
102
}
330
C
100
AcDbDictionary
281
     1
  0
XRECORD
  5
26C
102
{ACAD_REACTORS
330
C
102
}
330
C
100
AcDbXrecord
280
     1
  1
DWGPROPS COOKIE
  2

  3

  4

  6

  7

  8
12016016
  9

300
=
301
=
302
=
303
=
304
=
305
=
306
=
307
=
308
=
309
=
 40
0.0
 41
2458263.292407569
 42
2458274.427779456
  1

 90
        0
  0
LAYOUT
  5
1E
102
{ACAD_REACTORS
330
1A
102
}
330
1A
100
AcDbPlotSettings
  1

  2
none_device
  4

  6

 40
0.0
 41
0.0
 42
0.0
 43
0.0
 44
0.0
 45
0.0
 46
0.0
 47
0.0
 48
0.0
 49
0.0
140
0.0
141
0.0
142
1.0
143
1.0
 70
   688
 72
     1
 73
     0
 74
     5
  7

 75
    16
147
1.0
148
0.0
149
0.0
100
AcDbLayout
  1
Layout1
 70
     1
 71
     1
 10
0.0
 20
0.0
 11
420.0
 21
297.0
 12
0.0
 22
0.0
 32
0.0
 14
1.000000000000000E+20
 24
1.000000000000000E+20
 34
1.000000000000000E+20
 15
-1.000000000000000E+20
 25
-1.000000000000000E+20
 35
-1.000000000000000E+20
146
0.0
 13
0.0
 23
0.0
 33
0.0
 16
1.0
 26
0.0
 36
0.0
 17
0.0
 27
1.0
 37
0.0
 76
     0
330
1B
  0
LAYOUT
  5
26
102
{ACAD_REACTORS
330
1A
102
}
330
1A
100
AcDbPlotSettings
  1

  2
none_device
  4

  6

 40
0.0
 41
0.0
 42
0.0
 43
0.0
 44
0.0
 45
0.0
 46
0.0
 47
0.0
 48
0.0
 49
0.0
140
0.0
141
0.0
142
1.0
143
1.0
 70
   688
 72
     1
 73
     0
 74
     5
  7

 75
    16
147
1.0
148
0.0
149
0.0
100
AcDbLayout
  1
Layout2
 70
     1
 71
     2
 10
0.0
 20
0.0
 11
0.0
 21
0.0
 12
0.0
 22
0.0
 32
0.0
 14
0.0
 24
0.0
 34
0.0
 15
0.0
 25
0.0
 35
0.0
146
0.0
 13
0.0
 23
0.0
 33
0.0
 16
1.0
 26
0.0
 36
0.0
 17
0.0
 27
1.0
 37
0.0
 76
     0
330
23
  0
LAYOUT
  5
22
102
{ACAD_REACTORS
330
1A
102
}
330
1A
100
AcDbPlotSettings
  1

  2
none_device
  4
ANSI_A_(11.00_x_8.50_Inches)
  6

 40
6.35
 41
19.05
 42
6.35000508
 43
19.05000254
 44
279.4
 45
215.9
 46
155.3882749871761
 47
70.66973176498827
 48
0.0
 49
0.0
140
0.0
141
0.0
142
0.058727485740171
143
1.0
 70
  1696
 72
     0
 73
     0
 74
     0
  7

 75
     0
147
0.0235690232323232
148
0.0
149
0.0
100
AcDbLayout
  1
Model
 70
     1
 71
     0
 10
0.0
 20
0.0
 11
420.0
 21
297.0
 12
0.0
 22
0.0
 32
0.0
 14
1.000000000000000E+20
 24
1.000000000000000E+20
 34
1.000000000000000E+20
 15
-1.000000000000000E+20
 25
-1.000000000000000E+20
 35
-1.000000000000000E+20
146
0.0
 13
0.0
 23
0.0
 33
0.0
 16
1.0
 26
0.0
 36
0.0
 17
0.0
 27
1.0
 37
0.0
 76
     0
330
1F
331
29
  0
MLINESTYLE
  5
18
102
{ACAD_REACTORS
330
17
102
}
330
17
100
AcDbMlineStyle
  2
Standard
 70
     0
  3

 62
   256
 51
90.0
 52
90.0
 71
     2
 49
0.5
 62
   256
  6
BYLAYER
 49
-0.5
 62
   256
  6
BYLAYER
  0
ACDBPLACEHOLDER
  5
F
102
{ACAD_REACTORS
330
E
102
}
330
E
  0
SCALE
  5
48
102
{ACAD_REACTORS
330
47
102
}
330
47
100
AcDbScale
 70
     0
300
1:1
140
1.0
141
1.0
290
     1
  0
SCALE
  5
49
102
{ACAD_REACTORS
330
47
102
}
330
47
100
AcDbScale
 70
     0
300
1:2
140
1.0
141
2.0
290
     0
  0
SCALE
  5
4A
102
{ACAD_REACTORS
330
47
102
}
330
47
100
AcDbScale
 70
     0
300
1:4
140
1.0
141
4.0
290
     0
  0
SCALE
  5
4B
102
{ACAD_REACTORS
330
47
102
}
330
47
100
AcDbScale
 70
     0
300
1:5
140
1.0
141
5.0
290
     0
  0
SCALE
  5
4C
102
{ACAD_REACTORS
330
47
102
}
330
47
100
AcDbScale
 70
     0
300
1:8
140
1.0
141
8.0
290
     0
  0
SCALE
  5
4D
102
{ACAD_REACTORS
330
47
102
}
330
47
100
AcDbScale
 70
     0
300
1:10
140
1.0
141
10.0
290
     0
  0
SCALE
  5
4E
102
{ACAD_REACTORS
330
47
102
}
330
47
100
AcDbScale
 70
     0
300
1:16
140
1.0
141
16.0
290
     0
  0
SCALE
  5
4F
102
{ACAD_REACTORS
330
47
102
}
330
47
100
AcDbScale
 70
     0
300
1:20
140
1.0
141
20.0
290
     0
  0
SCALE
  5
50
102
{ACAD_REACTORS
330
47
102
}
330
47
100
AcDbScale
 70
     0
300
1:30
140
1.0
141
30.0
290
     0
  0
SCALE
  5
51
102
{ACAD_REACTORS
330
47
102
}
330
47
100
AcDbScale
 70
     0
300
1:40
140
1.0
141
40.0
290
     0
  0
SCALE
  5
52
102
{ACAD_REACTORS
330
47
102
}
330
47
100
AcDbScale
 70
     0
300
1:50
140
1.0
141
50.0
290
     0
  0
SCALE
  5
53
102
{ACAD_REACTORS
330
47
102
}
330
47
100
AcDbScale
 70
     0
300
1:100
140
1.0
141
100.0
290
     0
  0
SCALE
  5
54
102
{ACAD_REACTORS
330
47
102
}
330
47
100
AcDbScale
 70
     0
300
2:1
140
2.0
141
1.0
290
     0
  0
SCALE
  5
55
102
{ACAD_REACTORS
330
47
102
}
330
47
100
AcDbScale
 70
     0
300
4:1
140
4.0
141
1.0
290
     0
  0
SCALE
  5
56
102
{ACAD_REACTORS
330
47
102
}
330
47
100
AcDbScale
 70
     0
300
8:1
140
8.0
141
1.0
290
     0
  0
SCALE
  5
57
102
{ACAD_REACTORS
330
47
102
}
330
47
100
AcDbScale
 70
     0
300
10:1
140
10.0
141
1.0
290
     0
  0
SCALE
  5
58
102
{ACAD_REACTORS
330
47
102
}
330
47
100
AcDbScale
 70
     0
300
100:1
140
100.0
141
1.0
290
     0
  0
SCALE
  5
59
102
{ACAD_REACTORS
330
47
102
}
330
47
100
AcDbScale
 70
     0
300
1/128" = 1'-0"
140
0.0078125
141
12.0
290
     0
  0
SCALE
  5
5A
102
{ACAD_REACTORS
330
47
102
}
330
47
100
AcDbScale
 70
     0
300
1/64" = 1'-0"
140
0.015625
141
12.0
290
     0
  0
SCALE
  5
5B
102
{ACAD_REACTORS
330
47
102
}
330
47
100
AcDbScale
 70
     0
300
1/32" = 1'-0"
140
0.03125
141
12.0
290
     0
  0
SCALE
  5
5C
102
{ACAD_REACTORS
330
47
102
}
330
47
100
AcDbScale
 70
     0
300
1/16" = 1'-0"
140
0.0625
141
12.0
290
     0
  0
SCALE
  5
5D
102
{ACAD_REACTORS
330
47
102
}
330
47
100
AcDbScale
 70
     0
300
3/32" = 1'-0"
140
0.09375
141
12.0
290
     0
  0
SCALE
  5
5E
102
{ACAD_REACTORS
330
47
102
}
330
47
100
AcDbScale
 70
     0
300
1/8" = 1'-0"
140
0.125
141
12.0
290
     0
  0
SCALE
  5
5F
102
{ACAD_REACTORS
330
47
102
}
330
47
100
AcDbScale
 70
     0
300
3/16" = 1'-0"
140
0.1875
141
12.0
290
     0
  0
SCALE
  5
60
102
{ACAD_REACTORS
330
47
102
}
330
47
100
AcDbScale
 70
     0
300
1/4" = 1'-0"
140
0.25
141
12.0
290
     0
  0
SCALE
  5
61
102
{ACAD_REACTORS
330
47
102
}
330
47
100
AcDbScale
 70
     0
300
3/8" = 1'-0"
140
0.375
141
12.0
290
     0
  0
SCALE
  5
62
102
{ACAD_REACTORS
330
47
102
}
330
47
100
AcDbScale
 70
     0
300
1/2" = 1'-0"
140
0.5
141
12.0
290
     0
  0
SCALE
  5
63
102
{ACAD_REACTORS
330
47
102
}
330
47
100
AcDbScale
 70
     0
300
3/4" = 1'-0"
140
0.75
141
12.0
290
     0
  0
SCALE
  5
64
102
{ACAD_REACTORS
330
47
102
}
330
47
100
AcDbScale
 70
     0
300
1" = 1'-0"
140
1.0
141
12.0
290
     0
  0
SCALE
  5
65
102
{ACAD_REACTORS
330
47
102
}
330
47
100
AcDbScale
 70
     0
300
1-1/2" = 1'-0"
140
1.5
141
12.0
290
     0
  0
SCALE
  5
66
102
{ACAD_REACTORS
330
47
102
}
330
47
100
AcDbScale
 70
     0
300
3" = 1'-0"
140
3.0
141
12.0
290
     0
  0
SCALE
  5
67
102
{ACAD_REACTORS
330
47
102
}
330
47
100
AcDbScale
 70
     0
300
6" = 1'-0"
140
6.0
141
12.0
290
     0
  0
SCALE
  5
68
102
{ACAD_REACTORS
330
47
102
}
330
47
100
AcDbScale
 70
     0
300
1'-0" = 1'-0"
140
12.0
141
12.0
290
     0
  0
ENDSEC
  0
EOF
