  0
SECTION
  2
HEADER
  9
$ACADVER
  1
AC1015
  9
$ACADMAINTVER
 70
     6
  9
$DWGCODEPAGE
  3
ANSI_949
  9
$INSBASE
 10
0.0
 20
0.0
 30
0.0
  9
$EXTMIN
 10
1.000000000000000E+20
 20
1.000000000000000E+20
 30
1.000000000000000E+20
  9
$EXTMAX
 10
-1.000000000000000E+20
 20
-1.000000000000000E+20
 30
-1.000000000000000E+20
  9
$LIMMIN
 10
0.0
 20
0.0
  9
$LIMMAX
 10
420.0
 20
297.0
  9
$ORTHOMODE
 70
     0
  9
$REGENMODE
 70
     1
  9
$FILLMODE
 70
     1
  9
$QTEXTMODE
 70
     0
  9
$MIRRTEXT
 70
     1
  9
$LTSCALE
 40
1.0
  9
$ATTMODE
 70
     1
  9
$TEXTSIZE
 40
3.5
  9
$TRACEWID
 40
1.0
  9
$TEXTSTYLE
  7
Standard
  9
$CLAYER
  8
0
  9
$CELTYPE
  6
ByLayer
  9
$CECOLOR
 62
   256
  9
$CELTSCALE
 40
1.0
  9
$DISPSILH
 70
     0
  9
$DIMSCALE
 40
1.0
  9
$DIMASZ
 40
3.302
  9
$DIMEXO
 40
1.0
  9
$DIMDLI
 40
3.75
  9
$DIMRND
 40
0.0
  9
$DIMDLE
 40
0.0
  9
$DIMEXE
 40
1.0
  9
$DIMTP
 40
0.0
  9
$DIMTM
 40
0.0
  9
$DIMTXT
 40
3.5
  9
$DIMCEN
 40
2.5
  9
$DIMTSZ
 40
0.0
  9
$DIMTOL
 70
     0
  9
$DIMLIM
 70
     0
  9
$DIMTIH
 70
     1
  9
$DIMTOH
 70
     1
  9
$DIMSE1
 70
     0
  9
$DIMSE2
 70
     0
  9
$DIMTAD
 70
     1
  9
$DIMZIN
 70
     0
  9
$DIMBLK
  1

  9
$DIMASO
 70
     1
  9
$DIMSHO
 70
     1
  9
$DIMPOST
  1

  9
$DIMAPOST
  1

  9
$DIMALT
 70
     0
  9
$DIMALTD
 70
     3
  9
$DIMALTF
 40
0.0393700787401575
  9
$DIMLFAC
 40
1.0
  9
$DIMTOFL
 70
     1
  9
$DIMTVP
 40
0.0
  9
$DIMTIX
 70
     0
  9
$DIMSOXD
 70
     0
  9
$DIMSAH
 70
     0
  9
$DIMBLK1
  1

  9
$DIMBLK2
  1

  9
$DIMSTYLE
  2
ISO-25
  9
$DIMCLRD
 70
     0
  9
$DIMCLRE
 70
     0
  9
$DIMCLRT
 70
     0
  9
$DIMTFAC
 40
1.0
  9
$DIMGAP
 40
1.524
  9
$DIMJUST
 70
     0
  9
$DIMSD1
 70
     0
  9
$DIMSD2
 70
     0
  9
$DIMTOLJ
 70
     0
  9
$DIMTZIN
 70
     0
  9
$DIMALTZ
 70
     0
  9
$DIMALTTZ
 70
     0
  9
$DIMUPT
 70
     0
  9
$DIMDEC
 70
     2
  9
$DIMTDEC
 70
     2
  9
$DIMALTU
 70
     2
  9
$DIMALTTD
 70
     3
  9
$DIMTXSTY
  7
Standard
  9
$DIMAUNIT
 70
     0
  9
$DIMADEC
 70
     2
  9
$DIMALTRND
 40
0.0
  9
$DIMAZIN
 70
     0
  9
$DIMDSEP
 70
    44
  9
$DIMATFIT
 70
     3
  9
$DIMFRAC
 70
     0
  9
$DIMLDRBLK
  1

  9
$DIMLUNIT
 70
     2
  9
$DIMLWD
 70
    -2
  9
$DIMLWE
 70
    -2
  9
$DIMTMOVE
 70
     0
  9
$LUNITS
 70
     2
  9
$LUPREC
 70
     2
  9
$SKETCHINC
 40
1.0
  9
$FILLETRAD
 40
10.0
  9
$AUNITS
 70
     0
  9
$AUPREC
 70
     2
  9
$MENU
  1
.
  9
$ELEVATION
 40
0.0
  9
$PELEVATION
 40
0.0
  9
$THICKNESS
 40
0.0
  9
$LIMCHECK
 70
     0
  9
$CHAMFERA
 40
0.0
  9
$CHAMFERB
 40
0.0
  9
$CHAMFERC
 40
0.0
  9
$CHAMFERD
 40
0.0
  9
$SKPOLY
 70
     0
  9
$TDCREATE
 40
2458263.667596435
  9
$TDUCREATE
 40
2458263.292596435
  9
$TDUPDATE
 40
2458274.798849028
  9
$TDUUPDATE
 40
2458274.423849028
  9
$TDINDWG
 40
0.0010878472
  9
$TDUSRTIMER
 40
2458274.422761562
  9
$USRTIMER
 70
     1
  9
$ANGBASE
 50
0.0
  9
$ANGDIR
 70
     0
  9
$PDMODE
 70
     0
  9
$PDSIZE
 40
-1.0
  9
$PLINEWID
 40
0.0
  9
$SPLFRAME
 70
     0
  9
$SPLINETYPE
 70
     6
  9
$SPLINESEGS
 70
     8
  9
$HANDSEED
  5
26B
  9
$SURFTAB1
 70
     6
  9
$SURFTAB2
 70
     6
  9
$SURFTYPE
 70
     6
  9
$SURFU
 70
     6
  9
$SURFV
 70
     6
  9
$UCSBASE
  2

  9
$UCSNAME
  2

  9
$UCSORG
 10
0.0
 20
0.0
 30
0.0
  9
$UCSXDIR
 10
1.0
 20
0.0
 30
0.0
  9
$UCSYDIR
 10
0.0
 20
1.0
 30
0.0
  9
$UCSORTHOREF
  2

  9
$UCSORTHOVIEW
 70
     0
  9
$UCSORGTOP
 10
0.0
 20
0.0
 30
0.0
  9
$UCSORGBOTTOM
 10
0.0
 20
0.0
 30
0.0
  9
$UCSORGLEFT
 10
0.0
 20
0.0
 30
0.0
  9
$UCSORGRIGHT
 10
0.0
 20
0.0
 30
0.0
  9
$UCSORGFRONT
 10
0.0
 20
0.0
 30
0.0
  9
$UCSORGBACK
 10
0.0
 20
0.0
 30
0.0
  9
$PUCSBASE
  2

  9
$PUCSNAME
  2

  9
$PUCSORG
 10
0.0
 20
0.0
 30
0.0
  9
$PUCSXDIR
 10
1.0
 20
0.0
 30
0.0
  9
$PUCSYDIR
 10
0.0
 20
1.0
 30
0.0
  9
$PUCSORTHOREF
  2

  9
$PUCSORTHOVIEW
 70
     0
  9
$PUCSORGTOP
 10
0.0
 20
0.0
 30
0.0
  9
$PUCSORGBOTTOM
 10
0.0
 20
0.0
 30
0.0
  9
$PUCSORGLEFT
 10
0.0
 20
0.0
 30
0.0
  9
$PUCSORGRIGHT
 10
0.0
 20
0.0
 30
0.0
  9
$PUCSORGFRONT
 10
0.0
 20
0.0
 30
0.0
  9
$PUCSORGBACK
 10
0.0
 20
0.0
 30
0.0
  9
$USERI1
 70
     0
  9
$USERI2
 70
     0
  9
$USERI3
 70
     0
  9
$USERI4
 70
     0
  9
$USERI5
 70
     0
  9
$USERR1
 40
0.0
  9
$USERR2
 40
0.0
  9
$USERR3
 40
0.0
  9
$USERR4
 40
0.0
  9
$USERR5
 40
0.0
  9
$WORLDVIEW
 70
     1
  9
$SHADEDGE
 70
     3
  9
$SHADEDIF
 70
    70
  9
$TILEMODE
 70
     1
  9
$MAXACTVP
 70
    64
  9
$PINSBASE
 10
0.0
 20
0.0
 30
0.0
  9
$PLIMCHECK
 70
     0
  9
$PEXTMIN
 10
1.000000000000000E+20
 20
1.000000000000000E+20
 30
1.000000000000000E+20
  9
$PEXTMAX
 10
-1.000000000000000E+20
 20
-1.000000000000000E+20
 30
-1.000000000000000E+20
  9
$PLIMMIN
 10
0.0
 20
0.0
  9
$PLIMMAX
 10
0.0
 20
0.0
  9
$UNITMODE
 70
     0
  9
$VISRETAIN
 70
     1
  9
$PLINEGEN
 70
     0
  9
$PSLTSCALE
 70
     1
  9
$TREEDEPTH
 70
  3020
  9
$CMLSTYLE
  2
Standard
  9
$CMLJUST
 70
     0
  9
$CMLSCALE
 40
20.0
  9
$PROXYGRAPHICS
 70
     1
  9
$MEASUREMENT
 70
     1
  9
$CELWEIGHT
370
    -1
  9
$ENDCAPS
280
     0
  9
$JOINSTYLE
280
     0
  9
$LWDISPLAY
290
     1
  9
$INSUNITS
 70
     4
  9
$HYPERLINKBASE
  1

  9
$STYLESHEET
  1

  9
$XEDIT
290
     1
  9
$CEPSNTYPE
380
     0
  9
$PSTYLEMODE
290
     1
  9
$FINGERPRINTGUID
  2
{FE21C2E8-0A34-403A-8F80-747CD151EA92}
  9
$VERSIONGUID
  2
{FAEB1C32-E019-11D5-929B-00C0DF256EC4}
  9
$EXTNAMES
290
     1
  9
$PSVPSCALE
 40
0.0
  9
$OLESTARTUP
290
     0
  0
ENDSEC
  0
SECTION
  2
CLASSES
  0
CLASS
  1
ACDBDICTIONARYWDFLT
  2
AcDbDictionaryWithDefault
  3
ObjectDBX Classes
 90
        0
280
     0
281
     0
  0
CLASS
  1
VISUALSTYLE
  2
AcDbVisualStyle
  3
ObjectDBX Classes
 90
     4095
280
     0
281
     0
  0
CLASS
  1
MATERIAL
  2
AcDbMaterial
  3
ObjectDBX Classes
 90
     1153
280
     0
281
     0
  0
CLASS
  1
SCALE
  2
AcDbScale
  3
ObjectDBX Classes
 90
     1153
280
     0
281
     0
  0
CLASS
  1
TABLESTYLE
  2
AcDbTableStyle
  3
ObjectDBX Classes
 90
     4095
280
     0
281
     0
  0
CLASS
  1
MLEADERSTYLE
  2
AcDbMLeaderStyle
  3
ACDB_MLEADERSTYLE_CLASS
 90
     4095
280
     0
281
     0
  0
CLASS
  1
SUN
  2
AcDbSun
  3
SCENEOE
 90
     1153
280
     0
281
     0
  0
CLASS
  1
ACDBPLACEHOLDER
  2
AcDbPlaceHolder
  3
ObjectDBX Classes
 90
        0
280
     0
281
     0
  0
CLASS
  1
LAYOUT
  2
AcDbLayout
  3
ObjectDBX Classes
 90
        0
280
     0
281
     0
  0
CLASS
  1
RASTERVARIABLES
  2
AcDbRasterVariables
  3
ISM
 90
        0
280
     0
281
     0
  0
ENDSEC
  0
SECTION
  2
TABLES
  0
TABLE
  2
VPORT
  5
8
330
0
100
AcDbSymbolTable
 70
     1
  0
VPORT
  5
29
330
8
100
AcDbSymbolTableRecord
100
AcDbViewportTableRecord
  2
*Active
 70
     0
 10
0.0
 20
0.0
 11
1.0
 21
1.0
 12
6.42662486231437
 22
16.43643985798679
 13
0.0
 23
0.0
 14
10.0
 24
10.0
 15
10.0
 25
10.0
 16
0.0
 26
0.0
 36
1.0
 17
0.0
 27
0.0
 37
0.0
 40
106.4203062215536
 41
1.666023166023166
 42
50.0
 43
0.0
 44
0.0
 50
0.0
 51
0.0
 71
    16
 72
  2000
 73
     1
 74
     3
 75
     0
 76
     0
 77
     0
 78
     0
281
     0
 65
     1
110
0.0
120
0.0
130
0.0
111
1.0
121
0.0
131
0.0
112
0.0
122
1.0
132
0.0
 79
     0
146
0.0
  0
ENDTAB
  0
TABLE
  2
LTYPE
  5
5
330
0
100
AcDbSymbolTable
 70
     6
  0
LTYPE
  5
14
330
5
100
AcDbSymbolTableRecord
100
AcDbLinetypeTableRecord
  2
ByBlock
 70
     0
  3

 72
    65
 73
     0
 40
0.0
  0
LTYPE
  5
15
330
5
100
AcDbSymbolTableRecord
100
AcDbLinetypeTableRecord
  2
ByLayer
 70
     0
  3

 72
    65
 73
     0
 40
0.0
  0
LTYPE
  5
16
330
5
100
AcDbSymbolTableRecord
100
AcDbLinetypeTableRecord
  2
Continuous
 70
     0
  3
Solid line
 72
    65
 73
     0
 40
0.0
  0
LTYPE
  5
6E
330
5
100
AcDbSymbolTableRecord
100
AcDbLinetypeTableRecord
  2
HIDDEN
 70
     0
  3
Hidden __ __ __ __ __ __ __ __ __ __ __ __ __ __
 72
    65
 73
     2
 40
1.905
 49
1.27
 74
     0
 49
-0.635
 74
     0
  0
LTYPE
  5
6F
330
5
100
AcDbSymbolTableRecord
100
AcDbLinetypeTableRecord
  2
PHANTOM
 70
     0
  3
Phantom ______  __  __  ______  __  __  ______
 72
    65
 73
     6
 40
12.7
 49
6.35
 74
     0
 49
-1.27
 74
     0
 49
1.27
 74
     0
 49
-1.27
 74
     0
 49
1.27
 74
     0
 49
-1.27
 74
     0
  0
LTYPE
  5
70
330
5
100
AcDbSymbolTableRecord
100
AcDbLinetypeTableRecord
  2
CENTER
 70
     0
  3
Center ____ _ ____ _ ____ _ ____ _ ____ _ ____
 72
    65
 73
     4
 40
10.16
 49
6.35
 74
     0
 49
-1.27
 74
     0
 49
1.27
 74
     0
 49
-1.27
 74
     0
  0
LTYPE
  5
71
330
5
100
AcDbSymbolTableRecord
100
AcDbLinetypeTableRecord
  2
CENTERX2
 70
     0
  3
Center (2x) ________  __  ________  __  _____
 72
    65
 73
     4
 40
20.32
 49
12.7
 74
     0
 49
-2.54
 74
     0
 49
2.54
 74
     0
 49
-2.54
 74
     0
  0
LTYPE
  5
72
330
5
100
AcDbSymbolTableRecord
100
AcDbLinetypeTableRecord
  2
DOT2
 70
     0
  3
Dot (.5x) ........................................
 72
    65
 73
     2
 40
0.635
 49
0.0
 74
     0
 49
-0.635
 74
     0
  0
ENDTAB
  0
TABLE
  2
LAYER
  5
2
330
0
100
AcDbSymbolTable
 70
    17
  0
LAYER
  5
10
330
2
100
AcDbSymbolTableRecord
100
AcDbLayerTableRecord
  2
0
 70
     0
 62
     7
  6
Continuous
370
    -3
390
F
  0
LAYER
  5
73
330
2
100
AcDbSymbolTableRecord
100
AcDbLayerTableRecord
  2
FORMAT
 70
     0
 62
     2
  6
Continuous
370
    -3
390
F
  0
LAYER
  5
74
330
2
100
AcDbSymbolTableRecord
100
AcDbLayerTableRecord
  2
외형선
 70
     0
 62
   100
  6
Continuous
370
    35
390
F
  0
LAYER
  5
75
330
2
100
AcDbSymbolTableRecord
100
AcDbLayerTableRecord
  2
숨은선
 70
     0
 62
     2
  6
HIDDEN
370
    25
390
F
  0
LAYER
  5
76
330
2
100
AcDbSymbolTableRecord
100
AcDbLayerTableRecord
  2
중심선
 70
     0
 62
     1
  6
CENTERX2
370
    -3
390
F
  0
LAYER
  5
77
330
2
100
AcDbSymbolTableRecord
100
AcDbLayerTableRecord
  2
파단선
 70
     0
 62
     4
  6
Continuous
370
    -3
390
F
  0
LAYER
  5
78
330
2
100
AcDbSymbolTableRecord
100
AcDbLayerTableRecord
  2
해칭선
 70
     0
 62
     4
  6
Continuous
370
    -3
390
F
  0
LAYER
  5
79
330
2
100
AcDbSymbolTableRecord
100
AcDbLayerTableRecord
  2
가는실선
 70
     0
 62
     4
  6
Continuous
370
    -3
390
F
  0
LAYER
  5
7A
330
2
100
AcDbSymbolTableRecord
100
AcDbLayerTableRecord
  2
치수_보조선
 70
     0
 62
     4
  6
Continuous
370
    -3
390
F
  0
LAYER
  5
7B
330
2
100
AcDbSymbolTableRecord
100
AcDbLayerTableRecord
  2
치수문자_일반주서
 70
     0
 62
     7
  6
Continuous
370
    25
390
F
  0
LAYER
  5
7C
330
2
100
AcDbSymbolTableRecord
100
AcDbLayerTableRecord
  2
개별주서
 70
     0
 62
   100
  6
Continuous
370
    35
390
F
  0
LAYER
  5
7D
330
2
100
AcDbSymbolTableRecord
100
AcDbLayerTableRecord
  2
중간선
 70
     0
 62
     2
  6
Continuous
370
    25
390
F
  0
LAYER
  5
7E
330
2
100
AcDbSymbolTableRecord
100
AcDbLayerTableRecord
  2
윤곽선
 70
     0
 62
     3
  6
Continuous
370
    50
390
F
  0
LAYER
  5
7F
330
2
100
AcDbSymbolTableRecord
100
AcDbLayerTableRecord
  2
중심마크
 70
     0
 62
   100
  6
Continuous
370
    35
390
F
  0
LAYER
  5
80
330
2
100
AcDbSymbolTableRecord
100
AcDbLayerTableRecord
  2
가상선
 70
     0
 62
     4
  6
PHANTOM
370
    -3
390
F
  0
LAYER
  5
81
330
2
100
AcDbSymbolTableRecord
100
AcDbLayerTableRecord
  2
특수지정선
 70
     0
 62
     5
  6
CENTERX2
370
    70
390
F
  0
LAYER
  5
155
330
2
100
AcDbSymbolTableRecord
100
AcDbLayerTableRecord
  2
Defpoints
 70
     0
 62
     7
  6
Continuous
290
     0
370
    -3
390
F
  0
ENDTAB
  0
TABLE
  2
STYLE
  5
3
330
0
100
AcDbSymbolTable
 70
     2
  0
STYLE
  5
11
330
3
100
AcDbSymbolTableRecord
100
AcDbTextStyleTableRecord
  2
Standard
 70
     0
 40
0.0
 41
1.0
 50
0.0
 71
     0
 42
3.5
  3
txt
  4

  0
STYLE
  5
97
330
3
100
AcDbSymbolTableRecord
100
AcDbTextStyleTableRecord
  2
SLDTEXTSTYLE0
 70
     0
 40
0.0
 41
0.75
 50
0.0
 71
     0
 42
3.5
  3
TXT
  4

  0
ENDTAB
  0
TABLE
  2
VIEW
  5
6
330
0
100
AcDbSymbolTable
 70
     0
  0
ENDTAB
  0
TABLE
  2
UCS
  5
7
330
0
100
AcDbSymbolTable
 70
     0
  0
ENDTAB
  0
TABLE
  2
APPID
  5
9
330
0
100
AcDbSymbolTable
 70
     1
  0
APPID
  5
12
330
9
100
AcDbSymbolTableRecord
100
AcDbRegAppTableRecord
  2
ACAD
 70
     0
  0
ENDTAB
  0
TABLE
  2
DIMSTYLE
  5
A
330
0
100
AcDbSymbolTable
 70
     4
100
AcDbDimStyleTable
  0
DIMSTYLE
105
27
330
A
100
AcDbSymbolTableRecord
100
AcDbDimStyleTableRecord
  2
ISO-25
 70
     0
 41
2.5
 42
0.625
 43
3.75
 44
1.25
 73
     0
 74
     0
 77
     1
 78
     8
140
2.5
141
2.5
143
0.03937007874016
147
0.625
171
     3
172
     1
178
     0
271
     2
272
     2
274
     3
278
    44
283
     0
284
     8
340
11
  0
DIMSTYLE
105
C7
102
{ACAD_REACTORS
330
18A
330
201
102
}
330
A
100
AcDbSymbolTableRecord
100
AcDbDimStyleTableRecord
  2
SLDDIMSTYLE0
 70
     0
 41
3.302
 44
0.0
 45
0.000000001
 73
     0
 74
     0
 77
     1
 78
     4
 79
     1
140
3.5
143
0.0393700787401575
147
0.875
148
0.000000001
170
     1
172
     1
173
     1
178
     0
271
     2
272
     2
276
     2
284
    12
289
     0
340
97
  0
DIMSTYLE
105
DC
102
{ACAD_REACTORS
330
197
330
1A5
330
1B2
330
202
330
203
330
204
102
}
330
A
100
AcDbSymbolTableRecord
100
AcDbDimStyleTableRecord
  2
SLDDIMSTYLE1
 70
     0
 41
3.302
 44
0.0
 45
0.000000001
 73
     0
 74
     0
 77
     1
 78
    12
 79
     3
140
3.5
143
0.0393700787401575
147
0.875
148
0.000000001
170
     1
173
     1
178
     0
271
     2
272
     2
276
     2
284
    12
340
97
  0
DIMSTYLE
105
161
102
{ACAD_REACTORS
330
1BF
330
205
102
}
330
A
100
AcDbSymbolTableRecord
100
AcDbDimStyleTableRecord
  2
SLDDIMSTYLE2
 70
     0
 41
3.302
 44
0.0
 45
0.000000001
 73
     0
 74
     0
 77
     1
 78
     4
 79
     1
140
3.5
143
0.0393700787401575
147
0.875
148
0.000000001
170
     1
173
     1
178
     0
271
     2
272
     2
276
     2
284
    12
340
97
  0
ENDTAB
  0
TABLE
  2
BLOCK_RECORD
  5
1
330
0
100
AcDbSymbolTable
 70
    19
  0
BLOCK_RECORD
  5
1F
330
1
100
AcDbSymbolTableRecord
100
AcDbBlockTableRecord
  2
*Model_Space
340
22
  0
BLOCK_RECORD
  5
1B
330
1
100
AcDbSymbolTableRecord
100
AcDbBlockTableRecord
  2
*Paper_Space
340
1E
  0
BLOCK_RECORD
  5
23
330
1
100
AcDbSymbolTableRecord
100
AcDbBlockTableRecord
  2
*Paper_Space0
340
26
  0
BLOCK_RECORD
  5
82
330
1
100
AcDbSymbolTableRecord
100
AcDbBlockTableRecord
  2
블럭10
340
0
102
{BLKREFS
331
BF
102
}
  0
BLOCK_RECORD
  5
C8
330
1
100
AcDbSymbolTableRecord
100
AcDbBlockTableRecord
  2
_D
340
0
  0
BLOCK_RECORD
  5
DD
330
1
100
AcDbSymbolTableRecord
100
AcDbBlockTableRecord
  2
_D_1
340
0
  0
BLOCK_RECORD
  5
F0
330
1
100
AcDbSymbolTableRecord
100
AcDbBlockTableRecord
  2
_D_2
340
0
  0
BLOCK_RECORD
  5
104
330
1
100
AcDbSymbolTableRecord
100
AcDbBlockTableRecord
  2
_D_3
340
0
  0
BLOCK_RECORD
  5
118
330
1
100
AcDbSymbolTableRecord
100
AcDbBlockTableRecord
  2
_D_4
340
0
  0
BLOCK_RECORD
  5
12A
330
1
100
AcDbSymbolTableRecord
100
AcDbBlockTableRecord
  2
SW_DOWELSYMBOL_0
340
0
102
{BLKREFS
331
0
331
1CC
331
206
102
}
  0
BLOCK_RECORD
  5
18B
330
1
100
AcDbSymbolTableRecord
100
AcDbBlockTableRecord
  2
*D9
340
0
  0
BLOCK_RECORD
  5
198
330
1
100
AcDbSymbolTableRecord
100
AcDbBlockTableRecord
  2
*D10
340
0
  0
BLOCK_RECORD
  5
1A6
330
1
100
AcDbSymbolTableRecord
100
AcDbBlockTableRecord
  2
*D11
340
0
  0
BLOCK_RECORD
  5
1B3
330
1
100
AcDbSymbolTableRecord
100
AcDbBlockTableRecord
  2
*D12
340
0
  0
BLOCK_RECORD
  5
1C0
330
1
100
AcDbSymbolTableRecord
100
AcDbBlockTableRecord
  2
*D13
340
0
  0
BLOCK_RECORD
  5
228
330
1
100
AcDbSymbolTableRecord
100
AcDbBlockTableRecord
  2
*D14
340
0
  0
BLOCK_RECORD
  5
234
330
1
100
AcDbSymbolTableRecord
100
AcDbBlockTableRecord
  2
*D15
340
0
  0
BLOCK_RECORD
  5
241
330
1
100
AcDbSymbolTableRecord
100
AcDbBlockTableRecord
  2
*D16
340
0
  0
BLOCK_RECORD
  5
24D
330
1
100
AcDbSymbolTableRecord
100
AcDbBlockTableRecord
  2
*D17
340
0
  0
BLOCK_RECORD
  5
259
330
1
100
AcDbSymbolTableRecord
100
AcDbBlockTableRecord
  2
*D18
340
0
  0
ENDTAB
  0
ENDSEC
  0
SECTION
  2
BLOCKS
  0
BLOCK
  5
20
330
1F
100
AcDbEntity
  8
0
100
AcDbBlockBegin
  2
*Model_Space
 70
     0
 10
0.0
 20
0.0
 30
0.0
  3
*Model_Space
  1
*Model_Space
  0
ENDBLK
  5
21
330
1F
100
AcDbEntity
  8
0
100
AcDbBlockEnd
  0
BLOCK
  5
1C
330
1B
100
AcDbEntity
 67
     1
  8
0
100
AcDbBlockBegin
  2
*Paper_Space
 70
     0
 10
0.0
 20
0.0
 30
0.0
  3
*Paper_Space
  1
*Paper_Space
  0
ENDBLK
  5
1D
330
1B
100
AcDbEntity
 67
     1
  8
0
100
AcDbBlockEnd
  0
BLOCK
  5
24
330
23
100
AcDbEntity
  8
0
100
AcDbBlockBegin
  2
*Paper_Space0
 70
     0
 10
0.0
 20
0.0
 30
0.0
  3
*Paper_Space0
  1
*Paper_Space0
  0
ENDBLK
  5
25
330
23
100
AcDbEntity
  8
0
100
AcDbBlockEnd
  0
BLOCK
  5
83
330
82
100
AcDbEntity
  8
0
100
AcDbBlockBegin
  2
블럭10
 70
     2
 10
0.0
 20
0.0
 30
0.0
  3
블럭10
  1
블럭10
  0
ELLIPSE
  5
85
330
82
100
AcDbEntity
  8
중심선
100
AcDbEllipse
 10
20.54032771741204
 20
12.0471743016438
 30
0.0
 11
6.600054785286829
 21
-1.261213355974178E-13
 31
0.0
210
0.0
220
0.0
230
1.0
 40
0.636358354079598
 41
0.9219305317359503
 42
6.513795318482858
  0
ELLIPSE
  5
86
330
82
100
AcDbEntity
  8
중심선
100
AcDbEllipse
 10
20.54032771746488
 20
12.04717430159265
 30
0.0
 11
3.960054785062283
 21
1.540847449632565E-10
 31
0.0
210
0.0
220
0.0
230
1.0
 40
0.3939339440162632
 41
1.131841032648279
 42
5.62031148352944
  0
LINE
  5
87
330
82
100
AcDbEntity
  8
중심선
100
AcDbLine
 10
2.268634060543552
 20
16.24717430164393
 30
0.0
 11
5.714909304380834
 21
16.24717430164393
 31
0.0
  0
LINE
  5
88
330
82
100
AcDbEntity
  8
중심선
100
AcDbLine
 10
5.245725140726316
 20
7.84717430164391
 30
0.0
 11
8.692000384563599
 21
7.84717430164391
 31
0.0
  0
LINE
  5
89
330
82
100
AcDbEntity
  8
중심선
100
AcDbLine
 10
15.74043728645272
 20
16.24717430164393
 30
0.0
 11
8.692000384563599
 21
7.84717430164391
 31
0.0
  0
LINE
  5
8A
330
82
100
AcDbEntity
  8
중심선
100
AcDbLine
 10
0.1404042013395286
 20
13.71084872107135
 30
0.0
 11
3.58671253028996
 21
13.71088815037384
 31
0.0
  0
LINE
  5
8B
330
82
100
AcDbEntity
  8
중심선
100
AcDbLine
 10
2.750260043222114
 20
10.84717430164391
 30
0.0
 11
6.196535287059397
 21
10.84717430164391
 31
0.0
  0
LINE
  5
8C
330
82
100
AcDbEntity
  8
중심선
100
AcDbLine
 10
12.29416204261559
 20
16.24717430164393
 30
0.0
 11
5.245725140726316
 21
7.84717430164391
 31
0.0
  0
LINE
  5
8D
330
82
100
AcDbEntity
  8
중심선
100
AcDbLine
 10
10.72767329541681
 20
16.24717430164393
 30
0.0
 11
6.196535287059397
 21
10.84717430164391
 31
0.0
  0
LINE
  5
8E
330
82
100
AcDbEntity
  8
중심선
100
AcDbLine
 10
7.28139805157953
 20
16.24717430164393
 30
0.0
 11
2.750260043222114
 21
10.84717430164391
 31
0.0
  0
LINE
  5
8F
330
82
100
AcDbEntity
  8
중심선
100
AcDbLine
 10
5.714909304380834
 20
16.24717430164393
 30
0.0
 11
3.58671253028996
 21
13.71088815037384
 31
0.0
  0
LINE
  5
90
330
82
100
AcDbEntity
  8
중심선
100
AcDbLine
 10
2.268634060543552
 20
16.24717430164393
 30
0.0
 11
0.1404042013395286
 21
13.71084872107135
 31
0.0
  0
LINE
  5
91
330
82
100
AcDbEntity
  8
중심선
100
AcDbLine
 10
7.28139805157953
 20
16.24717430164393
 30
0.0
 11
10.72767329541681
 21
16.24717430164393
 31
0.0
  0
LINE
  5
92
330
82
100
AcDbEntity
  8
중심선
100
AcDbLine
 10
12.29416204261559
 20
16.24717430164393
 30
0.0
 11
15.74043728645272
 21
16.24717430164393
 31
0.0
  0
LINE
  5
93
330
82
100
AcDbEntity
  8
중심선
100
AcDbLine
 10
19.22036997980202
 20
11.08717430171403
 30
0.0
 11
23.66174974927406
 21
11.08717430171406
 31
0.0
  0
LINE
  5
94
330
82
100
AcDbEntity
  8
중심선
100
AcDbLine
 10
19.22039502424796
 20
13.00717430171391
 30
0.0
 11
19.22036997980202
 21
11.08717430171403
 31
0.0
  0
LINE
  5
95
330
82
100
AcDbEntity
  8
중심선
100
AcDbLine
 10
19.22039502424796
 20
13.00717430171391
 30
0.0
 11
26.96566020931264
 21
13.00717430171391
 31
0.0
  0
LINE
  5
96
330
82
100
AcDbEntity
  8
중심선
100
AcDbLine
 10
22.22332737316547
 20
13.45928029700563
 30
0.0
 11
24.52862924686651
 21
15.39360700705356
 31
0.0
  0
ATTDEF
  5
98
330
82
100
AcDbEntity
  8
FORMAT
 62
     2
100
AcDbText
 10
-9.18129528874128
 20
2.075366912832191
 30
0.0
 40
4.233333333333333
  1
E5976064 [ 2 FLUTE ]
 41
0.75
  7
SLDTEXTSTYLE0
 11
-9.18129528874128
 21
-0.0412997538344756
 31
0.0
100
AcDbAttributeDefinition
  3

  2
AUTOATTR0
 70
     0
 74
     1
  0
ENDBLK
  5
84
330
82
100
AcDbEntity
  8
0
100
AcDbBlockEnd
  0
BLOCK
  5
C9
330
C8
100
AcDbEntity
  8
0
100
AcDbBlockBegin
  2
_D
 70
     0
 10
0.0
 20
0.0
 30
0.0
  3
_D
  1
_D
  0
SOLID
  5
CB
330
C8
100
AcDbEntity
  8
치수문자_일반주서
100
AcDbTrace
 10
-96.6976509022191
 20
12.70107492872388
 30
0.0
 11
-96.1896509022191
 21
16.00307492872388
 31
0.0
 12
-97.20565090221909
 22
16.00307492872388
 32
0.0
 13
-97.20565090221909
 23
16.00307492872388
 33
0.0
  0
SOLID
  5
CC
330
C8
100
AcDbEntity
  8
치수문자_일반주서
100
AcDbTrace
 10
-96.6976509022191
 20
-12.6989250712761
 30
0.0
 11
-97.20565090221909
 21
-16.0009250712761
 31
0.0
 12
-96.1896509022191
 22
-16.0009250712761
 32
0.0
 13
-96.1896509022191
 23
-16.0009250712761
 33
0.0
  0
LINE
  5
CD
330
C8
100
AcDbEntity
  8
치수문자_일반주서
100
AcDbLine
 10
-107.4905326182618
 20
-4.524619601733443
 30
0.0
 11
-107.4905326182618
 21
-5.591025859184024
 31
0.0
  0
LINE
  5
CE
330
C8
100
AcDbEntity
  8
치수문자_일반주서
100
AcDbLine
 10
-107.4905326182618
 20
-5.591025859184024
 30
0.0
 11
-101.9342826272025
 21
-5.591025859183985
 31
0.0
  0
LINE
  5
CF
330
C8
100
AcDbEntity
  8
치수문자_일반주서
100
AcDbLine
 10
-101.9342826272025
 20
-5.591025859183985
 30
0.0
 11
-101.9342826272025
 21
-4.524619601733404
 31
0.0
  0
LINE
  5
D0
330
C8
100
AcDbEntity
  8
치수문자_일반주서
100
AcDbLine
 10
-107.4905326182619
 20
4.526769459181073
 30
0.0
 11
-107.4905326182619
 21
5.593175716631654
 31
0.0
  0
LINE
  5
D1
330
C8
100
AcDbEntity
  8
치수문자_일반주서
100
AcDbLine
 10
-107.4905326182619
 20
5.593175716631654
 30
0.0
 11
-101.9342826272026
 21
5.593175716631693
 31
0.0
  0
LINE
  5
D2
330
C8
100
AcDbEntity
  8
치수문자_일반주서
100
AcDbLine
 10
-101.9342826272026
 20
5.593175716631693
 30
0.0
 11
-101.9342826272026
 21
4.526769459181113
 31
0.0
  0
LINE
  5
D3
330
C8
100
AcDbEntity
  8
치수문자_일반주서
100
AcDbLine
 10
-85.20119288060702
 20
12.70107492872388
 30
0.0
 11
-97.6976509022191
 21
12.70107492872388
 31
0.0
  0
LINE
  5
D4
330
C8
100
AcDbEntity
  8
치수문자_일반주서
100
AcDbLine
 10
-85.20119288060702
 20
-12.6989250712761
 30
0.0
 11
-97.6976509022191
 21
-12.6989250712761
 31
0.0
  0
LINE
  5
D5
330
C8
100
AcDbEntity
  8
치수문자_일반주서
100
AcDbLine
 10
-96.6976509022191
 20
12.70107492872388
 30
0.0
 11
-96.6976509022191
 21
19.05107492872389
 31
0.0
  0
LINE
  5
D6
330
C8
100
AcDbEntity
  8
치수문자_일반주서
100
AcDbLine
 10
-96.6976509022191
 20
12.70107492872388
 30
0.0
 11
-96.6976509022191
 21
-12.6989250712761
 31
0.0
  0
LINE
  5
D7
330
C8
100
AcDbEntity
  8
치수문자_일반주서
100
AcDbLine
 10
-96.6976509022191
 20
-12.6989250712761
 30
0.0
 11
-96.6976509022191
 21
-19.04892507127611
 31
0.0
  0
MTEXT
  5
D8
330
C8
100
AcDbEntity
  8
치수문자_일반주서
100
AcDbMText
 10
-106.4460195417814
 20
-4.524619601733436
 30
0.0
 40
3.5
 41
0.0
 71
     1
 72
     1
  1
1.00
  7
SLDTEXTSTYLE0
 11
-7.044195017643634E-15
 21
1.0
 31
0.0
 73
     1
 44
1.0
  0
MTEXT
  5
D9
330
C8
100
AcDbEntity
  8
치수문자_일반주서
100
AcDbMText
 10
-101.2093879914209
 20
-8.456894014097168
 30
0.0
 40
3.5
 41
0.0
 71
     1
 72
     1
  1
%%c
  7
SLDTEXTSTYLE0
 11
-7.044195017643634E-15
 21
1.0
 31
0.0
 73
     1
 44
1.0
  0
MTEXT
  5
DA
330
C8
100
AcDbEntity
  8
치수문자_일반주서
100
AcDbMText
 10
-101.209387991421
 20
-3.178456615723087
 30
0.0
 40
3.5
 41
0.0
 71
     1
 72
     1
  1
25.40
  7
SLDTEXTSTYLE0
 11
-7.044195017643634E-15
 21
1.0
 31
0.0
 73
     1
 44
1.0
  0
ENDBLK
  5
CA
330
C8
100
AcDbEntity
  8
0
100
AcDbBlockEnd
  0
BLOCK
  5
DE
330
DD
100
AcDbEntity
  8
0
100
AcDbBlockBegin
  2
_D_1
 70
     0
 10
0.0
 20
0.0
 30
0.0
  3
_D_1
  1
_D_1
  0
SOLID
  5
E0
330
DD
100
AcDbEntity
  8
치수문자_일반주서
100
AcDbTrace
 10
76.94223132094031
 20
12.69034108214036
 30
0.0
 11
76.43423132094031
 21
9.388341082140364
 31
0.0
 12
77.4502313209403
 22
9.388341082140364
 32
0.0
 13
77.4502313209403
 23
9.388341082140364
 33
0.0
  0
SOLID
  5
E1
330
DD
100
AcDbEntity
  8
치수문자_일반주서
100
AcDbTrace
 10
76.94223132094031
 20
-12.68819122469258
 30
0.0
 11
77.4502313209403
 21
-9.386191224692576
 31
0.0
 12
76.43423132094031
 22
-9.386191224692576
 32
0.0
 13
76.43423132094031
 23
-9.386191224692576
 33
0.0
  0
LINE
  5
E2
330
DD
100
AcDbEntity
  8
치수문자_일반주서
100
AcDbLine
 10
66.14934960489757
 20
37.20344287888086
 30
0.0
 11
66.14934960489758
 21
36.13703662143028
 31
0.0
  0
LINE
  5
E3
330
DD
100
AcDbEntity
  8
치수문자_일반주서
100
AcDbLine
 10
66.14934960489758
 20
36.13703662143028
 30
0.0
 11
71.70559959595688
 21
36.13703662143032
 31
0.0
  0
LINE
  5
E4
330
DD
100
AcDbEntity
  8
치수문자_일반주서
100
AcDbLine
 10
71.70559959595688
 20
36.13703662143032
 30
0.0
 11
71.70559959595687
 21
37.2034428788809
 31
0.0
  0
LINE
  5
E5
330
DD
100
AcDbEntity
  8
치수문자_일반주서
100
AcDbLine
 10
66.14934960489751
 20
46.25483193979537
 30
0.0
 11
66.1493496048975
 21
47.32123819724595
 31
0.0
  0
LINE
  5
E6
330
DD
100
AcDbEntity
  8
치수문자_일반주서
100
AcDbLine
 10
66.1493496048975
 20
47.32123819724595
 30
0.0
 11
71.7055995959568
 21
47.321238197246
 31
0.0
  0
LINE
  5
E7
330
DD
100
AcDbEntity
  8
치수문자_일반주서
100
AcDbLine
 10
71.7055995959568
 20
47.321238197246
 30
0.0
 11
71.70559959595681
 21
46.25483193979542
 31
0.0
  0
LINE
  5
E8
330
DD
100
AcDbEntity
  8
치수문자_일반주서
100
AcDbLine
 10
42.79880711939298
 20
12.69034108214037
 30
0.0
 11
77.94223132094031
 21
12.69034108214036
 31
0.0
  0
LINE
  5
E9
330
DD
100
AcDbEntity
  8
치수문자_일반주서
100
AcDbLine
 10
42.79880711939298
 20
-12.68819122469257
 30
0.0
 11
77.94223132094031
 21
-12.68819122469258
 31
0.0
  0
LINE
  5
EA
330
DD
100
AcDbEntity
  8
치수문자_일반주서
100
AcDbLine
 10
76.94223132094031
 20
12.69034108214036
 30
0.0
 11
76.94223132094031
 21
50.1871063521592
 31
0.0
  0
LINE
  5
EB
330
DD
100
AcDbEntity
  8
치수문자_일반주서
100
AcDbLine
 10
76.94223132094031
 20
12.69034108214036
 30
0.0
 11
76.94223132094031
 21
-12.68819122469258
 31
0.0
  0
MTEXT
  5
EC
330
DD
100
AcDbEntity
  8
치수문자_일반주서
100
AcDbMText
 10
67.19386268137798
 20
37.20344287888086
 30
0.0
 40
3.5
 41
0.0
 71
     1
 72
     1
  1
1.00
  7
SLDTEXTSTYLE0
 11
-7.044195017643634E-15
 21
1.0
 31
0.0
 73
     1
 44
1.0
  0
MTEXT
  5
ED
330
DD
100
AcDbEntity
  8
치수문자_일반주서
100
AcDbMText
 10
72.43049423173848
 20
33.27116846651714
 30
0.0
 40
3.5
 41
0.0
 71
     1
 72
     1
  1
%%c
  7
SLDTEXTSTYLE0
 11
-7.044195017643634E-15
 21
1.0
 31
0.0
 73
     1
 44
1.0
  0
MTEXT
  5
EE
330
DD
100
AcDbEntity
  8
치수문자_일반주서
100
AcDbMText
 10
72.43049423173844
 20
38.54960586489122
 30
0.0
 40
3.5
 41
0.0
 71
     1
 72
     1
  1
25.38
  7
SLDTEXTSTYLE0
 11
-7.044195017643634E-15
 21
1.0
 31
0.0
 73
     1
 44
1.0
  0
ENDBLK
  5
DF
330
DD
100
AcDbEntity
  8
0
100
AcDbBlockEnd
  0
BLOCK
  5
F1
330
F0
100
AcDbEntity
  8
0
100
AcDbBlockBegin
  2
_D_2
 70
     0
 10
0.0
 20
0.0
 30
0.0
  3
_D_2
  1
_D_2
  0
SOLID
  5
F3
330
F0
100
AcDbEntity
  8
치수문자_일반주서
100
AcDbTrace
 10
41.79880711939298
 20
16.34839146707805
 30
0.0
 11
38.49680711939298
 21
16.85639146707804
 31
0.0
 12
38.49680711939298
 22
15.84039146707805
 32
0.0
 13
38.49680711939298
 23
15.84039146707805
 33
0.0
  0
SOLID
  5
F4
330
F0
100
AcDbEntity
  8
치수문자_일반주서
100
AcDbTrace
 10
25.92380711939298
 20
16.34839146707805
 30
0.0
 11
29.22580711939298
 21
15.84039146707805
 31
0.0
 12
29.22580711939298
 22
16.85639146707804
 32
0.0
 13
29.22580711939298
 23
16.85639146707804
 33
0.0
  0
LINE
  5
F5
330
F0
100
AcDbEntity
  8
치수문자_일반주서
100
AcDbLine
 10
51.6320105518268
 20
27.14127318312078
 30
0.0
 11
50.56560429437621
 21
27.14127318312079
 31
0.0
  0
LINE
  5
F6
330
F0
100
AcDbEntity
  8
치수문자_일반주서
100
AcDbLine
 10
50.56560429437621
 20
27.14127318312079
 30
0.0
 11
50.56560429437617
 21
21.58502319206148
 31
0.0
  0
LINE
  5
F7
330
F0
100
AcDbEntity
  8
치수문자_일반주서
100
AcDbLine
 10
50.56560429437617
 20
21.58502319206148
 30
0.0
 11
51.63201055182675
 21
21.58502319206148
 31
0.0
  0
LINE
  5
F8
330
F0
100
AcDbEntity
  8
치수문자_일반주서
100
AcDbLine
 10
60.68339961274131
 20
27.14127318312071
 30
0.0
 11
61.74980587019189
 21
27.14127318312071
 31
0.0
  0
LINE
  5
F9
330
F0
100
AcDbEntity
  8
치수문자_일반주서
100
AcDbLine
 10
61.74980587019189
 20
27.14127318312071
 30
0.0
 11
61.74980587019185
 21
21.5850231920614
 31
0.0
  0
LINE
  5
FA
330
F0
100
AcDbEntity
  8
치수문자_일반주서
100
AcDbLine
 10
61.74980587019185
 20
21.5850231920614
 30
0.0
 11
60.68339961274127
 21
21.58502319206141
 31
0.0
  0
LINE
  5
FB
330
F0
100
AcDbEntity
  8
치수문자_일반주서
100
AcDbLine
 10
41.79880711939298
 20
7.345708005432138
 30
0.0
 11
41.79880711939298
 21
17.34839146707805
 31
0.0
  0
LINE
  5
FC
330
F0
100
AcDbEntity
  8
치수문자_일반주서
100
AcDbLine
 10
25.92380711939298
 20
6.039853687543346
 30
0.0
 11
25.92380711939298
 21
17.34839146707805
 31
0.0
  0
LINE
  5
FD
330
F0
100
AcDbEntity
  8
치수문자_일반주서
100
AcDbLine
 10
41.79880711939298
 20
16.34839146707805
 30
0.0
 11
64.10926702591193
 21
16.34839146707805
 31
0.0
  0
LINE
  5
FE
330
F0
100
AcDbEntity
  8
치수문자_일반주서
100
AcDbLine
 10
41.79880711939298
 20
16.34839146707805
 30
0.0
 11
25.92380711939298
 21
16.34839146707805
 31
0.0
  0
MTEXT
  5
FF
330
F0
100
AcDbEntity
  8
치수문자_일반주서
100
AcDbMText
 10
49.51864244016418
 20
20.91360073293977
 30
0.0
 40
3.5
 41
0.0
 71
     1
 72
     1
  1

  7
SLDTEXTSTYLE0
 73
     1
 44
1.0
  0
MTEXT
  5
100
330
F0
100
AcDbEntity
  8
치수문자_일반주서
100
AcDbMText
 10
51.63201055182679
 20
26.09676010664037
 30
0.0
 40
3.5
 41
0.0
 71
     1
 72
     1
  1
0.63
  7
SLDTEXTSTYLE0
 73
     1
 44
1.0
  0
MTEXT
  5
101
330
F0
100
AcDbEntity
  8
치수문자_일반주서
100
AcDbMText
 10
50.33895483865002
 20
20.86012855627991
 30
0.0
 40
3.5
 41
0.0
 71
     1
 72
     1
  1
15.88
  7
SLDTEXTSTYLE0
 73
     1
 44
1.0
  0
MTEXT
  5
102
330
F0
100
AcDbEntity
  8
치수문자_일반주서
100
AcDbMText
 10
64.12871224405774
 20
20.91360073293966
 30
0.0
 40
3.5
 41
0.0
 71
     1
 72
     1
  1

  7
SLDTEXTSTYLE0
 73
     1
 44
1.0
  0
ENDBLK
  5
F2
330
F0
100
AcDbEntity
  8
0
100
AcDbBlockEnd
  0
BLOCK
  5
105
330
104
100
AcDbEntity
  8
0
100
AcDbBlockBegin
  2
_D_3
 70
     0
 10
0.0
 20
0.0
 30
0.0
  3
_D_3
  1
_D_3
  0
SOLID
  5
107
330
104
100
AcDbEntity
  8
치수문자_일반주서
100
AcDbTrace
 10
41.79880711939298
 20
37.71078823285558
 30
0.0
 11
38.49680711939298
 21
38.21878823285558
 31
0.0
 12
38.49680711939298
 22
37.20278823285557
 32
0.0
 13
38.49680711939298
 23
37.20278823285557
 33
0.0
  0
SOLID
  5
108
330
104
100
AcDbEntity
  8
치수문자_일반주서
100
AcDbTrace
 10
-15.35119288060704
 20
37.71078823285557
 30
0.0
 11
-12.04919288060704
 21
37.20278823285557
 31
0.0
 12
-12.04919288060704
 22
38.21878823285557
 32
0.0
 13
-12.04919288060704
 23
38.21878823285557
 33
0.0
  0
LINE
  5
109
330
104
100
AcDbEntity
  8
치수문자_일반주서
100
AcDbLine
 10
45.88845150636875
 20
48.50366994889834
 30
0.0
 11
44.82204524891817
 21
48.50366994889833
 31
0.0
  0
LINE
  5
10A
330
104
100
AcDbEntity
  8
치수문자_일반주서
100
AcDbLine
 10
44.82204524891817
 20
48.50366994889833
 30
0.0
 11
44.82204524891822
 21
42.94741995783903
 31
0.0
  0
LINE
  5
10B
330
104
100
AcDbEntity
  8
치수문자_일반주서
100
AcDbLine
 10
44.82204524891822
 20
42.94741995783903
 30
0.0
 11
45.8884515063688
 21
42.94741995783904
 31
0.0
  0
LINE
  5
10C
330
104
100
AcDbEntity
  8
치수문자_일반주서
100
AcDbLine
 10
54.93984056728327
 20
48.50366994889841
 30
0.0
 11
56.00624682473385
 21
48.50366994889841
 31
0.0
  0
LINE
  5
10D
330
104
100
AcDbEntity
  8
치수문자_일반주서
100
AcDbLine
 10
56.00624682473385
 20
48.50366994889841
 30
0.0
 11
56.00624682473389
 21
42.94741995783911
 31
0.0
  0
LINE
  5
10E
330
104
100
AcDbEntity
  8
치수문자_일반주서
100
AcDbLine
 10
56.00624682473389
 20
42.94741995783911
 30
0.0
 11
54.93984056728331
 21
42.9474199578391
 31
0.0
  0
LINE
  5
10F
330
104
100
AcDbEntity
  8
치수문자_일반주서
100
AcDbLine
 10
41.79880711939298
 20
13.69034108214037
 30
0.0
 11
41.79880711939298
 21
38.71078823285558
 31
0.0
  0
LINE
  5
110
330
104
100
AcDbEntity
  8
치수문자_일반주서
100
AcDbLine
 10
-15.35119288060703
 20
13.20107492872389
 30
0.0
 11
-15.35119288060704
 21
38.71078823285557
 31
0.0
  0
LINE
  5
111
330
104
100
AcDbEntity
  8
치수문자_일반주서
100
AcDbLine
 10
41.79880711939298
 20
37.71078823285558
 30
0.0
 11
58.3657079804539
 21
37.71078823285558
 31
0.0
  0
LINE
  5
112
330
104
100
AcDbEntity
  8
치수문자_일반주서
100
AcDbLine
 10
41.79880711939298
 20
37.71078823285558
 30
0.0
 11
-15.35119288060704
 21
37.71078823285557
 31
0.0
  0
MTEXT
  5
113
330
104
100
AcDbEntity
  8
치수문자_일반주서
100
AcDbMText
 10
43.77508339470624
 20
42.2759974987173
 30
0.0
 40
3.5
 41
0.0
 71
     1
 72
     1
  1

  7
SLDTEXTSTYLE0
 73
     1
 44
1.0
  0
MTEXT
  5
114
330
104
100
AcDbEntity
  8
치수문자_일반주서
100
AcDbMText
 10
45.88845150636876
 20
47.45915687241794
 30
0.0
 40
3.5
 41
0.0
 71
     1
 72
     1
  1
2.25
  7
SLDTEXTSTYLE0
 73
     1
 44
1.0
  0
MTEXT
  5
115
330
104
100
AcDbEntity
  8
치수문자_일반주서
100
AcDbMText
 10
44.59539579319208
 20
42.22252532205746
 30
0.0
 40
3.5
 41
0.0
 71
     1
 72
     1
  1
57.15
  7
SLDTEXTSTYLE0
 73
     1
 44
1.0
  0
MTEXT
  5
116
330
104
100
AcDbEntity
  8
치수문자_일반주서
100
AcDbMText
 10
58.3851531985998
 20
42.2759974987174
 30
0.0
 40
3.5
 41
0.0
 71
     1
 72
     1
  1

  7
SLDTEXTSTYLE0
 73
     1
 44
1.0
  0
ENDBLK
  5
106
330
104
100
AcDbEntity
  8
0
100
AcDbBlockEnd
  0
BLOCK
  5
119
330
118
100
AcDbEntity
  8
0
100
AcDbBlockBegin
  2
_D_4
 70
     0
 10
0.0
 20
0.0
 30
0.0
  3
_D_4
  1
_D_4
  0
SOLID
  5
11B
330
118
100
AcDbEntity
  8
치수문자_일반주서
100
AcDbTrace
 10
41.79880711939298
 20
67.53676109538128
 30
0.0
 11
38.49680711939298
 21
68.04476109538128
 31
0.0
 12
38.49680711939298
 22
67.02876109538128
 32
0.0
 13
38.49680711939298
 23
67.02876109538128
 33
0.0
  0
SOLID
  5
11C
330
118
100
AcDbEntity
  8
치수문자_일반주서
100
AcDbTrace
 10
-85.20119288060702
 20
67.53676109538127
 30
0.0
 11
-81.89919288060702
 21
67.02876109538127
 31
0.0
 12
-81.89919288060702
 22
68.04476109538126
 32
0.0
 13
-81.89919288060702
 23
68.04476109538126
 33
0.0
  0
LINE
  5
11D
330
118
100
AcDbEntity
  8
치수문자_일반주서
100
AcDbLine
 10
-28.51198913978217
 20
78.329642811424
 30
0.0
 11
-29.57839539723275
 21
78.32964281142401
 31
0.0
  0
LINE
  5
11E
330
118
100
AcDbEntity
  8
치수문자_일반주서
100
AcDbLine
 10
-29.57839539723275
 20
78.32964281142401
 30
0.0
 11
-29.57839539723279
 21
72.7733928203647
 31
0.0
  0
LINE
  5
11F
330
118
100
AcDbEntity
  8
치수문자_일반주서
100
AcDbLine
 10
-29.57839539723279
 20
72.7733928203647
 30
0.0
 11
-28.51198913978221
 21
72.77339282036469
 31
0.0
  0
LINE
  5
120
330
118
100
AcDbEntity
  8
치수문자_일반주서
100
AcDbLine
 10
-19.46060007886765
 20
78.32964281142392
 30
0.0
 11
-18.39419382141707
 21
78.32964281142391
 31
0.0
  0
LINE
  5
121
330
118
100
AcDbEntity
  8
치수문자_일반주서
100
AcDbLine
 10
-18.39419382141707
 20
78.32964281142391
 30
0.0
 11
-18.39419382141711
 21
72.7733928203646
 31
0.0
  0
LINE
  5
122
330
118
100
AcDbEntity
  8
치수문자_일반주서
100
AcDbLine
 10
-18.39419382141711
 20
72.7733928203646
 30
0.0
 11
-19.46060007886769
 21
72.77339282036462
 31
0.0
  0
LINE
  5
123
330
118
100
AcDbEntity
  8
치수문자_일반주서
100
AcDbLine
 10
41.79880711939298
 20
13.69034108214037
 30
0.0
 11
41.79880711939298
 21
68.53676109538128
 31
0.0
  0
LINE
  5
124
330
118
100
AcDbEntity
  8
치수문자_일반주서
100
AcDbLine
 10
-85.20119288060702
 20
12.70107492872388
 30
0.0
 11
-85.20119288060702
 21
68.53676109538127
 31
0.0
  0
LINE
  5
125
330
118
100
AcDbEntity
  8
치수문자_일반주서
100
AcDbLine
 10
41.79880711939298
 20
67.53676109538128
 30
0.0
 11
-85.20119288060702
 21
67.53676109538127
 31
0.0
  0
MTEXT
  5
126
330
118
100
AcDbEntity
  8
치수문자_일반주서
100
AcDbMText
 10
-30.62535725144478
 20
72.10197036124298
 30
0.0
 40
3.5
 41
0.0
 71
     1
 72
     1
  1

  7
SLDTEXTSTYLE0
 73
     1
 44
1.0
  0
MTEXT
  5
127
330
118
100
AcDbEntity
  8
치수문자_일반주서
100
AcDbMText
 10
-28.51198913978217
 20
77.28512973494358
 30
0.0
 40
3.5
 41
0.0
 71
     1
 72
     1
  1
5.00
  7
SLDTEXTSTYLE0
 73
     1
 44
1.0
  0
MTEXT
  5
128
330
118
100
AcDbEntity
  8
치수문자_일반주서
100
AcDbMText
 10
-27.86546128319385
 20
72.04849818458311
 30
0.0
 40
3.5
 41
0.0
 71
     1
 72
     1
  1
127
  7
SLDTEXTSTYLE0
 73
     1
 44
1.0
  0
MTEXT
  5
129
330
118
100
AcDbEntity
  8
치수문자_일반주서
100
AcDbMText
 10
-16.01528744755121
 20
72.10197036124288
 30
0.0
 40
3.5
 41
0.0
 71
     1
 72
     1
  1

  7
SLDTEXTSTYLE0
 73
     1
 44
1.0
  0
ENDBLK
  5
11A
330
118
100
AcDbEntity
  8
0
100
AcDbBlockEnd
  0
BLOCK
  5
12B
330
12A
100
AcDbEntity
  8
0
100
AcDbBlockBegin
  2
SW_DOWELSYMBOL_0
 70
     0
 10
0.0
 20
0.0
 30
0.0
  3
SW_DOWELSYMBOL_0
  1
SW_DOWELSYMBOL_0
  0
CIRCLE
  5
12D
330
12A
100
AcDbEntity
  8
외형선
 62
     0
100
AcDbCircle
 10
0.0
 20
0.0
 30
0.0
 40
3.000000000000004
  0
HATCH
  5
12E
330
12A
100
AcDbEntity
  8
0
  6
Continuous
 62
     0
370
    35
100
AcDbHatch
 10
0.0
 20
0.0
 30
0.0
210
0.0
220
0.0
230
1.0
  2
SOLID
 70
     1
 71
     0
 91
        1
 92
        0
 93
        3
 72
     2
 10
0.0000000000000104
 20
0.0
 40
3.000000000000004
 50
0.0
 51
90.0
 73
     1
 72
     1
 10
0.0000000000000104
 20
3.000000000000004
 11
0.0000000000000104
 21
0.0
 72
     1
 10
0.0000000000000104
 20
0.0
 11
3.000000000000015
 21
0.0
 97
        0
 75
     0
 76
     1
 98
        1
 10
0.0
 20
0.0
  0
HATCH
  5
12F
330
12A
100
AcDbEntity
  8
0
  6
Continuous
 62
     0
370
    35
100
AcDbHatch
 10
0.0
 20
0.0
 30
0.0
210
0.0
220
0.0
230
1.0
  2
SOLID
 70
     1
 71
     0
 91
        1
 92
        0
 93
        3
 72
     2
 10
0.0000000000000104
 20
0.0
 40
3.000000000000004
 50
180.0
 51
270.0000000000008
 73
     1
 72
     1
 10
0.0000000000000104
 20
-3.000000000000004
 11
0.0000000000000104
 21
0.0
 72
     1
 10
0.0000000000000104
 20
0.0
 11
-2.999999999999994
 21
0.0
 97
        0
 75
     0
 76
     1
 98
        1
 10
0.0
 20
0.0
  0
ENDBLK
  5
12C
330
12A
100
AcDbEntity
  8
0
100
AcDbBlockEnd
  0
BLOCK
  5
18C
330
18B
100
AcDbEntity
  8
0
100
AcDbBlockBegin
  2
*D9
 70
     1
 10
0.0
 20
0.0
 30
0.0
  3
*D9
  1
*D9
  0
LINE
  5
18D
330
18B
100
AcDbEntity
  8
치수문자_일반주서
 62
     0
370
    -2
100
AcDbLine
 10
16.80895802161211
 20
25.40000000000003
 30
0.0
 11
4.374999999999991
 21
25.39999999999999
 31
0.0
  0
LINE
  5
18E
330
18B
100
AcDbEntity
  8
치수문자_일반주서
 62
     0
370
    -2
100
AcDbLine
 10
16.80895802161211
 20
0.000000000000046
 30
0.0
 11
4.37500000000008
 21
0.0
 31
0.0
  0
LINE
  5
18F
330
18B
100
AcDbEntity
  8
치수문자_일반주서
 62
     0
370
    -2
100
AcDbLine
 10
4.375000000000003
 20
22.09799999999999
 30
0.0
 11
4.375000000000068
 21
3.302
 31
0.0
  0
SOLID
  5
190
330
18B
100
AcDbEntity
  8
치수문자_일반주서
 62
     0
100
AcDbTrace
 10
4.925333333333336
 20
22.09799999999999
 30
0.0
 11
3.82466666666667
 21
22.09799999999998
 31
0.0
 12
4.374999999999991
 22
25.39999999999999
 32
0.0
 13
4.374999999999991
 23
25.39999999999999
 33
0.0
  0
SOLID
  5
191
330
18B
100
AcDbEntity
  8
치수문자_일반주서
 62
     0
100
AcDbTrace
 10
3.824666666666735
 20
3.301999999999998
 30
0.0
 11
4.925333333333402
 21
3.302000000000001
 31
0.0
 12
4.37500000000008
 22
0.0
 32
0.0
 13
4.37500000000008
 23
0.0
 33
0.0
  0
MTEXT
  5
192
330
18B
100
AcDbEntity
  8
치수문자_일반주서
 62
     0
100
AcDbMText
 10
0.0000000000000355
 20
12.70000000000003
 30
0.0
 40
3.5
 41
0.0
 71
     2
 72
     1
  1
\A1;%%c25.40 [1]
  7
SLDTEXTSTYLE0
 11
-3.496765431890258E-15
 21
1.0
 31
0.0
 73
     1
 44
1.0
  0
POINT
  5
193
330
18B
100
AcDbEntity
  8
Defpoints
 62
     0
100
AcDbPoint
 10
16.87145802161211
 20
25.40000000000003
 30
0.0
  0
POINT
  5
194
330
18B
100
AcDbEntity
  8
Defpoints
 62
     0
100
AcDbPoint
 10
16.87145802161211
 20
0.0000000000000462
 30
0.0
  0
POINT
  5
195
330
18B
100
AcDbEntity
  8
Defpoints
 62
     0
100
AcDbPoint
 10
4.375000000000078
 20
-0.0000000000000005
 30
0.0
  0
ENDBLK
  5
196
330
18B
100
AcDbEntity
  8
0
100
AcDbBlockEnd
  0
BLOCK
  5
199
330
198
100
AcDbEntity
  8
0
100
AcDbBlockBegin
  2
*D10
 70
     1
 10
0.0
 20
0.0
 30
0.0
  3
*D10
  1
*D10
  0
LINE
  5
19A
330
198
100
AcDbEntity
  8
치수문자_일반주서
 62
     0
370
    -2
100
AcDbLine
 10
168.3339580216121
 20
25.38926615341653
 30
0.0
 11
188.1696629175692
 21
25.38926615341661
 31
0.0
  0
LINE
  5
19B
330
198
100
AcDbEntity
  8
치수문자_일반주서
 62
     0
370
    -2
100
AcDbLine
 10
168.3339580216121
 20
0.010733846583568
 30
0.0
 11
188.1696629175693
 21
0.0107338465836406
 31
0.0
  0
LINE
  5
19C
330
198
100
AcDbEntity
  8
치수문자_일반주서
 62
     0
370
    -2
100
AcDbLine
 10
188.1696629175692
 20
25.38926615341661
 30
0.0
 11
188.1696629175691
 21
65.80306248061439
 31
0.0
  0
LINE
  5
19D
330
198
100
AcDbEntity
  8
치수문자_일반주서
 62
     0
370
    -2
100
AcDbLine
 10
188.1696629175692
 20
22.08726615341661
 30
0.0
 11
188.1696629175693
 21
3.31273384658364
 31
0.0
  0
SOLID
  5
19E
330
198
100
AcDbEntity
  8
치수문자_일반주서
 62
     0
100
AcDbTrace
 10
188.7199962509025
 20
22.08726615341661
 30
0.0
 11
187.6193295842359
 21
22.0872661534166
 31
0.0
 12
188.1696629175692
 22
25.38926615341661
 32
0.0
 13
188.1696629175692
 23
25.38926615341661
 33
0.0
  0
SOLID
  5
19F
330
198
100
AcDbEntity
  8
치수문자_일반주서
 62
     0
100
AcDbTrace
 10
187.6193295842359
 20
3.312733846583638
 30
0.0
 11
188.7199962509026
 21
3.312733846583642
 31
0.0
 12
188.1696629175693
 22
0.0107338465836406
 32
0.0
 13
188.1696629175693
 23
0.0107338465836406
 33
0.0
  0
MTEXT
  5
1A0
330
198
100
AcDbEntity
  8
치수문자_일반주서
 62
     0
100
AcDbMText
 10
183.7946629175691
 20
54.42806248061438
 30
0.0
 40
3.5
 41
0.0
 71
     2
 72
     1
  1
\A1;%%c25.38 [1]
  7
SLDTEXTSTYLE0
 11
-3.359734410971239E-15
 21
1.0
 31
0.0
 73
     1
 44
1.0
  0
POINT
  5
1A1
330
198
100
AcDbEntity
  8
Defpoints
 62
     0
100
AcDbPoint
 10
168.2714580216121
 20
25.38926615341653
 30
0.0
  0
POINT
  5
1A2
330
198
100
AcDbEntity
  8
Defpoints
 62
     0
100
AcDbPoint
 10
168.2714580216121
 20
0.0107338465835678
 30
0.0
  0
POINT
  5
1A3
330
198
100
AcDbEntity
  8
Defpoints
 62
     0
100
AcDbPoint
 10
188.1696629175693
 20
0.0107338465836421
 30
0.0
  0
ENDBLK
  5
1A4
330
198
100
AcDbEntity
  8
0
100
AcDbBlockEnd
  0
BLOCK
  5
1A7
330
1A6
100
AcDbEntity
  8
0
100
AcDbBlockBegin
  2
*D11
 70
     1
 10
0.0
 20
0.0
 30
0.0
  3
*D11
  1
*D11
  0
LINE
  5
1A8
330
1A6
100
AcDbEntity
  8
치수문자_일반주서
 62
     0
370
    -2
100
AcDbLine
 10
168.2714580216121
 20
19.1071330767083
 30
0.0
 11
168.2714580216121
 21
38.58985722180214
 31
0.0
  0
LINE
  5
1A9
330
1A6
100
AcDbEntity
  8
치수문자_일반주서
 62
     0
370
    -2
100
AcDbLine
 10
139.6964580216121
 20
24.96250000000004
 30
0.0
 11
139.6964580216121
 21
38.58985722180214
 31
0.0
  0
LINE
  5
1AA
330
1A6
100
AcDbEntity
  8
치수문자_일반주서
 62
     0
370
    -2
100
AcDbLine
 10
164.9694580216122
 20
38.58985722180214
 30
0.0
 11
142.9984580216121
 21
38.58985722180214
 31
0.0
  0
SOLID
  5
1AB
330
1A6
100
AcDbEntity
  8
치수문자_일반주서
 62
     0
100
AcDbTrace
 10
164.9694580216122
 20
38.03952388846881
 30
0.0
 11
164.9694580216122
 21
39.14019055513548
 31
0.0
 12
168.2714580216121
 22
38.58985722180214
 32
0.0
 13
168.2714580216121
 23
38.58985722180214
 33
0.0
  0
SOLID
  5
1AC
330
1A6
100
AcDbEntity
  8
치수문자_일반주서
 62
     0
100
AcDbTrace
 10
142.9984580216121
 20
39.14019055513548
 30
0.0
 11
142.9984580216121
 21
38.03952388846881
 31
0.0
 12
139.6964580216121
 22
38.58985722180214
 32
0.0
 13
139.6964580216121
 23
38.58985722180214
 33
0.0
  0
MTEXT
  5
1AD
330
1A6
100
AcDbEntity
  8
치수문자_일반주서
 62
     0
100
AcDbMText
 10
161.9968461212132
 20
42.96485722180214
 30
0.0
 40
3.5
 41
0.0
 71
     2
 72
     1
  1
\A1;28.58 [1 1/8]
  7
SLDTEXTSTYLE0
 73
     1
 44
1.0
  0
POINT
  5
1AE
330
1A6
100
AcDbEntity
  8
Defpoints
 62
     0
100
AcDbPoint
 10
168.2714580216121
 20
19.0446330767083
 30
0.0
  0
POINT
  5
1AF
330
1A6
100
AcDbEntity
  8
Defpoints
 62
     0
100
AcDbPoint
 10
139.6964580216121
 20
24.90000000000004
 30
0.0
  0
POINT
  5
1B0
330
1A6
100
AcDbEntity
  8
Defpoints
 62
     0
100
AcDbPoint
 10
139.6964580216121
 20
38.58985722180214
 30
0.0
  0
ENDBLK
  5
1B1
330
1A6
100
AcDbEntity
  8
0
100
AcDbBlockEnd
  0
BLOCK
  5
1B4
330
1B3
100
AcDbEntity
  8
0
100
AcDbBlockBegin
  2
*D12
 70
     1
 10
0.0
 20
0.0
 30
0.0
  3
*D12
  1
*D12
  0
LINE
  5
1B5
330
1B3
100
AcDbEntity
  8
치수문자_일반주서
 62
     0
370
    -2
100
AcDbLine
 10
168.2714580216121
 20
25.45176615341653
 30
0.0
 11
168.2714580216121
 21
50.40971330413173
 31
0.0
  0
LINE
  5
1B6
330
1B3
100
AcDbEntity
  8
치수문자_일반주서
 62
     0
370
    -2
100
AcDbLine
 10
85.72145802161211
 20
24.96250000000004
 30
0.0
 11
85.72145802161211
 21
50.40971330413173
 31
0.0
  0
LINE
  5
1B7
330
1B3
100
AcDbEntity
  8
치수문자_일반주서
 62
     0
370
    -2
100
AcDbLine
 10
164.9694580216122
 20
50.40971330413173
 30
0.0
 11
89.0234580216121
 21
50.40971330413173
 31
0.0
  0
SOLID
  5
1B8
330
1B3
100
AcDbEntity
  8
치수문자_일반주서
 62
     0
100
AcDbTrace
 10
164.9694580216122
 20
49.8593799707984
 30
0.0
 11
164.9694580216122
 21
50.96004663746507
 31
0.0
 12
168.2714580216121
 22
50.40971330413173
 32
0.0
 13
168.2714580216121
 23
50.40971330413173
 33
0.0
  0
SOLID
  5
1B9
330
1B3
100
AcDbEntity
  8
치수문자_일반주서
 62
     0
100
AcDbTrace
 10
89.0234580216121
 20
50.96004663746507
 30
0.0
 11
89.0234580216121
 21
49.8593799707984
 31
0.0
 12
85.72145802161211
 22
50.40971330413173
 32
0.0
 13
85.72145802161211
 23
50.40971330413173
 33
0.0
  0
MTEXT
  5
1BA
330
1B3
100
AcDbEntity
  8
치수문자_일반주서
 62
     0
100
AcDbMText
 10
126.9964580216121
 20
54.78471330413173
 30
0.0
 40
3.5
 41
0.0
 71
     2
 72
     1
  1
\A1;82.55 [3 1/4]
  7
SLDTEXTSTYLE0
 73
     1
 44
1.0
  0
POINT
  5
1BB
330
1B3
100
AcDbEntity
  8
Defpoints
 62
     0
100
AcDbPoint
 10
168.2714580216121
 20
25.38926615341653
 30
0.0
  0
POINT
  5
1BC
330
1B3
100
AcDbEntity
  8
Defpoints
 62
     0
100
AcDbPoint
 10
85.72145802161211
 20
24.90000000000004
 30
0.0
  0
POINT
  5
1BD
330
1B3
100
AcDbEntity
  8
Defpoints
 62
     0
100
AcDbPoint
 10
85.72145802161211
 20
50.40971330413173
 30
0.0
  0
ENDBLK
  5
1BE
330
1B3
100
AcDbEntity
  8
0
100
AcDbBlockEnd
  0
BLOCK
  5
1C1
330
1C0
100
AcDbEntity
  8
0
100
AcDbBlockBegin
  2
*D13
 70
     1
 10
0.0
 20
0.0
 30
0.0
  3
*D13
  1
*D13
  0
LINE
  5
1C2
330
1C0
100
AcDbEntity
  8
치수문자_일반주서
 62
     0
370
    -2
100
AcDbLine
 10
168.2714580216121
 20
25.45176615341653
 30
0.0
 11
168.2714580216121
 21
69.58337891518221
 31
0.0
  0
LINE
  5
1C3
330
1C0
100
AcDbEntity
  8
치수문자_일반주서
 62
     0
370
    -2
100
AcDbLine
 10
15.87145802161211
 20
24.46250000000003
 30
0.0
 11
15.8714580216121
 21
69.58337891518221
 31
0.0
  0
LINE
  5
1C4
330
1C0
100
AcDbEntity
  8
치수문자_일반주서
 62
     0
370
    -2
100
AcDbLine
 10
164.9694580216122
 20
69.58337891518221
 30
0.0
 11
19.1734580216121
 21
69.58337891518221
 31
0.0
  0
SOLID
  5
1C5
330
1C0
100
AcDbEntity
  8
치수문자_일반주서
 62
     0
100
AcDbTrace
 10
164.9694580216122
 20
69.03304558184888
 30
0.0
 11
164.9694580216122
 21
70.13371224851554
 31
0.0
 12
168.2714580216121
 22
69.58337891518221
 32
0.0
 13
168.2714580216121
 23
69.58337891518221
 33
0.0
  0
SOLID
  5
1C6
330
1C0
100
AcDbEntity
  8
치수문자_일반주서
 62
     0
100
AcDbTrace
 10
19.1734580216121
 20
70.13371224851554
 30
0.0
 11
19.1734580216121
 21
69.03304558184888
 31
0.0
 12
15.8714580216121
 22
69.58337891518221
 32
0.0
 13
15.8714580216121
 23
69.58337891518221
 33
0.0
  0
MTEXT
  5
1C7
330
1C0
100
AcDbEntity
  8
치수문자_일반주서
 62
     0
100
AcDbMText
 10
92.07145802161212
 20
73.95837891518221
 30
0.0
 40
3.5
 41
0.0
 71
     2
 72
     1
  1
\A1;152.40 [6]
  7
SLDTEXTSTYLE0
 73
     1
 44
1.0
  0
POINT
  5
1C8
330
1C0
100
AcDbEntity
  8
Defpoints
 62
     0
100
AcDbPoint
 10
168.2714580216121
 20
25.38926615341653
 30
0.0
  0
POINT
  5
1C9
330
1C0
100
AcDbEntity
  8
Defpoints
 62
     0
100
AcDbPoint
 10
15.87145802161211
 20
24.40000000000003
 30
0.0
  0
POINT
  5
1CA
330
1C0
100
AcDbEntity
  8
Defpoints
 62
     0
100
AcDbPoint
 10
15.87145802161211
 20
69.58337891518221
 30
0.0
  0
ENDBLK
  5
1CB
330
1C0
100
AcDbEntity
  8
0
100
AcDbBlockEnd
  0
BLOCK
  5
229
330
228
100
AcDbEntity
  8
0
100
AcDbBlockBegin
  2
*D14
 70
     1
 10
0.0
 20
0.0
 30
0.0
  3
*D14
  1
*D14
  0
LINE
  5
22B
330
228
100
AcDbEntity
  8
치수문자_일반주서
 62
     0
370
    -2
100
AcDbLine
 10
-66.06249999999999
 20
12.69999999999998
 30
0.0
 11
-78.49645802161211
 21
12.69999999999994
 31
0.0
  0
LINE
  5
22C
330
228
100
AcDbEntity
  8
치수문자_일반주서
 62
     0
370
    -2
100
AcDbLine
 10
-66.06249999999999
 20
-12.70000000000001
 30
0.0
 11
-78.49645802161203
 21
-12.70000000000005
 31
0.0
  0
LINE
  5
22D
330
228
100
AcDbEntity
  8
치수문자_일반주서
 62
     0
370
    -2
100
AcDbLine
 10
-78.4964580216121
 20
9.397999999999936
 30
0.0
 11
-78.49645802161204
 21
-9.398000000000053
 31
0.0
  0
SOLID
  5
22E
330
228
100
AcDbEntity
  8
치수문자_일반주서
 62
     0
100
AcDbTrace
 10
-77.94612468827877
 20
9.397999999999938
 30
0.0
 11
-79.04679135494543
 21
9.397999999999934
 31
0.0
 12
-78.49645802161211
 22
12.69999999999994
 32
0.0
 13
-78.49645802161211
 23
12.69999999999994
 33
0.0
  0
SOLID
  5
22F
330
228
100
AcDbEntity
  8
치수문자_일반주서
 62
     0
100
AcDbTrace
 10
-79.04679135494537
 20
-9.398000000000055
 30
0.0
 11
-77.94612468827872
 21
-9.398000000000051
 31
0.0
 12
-78.49645802161203
 22
-12.70000000000005
 32
0.0
 13
-78.49645802161203
 23
-12.70000000000005
 33
0.0
  0
MTEXT
  5
230
330
228
100
AcDbEntity
  8
치수문자_일반주서
 62
     0
100
AcDbMText
 10
-82.87145802161207
 20
-0.0000000000000262
 30
0.0
 40
3.5
 41
0.0
 71
     2
 72
     1
  1
\A1;%%c25.40 [1]
  7
SLDTEXTSTYLE0
 11
-3.356894814614648E-15
 21
1.0
 31
0.0
 73
     1
 44
1.0
  0
POINT
  5
231
330
228
100
AcDbEntity
  8
Defpoints
 62
     0
100
AcDbPoint
 10
-65.99999999999999
 20
12.69999999999998
 30
0.0
  0
POINT
  5
232
330
228
100
AcDbEntity
  8
Defpoints
 62
     0
100
AcDbPoint
 10
-65.99999999999999
 20
-12.70000000000001
 30
0.0
  0
POINT
  5
233
330
228
100
AcDbEntity
  8
Defpoints
 62
     0
100
AcDbPoint
 10
-78.49645802161203
 20
-12.70000000000005
 30
0.0
  0
ENDBLK
  5
22A
330
228
100
AcDbEntity
  8
0
100
AcDbBlockEnd
  0
BLOCK
  5
235
330
234
100
AcDbEntity
  8
0
100
AcDbBlockBegin
  2
*D15
 70
     1
 10
0.0
 20
0.0
 30
0.0
  3
*D15
  1
*D15
  0
LINE
  5
237
330
234
100
AcDbEntity
  8
치수문자_일반주서
 62
     0
370
    -2
100
AcDbLine
 10
60.06250000000005
 20
12.68926615341648
 30
0.0
 11
79.89820489595711
 21
12.68926615341655
 31
0.0
  0
LINE
  5
238
330
234
100
AcDbEntity
  8
치수문자_일반주서
 62
     0
370
    -2
100
AcDbLine
 10
60.06250000000005
 20
-12.68926615341648
 30
0.0
 11
79.89820489595719
 21
-12.68926615341641
 31
0.0
  0
LINE
  5
239
330
234
100
AcDbEntity
  8
치수문자_일반주서
 62
     0
370
    -2
100
AcDbLine
 10
79.89820489595711
 20
12.68926615341655
 30
0.0
 11
79.89820489595697
 21
53.10306248061434
 31
0.0
  0
LINE
  5
23A
330
234
100
AcDbEntity
  8
치수문자_일반주서
 62
     0
370
    -2
100
AcDbLine
 10
79.89820489595712
 20
9.387266153416551
 30
0.0
 11
79.89820489595718
 21
-9.387266153416412
 31
0.0
  0
SOLID
  5
23B
330
234
100
AcDbEntity
  8
치수문자_일반주서
 62
     0
100
AcDbTrace
 10
80.44853822929045
 20
9.387266153416553
 30
0.0
 11
79.3478715626238
 21
9.38726615341655
 31
0.0
 12
79.89820489595711
 22
12.68926615341655
 32
0.0
 13
79.89820489595711
 23
12.68926615341655
 33
0.0
  0
SOLID
  5
23C
330
234
100
AcDbEntity
  8
치수문자_일반주서
 62
     0
100
AcDbTrace
 10
79.34787156262385
 20
-9.387266153416414
 30
0.0
 11
80.4485382292905
 21
-9.38726615341641
 31
0.0
 12
79.89820489595719
 22
-12.68926615341641
 32
0.0
 13
79.89820489595719
 23
-12.68926615341641
 33
0.0
  0
MTEXT
  5
23D
330
234
100
AcDbEntity
  8
치수문자_일반주서
 62
     0
100
AcDbMText
 10
75.52320489595701
 20
41.72806248061433
 30
0.0
 40
3.5
 41
0.0
 71
     2
 72
     1
  1
\A1;%%c25.38 [1]
  7
SLDTEXTSTYLE0
 11
-3.359734410971240E-15
 21
1.0
 31
0.0
 73
     1
 44
1.0
  0
POINT
  5
23E
330
234
100
AcDbEntity
  8
Defpoints
 62
     0
100
AcDbPoint
 10
60.00000000000005
 20
12.68926615341648
 30
0.0
  0
POINT
  5
23F
330
234
100
AcDbEntity
  8
Defpoints
 62
     0
100
AcDbPoint
 10
60.00000000000005
 20
-12.68926615341648
 30
0.0
  0
POINT
  5
240
330
234
100
AcDbEntity
  8
Defpoints
 62
     0
100
AcDbPoint
 10
79.89820489595718
 20
-12.68926615341641
 30
0.0
  0
ENDBLK
  5
236
330
234
100
AcDbEntity
  8
0
100
AcDbBlockEnd
  0
BLOCK
  5
242
330
241
100
AcDbEntity
  8
0
100
AcDbBlockBegin
  2
*D16
 70
     1
 10
0.0
 20
0.0
 30
0.0
  3
*D16
  1
*D16
  0
LINE
  5
244
330
241
100
AcDbEntity
  8
치수문자_일반주서
 62
     0
370
    -2
100
AcDbLine
 10
60.00000000000005
 20
6.407133076708246
 30
0.0
 11
60.00000000000005
 21
25.88985722180209
 31
0.0
  0
LINE
  5
245
330
241
100
AcDbEntity
  8
치수문자_일반주서
 62
     0
370
    -2
100
AcDbLine
 10
31.425
 20
12.26249999999999
 30
0.0
 11
31.425
 21
25.88985722180209
 31
0.0
  0
LINE
  5
246
330
241
100
AcDbEntity
  8
치수문자_일반주서
 62
     0
370
    -2
100
AcDbLine
 10
56.69800000000005
 20
25.88985722180209
 30
0.0
 11
34.727
 21
25.88985722180209
 31
0.0
  0
SOLID
  5
247
330
241
100
AcDbEntity
  8
치수문자_일반주서
 62
     0
100
AcDbTrace
 10
56.69800000000005
 20
25.33952388846875
 30
0.0
 11
56.69800000000005
 21
26.44019055513542
 31
0.0
 12
60.00000000000005
 22
25.88985722180209
 32
0.0
 13
60.00000000000005
 23
25.88985722180209
 33
0.0
  0
SOLID
  5
248
330
241
100
AcDbEntity
  8
치수문자_일반주서
 62
     0
100
AcDbTrace
 10
34.727
 20
26.44019055513542
 30
0.0
 11
34.727
 21
25.33952388846875
 31
0.0
 12
31.425
 22
25.88985722180209
 32
0.0
 13
31.425
 23
25.88985722180209
 33
0.0
  0
MTEXT
  5
249
330
241
100
AcDbEntity
  8
치수문자_일반주서
 62
     0
100
AcDbMText
 10
53.7253880996011
 20
30.26485722180209
 30
0.0
 40
3.5
 41
0.0
 71
     2
 72
     1
  1
\A1;28.58 [1 1/8]
  7
SLDTEXTSTYLE0
 73
     1
 44
1.0
  0
POINT
  5
24A
330
241
100
AcDbEntity
  8
Defpoints
 62
     0
100
AcDbPoint
 10
60.00000000000005
 20
6.344633076708246
 30
0.0
  0
POINT
  5
24B
330
241
100
AcDbEntity
  8
Defpoints
 62
     0
100
AcDbPoint
 10
31.425
 20
12.19999999999999
 30
0.0
  0
POINT
  5
24C
330
241
100
AcDbEntity
  8
Defpoints
 62
     0
100
AcDbPoint
 10
31.425
 20
25.88985722180209
 30
0.0
  0
ENDBLK
  5
243
330
241
100
AcDbEntity
  8
0
100
AcDbBlockEnd
  0
BLOCK
  5
24E
330
24D
100
AcDbEntity
  8
0
100
AcDbBlockBegin
  2
*D17
 70
     1
 10
0.0
 20
0.0
 30
0.0
  3
*D17
  1
*D17
  0
LINE
  5
250
330
24D
100
AcDbEntity
  8
치수문자_일반주서
 62
     0
370
    -2
100
AcDbLine
 10
60.00000000000005
 20
12.75176615341648
 30
0.0
 11
60.00000000000005
 21
37.70971330413168
 31
0.0
  0
LINE
  5
251
330
24D
100
AcDbEntity
  8
치수문자_일반주서
 62
     0
370
    -2
100
AcDbLine
 10
2.850000000000009
 20
12.26249999999997
 30
0.0
 11
2.850000000000009
 21
37.70971330413168
 31
0.0
  0
LINE
  5
252
330
24D
100
AcDbEntity
  8
치수문자_일반주서
 62
     0
370
    -2
100
AcDbLine
 10
56.69800000000005
 20
37.70971330413168
 30
0.0
 11
6.152000000000008
 21
37.70971330413168
 31
0.0
  0
SOLID
  5
253
330
24D
100
AcDbEntity
  8
치수문자_일반주서
 62
     0
100
AcDbTrace
 10
56.69800000000005
 20
37.15937997079835
 30
0.0
 11
56.69800000000005
 21
38.26004663746502
 31
0.0
 12
60.00000000000005
 22
37.70971330413168
 32
0.0
 13
60.00000000000005
 23
37.70971330413168
 33
0.0
  0
SOLID
  5
254
330
24D
100
AcDbEntity
  8
치수문자_일반주서
 62
     0
100
AcDbTrace
 10
6.152000000000008
 20
38.26004663746502
 30
0.0
 11
6.152000000000008
 21
37.15937997079835
 31
0.0
 12
2.850000000000009
 22
37.70971330413168
 32
0.0
 13
2.850000000000009
 23
37.70971330413168
 33
0.0
  0
MTEXT
  5
255
330
24D
100
AcDbEntity
  8
치수문자_일반주서
 62
     0
100
AcDbMText
 10
18.72500000000003
 20
42.08471330413168
 30
0.0
 40
3.5
 41
0.0
 71
     2
 72
     1
  1
\A1;57.15 [2 1/4]
  7
SLDTEXTSTYLE0
 73
     1
 44
1.0
  0
POINT
  5
256
330
24D
100
AcDbEntity
  8
Defpoints
 62
     0
100
AcDbPoint
 10
60.00000000000005
 20
12.68926615341648
 30
0.0
  0
POINT
  5
257
330
24D
100
AcDbEntity
  8
Defpoints
 62
     0
100
AcDbPoint
 10
2.850000000000009
 20
12.19999999999997
 30
0.0
  0
POINT
  5
258
330
24D
100
AcDbEntity
  8
Defpoints
 62
     0
100
AcDbPoint
 10
2.850000000000009
 20
37.70971330413168
 30
0.0
  0
ENDBLK
  5
24F
330
24D
100
AcDbEntity
  8
0
100
AcDbBlockEnd
  0
BLOCK
  5
25A
330
259
100
AcDbEntity
  8
0
100
AcDbBlockBegin
  2
*D18
 70
     1
 10
0.0
 20
0.0
 30
0.0
  3
*D18
  1
*D18
  0
LINE
  5
25C
330
259
100
AcDbEntity
  8
치수문자_일반주서
 62
     0
370
    -2
100
AcDbLine
 10
60.00000000000005
 20
12.75176615341648
 30
0.0
 11
60.00000000000004
 21
57.75837891518216
 31
0.0
  0
LINE
  5
25D
330
259
100
AcDbEntity
  8
치수문자_일반주서
 62
     0
370
    -2
100
AcDbLine
 10
-66.99999999999999
 20
11.76249999999998
 30
0.0
 11
-67.0
 21
57.75837891518216
 31
0.0
  0
LINE
  5
25E
330
259
100
AcDbEntity
  8
치수문자_일반주서
 62
     0
370
    -2
100
AcDbLine
 10
56.69800000000004
 20
57.75837891518216
 30
0.0
 11
-63.698
 21
57.75837891518216
 31
0.0
  0
SOLID
  5
25F
330
259
100
AcDbEntity
  8
치수문자_일반주서
 62
     0
100
AcDbTrace
 10
56.69800000000004
 20
57.20804558184882
 30
0.0
 11
56.69800000000004
 21
58.30871224851549
 31
0.0
 12
60.00000000000004
 22
57.75837891518216
 32
0.0
 13
60.00000000000004
 23
57.75837891518216
 33
0.0
  0
SOLID
  5
260
330
259
100
AcDbEntity
  8
치수문자_일반주서
 62
     0
100
AcDbTrace
 10
-63.698
 20
58.30871224851549
 30
0.0
 11
-63.698
 21
57.20804558184882
 31
0.0
 12
-67.0
 22
57.75837891518216
 32
0.0
 13
-67.0
 23
57.75837891518216
 33
0.0
  0
MTEXT
  5
261
330
259
100
AcDbEntity
  8
치수문자_일반주서
 62
     0
100
AcDbMText
 10
-3.499999999999964
 20
62.13337891518216
 30
0.0
 40
3.5
 41
0.0
 71
     2
 72
     1
  1
\A1;127.00 [5]
  7
SLDTEXTSTYLE0
 73
     1
 44
1.0
  0
POINT
  5
262
330
259
100
AcDbEntity
  8
Defpoints
 62
     0
100
AcDbPoint
 10
60.00000000000005
 20
12.68926615341648
 30
0.0
  0
POINT
  5
263
330
259
100
AcDbEntity
  8
Defpoints
 62
     0
100
AcDbPoint
 10
-66.99999999999999
 20
11.69999999999998
 30
0.0
  0
POINT
  5
264
330
259
100
AcDbEntity
  8
Defpoints
 62
     0
100
AcDbPoint
 10
-66.99999999999999
 20
57.75837891518216
 30
0.0
  0
ENDBLK
  5
25B
330
259
100
AcDbEntity
  8
0
100
AcDbBlockEnd
  0
ENDSEC
  0
SECTION
  2
ENTITIES
  0
INSERT
  5
BF
330
1F
100
AcDbEntity
  8
0
  6
Continuous
 62
     7
100
AcDbBlockReference
 66
     1
  2
블럭10
 10
-22.93944368806589
 20
-52.04609937292004
 30
0.0
  0
ATTRIB
  5
C0
330
BF
100
AcDbEntity
  8
FORMAT
 62
     2
100
AcDbText
 10
-32.12073897680717
 20
-49.97073246008785
 30
0.0
 40
4.233333333333333
  1
E5976064 [ 2 FLUTE ]
 41
0.75
  7
SLDTEXTSTYLE0
 11
-32.12073897680717
 21
-52.08739912675452
 31
0.0
100
AcDbAttribute
  2
AUTOATTR0
 70
     0
 74
     1
  0
SEQEND
  5
C1
330
BF
100
AcDbEntity
  8
0
  6
Continuous
 62
     7
  0
HATCH
  5
C2
330
1F
100
AcDbEntity
  8
중심선
100
AcDbHatch
 10
0.0
 20
0.0
 30
0.0
210
0.0
220
0.0
230
1.0
  2
SOLID
 70
     1
 71
     0
 91
        1
 92
        0
 93
        4
 72
     1
 10
-17.22453438368504
 20
-35.7989250712761
 11
-20.67080962752232
 21
-35.7989250712761
 72
     1
 10
-20.67080962752232
 20
-35.7989250712761
 11
-22.79903948672635
 21
-38.3352506518487
 72
     1
 10
-22.79903948672635
 20
-38.3352506518487
 11
-19.35273115777591
 21
-38.33521122254621
 72
     1
 10
-19.35273115777591
 20
-38.33521122254621
 11
-17.22453438368504
 21
-35.7989250712761
 97
        0
 75
     0
 76
     1
 98
        1
 10
0.0
 20
0.0
  0
HATCH
  5
C3
330
1F
100
AcDbEntity
  8
중심선
100
AcDbHatch
 10
0.0
 20
0.0
 30
0.0
210
0.0
220
0.0
230
1.0
  2
SOLID
 70
     1
 71
     0
 91
        1
 92
        0
 93
        4
 72
     1
 10
-12.21177039264909
 20
-35.7989250712761
 11
-15.65804563648637
 21
-35.7989250712761
 72
     1
 10
-15.65804563648637
 20
-35.7989250712761
 11
-20.18918364484376
 21
-41.19892507127612
 72
     1
 10
-20.18918364484376
 20
-41.19892507127612
 11
-16.74290840100648
 21
-41.19892507127612
 72
     1
 10
-16.74290840100648
 20
-41.19892507127612
 11
-12.21177039264909
 21
-35.7989250712761
 97
        0
 75
     0
 76
     1
 98
        1
 10
0.0
 20
0.0
  0
HATCH
  5
C4
330
1F
100
AcDbEntity
  8
중심선
100
AcDbHatch
 10
0.0
 20
0.0
 30
0.0
210
0.0
220
0.0
230
1.0
  2
SOLID
 70
     1
 71
     0
 91
        1
 92
        0
 93
        4
 72
     1
 10
-7.199006401613195
 20
-35.79892507127613
 11
-10.64528164545031
 21
-35.7989250712761
 72
     1
 10
-10.64528164545031
 20
-35.7989250712761
 11
-17.69371854733956
 21
-44.19892507127612
 72
     1
 10
-17.69371854733956
 20
-44.19892507127612
 11
-14.24744330350228
 21
-44.19892507127612
 72
     1
 10
-14.24744330350228
 20
-44.19892507127612
 11
-7.199006401613195
 21
-35.79892507127613
 97
        0
 75
     0
 76
     1
 98
        1
 10
0.0
 20
0.0
  0
HATCH
  5
C5
330
1F
100
AcDbEntity
  8
중심선
100
AcDbHatch
 10
0.0
 20
0.0
 30
0.0
210
0.0
220
0.0
230
1.0
  2
SOLID
 70
     1
 71
     0
 91
        1
 92
        0
 93
        6
 72
     3
 10
-2.399115970600996
 20
-39.99892507132738
 11
3.960054785062284
 21
1.540850780301639E-10
 40
0.3939339440162633
 50
17.09539180608433
 51
320.0019657685079
 73
     0
 72
     1
 10
-0.7161163149004002
 20
-38.58681907591441
 11
1.589185558800638
 21
-36.65249236586649
 72
     3
 10
-2.399115970653842
 20
-39.99892507127625
 11
6.600054785286829
 21
-1.249000902703301E-13
 40
0.6363583540795982
 50
39.99873849337408
 51
368.4976242363725
 73
     1
 72
     1
 10
4.026216521246767
 20
-39.03892507120613
 11
-3.71904866381792
 21
-39.0389250712061
 72
     1
 10
-3.71904866381792
 20
-39.0389250712061
 11
-3.719073708263854
 21
-40.95892507120602
 72
     1
 10
-3.719073708263854
 20
-40.95892507120602
 11
0.7223060612081831
 21
-40.95892507120599
 97
        0
 75
     0
 76
     1
 98
        1
 10
0.0
 20
0.0
  0
LINE
  5
1F7
330
1F
100
AcDbEntity
  8
0
  6
Continuous
 62
     4
370
    25
100
AcDbLine
 10
2.350000000000009
 20
-12.70000000000002
 30
0.0
 11
2.850000000000009
 21
-12.20000000000002
 31
0.0
  0
LINE
  5
1F8
330
1F
100
AcDbEntity
  8
0
  6
Continuous
 62
     4
370
    25
100
AcDbLine
 10
2.850000000000009
 20
12.19999999999997
 30
0.0
 11
2.350000000000009
 21
12.69999999999997
 31
0.0
  0
LINE
  5
1F9
330
1F
100
AcDbEntity
  8
0
  6
Continuous
 62
     4
370
    25
100
AcDbLine
 10
-66.06249999999999
 20
-12.70000000000001
 30
0.0
 11
2.350000000000009
 21
-12.7
 31
0.0
  0
LINE
  5
1FA
330
1F
100
AcDbEntity
  8
0
  6
Continuous
 62
     4
370
    25
100
AcDbLine
 10
-65.99999999999999
 20
12.69999999999998
 30
0.0
 11
-66.99999999999999
 21
11.69999999999998
 31
0.0
  0
LINE
  5
1FB
330
1F
100
AcDbEntity
  8
0
  6
Continuous
 62
     4
370
    25
100
AcDbLine
 10
-66.99999999999999
 20
-11.70000000000001
 30
0.0
 11
-65.99999999999999
 21
-12.70000000000001
 31
0.0
  0
LINE
  5
1FC
330
1F
100
AcDbEntity
  8
0
  6
Continuous
 62
     4
370
    25
100
AcDbLine
 10
2.350000000000009
 20
12.69999999999997
 30
0.0
 11
2.350000000000009
 21
-12.70000000000002
 31
0.0
  0
LINE
  5
1FD
330
1F
100
AcDbEntity
  8
0
  6
Continuous
 62
     4
370
    25
100
AcDbLine
 10
-65.99999999999999
 20
12.69999999999998
 30
0.0
 11
-65.99999999999999
 21
-12.70000000000001
 31
0.0
  0
LINE
  5
1FE
330
1F
100
AcDbEntity
  8
0
  6
Continuous
 62
     4
370
    25
100
AcDbLine
 10
31.425
 20
-0.0000000000000081
 30
0.0
 11
31.425
 21
12.69999999999999
 31
0.0
  0
SPLINE
  5
1FF
330
1F
100
AcDbEntity
  8
0
  6
Continuous
 62
     1
370
    25
100
AcDbSpline
210
0.0
220
0.0
230
1.0
 70
    24
 71
     3
 72
    10
 73
     6
 74
     0
 42
0.000000001
 43
0.00000001
 40
0.0
 40
0.0
 40
0.0
 40
0.0
 40
0.5
 40
0.5
 40
1.0
 40
1.0
 40
1.0
 40
1.0
 10
60.00000000000005
 20
8.890000000000004
 30
0.0
 10
60.00000000000005
 20
9.428889661452889
 30
0.0
 10
60.00000000000005
 20
10.05512935461239
 30
0.0
 10
60.00000000000005
 20
11.36897854420287
 30
0.0
 10
60.00000000000005
 20
12.0532326346787
 30
0.0
 10
59.99999999999999
 20
12.68926615341648
 30
0.0
  0
CIRCLE
  5
200
330
1F
100
AcDbEntity
  8
외형선
100
AcDbCircle
 10
0.3500000000000085
 20
-0.0000000000000241
 30
0.0
 40
3.000000000000005
  0
DIMENSION
  5
201
330
1F
100
AcDbEntity
  8
치수문자_일반주서
100
AcDbDimension
  2
*D14
 10
-78.49645802161203
 20
-12.70000000000005
 30
0.0
 11
-78.49645802161207
 21
-0.0000000000000117
 31
0.0
 70
   160
  1
%%c<>
 71
     2
 42
25.39999999999999
 52
-270.0
  3
SLDDIMSTYLE0
100
AcDbAlignedDimension
 13
-65.99999999999999
 23
12.69999999999998
 33
0.0
 14
-65.99999999999999
 24
-12.70000000000001
 34
0.0
 50
90.0000000000002
100
AcDbRotatedDimension
1001
ACAD
1000
DSTYLE
1002
{
1070
   171
1070
     6
1070
   273
1070
     7
1002
}
  0
DIMENSION
  5
202
330
1F
100
AcDbEntity
  8
치수문자_일반주서
100
AcDbDimension
  2
*D15
 10
79.89820489595719
 20
-12.68926615341641
 30
0.0
 11
79.89820489595701
 21
41.72806248061434
 31
0.0
 70
   160
  1
%%c<>
 71
     2
 42
25.37853230683297
 52
-270.0
  3
SLDDIMSTYLE1
100
AcDbAlignedDimension
 13
60.00000000000005
 23
12.68926615341648
 33
0.0
 14
60.00000000000005
 24
-12.68926615341648
 34
0.0
 50
90.0000000000002
100
AcDbRotatedDimension
1001
ACAD
1000
DSTYLE
1002
{
1070
   171
1070
     6
1070
   273
1070
     7
1002
}
  0
DIMENSION
  5
203
330
1F
100
AcDbEntity
  8
치수문자_일반주서
100
AcDbDimension
  2
*D16
 10
31.425
 20
25.88985722180209
 30
0.0
 11
53.7253880996011
 21
25.88985722180209
 31
0.0
 70
   160
  1
<>
 71
     2
 42
28.57500000000004
  3
SLDDIMSTYLE1
100
AcDbAlignedDimension
 13
60.00000000000005
 23
6.344633076708246
 33
0.0
 14
31.425
 24
12.19999999999999
 34
0.0
 50
0.0000000000000769
100
AcDbRotatedDimension
1001
ACAD
1000
DSTYLE
1002
{
1070
   171
1070
     6
1070
   273
1070
     7
1002
}
  0
DIMENSION
  5
204
330
1F
100
AcDbEntity
  8
치수문자_일반주서
100
AcDbDimension
  2
*D17
 10
2.850000000000009
 20
37.70971330413168
 30
0.0
 11
18.72500000000003
 21
37.70971330413168
 31
0.0
 70
   160
  1
<>
 71
     2
 42
57.15000000000004
  3
SLDDIMSTYLE1
100
AcDbAlignedDimension
 13
60.00000000000005
 23
12.68926615341648
 33
0.0
 14
2.850000000000009
 24
12.19999999999997
 34
0.0
 50
0.0000000000000075
100
AcDbRotatedDimension
1001
ACAD
1000
DSTYLE
1002
{
1070
   171
1070
     6
1070
   273
1070
     7
1002
}
  0
DIMENSION
  5
205
330
1F
100
AcDbEntity
  8
치수문자_일반주서
100
AcDbDimension
  2
*D18
 10
-67.0
 20
57.75837891518216
 30
0.0
 11
-3.499999999999964
 21
57.75837891518216
 31
0.0
 70
   160
  1
<>
 71
     2
 42
127.0
  3
SLDDIMSTYLE2
100
AcDbAlignedDimension
 13
60.00000000000005
 23
12.68926615341648
 33
0.0
 14
-66.99999999999999
 24
11.69999999999998
 34
0.0
 50
0.0000000000000046
100
AcDbRotatedDimension
1001
ACAD
1000
DSTYLE
1002
{
1070
   171
1070
     6
1070
   273
1070
     7
1002
}
  0
INSERT
  5
206
330
1F
100
AcDbEntity
  8
외형선
100
AcDbBlockReference
  2
SW_DOWELSYMBOL_0
 10
0.3500000000000085
 20
-0.0000000000000241
 30
0.0
  0
SPLINE
  5
207
330
1F
100
AcDbEntity
  8
0
  6
Continuous
 62
     4
370
    25
100
AcDbSpline
210
0.0
220
0.0
230
1.0
 70
     8
 71
     3
 72
    10
 73
     6
 74
     0
 42
0.000000001
 43
0.00000001
 40
0.0
 40
0.0
 40
0.0
 40
0.0
 40
0.4987269710619557
 40
0.6863040383831285
 40
0.9999999999999999
 40
0.9999999999999999
 40
0.9999999999999999
 40
0.9999999999999999
 10
41.00299968996386
 20
3.254418209138465
 30
0.0
 10
40.665214978035
 20
3.533770625901671
 30
0.0
 10
40.20038547140694
 20
3.918190765338765
 30
0.0
 10
39.52345431171374
 20
4.513740397823413
 30
0.0
 10
39.18310694999052
 20
4.822890724838193
 30
0.0
 10
38.97011804622741
 20
5.016356567839012
 30
0.0
  0
LINE
  5
208
330
1F
100
AcDbEntity
  8
0
  6
Continuous
 62
     4
370
    25
100
AcDbLine
 10
36.92738622095646
 20
3.596744848719497
 30
0.0
 11
36.87032002774537
 21
3.651204590357318
 31
0.0
  0
SPLINE
  5
209
330
1F
100
AcDbEntity
  8
0
  6
Continuous
 62
     1
370
    25
100
AcDbSpline
210
0.0
220
0.0
230
1.0
 70
     8
 71
     3
 72
    22
 73
    18
 74
     0
 42
0.000000001
 43
0.00000001
 40
0.0
 40
0.0
 40
0.0
 40
0.0
 40
0.0776125235301555
 40
0.1469931129901628
 40
0.2087898527191613
 40
0.2643859490375724
 40
0.3158527451146174
 40
0.3903254375177537
 40
0.4576113234425055
 40
0.5099808085563755
 40
0.5587420479740727
 40
0.6234310690308967
 40
0.7067207126028793
 40
0.7777671094719352
 40
0.8299407402256628
 40
0.9154321227552736
 40
1.0
 40
1.0
 40
1.0
 40
1.0
 10
38.57937739550157
 20
10.09190887895787
 30
0.0
 10
38.46335645340115
 20
10.08098652228795
 30
0.0
 10
38.24362027326315
 20
10.06030028332709
 30
0.0
 10
37.89497650616595
 20
10.02784528215108
 30
0.0
 10
37.55387154381764
 20
9.999664007060908
 30
0.0
 10
37.21662757131963
 20
9.97704568088826
 30
0.0
 10
36.82812332837903
 20
9.957833895468077
 30
0.0
 10
36.41677246230733
 20
9.945958433463915
 30
0.0
 10
36.00384975923298
 20
9.934059704839846
 30
0.0
 10
35.6392873565723
 20
9.925553538262754
 30
0.0
 10
35.29791002423274
 20
9.920083624651017
 30
0.0
 10
34.88371607960169
 20
9.917107486435214
 30
0.0
 10
34.4197154663069
 20
9.918782493872932
 30
0.0
 10
33.98216945137835
 20
9.925747958872833
 30
0.0
 10
33.58407689277998
 20
9.937287693687207
 30
0.0
 10
33.15964630829574
 20
9.95197227073007
 30
0.0
 10
32.81222741943747
 20
9.970837745066113
 30
0.0
 10
32.63946130258829
 20
9.98021925783955
 30
0.0
  0
SPLINE
  5
20A
330
1F
100
AcDbEntity
  8
0
  6
Continuous
 62
     1
370
    25
100
AcDbSpline
210
0.0
220
0.0
230
1.0
 70
     8
 71
     3
 72
    31
 73
    27
 74
     0
 42
0.000000001
 43
0.00000001
 40
0.0
 40
0.0
 40
0.0
 40
0.0
 40
0.0526925210762584
 40
0.0956298990852593
 40
0.1311151165553702
 40
0.1610867558735584
 40
0.1861549788122759
 40
0.2110665372298627
 40
0.2472139692284248
 40
0.3075040553743928
 40
0.3504129134726401
 40
0.3916370016740214
 40
0.4405353730457618
 40
0.49548523966969
 40
0.5536965332040417
 40
0.5940376937970566
 40
0.6320279897283865
 40
0.6797139543672404
 40
0.7258509947832871
 40
0.7529328340457574
 40
0.7743396655554186
 40
0.7908019625350877
 40
0.8177893752860872
 40
0.8618353895014854
 40
0.9227118536197397
 40
1.0
 40
1.0
 40
1.0
 40
1.0
 10
57.29149091073003
 20
8.688513757158233
 30
0.0
 10
57.09700849076545
 20
8.659934848780011
 30
0.0
 10
56.74404883320511
 20
8.608067941136312
 30
0.0
 10
56.18678139040161
 20
8.53991648260481
 30
0.0
 10
55.67831803914077
 20
8.48955266945817
 30
0.0
 10
55.26017226016358
 20
8.452726132057563
 30
0.0
 10
54.90537979751229
 20
8.426026433706348
 30
0.0
 10
54.56149992066036
 20
8.404191497273445
 30
0.0
 10
54.04215553783347
 20
8.377507413687574
 30
0.0
 10
53.44530256976196
 20
8.359958670453612
 30
0.0
 10
52.82687945771573
 20
8.355862155992746
 30
0.0
 10
52.25760512713264
 20
8.362861424528106
 30
0.0
 10
51.63566221208344
 20
8.38302010428638
 30
0.0
 10
50.94104280779339
 20
8.421511016145473
 30
0.0
 10
50.28368281095322
 20
8.474371878596799
 30
0.0
 10
49.69812214821012
 20
8.534351483926407
 30
0.0
 10
49.1578206376522
 20
8.598666782004152
 30
0.0
 10
48.59432761375091
 20
8.675947396290844
 30
0.0
 10
48.07538883950433
 20
8.757387353656426
 30
0.0
 10
47.66917776112825
 20
8.827473739102587
 30
0.0
 10
47.39096217819291
 20
8.878370971365303
 30
0.0
 10
47.11447799464661
 20
8.930966264149006
 30
0.0
 10
46.74162102932114
 20
9.005002897764449
 30
0.0
 10
46.17749874098205
 20
9.1249611851932
 30
0.0
 10
45.39606661506109
 20
9.305616935636252
 30
0.0
 10
44.80035569896921
 20
9.46368223513636
 30
0.0
 10
44.4671199136469
 20
9.5521026632136
 30
0.0
  0
SPLINE
  5
20B
330
1F
100
AcDbEntity
  8
0
  6
Continuous
 62
     1
370
    25
100
AcDbSpline
210
0.0
220
0.0
230
1.0
 70
     8
 71
     3
 72
    19
 73
    15
 74
     0
 42
0.000000001
 43
0.00000001
 40
0.0
 40
0.0
 40
0.0
 40
0.0
 40
0.124006439460684
 40
0.2254223741959
 40
0.3041346064352652
 40
0.3938818921644291
 40
0.4799151652543468
 40
0.5942314691757756
 40
0.6833864554963528
 40
0.7414757782972392
 40
0.8054813511872649
 40
0.9009274926147951
 40
0.996161655378817
 40
1.0
 40
1.0
 40
1.0
 40
1.0
 10
44.4671199136469
 20
-9.552102663213603
 30
0.0
 10
44.6947022430682
 20
-9.491179349859891
 30
0.0
 10
45.10840776712245
 20
-9.38043124677909
 30
0.0
 10
45.66323553906437
 20
-9.244570239293083
 30
0.0
 10
46.15491575340507
 20
-9.131029542409529
 30
0.0
 10
46.61079939799878
 20
-9.032171759440871
 30
0.0
 10
47.13233963341093
 20
-8.926410757005009
 30
0.0
 10
47.65732133740033
 20
-8.828436796879444
 30
0.0
 10
48.13039392394614
 20
-8.748765336360144
 30
0.0
 10
48.51390841287957
 20
-8.689270844940232
 30
0.0
 10
48.91002880633277
 20
-8.632036481922732
 30
0.0
 10
49.37382988015468
 20
-8.572349606893312
 30
0.0
 10
49.72829528604847
 20
-8.530835060280516
 30
0.0
 10
49.90744083814752
 20
-8.51339932888213
 30
0.0
 10
49.91438143533696
 20
-8.512723820130049
 30
0.0
  0
SPLINE
  5
20C
330
1F
100
AcDbEntity
  8
0
  6
Continuous
 62
     1
370
    25
100
AcDbSpline
210
0.0
220
0.0
230
1.0
 70
     8
 71
     3
 72
    17
 73
    13
 74
     0
 42
0.000000001
 43
0.00000001
 40
0.0
 40
0.0
 40
0.0
 40
0.0
 40
0.1082318990136187
 40
0.2164094634059733
 40
0.3245618647384967
 40
0.4327184071432382
 40
0.5409083729200805
 40
0.6491542256225767
 40
0.7573678339771859
 40
0.8655353255679665
 40
0.973685924998177
 40
1.0
 40
1.0
 40
1.0
 40
1.0
 10
59.99999999999999
 20
-10.01994775747634
 30
0.0
 10
59.31375932059205
 20
-9.777656179431816
 30
0.0
 10
57.94162246859667
 20
-9.293194658657754
 30
0.0
 10
55.88431366414215
 20
-8.252623377631416
 30
0.0
 10
53.82762894915395
 20
-7.0148809970104
 30
0.0
 10
51.77083108473936
 20
-5.588429424933941
 30
0.0
 10
49.71324889772648
 20
-4.016571348927797
 30
0.0
 10
47.65462549594985
 20
-2.340149862964721
 30
0.0
 10
45.5965812470153
 20
-0.6001598492448671
 30
0.0
 10
43.53949986964397
 20
1.147996061775424
 30
0.0
 10
42.00167521135051
 20
2.45354429230271
 30
0.0
 10
41.14935123458832
 20
3.130593111430032
 30
0.0
 10
40.98255562715382
 20
3.263088233153746
 30
0.0
  0
LINE
  5
20D
330
1F
100
AcDbEntity
  8
0
  6
Continuous
 62
     1
370
    25
100
AcDbLine
 10
60.00000000000028
 20
-12.0515490392451
 30
0.0
 11
59.99999999999999
 21
-10.01994775747634
 31
0.0
  0
LINE
  5
20E
330
1F
100
AcDbEntity
  8
0
  6
Continuous
 62
     1
370
    25
100
AcDbLine
 10
59.99999999999999
 20
-12.68926615341648
 30
0.0
 11
60.00000000000028
 21
-12.0515490392451
 31
0.0
  0
SPLINE
  5
20F
330
1F
100
AcDbEntity
  8
0
  6
Continuous
 62
     1
370
    25
100
AcDbSpline
210
0.0
220
0.0
230
1.0
 70
     8
 71
     3
 72
    10
 73
     6
 74
     0
 42
0.000000001
 43
0.00000001
 40
0.0
 40
0.0
 40
0.0
 40
0.0
 40
0.5
 40
0.5
 40
1.0
 40
1.0
 40
1.0
 40
1.0
 10
59.99999999999999
 20
-3.393985414576469
 30
0.0
 10
59.15065312275197
 20
-2.724561678542321
 30
0.0
 10
58.30915908231565
 20
-2.035434459068276
 30
0.0
 10
56.6420326616278
 20
-0.6173816687384238
 30
0.0
 10
55.81480267606803
 20
0.11283566610797
 30
0.0
 10
55.00000000000085
 20
0.8629873872533346
 30
0.0
  0
LINE
  5
210
330
1F
100
AcDbEntity
  8
0
  6
Continuous
 62
     1
370
    25
100
AcDbLine
 10
54.99999999999999
 20
2.93771943529659
 30
0.0
 11
59.99999999999999
 21
0.0000000000000079
 31
0.0
  0
LINE
  5
211
330
1F
100
AcDbEntity
  8
0
  6
Continuous
 62
     1
370
    25
100
AcDbLine
 10
59.99999999999999
 20
0.0000000000000079
 30
0.0
 11
59.99999999999999
 21
-3.393985414576483
 31
0.0
  0
SPLINE
  5
212
330
1F
100
AcDbEntity
  8
0
  6
Continuous
 62
     1
370
    25
100
AcDbSpline
210
0.0
220
0.0
230
1.0
 70
     8
 71
     3
 72
    15
 73
    11
 74
     0
 42
0.000000001
 43
0.00000001
 40
0.0
 40
0.0
 40
0.0
 40
0.0
 40
0.1264842206190572
 40
0.2529070104188669
 40
0.3792987109396116
 40
0.5056899005766634
 40
0.6321111602222125
 40
0.7563448351925628
 40
0.8805652502640838
 40
1.0
 40
1.0
 40
1.0
 40
1.0
 10
54.99999999999999
 20
3.897494195119308
 30
0.0
 10
54.30755249430336
 20
4.398783342000926
 30
0.0
 10
52.92299379061193
 20
5.401118169798033
 30
0.0
 10
50.84698917848805
 20
6.733025870077058
 30
0.0
 10
48.77163991821271
 20
7.89279079022051
 30
0.0
 10
46.69629735138903
 20
8.839732728817523
 30
0.0
 10
44.63264439550255
 20
9.548900441239894
 30
0.0
 10
42.58032962475863
 20
9.99856947204843
 30
0.0
 10
40.56637300461818
 20
10.20626579529529
 30
0.0
 10
39.23286945286588
 20
10.12631867190344
 30
0.0
 10
38.57921344232596
 20
10.08713023655071
 30
0.0
  0
SPLINE
  5
213
330
1F
100
AcDbEntity
  8
0
  6
Continuous
 62
     1
370
    25
100
AcDbSpline
210
0.0
220
0.0
230
1.0
 70
    24
 71
     3
 72
     8
 73
     4
 74
     0
 42
0.000000001
 43
0.00000001
 40
0.0
 40
0.0
 40
0.0
 40
0.0
 40
1.0
 40
1.0
 40
1.0
 40
1.0
 10
54.99999999999999
 20
0.8629873872503574
 30
0.0
 10
54.99999999999999
 20
1.905823460394331
 30
0.0
 10
55.00000000000005
 20
2.928628269465769
 30
0.0
 10
55.00000000000005
 20
3.897494195119301
 30
0.0
  0
LINE
  5
214
330
1F
100
AcDbEntity
  8
0
  6
Continuous
 62
     1
370
    25
100
AcDbLine
 10
59.99999999999999
 20
-10.01994775747634
 30
0.0
 11
59.99999999999999
 21
-3.393985414576469
 31
0.0
  0
SPLINE
  5
215
330
1F
100
AcDbEntity
  8
0
  6
Continuous
 62
     1
370
    25
100
AcDbSpline
210
0.0
220
0.0
230
1.0
 70
     8
 71
     3
 72
     9
 73
     5
 74
     0
 42
0.000000001
 43
0.00000001
 40
0.0
 40
0.0
 40
0.0
 40
0.0
 40
0.7349479836058951
 40
1.0
 40
1.0
 40
1.0
 40
1.0
 10
59.99999999999999
 20
8.89
 30
0.0
 10
59.335762736761
 20
8.880043799909188
 30
0.0
 10
58.43197460745687
 20
8.86649699072963
 30
0.0
 10
57.52844710023049
 20
8.706246648228493
 30
0.0
 10
57.28896531257259
 20
8.663771971820722
 30
0.0
  0
SPLINE
  5
216
330
1F
100
AcDbEntity
  8
0
  6
Continuous
 62
     1
370
    25
100
AcDbSpline
210
0.0
220
0.0
230
1.0
 70
     8
 71
     3
 72
     8
 73
     4
 74
     0
 42
0.000000001
 43
0.00000001
 40
0.0
 40
0.0
 40
0.0
 40
0.0
 40
1.0
 40
1.0
 40
1.0
 40
1.0
 10
59.99999999999999
 20
8.89
 30
0.0
 10
58.34717930000385
 20
8.334905379337322
 30
0.0
 10
56.68061701313075
 20
7.850906917388419
 30
0.0
 10
54.99999999999977
 20
7.462923368370707
 30
0.0
  0
SPLINE
  5
217
330
1F
100
AcDbEntity
  8
0
  6
Continuous
 62
     1
370
    25
100
AcDbSpline
210
0.0
220
0.0
230
1.0
 70
    24
 71
     3
 72
    10
 73
     6
 74
     0
 42
0.000000001
 43
0.00000001
 40
0.0
 40
0.0
 40
0.0
 40
0.0
 40
0.4999999999999998
 40
0.4999999999999998
 40
1.0
 40
1.0
 40
1.0
 40
1.0
 10
55.00000000000005
 20
3.897494195119305
 30
0.0
 10
55.00000000000005
 20
4.646987762107305
 30
0.0
 10
55.00000000000005
 20
5.342356506791135
 30
0.0
 10
54.99999999999999
 20
6.552348866570445
 30
0.0
 10
55.00000000000005
 20
7.066303210147873
 30
0.0
 10
54.99999999999999
 20
7.462923368370579
 30
0.0
  0
LINE
  5
218
330
1F
100
AcDbEntity
  8
0
  6
Continuous
 62
     1
370
    25
100
AcDbLine
 10
59.99999999999999
 20
0.0000000000000079
 30
0.0
 11
59.99999999999999
 21
8.89
 31
0.0
  0
SPLINE
  5
219
330
1F
100
AcDbEntity
  8
0
  6
Continuous
 62
     1
370
    25
100
AcDbSpline
210
0.0
220
0.0
230
1.0
 70
     8
 71
     3
 72
    13
 73
     9
 74
     0
 42
0.000000001
 43
0.00000001
 40
0.0
 40
0.0
 40
0.0
 40
0.0
 40
0.1499330389739077
 40
0.3198524034186461
 40
0.4899860877037371
 40
0.6600100445708555
 40
0.8299176519617614
 40
1.0
 40
1.0
 40
1.0
 40
1.0
 10
49.91560586749494
 20
8.513587648872765
 30
0.0
 10
50.4195999147522
 20
8.879066304958393
 30
0.0
 10
51.49477126075549
 20
9.658742534742206
 30
0.0
 10
53.14090017150419
 20
10.64511883736066
 30
0.0
 10
54.85668704322165
 20
11.4930284089502
 30
0.0
 10
56.57131300040066
 20
12.12400666830258
 30
0.0
 10
58.28477289587703
 20
12.55204418488093
 30
0.0
 10
59.42806176437158
 20
12.64350982739701
 30
0.0
 10
59.99999999999999
 20
12.68926615341648
 30
0.0
  0
LINE
  5
21A
330
1F
100
AcDbEntity
  8
0
  6
Continuous
 62
     1
370
    25
100
AcDbLine
 10
59.99999999999999
 20
8.89
 30
0.0
 11
59.99999999999999
 21
12.68926615341648
 31
0.0
  0
SPLINE
  5
21B
330
1F
100
AcDbEntity
  8
0
  6
Continuous
 62
     1
370
    25
100
AcDbSpline
210
0.0
220
0.0
230
1.0
 70
     8
 71
     3
 72
    13
 73
     9
 74
     0
 42
0.000000001
 43
0.00000001
 40
0.0
 40
0.0
 40
0.0
 40
0.0
 40
0.0625946407219679
 40
0.1569924969167563
 40
0.2623388156634553
 40
0.3677000765767969
 40
0.4730993211420472
 40
0.5209893832840834
 40
0.5209893832840834
 40
0.5209893832840834
 40
0.5209893832840834
 10
41.78472754340606
 20
-1.207330908149891
 30
0.0
 10
41.36974737649387
 20
-0.9196803107970687
 30
0.0
 10
40.32894305486104
 20
-0.1982290012735809
 30
0.0
 10
38.59059700505536
 20
1.024555530805956
 30
0.0
 10
36.56832454402387
 20
2.418383394298744
 30
0.0
 10
34.47321611214863
 20
3.797846051291722
 30
0.0
 10
32.75872233286406
 20
4.841755286255794
 30
0.0
 10
31.74248874609741
 20
5.411601675599116
 30
0.0
 10
31.425
 20
5.584419003111571
 30
0.0
  0
SPLINE
  5
21C
330
1F
100
AcDbEntity
  8
0
  6
Continuous
 62
     1
370
    25
100
AcDbSpline
210
0.0
220
0.0
230
1.0
 70
     8
 71
     3
 72
    46
 73
    42
 74
     0
 42
0.000000001
 43
0.00000001
 40
0.0
 40
0.0
 40
0.0
 40
0.0
 40
0.0624999999999999
 40
0.0624999999999999
 40
0.1249999999999998
 40
0.1249999999999998
 40
0.1562499999999998
 40
0.1562499999999998
 40
0.1874999999999997
 40
0.1874999999999997
 40
0.2187499999999997
 40
0.2187499999999997
 40
0.2499999999999997
 40
0.2499999999999997
 40
0.2812499999999997
 40
0.2812499999999997
 40
0.3124999999999997
 40
0.3124999999999997
 40
0.3437499999999997
 40
0.3437499999999997
 40
0.3749999999999997
 40
0.3749999999999997
 40
0.4062499999999997
 40
0.4062499999999997
 40
0.4374999999999997
 40
0.4374999999999997
 40
0.4687499999999997
 40
0.4687499999999997
 40
0.4999999999999997
 40
0.4999999999999997
 40
0.5312499999999997
 40
0.5312499999999997
 40
0.5624999999999996
 40
0.5624999999999996
 40
0.5937499999999996
 40
0.5937499999999996
 40
0.6249999999999994
 40
0.6249999999999994
 40
0.6874999999999994
 40
0.6874999999999994
 40
0.7499853517838297
 40
0.7499853517838297
 40
0.7499853517838297
 40
0.7499853517838297
 10
59.99999999999999
 20
-12.68926615341648
 30
0.0
 10
59.2100499609321
 20
-12.65669020256161
 30
0.0
 10
58.40914704902325
 20
-12.5491973157508
 30
0.0
 10
56.82727900350385
 20
-12.18981256961708
 30
0.0
 10
56.02838516550781
 20
-11.93670068004285
 30
0.0
 10
54.84064563288114
 20
-11.45578103276306
 30
0.0
 10
54.4450491540054
 20
-11.27853822156859
 30
0.0
 10
53.64965331540065
 20
-10.89086737544915
 30
0.0
 10
53.25133770282508
 20
-10.68063647515689
 30
0.0
 10
52.45871101400461
 20
-10.23026094382006
 30
0.0
 10
52.06380317244508
 20
-9.990060174948773
 30
0.0
 10
51.26868769387033
 20
-9.480013314941381
 30
0.0
 10
50.87026398560914
 20
-9.210497293369293
 30
0.0
 10
50.07692927347215
 20
-8.646089966027624
 30
0.0
 10
49.68246427592242
 20
-8.351360867047404
 30
0.0
 10
48.88772243995731
 20
-7.736866909960084
 30
0.0
 10
48.48923761592123
 20
-7.417514499912328
 30
0.0
 10
47.69528746707294
 20
-6.758826381863286
 30
0.0
 10
47.30101934753952
 20
-6.4198698491723
 30
0.0
 10
46.50674429057528
 20
-5.722525147802897
 30
0.0
 10
46.10824535475444
 20
-5.364538426133158
 30
0.0
 10
45.31377259611451
 20
-4.634646635778814
 30
0.0
 10
44.91945531181704
 20
-4.26328334620534
 30
0.0
 10
44.12573998773478
 20
-3.507589597215449
 30
0.0
 10
43.72727394967983
 20
-3.123529368824001
 30
0.0
 10
42.93237161241461
 20
-2.348025106309193
 30
0.0
 10
42.53775913974891
 20
-1.957193136555488
 30
0.0
 10
41.74469628374754
 20
-1.169692971948826
 30
0.0
 10
41.34631014004656
 20
-0.7730361768982085
 30
0.0
 10
40.55107142333338
 20
0.0208763973324232
 30
0.0
 10
40.15591785381877
 20
0.417561515695639
 30
0.0
 10
39.36359994642225
 20
1.20922064426403
 30
0.0
 10
38.96534066218788
 20
1.604555845467033
 30
0.0
 10
38.16985889684195
 20
2.389017968456099
 30
0.0
 10
37.77391853297461
 20
2.77772620519561
 30
0.0
 10
36.98243776424754
 20
3.545766710469551
 30
0.0
 10
36.58435225463062
 20
3.925911373803104
 30
0.0
 10
35.39090517262007
 20
5.047131387525298
 30
0.0
 10
34.60117542635231
 20
5.767532964935673
 30
0.0
 10
33.00998686059864
 20
7.135899902989256
 30
0.0
 10
32.22046089668333
 20
7.780451262361869
 30
0.0
 10
31.42500000000006
 20
8.377368763492552
 30
0.0
  0
SPLINE
  5
21D
330
1F
100
AcDbEntity
  8
0
  6
Continuous
 62
     1
370
    25
100
AcDbSpline
210
0.0
220
0.0
230
1.0
 70
     8
 71
     3
 72
    24
 73
    20
 74
     0
 42
0.000000001
 43
0.00000001
 40
0.0
 40
0.0
 40
0.0
 40
0.0
 40
0.0478812136045647
 40
0.0957132346048223
 40
0.1435780100345075
 40
0.191473675721242
 40
0.239309006550525
 40
0.2871606329627035
 40
0.3350634892567162
 40
0.3829054376534721
 40
0.4307472124994657
 40
0.4786499922102281
 40
0.5265018617342221
 40
0.5743370886833656
 40
0.6222325246812319
 40
0.670097612630384
 40
0.7179295994867326
 40
0.7658104328174288
 40
0.7976722241752661
 40
0.7976722241752661
 40
0.7976722241752661
 40
0.7976722241752661
 10
59.99999999999999
 20
-12.05154903924512
 30
0.0
 10
59.42806159666588
 20
-11.85009413063398
 30
0.0
 10
58.28477239288917
 20
-11.4473912858516
 30
0.0
 10
56.57131457600166
 20
-10.57553260743843
 30
0.0
 10
54.85668036755543
 20
-9.527258921165874
 30
0.0
 10
53.14092399936037
 20
-8.30220649583088
 30
0.0
 10
51.42734163419447
 20
-6.925816039649567
 30
0.0
 10
49.71317315077788
 20
-5.423295100078355
 30
0.0
 10
47.99715567121546
 20
-3.823745104587217
 30
0.0
 10
46.28333306517992
 20
-2.152759954517712
 30
0.0
 10
44.56951670202039
 20
-0.4425531558433412
 30
0.0
 10
42.85350200363842
 20
1.273756275256738
 30
0.0
 10
41.13932487459351
 20
2.968562918463264
 30
0.0
 10
39.42574633340569
 20
4.609699283736778
 30
0.0
 10
37.70999833047687
 20
6.165236453968938
 30
0.0
 10
35.99535299812191
 20
7.609562557885288
 30
0.0
 10
34.28189686853153
 20
8.915935709256658
 30
0.0
 10
32.75803627385226
 20
9.931646386721319
 30
0.0
 10
31.80551208938902
 20
10.48167289584086
 30
0.0
 10
31.42500000000006
 20
10.68719214404233
 30
0.0
  0
SPLINE
  5
21E
330
1F
100
AcDbEntity
  8
0
  6
Continuous
 62
     1
370
    25
100
AcDbSpline
210
0.0
220
0.0
230
1.0
 70
     8
 71
     3
 72
     9
 73
     5
 74
     0
 42
0.000000001
 43
0.00000001
 40
0.0
 40
0.0
 40
0.0
 40
0.0
 40
0.0067186745882317
 40
0.1130054935212496
 40
0.1130054935212496
 40
0.1130054935212496
 40
0.1130054935212496
 10
32.63885186856015
 20
-9.980624335715824
 30
0.0
 10
32.61479718026373
 20
-9.996658832022725
 30
0.0
 10
32.21020667856038
 20
-10.26635282370667
 30
0.0
 10
31.80554054832213
 20
-10.49718000188915
 30
0.0
 10
31.425
 20
-10.6966610240843
 30
0.0
  0
LINE
  5
21F
330
1F
100
AcDbEntity
  8
0
  6
Continuous
 62
     4
370
    25
100
AcDbLine
 10
31.425
 20
-12.2
 30
0.0
 11
31.425
 21
-0.0000000000000081
 31
0.0
  0
SPLINE
  5
220
330
1F
100
AcDbEntity
  8
0
  6
Continuous
 62
     1
370
    25
100
AcDbSpline
210
0.0
220
0.0
230
1.0
 70
     8
 71
     3
 72
    20
 73
    16
 74
     0
 42
0.000000001
 43
0.00000001
 40
0.3506858960706086
 40
0.3506858960706086
 40
0.3506858960706086
 40
0.3506858960706086
 40
0.3786547657003597
 40
0.4371109838498981
 40
0.5045841273056385
 40
0.5642139043905011
 40
0.6157926461516887
 40
0.6575529413634951
 40
0.6940531431825889
 40
0.7214497623407856
 40
0.7522004110423492
 40
0.7936505160126801
 40
0.8487813259558252
 40
0.917513195527216
 40
1.0
 40
1.0
 40
1.0
 40
1.0
 10
31.42500000000006
 20
-10.06415032692464
 30
0.0
 10
31.52799538813928
 20
-10.05541897338699
 30
0.0
 10
31.84628182418725
 20
-10.02961864601977
 30
0.0
 10
32.41289606137524
 20
-9.990205376089712
 30
0.0
 10
33.09486127089024
 20
-9.95438531807116
 30
0.0
 10
33.75163174178783
 20
-9.931484033003791
 30
0.0
 10
34.31636766433967
 20
-9.920461551139653
 30
0.0
 10
34.788601054838
 20
-9.917316050876877
 30
0.0
 10
35.17399546342477
 20
-9.918817549481865
 30
0.0
 10
35.53506641224737
 20
-9.923589801694916
 30
0.0
 10
35.91949089725431
 20
-9.931392994983987
 30
0.0
 10
36.39869570359559
 20
-9.946221488643317
 30
0.0
 10
37.00399162176915
 20
-9.97389596426256
 30
0.0
 10
37.74626574866203
 20
-10.0197558028914
 30
0.0
 10
38.28532901480917
 20
-10.06644231002942
 30
0.0
 10
38.57937739550157
 20
-10.09190887895787
 30
0.0
  0
SPLINE
  5
221
330
1F
100
AcDbEntity
  8
0
  6
Continuous
 62
     1
370
    25
100
AcDbSpline
210
0.0
220
0.0
230
1.0
 70
     8
 71
     3
 72
    14
 73
    10
 74
     0
 42
0.000000001
 43
0.00000001
 40
0.0
 40
0.0
 40
0.0
 40
0.0
 40
0.0836840937742233
 40
0.1740625462619166
 40
0.2643933180841418
 40
0.3547050282264018
 40
0.4468697127490633
 40
0.5390638817443963
 40
0.5779598647529264
 40
0.5779598647529264
 40
0.5779598647529264
 40
0.5779598647529264
 10
44.46925142033358
 20
-9.542915713872034
 30
0.0
 10
43.83959376691779
 20
-9.697686339685255
 30
0.0
 10
42.52990862265909
 20
-10.01960855931618
 30
0.0
 10
40.54053531125447
 20
-10.19259558384211
 30
0.0
 10
38.50183192333383
 20
-10.12892855266448
 30
0.0
 10
36.44983059983684
 20
-9.796838985488328
 30
0.0
 10
34.3836287183239
 20
-9.205976168732718
 30
0.0
 10
32.70407102431772
 20
-8.526418402591942
 30
0.0
 10
31.71767868798303
 20
-8.052105934252491
 30
0.0
 10
31.425
 20
-7.905092287647098
 30
0.0
  0
LINE
  5
223
330
1F
100
AcDbEntity
  8
0
  6
Continuous
 62
     4
370
    25
100
AcDbLine
 10
2.349999999999984
 20
12.7
 30
0.0
 11
-66.06249999999999
 21
12.69999999999998
 31
0.0
  0
LINE
  5
226
330
1F
100
AcDbEntity
  8
0
  6
Continuous
 62
     4
370
    25
100
AcDbLine
 10
2.850000000000009
 20
-12.20000000000002
 30
0.0
 11
31.425
 21
-12.2
 31
0.0
  0
LINE
  5
227
330
1F
100
AcDbEntity
  8
0
  6
Continuous
 62
     4
370
    25
100
AcDbLine
 10
31.425
 20
12.19999999999999
 30
0.0
 11
2.850000000000009
 21
12.19999999999997
 31
0.0
  0
LINE
  5
265
330
1F
100
AcDbEntity
  8
0
  6
Continuous
 62
     4
370
    25
100
AcDbLine
 10
-66.99999999999999
 20
11.69999999999998
 30
0.0
 11
-66.99999999999999
 21
-11.70000000000001
 31
0.0
  0
LINE
  5
266
330
1F
100
AcDbEntity
  8
중심선
100
AcDbLine
 10
-66.99999999999999
 20
-0.0000000000000079
 30
0.0
 11
67.0
 21
0.0000000000000079
 31
0.0
  0
LINE
  5
267
330
1F
100
AcDbEntity
  8
0
  6
Continuous
 62
     4
370
    25
100
AcDbLine
 10
2.850000000000009
 20
12.19999999999999
 30
0.0
 11
2.850000000000009
 21
-12.20000000000002
 31
0.0
  0
ENDSEC
  0
SECTION
  2
OBJECTS
  0
DICTIONARY
  5
C
330
0
100
AcDbDictionary
281
     1
  3
ACAD_GROUP
350
D
  3
ACAD_IMAGE_VARS
350
154
  3
ACAD_LAYOUT
350
1A
  3
ACAD_MLINESTYLE
350
17
  3
ACAD_PLOTSETTINGS
350
19
  3
ACAD_PLOTSTYLENAME
350
E
  3
ACAD_SCALELIST
350
47
  3
APPDATA
350
152
  3
DWGPROPS
350
26A
  0
DICTIONARY
  5
D
102
{ACAD_REACTORS
330
C
102
}
330
C
100
AcDbDictionary
281
     1
  0
RASTERVARIABLES
  5
154
102
{ACAD_REACTORS
330
C
102
}
330
C
100
AcDbRasterVariables
 90
        0
 70
     1
 71
     1
 72
     1
  0
DICTIONARY
  5
1A
102
{ACAD_REACTORS
330
C
102
}
330
C
100
AcDbDictionary
281
     1
  3
Layout1
350
1E
  3
Layout2
350
26
  3
Model
350
22
  0
DICTIONARY
  5
17
102
{ACAD_REACTORS
330
C
102
}
330
C
100
AcDbDictionary
281
     1
  3
Standard
350
18
  0
DICTIONARY
  5
19
102
{ACAD_REACTORS
330
C
102
}
330
C
100
AcDbDictionary
281
     1
  0
ACDBDICTIONARYWDFLT
  5
E
102
{ACAD_REACTORS
330
C
102
}
330
C
100
AcDbDictionary
281
     1
  3
Normal
350
F
100
AcDbDictionaryWithDefault
340
F
  0
DICTIONARY
  5
47
102
{ACAD_REACTORS
330
C
102
}
330
C
100
AcDbDictionary
281
     1
  3
A0
350
48
  3
A1
350
49
  3
A2
350
4A
  3
A3
350
4B
  3
A4
350
4C
  3
A5
350
4D
  3
A6
350
4E
  3
A7
350
4F
  3
A8
350
50
  3
A9
350
51
  3
B0
350
52
  3
B1
350
53
  3
B2
350
54
  3
B3
350
55
  3
B4
350
56
  3
B5
350
57
  3
B6
350
58
  3
B7
350
59
  3
B8
350
5A
  3
B9
350
5B
  3
C0
350
5C
  3
C1
350
5D
  3
C2
350
5E
  3
C3
350
5F
  3
C4
350
60
  3
C5
350
61
  3
C6
350
62
  3
C7
350
63
  3
C8
350
64
  3
C9
350
65
  3
D0
350
66
  3
D1
350
67
  3
D2
350
68
  0
DICTIONARY
  5
152
102
{ACAD_REACTORS
330
C
102
}
330
C
100
AcDbDictionary
281
     1
  0
XRECORD
  5
26A
102
{ACAD_REACTORS
330
C
102
}
330
C
100
AcDbXrecord
280
     1
  1
DWGPROPS COOKIE
  2

  3

  4

  6

  7

  8
12016016
  9

300
=
301
=
302
=
303
=
304
=
305
=
306
=
307
=
308
=
309
=
 40
0.0
 41
2458263.292596435
 42
2458274.423849028
  1

 90
        0
  0
LAYOUT
  5
1E
102
{ACAD_REACTORS
330
1A
102
}
330
1A
100
AcDbPlotSettings
  1

  2
none_device
  4

  6

 40
0.0
 41
0.0
 42
0.0
 43
0.0
 44
0.0
 45
0.0
 46
0.0
 47
0.0
 48
0.0
 49
0.0
140
0.0
141
0.0
142
1.0
143
1.0
 70
   688
 72
     1
 73
     0
 74
     5
  7

 75
    16
147
1.0
148
0.0
149
0.0
100
AcDbLayout
  1
Layout1
 70
     1
 71
     1
 10
0.0
 20
0.0
 11
420.0
 21
297.0
 12
0.0
 22
0.0
 32
0.0
 14
1.000000000000000E+20
 24
1.000000000000000E+20
 34
1.000000000000000E+20
 15
-1.000000000000000E+20
 25
-1.000000000000000E+20
 35
-1.000000000000000E+20
146
0.0
 13
0.0
 23
0.0
 33
0.0
 16
1.0
 26
0.0
 36
0.0
 17
0.0
 27
1.0
 37
0.0
 76
     0
330
1B
  0
LAYOUT
  5
26
102
{ACAD_REACTORS
330
1A
102
}
330
1A
100
AcDbPlotSettings
  1

  2
none_device
  4

  6

 40
0.0
 41
0.0
 42
0.0
 43
0.0
 44
0.0
 45
0.0
 46
0.0
 47
0.0
 48
0.0
 49
0.0
140
0.0
141
0.0
142
1.0
143
1.0
 70
   688
 72
     1
 73
     0
 74
     5
  7

 75
    16
147
1.0
148
0.0
149
0.0
100
AcDbLayout
  1
Layout2
 70
     1
 71
     2
 10
0.0
 20
0.0
 11
0.0
 21
0.0
 12
0.0
 22
0.0
 32
0.0
 14
0.0
 24
0.0
 34
0.0
 15
0.0
 25
0.0
 35
0.0
146
0.0
 13
0.0
 23
0.0
 33
0.0
 16
1.0
 26
0.0
 36
0.0
 17
0.0
 27
1.0
 37
0.0
 76
     0
330
23
  0
LAYOUT
  5
22
102
{ACAD_REACTORS
330
1A
102
}
330
1A
100
AcDbPlotSettings
  1

  2
none_device
  4
ANSI_A_(11.00_x_8.50_Inches)
  6

 40
6.35
 41
19.05
 42
6.35000508
 43
19.05000254
 44
279.4
 45
215.9
 46
155.3882749871761
 47
68.30369415176561
 48
0.0
 49
0.0
140
0.0
141
0.0
142
0.058727485740171
143
1.0
 70
  1696
 72
     0
 73
     0
 74
     0
  7

 75
     0
147
0.0235690232323232
148
0.0
149
0.0
100
AcDbLayout
  1
Model
 70
     1
 71
     0
 10
0.0
 20
0.0
 11
420.0
 21
297.0
 12
0.0
 22
0.0
 32
0.0
 14
1.000000000000000E+20
 24
1.000000000000000E+20
 34
1.000000000000000E+20
 15
-1.000000000000000E+20
 25
-1.000000000000000E+20
 35
-1.000000000000000E+20
146
0.0
 13
0.0
 23
0.0
 33
0.0
 16
1.0
 26
0.0
 36
0.0
 17
0.0
 27
1.0
 37
0.0
 76
     0
330
1F
331
29
  0
MLINESTYLE
  5
18
102
{ACAD_REACTORS
330
17
102
}
330
17
100
AcDbMlineStyle
  2
Standard
 70
     0
  3

 62
   256
 51
90.0
 52
90.0
 71
     2
 49
0.5
 62
   256
  6
BYLAYER
 49
-0.5
 62
   256
  6
BYLAYER
  0
ACDBPLACEHOLDER
  5
F
102
{ACAD_REACTORS
330
E
102
}
330
E
  0
SCALE
  5
48
102
{ACAD_REACTORS
330
47
102
}
330
47
100
AcDbScale
 70
     0
300
1:1
140
1.0
141
1.0
290
     1
  0
SCALE
  5
49
102
{ACAD_REACTORS
330
47
102
}
330
47
100
AcDbScale
 70
     0
300
1:2
140
1.0
141
2.0
290
     0
  0
SCALE
  5
4A
102
{ACAD_REACTORS
330
47
102
}
330
47
100
AcDbScale
 70
     0
300
1:4
140
1.0
141
4.0
290
     0
  0
SCALE
  5
4B
102
{ACAD_REACTORS
330
47
102
}
330
47
100
AcDbScale
 70
     0
300
1:5
140
1.0
141
5.0
290
     0
  0
SCALE
  5
4C
102
{ACAD_REACTORS
330
47
102
}
330
47
100
AcDbScale
 70
     0
300
1:8
140
1.0
141
8.0
290
     0
  0
SCALE
  5
4D
102
{ACAD_REACTORS
330
47
102
}
330
47
100
AcDbScale
 70
     0
300
1:10
140
1.0
141
10.0
290
     0
  0
SCALE
  5
4E
102
{ACAD_REACTORS
330
47
102
}
330
47
100
AcDbScale
 70
     0
300
1:16
140
1.0
141
16.0
290
     0
  0
SCALE
  5
4F
102
{ACAD_REACTORS
330
47
102
}
330
47
100
AcDbScale
 70
     0
300
1:20
140
1.0
141
20.0
290
     0
  0
SCALE
  5
50
102
{ACAD_REACTORS
330
47
102
}
330
47
100
AcDbScale
 70
     0
300
1:30
140
1.0
141
30.0
290
     0
  0
SCALE
  5
51
102
{ACAD_REACTORS
330
47
102
}
330
47
100
AcDbScale
 70
     0
300
1:40
140
1.0
141
40.0
290
     0
  0
SCALE
  5
52
102
{ACAD_REACTORS
330
47
102
}
330
47
100
AcDbScale
 70
     0
300
1:50
140
1.0
141
50.0
290
     0
  0
SCALE
  5
53
102
{ACAD_REACTORS
330
47
102
}
330
47
100
AcDbScale
 70
     0
300
1:100
140
1.0
141
100.0
290
     0
  0
SCALE
  5
54
102
{ACAD_REACTORS
330
47
102
}
330
47
100
AcDbScale
 70
     0
300
2:1
140
2.0
141
1.0
290
     0
  0
SCALE
  5
55
102
{ACAD_REACTORS
330
47
102
}
330
47
100
AcDbScale
 70
     0
300
4:1
140
4.0
141
1.0
290
     0
  0
SCALE
  5
56
102
{ACAD_REACTORS
330
47
102
}
330
47
100
AcDbScale
 70
     0
300
8:1
140
8.0
141
1.0
290
     0
  0
SCALE
  5
57
102
{ACAD_REACTORS
330
47
102
}
330
47
100
AcDbScale
 70
     0
300
10:1
140
10.0
141
1.0
290
     0
  0
SCALE
  5
58
102
{ACAD_REACTORS
330
47
102
}
330
47
100
AcDbScale
 70
     0
300
100:1
140
100.0
141
1.0
290
     0
  0
SCALE
  5
59
102
{ACAD_REACTORS
330
47
102
}
330
47
100
AcDbScale
 70
     0
300
1/128" = 1'-0"
140
0.0078125
141
12.0
290
     0
  0
SCALE
  5
5A
102
{ACAD_REACTORS
330
47
102
}
330
47
100
AcDbScale
 70
     0
300
1/64" = 1'-0"
140
0.015625
141
12.0
290
     0
  0
SCALE
  5
5B
102
{ACAD_REACTORS
330
47
102
}
330
47
100
AcDbScale
 70
     0
300
1/32" = 1'-0"
140
0.03125
141
12.0
290
     0
  0
SCALE
  5
5C
102
{ACAD_REACTORS
330
47
102
}
330
47
100
AcDbScale
 70
     0
300
1/16" = 1'-0"
140
0.0625
141
12.0
290
     0
  0
SCALE
  5
5D
102
{ACAD_REACTORS
330
47
102
}
330
47
100
AcDbScale
 70
     0
300
3/32" = 1'-0"
140
0.09375
141
12.0
290
     0
  0
SCALE
  5
5E
102
{ACAD_REACTORS
330
47
102
}
330
47
100
AcDbScale
 70
     0
300
1/8" = 1'-0"
140
0.125
141
12.0
290
     0
  0
SCALE
  5
5F
102
{ACAD_REACTORS
330
47
102
}
330
47
100
AcDbScale
 70
     0
300
3/16" = 1'-0"
140
0.1875
141
12.0
290
     0
  0
SCALE
  5
60
102
{ACAD_REACTORS
330
47
102
}
330
47
100
AcDbScale
 70
     0
300
1/4" = 1'-0"
140
0.25
141
12.0
290
     0
  0
SCALE
  5
61
102
{ACAD_REACTORS
330
47
102
}
330
47
100
AcDbScale
 70
     0
300
3/8" = 1'-0"
140
0.375
141
12.0
290
     0
  0
SCALE
  5
62
102
{ACAD_REACTORS
330
47
102
}
330
47
100
AcDbScale
 70
     0
300
1/2" = 1'-0"
140
0.5
141
12.0
290
     0
  0
SCALE
  5
63
102
{ACAD_REACTORS
330
47
102
}
330
47
100
AcDbScale
 70
     0
300
3/4" = 1'-0"
140
0.75
141
12.0
290
     0
  0
SCALE
  5
64
102
{ACAD_REACTORS
330
47
102
}
330
47
100
AcDbScale
 70
     0
300
1" = 1'-0"
140
1.0
141
12.0
290
     0
  0
SCALE
  5
65
102
{ACAD_REACTORS
330
47
102
}
330
47
100
AcDbScale
 70
     0
300
1-1/2" = 1'-0"
140
1.5
141
12.0
290
     0
  0
SCALE
  5
66
102
{ACAD_REACTORS
330
47
102
}
330
47
100
AcDbScale
 70
     0
300
3" = 1'-0"
140
3.0
141
12.0
290
     0
  0
SCALE
  5
67
102
{ACAD_REACTORS
330
47
102
}
330
47
100
AcDbScale
 70
     0
300
6" = 1'-0"
140
6.0
141
12.0
290
     0
  0
SCALE
  5
68
102
{ACAD_REACTORS
330
47
102
}
330
47
100
AcDbScale
 70
     0
300
1'-0" = 1'-0"
140
12.0
141
12.0
290
     0
  0
ENDSEC
  0
EOF
