  0
SECTION
  2
HEADER
  9
$ACADVER
  1
AC1015
  9
$ACADMAINTVER
 70
     6
  9
$DWGCODEPAGE
  3
ANSI_949
  9
$INSBASE
 10
0.0
 20
0.0
 30
0.0
  9
$EXTMIN
 10
1.000000000000000E+20
 20
1.000000000000000E+20
 30
1.000000000000000E+20
  9
$EXTMAX
 10
-1.000000000000000E+20
 20
-1.000000000000000E+20
 30
-1.000000000000000E+20
  9
$LIMMIN
 10
0.0
 20
0.0
  9
$LIMMAX
 10
420.0
 20
297.0
  9
$ORTHOMODE
 70
     0
  9
$REGENMODE
 70
     1
  9
$FILLMODE
 70
     1
  9
$QTEXTMODE
 70
     0
  9
$MIRRTEXT
 70
     1
  9
$LTSCALE
 40
1.0
  9
$ATTMODE
 70
     1
  9
$TEXTSIZE
 40
3.5
  9
$TRACEWID
 40
1.0
  9
$TEXTSTYLE
  7
Standard
  9
$CLAYER
  8
0
  9
$CELTYPE
  6
ByLayer
  9
$CECOLOR
 62
   256
  9
$CELTSCALE
 40
1.0
  9
$DISPSILH
 70
     0
  9
$DIMSCALE
 40
1.0
  9
$DIMASZ
 40
3.302
  9
$DIMEXO
 40
1.0
  9
$DIMDLI
 40
3.75
  9
$DIMRND
 40
0.0
  9
$DIMDLE
 40
0.0
  9
$DIMEXE
 40
1.0
  9
$DIMTP
 40
0.0
  9
$DIMTM
 40
0.0
  9
$DIMTXT
 40
3.5
  9
$DIMCEN
 40
2.5
  9
$DIMTSZ
 40
0.0
  9
$DIMTOL
 70
     0
  9
$DIMLIM
 70
     0
  9
$DIMTIH
 70
     1
  9
$DIMTOH
 70
     1
  9
$DIMSE1
 70
     0
  9
$DIMSE2
 70
     0
  9
$DIMTAD
 70
     1
  9
$DIMZIN
 70
     0
  9
$DIMBLK
  1

  9
$DIMASO
 70
     1
  9
$DIMSHO
 70
     1
  9
$DIMPOST
  1

  9
$DIMAPOST
  1

  9
$DIMALT
 70
     0
  9
$DIMALTD
 70
     3
  9
$DIMALTF
 40
0.0393700787401575
  9
$DIMLFAC
 40
1.0
  9
$DIMTOFL
 70
     1
  9
$DIMTVP
 40
0.0
  9
$DIMTIX
 70
     0
  9
$DIMSOXD
 70
     0
  9
$DIMSAH
 70
     0
  9
$DIMBLK1
  1

  9
$DIMBLK2
  1

  9
$DIMSTYLE
  2
ISO-25
  9
$DIMCLRD
 70
     0
  9
$DIMCLRE
 70
     0
  9
$DIMCLRT
 70
     0
  9
$DIMTFAC
 40
1.0
  9
$DIMGAP
 40
1.524
  9
$DIMJUST
 70
     0
  9
$DIMSD1
 70
     0
  9
$DIMSD2
 70
     0
  9
$DIMTOLJ
 70
     0
  9
$DIMTZIN
 70
     0
  9
$DIMALTZ
 70
     0
  9
$DIMALTTZ
 70
     0
  9
$DIMUPT
 70
     0
  9
$DIMDEC
 70
     2
  9
$DIMTDEC
 70
     2
  9
$DIMALTU
 70
     2
  9
$DIMALTTD
 70
     3
  9
$DIMTXSTY
  7
Standard
  9
$DIMAUNIT
 70
     0
  9
$DIMADEC
 70
     2
  9
$DIMALTRND
 40
0.0
  9
$DIMAZIN
 70
     0
  9
$DIMDSEP
 70
    44
  9
$DIMATFIT
 70
     3
  9
$DIMFRAC
 70
     0
  9
$DIMLDRBLK
  1

  9
$DIMLUNIT
 70
     2
  9
$DIMLWD
 70
    -2
  9
$DIMLWE
 70
    -2
  9
$DIMTMOVE
 70
     0
  9
$LUNITS
 70
     2
  9
$LUPREC
 70
     2
  9
$SKETCHINC
 40
1.0
  9
$FILLETRAD
 40
10.0
  9
$AUNITS
 70
     0
  9
$AUPREC
 70
     2
  9
$MENU
  1
.
  9
$ELEVATION
 40
0.0
  9
$PELEVATION
 40
0.0
  9
$THICKNESS
 40
0.0
  9
$LIMCHECK
 70
     0
  9
$CHAMFERA
 40
0.0
  9
$CHAMFERB
 40
0.0
  9
$CHAMFERC
 40
0.0
  9
$CHAMFERD
 40
0.0
  9
$SKPOLY
 70
     0
  9
$TDCREATE
 40
2458263.668163565
  9
$TDUCREATE
 40
2458263.293163565
  9
$TDUPDATE
 40
2458274.805881956
  9
$TDUUPDATE
 40
2458274.430881956
  9
$TDINDWG
 40
0.0008885764
  9
$TDUSRTIMER
 40
2458274.429993588
  9
$USRTIMER
 70
     1
  9
$ANGBASE
 50
0.0
  9
$ANGDIR
 70
     0
  9
$PDMODE
 70
     0
  9
$PDSIZE
 40
-1.0
  9
$PLINEWID
 40
0.0
  9
$SPLFRAME
 70
     0
  9
$SPLINETYPE
 70
     6
  9
$SPLINESEGS
 70
     8
  9
$HANDSEED
  5
2AD
  9
$SURFTAB1
 70
     6
  9
$SURFTAB2
 70
     6
  9
$SURFTYPE
 70
     6
  9
$SURFU
 70
     6
  9
$SURFV
 70
     6
  9
$UCSBASE
  2

  9
$UCSNAME
  2

  9
$UCSORG
 10
0.0
 20
0.0
 30
0.0
  9
$UCSXDIR
 10
1.0
 20
0.0
 30
0.0
  9
$UCSYDIR
 10
0.0
 20
1.0
 30
0.0
  9
$UCSORTHOREF
  2

  9
$UCSORTHOVIEW
 70
     0
  9
$UCSORGTOP
 10
0.0
 20
0.0
 30
0.0
  9
$UCSORGBOTTOM
 10
0.0
 20
0.0
 30
0.0
  9
$UCSORGLEFT
 10
0.0
 20
0.0
 30
0.0
  9
$UCSORGRIGHT
 10
0.0
 20
0.0
 30
0.0
  9
$UCSORGFRONT
 10
0.0
 20
0.0
 30
0.0
  9
$UCSORGBACK
 10
0.0
 20
0.0
 30
0.0
  9
$PUCSBASE
  2

  9
$PUCSNAME
  2

  9
$PUCSORG
 10
0.0
 20
0.0
 30
0.0
  9
$PUCSXDIR
 10
1.0
 20
0.0
 30
0.0
  9
$PUCSYDIR
 10
0.0
 20
1.0
 30
0.0
  9
$PUCSORTHOREF
  2

  9
$PUCSORTHOVIEW
 70
     0
  9
$PUCSORGTOP
 10
0.0
 20
0.0
 30
0.0
  9
$PUCSORGBOTTOM
 10
0.0
 20
0.0
 30
0.0
  9
$PUCSORGLEFT
 10
0.0
 20
0.0
 30
0.0
  9
$PUCSORGRIGHT
 10
0.0
 20
0.0
 30
0.0
  9
$PUCSORGFRONT
 10
0.0
 20
0.0
 30
0.0
  9
$PUCSORGBACK
 10
0.0
 20
0.0
 30
0.0
  9
$USERI1
 70
     0
  9
$USERI2
 70
     0
  9
$USERI3
 70
     0
  9
$USERI4
 70
     0
  9
$USERI5
 70
     0
  9
$USERR1
 40
0.0
  9
$USERR2
 40
0.0
  9
$USERR3
 40
0.0
  9
$USERR4
 40
0.0
  9
$USERR5
 40
0.0
  9
$WORLDVIEW
 70
     1
  9
$SHADEDGE
 70
     3
  9
$SHADEDIF
 70
    70
  9
$TILEMODE
 70
     1
  9
$MAXACTVP
 70
    64
  9
$PINSBASE
 10
0.0
 20
0.0
 30
0.0
  9
$PLIMCHECK
 70
     0
  9
$PEXTMIN
 10
1.000000000000000E+20
 20
1.000000000000000E+20
 30
1.000000000000000E+20
  9
$PEXTMAX
 10
-1.000000000000000E+20
 20
-1.000000000000000E+20
 30
-1.000000000000000E+20
  9
$PLIMMIN
 10
0.0
 20
0.0
  9
$PLIMMAX
 10
0.0
 20
0.0
  9
$UNITMODE
 70
     0
  9
$VISRETAIN
 70
     1
  9
$PLINEGEN
 70
     0
  9
$PSLTSCALE
 70
     1
  9
$TREEDEPTH
 70
  3020
  9
$CMLSTYLE
  2
Standard
  9
$CMLJUST
 70
     0
  9
$CMLSCALE
 40
20.0
  9
$PROXYGRAPHICS
 70
     1
  9
$MEASUREMENT
 70
     1
  9
$CELWEIGHT
370
    -1
  9
$ENDCAPS
280
     0
  9
$JOINSTYLE
280
     0
  9
$LWDISPLAY
290
     1
  9
$INSUNITS
 70
     4
  9
$HYPERLINKBASE
  1

  9
$STYLESHEET
  1

  9
$XEDIT
290
     1
  9
$CEPSNTYPE
380
     0
  9
$PSTYLEMODE
290
     1
  9
$FINGERPRINTGUID
  2
{AB01F9C5-1714-4CE6-880C-C9887BBDBA0C}
  9
$VERSIONGUID
  2
{FAEB1C32-E019-11D5-929B-00C0DF256EC4}
  9
$EXTNAMES
290
     1
  9
$PSVPSCALE
 40
0.0
  9
$OLESTARTUP
290
     0
  0
ENDSEC
  0
SECTION
  2
CLASSES
  0
CLASS
  1
ACDBDICTIONARYWDFLT
  2
AcDbDictionaryWithDefault
  3
ObjectDBX Classes
 90
        0
280
     0
281
     0
  0
CLASS
  1
VISUALSTYLE
  2
AcDbVisualStyle
  3
ObjectDBX Classes
 90
     4095
280
     0
281
     0
  0
CLASS
  1
MATERIAL
  2
AcDbMaterial
  3
ObjectDBX Classes
 90
     1153
280
     0
281
     0
  0
CLASS
  1
SCALE
  2
AcDbScale
  3
ObjectDBX Classes
 90
     1153
280
     0
281
     0
  0
CLASS
  1
TABLESTYLE
  2
AcDbTableStyle
  3
ObjectDBX Classes
 90
     4095
280
     0
281
     0
  0
CLASS
  1
MLEADERSTYLE
  2
AcDbMLeaderStyle
  3
ACDB_MLEADERSTYLE_CLASS
 90
     4095
280
     0
281
     0
  0
CLASS
  1
SUN
  2
AcDbSun
  3
SCENEOE
 90
     1153
280
     0
281
     0
  0
CLASS
  1
ACDBPLACEHOLDER
  2
AcDbPlaceHolder
  3
ObjectDBX Classes
 90
        0
280
     0
281
     0
  0
CLASS
  1
LAYOUT
  2
AcDbLayout
  3
ObjectDBX Classes
 90
        0
280
     0
281
     0
  0
CLASS
  1
RASTERVARIABLES
  2
AcDbRasterVariables
  3
ISM
 90
        0
280
     0
281
     0
  0
ENDSEC
  0
SECTION
  2
TABLES
  0
TABLE
  2
VPORT
  5
8
330
0
100
AcDbSymbolTable
 70
     1
  0
VPORT
  5
29
330
8
100
AcDbSymbolTableRecord
100
AcDbViewportTableRecord
  2
*Active
 70
     0
 10
0.0
 20
0.0
 11
1.0
 21
1.0
 12
3.696142472245633
 22
40.37757499704993
 13
0.0
 23
0.0
 14
10.0
 24
10.0
 15
10.0
 25
10.0
 16
0.0
 26
0.0
 36
1.0
 17
0.0
 27
0.0
 37
0.0
 40
206.6774191410698
 41
1.666023166023166
 42
50.0
 43
0.0
 44
0.0
 50
0.0
 51
0.0
 71
    16
 72
  2000
 73
     1
 74
     3
 75
     0
 76
     0
 77
     0
 78
     0
281
     0
 65
     1
110
0.0
120
0.0
130
0.0
111
1.0
121
0.0
131
0.0
112
0.0
122
1.0
132
0.0
 79
     0
146
0.0
  0
ENDTAB
  0
TABLE
  2
LTYPE
  5
5
330
0
100
AcDbSymbolTable
 70
     6
  0
LTYPE
  5
14
330
5
100
AcDbSymbolTableRecord
100
AcDbLinetypeTableRecord
  2
ByBlock
 70
     0
  3

 72
    65
 73
     0
 40
0.0
  0
LTYPE
  5
15
330
5
100
AcDbSymbolTableRecord
100
AcDbLinetypeTableRecord
  2
ByLayer
 70
     0
  3

 72
    65
 73
     0
 40
0.0
  0
LTYPE
  5
16
330
5
100
AcDbSymbolTableRecord
100
AcDbLinetypeTableRecord
  2
Continuous
 70
     0
  3
Solid line
 72
    65
 73
     0
 40
0.0
  0
LTYPE
  5
6E
330
5
100
AcDbSymbolTableRecord
100
AcDbLinetypeTableRecord
  2
HIDDEN
 70
     0
  3
Hidden __ __ __ __ __ __ __ __ __ __ __ __ __ __
 72
    65
 73
     2
 40
1.905
 49
1.27
 74
     0
 49
-0.635
 74
     0
  0
LTYPE
  5
6F
330
5
100
AcDbSymbolTableRecord
100
AcDbLinetypeTableRecord
  2
PHANTOM
 70
     0
  3
Phantom ______  __  __  ______  __  __  ______
 72
    65
 73
     6
 40
12.7
 49
6.35
 74
     0
 49
-1.27
 74
     0
 49
1.27
 74
     0
 49
-1.27
 74
     0
 49
1.27
 74
     0
 49
-1.27
 74
     0
  0
LTYPE
  5
70
330
5
100
AcDbSymbolTableRecord
100
AcDbLinetypeTableRecord
  2
CENTER
 70
     0
  3
Center ____ _ ____ _ ____ _ ____ _ ____ _ ____
 72
    65
 73
     4
 40
10.16
 49
6.35
 74
     0
 49
-1.27
 74
     0
 49
1.27
 74
     0
 49
-1.27
 74
     0
  0
LTYPE
  5
71
330
5
100
AcDbSymbolTableRecord
100
AcDbLinetypeTableRecord
  2
CENTERX2
 70
     0
  3
Center (2x) ________  __  ________  __  _____
 72
    65
 73
     4
 40
20.32
 49
12.7
 74
     0
 49
-2.54
 74
     0
 49
2.54
 74
     0
 49
-2.54
 74
     0
  0
LTYPE
  5
72
330
5
100
AcDbSymbolTableRecord
100
AcDbLinetypeTableRecord
  2
DOT2
 70
     0
  3
Dot (.5x) ........................................
 72
    65
 73
     2
 40
0.635
 49
0.0
 74
     0
 49
-0.635
 74
     0
  0
ENDTAB
  0
TABLE
  2
LAYER
  5
2
330
0
100
AcDbSymbolTable
 70
    17
  0
LAYER
  5
10
330
2
100
AcDbSymbolTableRecord
100
AcDbLayerTableRecord
  2
0
 70
     0
 62
     7
  6
Continuous
370
    -3
390
F
  0
LAYER
  5
73
330
2
100
AcDbSymbolTableRecord
100
AcDbLayerTableRecord
  2
FORMAT
 70
     0
 62
     2
  6
Continuous
370
    -3
390
F
  0
LAYER
  5
74
330
2
100
AcDbSymbolTableRecord
100
AcDbLayerTableRecord
  2
외형선
 70
     0
 62
   100
  6
Continuous
370
    35
390
F
  0
LAYER
  5
75
330
2
100
AcDbSymbolTableRecord
100
AcDbLayerTableRecord
  2
숨은선
 70
     0
 62
     2
  6
HIDDEN
370
    25
390
F
  0
LAYER
  5
76
330
2
100
AcDbSymbolTableRecord
100
AcDbLayerTableRecord
  2
중심선
 70
     0
 62
     1
  6
CENTERX2
370
    -3
390
F
  0
LAYER
  5
77
330
2
100
AcDbSymbolTableRecord
100
AcDbLayerTableRecord
  2
파단선
 70
     0
 62
     4
  6
Continuous
370
    -3
390
F
  0
LAYER
  5
78
330
2
100
AcDbSymbolTableRecord
100
AcDbLayerTableRecord
  2
해칭선
 70
     0
 62
     4
  6
Continuous
370
    -3
390
F
  0
LAYER
  5
79
330
2
100
AcDbSymbolTableRecord
100
AcDbLayerTableRecord
  2
가는실선
 70
     0
 62
     4
  6
Continuous
370
    -3
390
F
  0
LAYER
  5
7A
330
2
100
AcDbSymbolTableRecord
100
AcDbLayerTableRecord
  2
치수_보조선
 70
     0
 62
     4
  6
Continuous
370
    -3
390
F
  0
LAYER
  5
7B
330
2
100
AcDbSymbolTableRecord
100
AcDbLayerTableRecord
  2
치수문자_일반주서
 70
     0
 62
     7
  6
Continuous
370
    25
390
F
  0
LAYER
  5
7C
330
2
100
AcDbSymbolTableRecord
100
AcDbLayerTableRecord
  2
개별주서
 70
     0
 62
   100
  6
Continuous
370
    35
390
F
  0
LAYER
  5
7D
330
2
100
AcDbSymbolTableRecord
100
AcDbLayerTableRecord
  2
중간선
 70
     0
 62
     2
  6
Continuous
370
    25
390
F
  0
LAYER
  5
7E
330
2
100
AcDbSymbolTableRecord
100
AcDbLayerTableRecord
  2
윤곽선
 70
     0
 62
     3
  6
Continuous
370
    50
390
F
  0
LAYER
  5
7F
330
2
100
AcDbSymbolTableRecord
100
AcDbLayerTableRecord
  2
중심마크
 70
     0
 62
   100
  6
Continuous
370
    35
390
F
  0
LAYER
  5
80
330
2
100
AcDbSymbolTableRecord
100
AcDbLayerTableRecord
  2
가상선
 70
     0
 62
     4
  6
PHANTOM
370
    -3
390
F
  0
LAYER
  5
81
330
2
100
AcDbSymbolTableRecord
100
AcDbLayerTableRecord
  2
특수지정선
 70
     0
 62
     5
  6
CENTERX2
370
    70
390
F
  0
LAYER
  5
158
330
2
100
AcDbSymbolTableRecord
100
AcDbLayerTableRecord
  2
Defpoints
 70
     0
 62
     7
  6
Continuous
290
     0
370
    -3
390
F
  0
ENDTAB
  0
TABLE
  2
STYLE
  5
3
330
0
100
AcDbSymbolTable
 70
     2
  0
STYLE
  5
11
330
3
100
AcDbSymbolTableRecord
100
AcDbTextStyleTableRecord
  2
Standard
 70
     0
 40
0.0
 41
1.0
 50
0.0
 71
     0
 42
3.5
  3
txt
  4

  0
STYLE
  5
97
330
3
100
AcDbSymbolTableRecord
100
AcDbTextStyleTableRecord
  2
SLDTEXTSTYLE0
 70
     0
 40
0.0
 41
0.75
 50
0.0
 71
     0
 42
3.5
  3
TXT
  4

  0
ENDTAB
  0
TABLE
  2
VIEW
  5
6
330
0
100
AcDbSymbolTable
 70
     0
  0
ENDTAB
  0
TABLE
  2
UCS
  5
7
330
0
100
AcDbSymbolTable
 70
     0
  0
ENDTAB
  0
TABLE
  2
APPID
  5
9
330
0
100
AcDbSymbolTable
 70
     1
  0
APPID
  5
12
330
9
100
AcDbSymbolTableRecord
100
AcDbRegAppTableRecord
  2
ACAD
 70
     0
  0
ENDTAB
  0
TABLE
  2
DIMSTYLE
  5
A
330
0
100
AcDbSymbolTable
 70
     4
100
AcDbDimStyleTable
  0
DIMSTYLE
105
27
330
A
100
AcDbSymbolTableRecord
100
AcDbDimStyleTableRecord
  2
ISO-25
 70
     0
 41
2.5
 42
0.625
 43
3.75
 44
1.25
 73
     0
 74
     0
 77
     1
 78
     8
140
2.5
141
2.5
143
0.03937007874016
147
0.625
171
     3
172
     1
178
     0
271
     2
272
     2
274
     3
278
    44
283
     0
284
     8
340
11
  0
DIMSTYLE
105
C9
102
{ACAD_REACTORS
330
194
330
24A
102
}
330
A
100
AcDbSymbolTableRecord
100
AcDbDimStyleTableRecord
  2
SLDDIMSTYLE0
 70
     0
 41
3.302
 44
0.0
 45
0.000000001
 73
     0
 74
     0
 77
     1
 78
    12
 79
     3
140
3.5
143
0.0393700787401575
147
0.875
148
0.000000001
170
     1
172
     1
173
     1
178
     0
271
     2
272
     2
276
     2
284
    12
289
     0
340
97
  0
DIMSTYLE
105
DE
102
{ACAD_REACTORS
330
1A1
330
1AF
330
1BC
330
24B
330
24C
330
24D
102
}
330
A
100
AcDbSymbolTableRecord
100
AcDbDimStyleTableRecord
  2
SLDDIMSTYLE1
 70
     0
 41
3.302
 44
0.0
 45
0.000000001
 73
     0
 74
     0
 77
     1
 78
    12
 79
     3
140
3.5
143
0.0393700787401575
147
0.875
148
0.000000001
170
     1
173
     1
178
     0
271
     2
272
     2
276
     2
284
    12
340
97
  0
DIMSTYLE
105
11A
102
{ACAD_REACTORS
330
1C9
330
24E
102
}
330
A
100
AcDbSymbolTableRecord
100
AcDbDimStyleTableRecord
  2
SLDDIMSTYLE2
 70
     0
 41
3.302
 44
0.0
 45
0.000000001
 73
     0
 74
     0
 77
     1
 78
     4
 79
     1
140
3.5
143
0.0393700787401575
147
0.875
148
0.000000001
170
     1
173
     1
178
     0
271
     2
272
     2
276
     2
284
    12
340
97
  0
ENDTAB
  0
TABLE
  2
BLOCK_RECORD
  5
1
330
0
100
AcDbSymbolTable
 70
    19
  0
BLOCK_RECORD
  5
1F
330
1
100
AcDbSymbolTableRecord
100
AcDbBlockTableRecord
  2
*Model_Space
340
22
  0
BLOCK_RECORD
  5
1B
330
1
100
AcDbSymbolTableRecord
100
AcDbBlockTableRecord
  2
*Paper_Space
340
1E
  0
BLOCK_RECORD
  5
23
330
1
100
AcDbSymbolTableRecord
100
AcDbBlockTableRecord
  2
*Paper_Space0
340
26
  0
BLOCK_RECORD
  5
82
330
1
100
AcDbSymbolTableRecord
100
AcDbBlockTableRecord
  2
블럭10
340
0
102
{BLKREFS
331
C1
102
}
  0
BLOCK_RECORD
  5
CA
330
1
100
AcDbSymbolTableRecord
100
AcDbBlockTableRecord
  2
_D
340
0
  0
BLOCK_RECORD
  5
DF
330
1
100
AcDbSymbolTableRecord
100
AcDbBlockTableRecord
  2
_D_1
340
0
  0
BLOCK_RECORD
  5
F2
330
1
100
AcDbSymbolTableRecord
100
AcDbBlockTableRecord
  2
_D_2
340
0
  0
BLOCK_RECORD
  5
106
330
1
100
AcDbSymbolTableRecord
100
AcDbBlockTableRecord
  2
_D_3
340
0
  0
BLOCK_RECORD
  5
11B
330
1
100
AcDbSymbolTableRecord
100
AcDbBlockTableRecord
  2
_D_4
340
0
  0
BLOCK_RECORD
  5
12D
330
1
100
AcDbSymbolTableRecord
100
AcDbBlockTableRecord
  2
SW_DOWELSYMBOL_0
340
0
102
{BLKREFS
331
0
331
1D6
331
24F
102
}
  0
BLOCK_RECORD
  5
1FB
330
1
100
AcDbSymbolTableRecord
100
AcDbBlockTableRecord
  2
*D9
340
0
  0
BLOCK_RECORD
  5
207
330
1
100
AcDbSymbolTableRecord
100
AcDbBlockTableRecord
  2
*D10
340
0
  0
BLOCK_RECORD
  5
214
330
1
100
AcDbSymbolTableRecord
100
AcDbBlockTableRecord
  2
*D11
340
0
  0
BLOCK_RECORD
  5
220
330
1
100
AcDbSymbolTableRecord
100
AcDbBlockTableRecord
  2
*D12
340
0
  0
BLOCK_RECORD
  5
22C
330
1
100
AcDbSymbolTableRecord
100
AcDbBlockTableRecord
  2
*D13
340
0
  0
BLOCK_RECORD
  5
26C
330
1
100
AcDbSymbolTableRecord
100
AcDbBlockTableRecord
  2
*D14
340
0
  0
BLOCK_RECORD
  5
278
330
1
100
AcDbSymbolTableRecord
100
AcDbBlockTableRecord
  2
*D15
340
0
  0
BLOCK_RECORD
  5
285
330
1
100
AcDbSymbolTableRecord
100
AcDbBlockTableRecord
  2
*D16
340
0
  0
BLOCK_RECORD
  5
291
330
1
100
AcDbSymbolTableRecord
100
AcDbBlockTableRecord
  2
*D17
340
0
  0
BLOCK_RECORD
  5
29D
330
1
100
AcDbSymbolTableRecord
100
AcDbBlockTableRecord
  2
*D18
340
0
  0
ENDTAB
  0
ENDSEC
  0
SECTION
  2
BLOCKS
  0
BLOCK
  5
20
330
1F
100
AcDbEntity
  8
0
100
AcDbBlockBegin
  2
*Model_Space
 70
     0
 10
0.0
 20
0.0
 30
0.0
  3
*Model_Space
  1
*Model_Space
  0
ENDBLK
  5
21
330
1F
100
AcDbEntity
  8
0
100
AcDbBlockEnd
  0
BLOCK
  5
1C
330
1B
100
AcDbEntity
 67
     1
  8
0
100
AcDbBlockBegin
  2
*Paper_Space
 70
     0
 10
0.0
 20
0.0
 30
0.0
  3
*Paper_Space
  1
*Paper_Space
  0
ENDBLK
  5
1D
330
1B
100
AcDbEntity
 67
     1
  8
0
100
AcDbBlockEnd
  0
BLOCK
  5
24
330
23
100
AcDbEntity
  8
0
100
AcDbBlockBegin
  2
*Paper_Space0
 70
     0
 10
0.0
 20
0.0
 30
0.0
  3
*Paper_Space0
  1
*Paper_Space0
  0
ENDBLK
  5
25
330
23
100
AcDbEntity
  8
0
100
AcDbBlockEnd
  0
BLOCK
  5
83
330
82
100
AcDbEntity
  8
0
100
AcDbBlockBegin
  2
블럭10
 70
     2
 10
0.0
 20
0.0
 30
0.0
  3
블럭10
  1
블럭10
  0
ELLIPSE
  5
85
330
82
100
AcDbEntity
  8
중심선
100
AcDbEllipse
 10
20.54032771741204
 20
12.0471743016438
 30
0.0
 11
6.600054785286829
 21
-1.261213355974178E-13
 31
0.0
210
0.0
220
0.0
230
1.0
 40
0.636358354079598
 41
0.9219305317359503
 42
6.513795318482858
  0
ELLIPSE
  5
86
330
82
100
AcDbEntity
  8
중심선
100
AcDbEllipse
 10
20.54032771746488
 20
12.04717430159265
 30
0.0
 11
3.960054785062283
 21
1.540847449632565E-10
 31
0.0
210
0.0
220
0.0
230
1.0
 40
0.3939339440162632
 41
1.131841032648279
 42
5.62031148352944
  0
LINE
  5
87
330
82
100
AcDbEntity
  8
중심선
100
AcDbLine
 10
2.268634060543552
 20
16.24717430164393
 30
0.0
 11
5.714909304380834
 21
16.24717430164393
 31
0.0
  0
LINE
  5
88
330
82
100
AcDbEntity
  8
중심선
100
AcDbLine
 10
5.245725140726316
 20
7.84717430164391
 30
0.0
 11
8.692000384563599
 21
7.84717430164391
 31
0.0
  0
LINE
  5
89
330
82
100
AcDbEntity
  8
중심선
100
AcDbLine
 10
15.74043728645272
 20
16.24717430164393
 30
0.0
 11
8.692000384563599
 21
7.84717430164391
 31
0.0
  0
LINE
  5
8A
330
82
100
AcDbEntity
  8
중심선
100
AcDbLine
 10
0.1404042013395286
 20
13.71084872107135
 30
0.0
 11
3.58671253028996
 21
13.71088815037384
 31
0.0
  0
LINE
  5
8B
330
82
100
AcDbEntity
  8
중심선
100
AcDbLine
 10
2.750260043222114
 20
10.84717430164391
 30
0.0
 11
6.196535287059397
 21
10.84717430164391
 31
0.0
  0
LINE
  5
8C
330
82
100
AcDbEntity
  8
중심선
100
AcDbLine
 10
12.29416204261559
 20
16.24717430164393
 30
0.0
 11
5.245725140726316
 21
7.84717430164391
 31
0.0
  0
LINE
  5
8D
330
82
100
AcDbEntity
  8
중심선
100
AcDbLine
 10
10.72767329541681
 20
16.24717430164393
 30
0.0
 11
6.196535287059397
 21
10.84717430164391
 31
0.0
  0
LINE
  5
8E
330
82
100
AcDbEntity
  8
중심선
100
AcDbLine
 10
7.28139805157953
 20
16.24717430164393
 30
0.0
 11
2.750260043222114
 21
10.84717430164391
 31
0.0
  0
LINE
  5
8F
330
82
100
AcDbEntity
  8
중심선
100
AcDbLine
 10
5.714909304380834
 20
16.24717430164393
 30
0.0
 11
3.58671253028996
 21
13.71088815037384
 31
0.0
  0
LINE
  5
90
330
82
100
AcDbEntity
  8
중심선
100
AcDbLine
 10
2.268634060543552
 20
16.24717430164393
 30
0.0
 11
0.1404042013395286
 21
13.71084872107135
 31
0.0
  0
LINE
  5
91
330
82
100
AcDbEntity
  8
중심선
100
AcDbLine
 10
7.28139805157953
 20
16.24717430164393
 30
0.0
 11
10.72767329541681
 21
16.24717430164393
 31
0.0
  0
LINE
  5
92
330
82
100
AcDbEntity
  8
중심선
100
AcDbLine
 10
12.29416204261559
 20
16.24717430164393
 30
0.0
 11
15.74043728645272
 21
16.24717430164393
 31
0.0
  0
LINE
  5
93
330
82
100
AcDbEntity
  8
중심선
100
AcDbLine
 10
19.22036997980202
 20
11.08717430171403
 30
0.0
 11
23.66174974927406
 21
11.08717430171406
 31
0.0
  0
LINE
  5
94
330
82
100
AcDbEntity
  8
중심선
100
AcDbLine
 10
19.22039502424796
 20
13.00717430171391
 30
0.0
 11
19.22036997980202
 21
11.08717430171403
 31
0.0
  0
LINE
  5
95
330
82
100
AcDbEntity
  8
중심선
100
AcDbLine
 10
19.22039502424796
 20
13.00717430171391
 30
0.0
 11
26.96566020931264
 21
13.00717430171391
 31
0.0
  0
LINE
  5
96
330
82
100
AcDbEntity
  8
중심선
100
AcDbLine
 10
22.22332737316547
 20
13.45928029700563
 30
0.0
 11
24.52862924686651
 21
15.39360700705356
 31
0.0
  0
ATTDEF
  5
98
330
82
100
AcDbEntity
  8
FORMAT
 62
     2
100
AcDbText
 10
-9.18129528874128
 20
2.075366912832191
 30
0.0
 40
4.233333333333333
  1
E5976903 [ 2 FLUTE ]
 41
0.75
  7
SLDTEXTSTYLE0
 11
-9.18129528874128
 21
-0.0412997538344756
 31
0.0
100
AcDbAttributeDefinition
  3

  2
AUTOATTR0
 70
     0
 74
     1
  0
ENDBLK
  5
84
330
82
100
AcDbEntity
  8
0
100
AcDbBlockEnd
  0
BLOCK
  5
CB
330
CA
100
AcDbEntity
  8
0
100
AcDbBlockBegin
  2
_D
 70
     0
 10
0.0
 20
0.0
 30
0.0
  3
_D
  1
_D
  0
SOLID
  5
CD
330
CA
100
AcDbEntity
  8
치수문자_일반주서
100
AcDbTrace
 10
-96.6976509022191
 20
7.938574928723884
 30
0.0
 11
-96.1896509022191
 21
11.24057492872388
 31
0.0
 12
-97.20565090221909
 22
11.24057492872388
 32
0.0
 13
-97.20565090221909
 23
11.24057492872388
 33
0.0
  0
SOLID
  5
CE
330
CA
100
AcDbEntity
  8
치수문자_일반주서
100
AcDbTrace
 10
-96.6976509022191
 20
-7.936425071276105
 30
0.0
 11
-97.20565090221909
 21
-11.2384250712761
 31
0.0
 12
-96.1896509022191
 22
-11.2384250712761
 32
0.0
 13
-96.1896509022191
 23
-11.2384250712761
 33
0.0
  0
LINE
  5
CF
330
CA
100
AcDbEntity
  8
치수문자_일반주서
100
AcDbLine
 10
-107.4905326182618
 20
-4.52461960173343
 30
0.0
 11
-107.4905326182618
 21
-5.59102585918401
 31
0.0
  0
LINE
  5
D0
330
CA
100
AcDbEntity
  8
치수문자_일반주서
100
AcDbLine
 10
-107.4905326182618
 20
-5.59102585918401
 30
0.0
 11
-101.9342826272025
 21
-5.591025859183971
 31
0.0
  0
LINE
  5
D1
330
CA
100
AcDbEntity
  8
치수문자_일반주서
100
AcDbLine
 10
-101.9342826272025
 20
-5.591025859183971
 30
0.0
 11
-101.9342826272025
 21
-4.524619601733391
 31
0.0
  0
LINE
  5
D2
330
CA
100
AcDbEntity
  8
치수문자_일반주서
100
AcDbLine
 10
-107.4905326182619
 20
4.526769459181087
 30
0.0
 11
-107.4905326182619
 21
5.593175716631667
 31
0.0
  0
LINE
  5
D3
330
CA
100
AcDbEntity
  8
치수문자_일반주서
100
AcDbLine
 10
-107.4905326182619
 20
5.593175716631667
 30
0.0
 11
-101.9342826272026
 21
5.593175716631706
 31
0.0
  0
LINE
  5
D4
330
CA
100
AcDbEntity
  8
치수문자_일반주서
100
AcDbLine
 10
-101.9342826272026
 20
5.593175716631706
 30
0.0
 11
-101.9342826272026
 21
4.526769459181126
 31
0.0
  0
LINE
  5
D5
330
CA
100
AcDbEntity
  8
치수문자_일반주서
100
AcDbLine
 10
-85.20119288060704
 20
7.938574928723884
 30
0.0
 11
-97.6976509022191
 21
7.938574928723884
 31
0.0
  0
LINE
  5
D6
330
CA
100
AcDbEntity
  8
치수문자_일반주서
100
AcDbLine
 10
-85.20119288060704
 20
-7.936425071276105
 30
0.0
 11
-97.6976509022191
 21
-7.936425071276105
 31
0.0
  0
LINE
  5
D7
330
CA
100
AcDbEntity
  8
치수문자_일반주서
100
AcDbLine
 10
-96.6976509022191
 20
7.938574928723884
 30
0.0
 11
-96.6976509022191
 21
14.28857492872388
 31
0.0
  0
LINE
  5
D8
330
CA
100
AcDbEntity
  8
치수문자_일반주서
100
AcDbLine
 10
-96.6976509022191
 20
7.938574928723884
 30
0.0
 11
-96.6976509022191
 21
-7.936425071276105
 31
0.0
  0
LINE
  5
D9
330
CA
100
AcDbEntity
  8
치수문자_일반주서
100
AcDbLine
 10
-96.6976509022191
 20
-7.936425071276105
 30
0.0
 11
-96.6976509022191
 21
-14.2864250712761
 31
0.0
  0
MTEXT
  5
DA
330
CA
100
AcDbEntity
  8
치수문자_일반주서
100
AcDbMText
 10
-106.4460195417814
 20
-4.524619601733423
 30
0.0
 40
3.5
 41
0.0
 71
     1
 72
     1
  1
0.63
  7
SLDTEXTSTYLE0
 11
-7.044195017643634E-15
 21
1.0
 31
0.0
 73
     1
 44
1.0
  0
MTEXT
  5
DB
330
CA
100
AcDbEntity
  8
치수문자_일반주서
100
AcDbMText
 10
-101.2093879914209
 20
-8.456894014097154
 30
0.0
 40
3.5
 41
0.0
 71
     1
 72
     1
  1
%%c
  7
SLDTEXTSTYLE0
 11
-7.044195017643634E-15
 21
1.0
 31
0.0
 73
     1
 44
1.0
  0
MTEXT
  5
DC
330
CA
100
AcDbEntity
  8
치수문자_일반주서
100
AcDbMText
 10
-101.209387991421
 20
-3.178456615723073
 30
0.0
 40
3.5
 41
0.0
 71
     1
 72
     1
  1
15.88
  7
SLDTEXTSTYLE0
 11
-7.044195017643634E-15
 21
1.0
 31
0.0
 73
     1
 44
1.0
  0
ENDBLK
  5
CC
330
CA
100
AcDbEntity
  8
0
100
AcDbBlockEnd
  0
BLOCK
  5
E0
330
DF
100
AcDbEntity
  8
0
100
AcDbBlockBegin
  2
_D_1
 70
     0
 10
0.0
 20
0.0
 30
0.0
  3
_D_1
  1
_D_1
  0
SOLID
  5
E2
330
DF
100
AcDbEntity
  8
치수문자_일반주서
100
AcDbTrace
 10
102.3422313209403
 20
7.931866274609196
 30
0.0
 11
101.8342313209403
 21
4.629866274609197
 31
0.0
 12
102.8502313209403
 22
4.629866274609197
 32
0.0
 13
102.8502313209403
 23
4.629866274609197
 33
0.0
  0
SOLID
  5
E3
330
DF
100
AcDbEntity
  8
치수문자_일반주서
100
AcDbTrace
 10
102.3422313209403
 20
-7.929716417161402
 30
0.0
 11
102.8502313209403
 21
-4.627716417161403
 31
0.0
 12
101.8342313209403
 22
-4.627716417161403
 32
0.0
 13
101.8342313209403
 23
-4.627716417161403
 33
0.0
  0
LINE
  5
E4
330
DF
100
AcDbEntity
  8
치수문자_일반주서
100
AcDbLine
 10
91.54934960489757
 20
21.55541944865055
 30
0.0
 11
91.54934960489759
 21
20.48901319119997
 31
0.0
  0
LINE
  5
E5
330
DF
100
AcDbEntity
  8
치수문자_일반주서
100
AcDbLine
 10
91.54934960489759
 20
20.48901319119997
 30
0.0
 11
97.10559959595689
 21
20.48901319120001
 31
0.0
  0
LINE
  5
E6
330
DF
100
AcDbEntity
  8
치수문자_일반주서
100
AcDbLine
 10
97.10559959595689
 20
20.48901319120001
 30
0.0
 11
97.10559959595687
 21
21.55541944865059
 31
0.0
  0
LINE
  5
E7
330
DF
100
AcDbEntity
  8
치수문자_일반주서
100
AcDbLine
 10
91.54934960489751
 20
30.60680850956506
 30
0.0
 11
91.5493496048975
 21
31.67321476701564
 31
0.0
  0
LINE
  5
E8
330
DF
100
AcDbEntity
  8
치수문자_일반주서
100
AcDbLine
 10
91.5493496048975
 20
31.67321476701564
 30
0.0
 11
97.1055995959568
 21
31.67321476701569
 31
0.0
  0
LINE
  5
E9
330
DF
100
AcDbEntity
  8
치수문자_일반주서
100
AcDbLine
 10
97.1055995959568
 20
31.67321476701569
 30
0.0
 11
97.10559959595682
 21
30.6068085095651
 31
0.0
  0
LINE
  5
EA
330
DF
100
AcDbEntity
  8
치수문자_일반주서
100
AcDbLine
 10
68.19880711939297
 20
7.931866274609197
 30
0.0
 11
103.3422313209403
 21
7.931866274609196
 31
0.0
  0
LINE
  5
EB
330
DF
100
AcDbEntity
  8
치수문자_일반주서
100
AcDbLine
 10
68.19880711939297
 20
-7.929716417161401
 30
0.0
 11
103.3422313209403
 21
-7.929716417161402
 31
0.0
  0
LINE
  5
EC
330
DF
100
AcDbEntity
  8
치수문자_일반주서
100
AcDbLine
 10
102.3422313209403
 20
7.931866274609196
 30
0.0
 11
102.3422313209403
 21
34.53908292192889
 31
0.0
  0
LINE
  5
ED
330
DF
100
AcDbEntity
  8
치수문자_일반주서
100
AcDbLine
 10
102.3422313209403
 20
7.931866274609196
 30
0.0
 11
102.3422313209403
 21
-7.929716417161402
 31
0.0
  0
MTEXT
  5
EE
330
DF
100
AcDbEntity
  8
치수문자_일반주서
100
AcDbMText
 10
92.59386268137798
 20
21.55541944865055
 30
0.0
 40
3.5
 41
0.0
 71
     1
 72
     1
  1
0.62
  7
SLDTEXTSTYLE0
 11
-7.044195017643634E-15
 21
1.0
 31
0.0
 73
     1
 44
1.0
  0
MTEXT
  5
EF
330
DF
100
AcDbEntity
  8
치수문자_일반주서
100
AcDbMText
 10
97.83049423173848
 20
17.62314503628682
 30
0.0
 40
3.5
 41
0.0
 71
     1
 72
     1
  1
%%c
  7
SLDTEXTSTYLE0
 11
-7.044195017643634E-15
 21
1.0
 31
0.0
 73
     1
 44
1.0
  0
MTEXT
  5
F0
330
DF
100
AcDbEntity
  8
치수문자_일반주서
100
AcDbMText
 10
97.83049423173844
 20
22.9015824346609
 30
0.0
 40
3.5
 41
0.0
 71
     1
 72
     1
  1
15.86
  7
SLDTEXTSTYLE0
 11
-7.044195017643634E-15
 21
1.0
 31
0.0
 73
     1
 44
1.0
  0
ENDBLK
  5
E1
330
DF
100
AcDbEntity
  8
0
100
AcDbBlockEnd
  0
BLOCK
  5
F3
330
F2
100
AcDbEntity
  8
0
100
AcDbBlockBegin
  2
_D_2
 70
     0
 10
0.0
 20
0.0
 30
0.0
  3
_D_2
  1
_D_2
  0
SOLID
  5
F5
330
F2
100
AcDbEntity
  8
치수문자_일반주서
100
AcDbTrace
 10
86.24880711939296
 20
16.34839146707804
 30
0.0
 11
82.94680711939296
 21
16.85639146707804
 31
0.0
 12
82.94680711939296
 22
15.84039146707804
 32
0.0
 13
82.94680711939296
 23
15.84039146707804
 33
0.0
  0
SOLID
  5
F6
330
F2
100
AcDbEntity
  8
치수문자_일반주서
100
AcDbTrace
 10
70.37380711939294
 20
16.34839146707802
 30
0.0
 11
73.67580711939294
 21
15.84039146707802
 31
0.0
 12
73.67580711939294
 22
16.85639146707802
 32
0.0
 13
73.67580711939294
 23
16.85639146707802
 33
0.0
  0
LINE
  5
F7
330
F2
100
AcDbEntity
  8
치수문자_일반주서
100
AcDbLine
 10
96.0820105518268
 20
27.14127318312084
 30
0.0
 11
95.01560429437622
 21
27.14127318312083
 31
0.0
  0
LINE
  5
F8
330
F2
100
AcDbEntity
  8
치수문자_일반주서
100
AcDbLine
 10
95.01560429437622
 20
27.14127318312083
 30
0.0
 11
95.01560429437626
 21
21.58502319206153
 31
0.0
  0
LINE
  5
F9
330
F2
100
AcDbEntity
  8
치수문자_일반주서
100
AcDbLine
 10
95.01560429437626
 20
21.58502319206153
 30
0.0
 11
96.08201055182684
 21
21.58502319206154
 31
0.0
  0
LINE
  5
FA
330
F2
100
AcDbEntity
  8
치수문자_일반주서
100
AcDbLine
 10
105.1333996127413
 20
27.14127318312092
 30
0.0
 11
106.1998058701919
 21
27.14127318312093
 31
0.0
  0
LINE
  5
FB
330
F2
100
AcDbEntity
  8
치수문자_일반주서
100
AcDbLine
 10
106.1998058701919
 20
27.14127318312093
 30
0.0
 11
106.1998058701919
 21
21.58502319206163
 31
0.0
  0
LINE
  5
FC
330
F2
100
AcDbEntity
  8
치수문자_일반주서
100
AcDbLine
 10
106.1998058701919
 20
21.58502319206163
 30
0.0
 11
105.1333996127414
 21
21.58502319206162
 31
0.0
  0
LINE
  5
FD
330
F2
100
AcDbEntity
  8
치수문자_일반주서
100
AcDbLine
 10
86.24880711939298
 20
7.345708005432146
 30
0.0
 11
86.24880711939296
 21
17.34839146707804
 31
0.0
  0
LINE
  5
FE
330
F2
100
AcDbEntity
  8
치수문자_일반주서
100
AcDbLine
 10
70.37380711939295
 20
6.039853687543351
 30
0.0
 11
70.37380711939294
 21
17.34839146707802
 31
0.0
  0
LINE
  5
FF
330
F2
100
AcDbEntity
  8
치수문자_일반주서
100
AcDbLine
 10
86.24880711939296
 20
16.34839146707804
 30
0.0
 11
108.559267025912
 21
16.34839146707807
 31
0.0
  0
LINE
  5
100
330
F2
100
AcDbEntity
  8
치수문자_일반주서
100
AcDbLine
 10
86.24880711939296
 20
16.34839146707804
 30
0.0
 11
70.37380711939294
 21
16.34839146707802
 31
0.0
  0
MTEXT
  5
101
330
F2
100
AcDbEntity
  8
치수문자_일반주서
100
AcDbMText
 10
93.96864244016429
 20
20.9136007329398
 30
0.0
 40
3.5
 41
0.0
 71
     1
 72
     1
  1

  7
SLDTEXTSTYLE0
 73
     1
 44
1.0
  0
MTEXT
  5
102
330
F2
100
AcDbEntity
  8
치수문자_일반주서
100
AcDbMText
 10
96.08201055182681
 20
26.09676010664043
 30
0.0
 40
3.5
 41
0.0
 71
     1
 72
     1
  1
0.63
  7
SLDTEXTSTYLE0
 73
     1
 44
1.0
  0
MTEXT
  5
103
330
F2
100
AcDbEntity
  8
치수문자_일반주서
100
AcDbMText
 10
94.78895483865013
 20
20.86012855627995
 30
0.0
 40
3.5
 41
0.0
 71
     1
 72
     1
  1
15.88
  7
SLDTEXTSTYLE0
 73
     1
 44
1.0
  0
MTEXT
  5
104
330
F2
100
AcDbEntity
  8
치수문자_일반주서
100
AcDbMText
 10
108.5787122440579
 20
20.91360073293993
 30
0.0
 40
3.5
 41
0.0
 71
     1
 72
     1
  1

  7
SLDTEXTSTYLE0
 73
     1
 44
1.0
  0
ENDBLK
  5
F4
330
F2
100
AcDbEntity
  8
0
100
AcDbBlockEnd
  0
BLOCK
  5
107
330
106
100
AcDbEntity
  8
0
100
AcDbBlockBegin
  2
_D_3
 70
     0
 10
0.0
 20
0.0
 30
0.0
  3
_D_3
  1
_D_3
  0
SOLID
  5
109
330
106
100
AcDbEntity
  8
치수문자_일반주서
100
AcDbTrace
 10
67.19880711939297
 20
32.95231342532441
 30
0.0
 11
63.89680711939297
 21
33.46031342532441
 31
0.0
 12
63.89680711939297
 22
32.44431342532441
 32
0.0
 13
63.89680711939297
 23
32.44431342532441
 33
0.0
  0
SOLID
  5
10A
330
106
100
AcDbEntity
  8
치수문자_일반주서
100
AcDbTrace
 10
-15.35119288060704
 20
32.95231342532441
 30
0.0
 11
-12.04919288060704
 21
32.4443134253244
 31
0.0
 12
-12.04919288060704
 22
33.46031342532441
 32
0.0
 13
-12.04919288060704
 23
33.46031342532441
 33
0.0
  0
LINE
  5
10B
330
106
100
AcDbEntity
  8
치수문자_일반주서
100
AcDbLine
 10
75.11749087000747
 20
43.74519514136718
 30
0.0
 11
74.05108461255689
 21
43.74519514136717
 31
0.0
  0
LINE
  5
10C
330
106
100
AcDbEntity
  8
치수문자_일반주서
100
AcDbLine
 10
74.05108461255689
 20
43.74519514136717
 30
0.0
 11
74.05108461255693
 21
38.18894515030787
 31
0.0
  0
LINE
  5
10D
330
106
100
AcDbEntity
  8
치수문자_일반주서
100
AcDbLine
 10
74.05108461255693
 20
38.18894515030787
 30
0.0
 11
75.11749087000752
 21
38.18894515030787
 31
0.0
  0
LINE
  5
10E
330
106
100
AcDbEntity
  8
치수문자_일반주서
100
AcDbLine
 10
84.16887993092199
 20
43.74519514136724
 30
0.0
 11
85.23528618837257
 21
43.74519514136725
 31
0.0
  0
LINE
  5
10F
330
106
100
AcDbEntity
  8
치수문자_일반주서
100
AcDbLine
 10
85.23528618837257
 20
43.74519514136725
 30
0.0
 11
85.23528618837261
 21
38.18894515030794
 31
0.0
  0
LINE
  5
110
330
106
100
AcDbEntity
  8
치수문자_일반주서
100
AcDbLine
 10
85.23528618837261
 20
38.18894515030794
 30
0.0
 11
84.16887993092203
 21
38.18894515030794
 31
0.0
  0
LINE
  5
111
330
106
100
AcDbEntity
  8
치수문자_일반주서
100
AcDbLine
 10
67.19880711939297
 20
8.931866274609197
 30
0.0
 11
67.19880711939297
 21
33.95231342532441
 31
0.0
  0
LINE
  5
112
330
106
100
AcDbEntity
  8
치수문자_일반주서
100
AcDbLine
 10
-15.35119288060703
 20
8.451074928723893
 30
0.0
 11
-15.35119288060704
 21
33.95231342532441
 31
0.0
  0
LINE
  5
113
330
106
100
AcDbEntity
  8
치수문자_일반주서
100
AcDbLine
 10
67.19880711939297
 20
32.95231342532441
 30
0.0
 11
87.59474734409261
 21
32.95231342532441
 31
0.0
  0
LINE
  5
114
330
106
100
AcDbEntity
  8
치수문자_일반주서
100
AcDbLine
 10
67.19880711939297
 20
32.95231342532441
 30
0.0
 11
-15.35119288060704
 21
32.95231342532441
 31
0.0
  0
MTEXT
  5
115
330
106
100
AcDbEntity
  8
치수문자_일반주서
100
AcDbMText
 10
73.00412275834493
 20
37.51752269118613
 30
0.0
 40
3.5
 41
0.0
 71
     1
 72
     1
  1

  7
SLDTEXTSTYLE0
 73
     1
 44
1.0
  0
MTEXT
  5
116
330
106
100
AcDbEntity
  8
치수문자_일반주서
100
AcDbMText
 10
75.11749087000747
 20
42.70068206488676
 30
0.0
 40
3.5
 41
0.0
 71
     1
 72
     1
  1
3.25
  7
SLDTEXTSTYLE0
 73
     1
 44
1.0
  0
MTEXT
  5
117
330
106
100
AcDbEntity
  8
치수문자_일반주서
100
AcDbMText
 10
73.8244351568308
 20
37.46405051452628
 30
0.0
 40
3.5
 41
0.0
 71
     1
 72
     1
  1
82.55
  7
SLDTEXTSTYLE0
 73
     1
 44
1.0
  0
MTEXT
  5
118
330
106
100
AcDbEntity
  8
치수문자_일반주서
100
AcDbMText
 10
87.6141925622385
 20
37.51752269118624
 30
0.0
 40
3.5
 41
0.0
 71
     1
 72
     1
  1

  7
SLDTEXTSTYLE0
 73
     1
 44
1.0
  0
ENDBLK
  5
108
330
106
100
AcDbEntity
  8
0
100
AcDbBlockEnd
  0
BLOCK
  5
11C
330
11B
100
AcDbEntity
  8
0
100
AcDbBlockBegin
  2
_D_4
 70
     0
 10
0.0
 20
0.0
 30
0.0
  3
_D_4
  1
_D_4
  0
SOLID
  5
11E
330
11B
100
AcDbEntity
  8
치수문자_일반주서
100
AcDbTrace
 10
67.19880711939297
 20
62.77828628785009
 30
0.0
 11
63.89680711939297
 21
63.2862862878501
 31
0.0
 12
63.89680711939297
 22
62.27028628785009
 32
0.0
 13
63.89680711939297
 23
62.27028628785009
 33
0.0
  0
SOLID
  5
11F
330
11B
100
AcDbEntity
  8
치수문자_일반주서
100
AcDbTrace
 10
-85.20119288060704
 20
62.77828628785009
 30
0.0
 11
-81.89919288060705
 21
62.27028628785009
 31
0.0
 12
-81.89919288060705
 22
63.2862862878501
 32
0.0
 13
-81.89919288060705
 23
63.2862862878501
 33
0.0
  0
LINE
  5
120
330
11B
100
AcDbEntity
  8
치수문자_일반주서
100
AcDbLine
 10
-16.26900955537495
 20
73.57116800389281
 30
0.0
 11
-17.33541581282553
 21
73.57116800389282
 31
0.0
  0
LINE
  5
121
330
11B
100
AcDbEntity
  8
치수문자_일반주서
100
AcDbLine
 10
-17.33541581282553
 20
73.57116800389282
 30
0.0
 11
-17.33541581282557
 21
68.01491801283352
 31
0.0
  0
LINE
  5
122
330
11B
100
AcDbEntity
  8
치수문자_일반주서
100
AcDbLine
 10
-17.33541581282557
 20
68.01491801283352
 30
0.0
 11
-16.26900955537499
 21
68.0149180128335
 31
0.0
  0
LINE
  5
123
330
11B
100
AcDbEntity
  8
치수문자_일반주서
100
AcDbLine
 10
-7.217620494460435
 20
73.57116800389274
 30
0.0
 11
-6.151214237009855
 21
73.57116800389272
 31
0.0
  0
LINE
  5
124
330
11B
100
AcDbEntity
  8
치수문자_일반주서
100
AcDbLine
 10
-6.151214237009855
 20
73.57116800389272
 30
0.0
 11
-6.151214237009895
 21
68.01491801283342
 31
0.0
  0
LINE
  5
125
330
11B
100
AcDbEntity
  8
치수문자_일반주서
100
AcDbLine
 10
-6.151214237009895
 20
68.01491801283342
 30
0.0
 11
-7.217620494460475
 21
68.01491801283343
 31
0.0
  0
LINE
  5
126
330
11B
100
AcDbEntity
  8
치수문자_일반주서
100
AcDbLine
 10
67.19880711939297
 20
8.931866274609197
 30
0.0
 11
67.19880711939297
 21
63.77828628785009
 31
0.0
  0
LINE
  5
127
330
11B
100
AcDbEntity
  8
치수문자_일반주서
100
AcDbLine
 10
-85.20119288060704
 20
7.938574928723883
 30
0.0
 11
-85.20119288060704
 21
63.77828628785009
 31
0.0
  0
LINE
  5
128
330
11B
100
AcDbEntity
  8
치수문자_일반주서
100
AcDbLine
 10
67.19880711939297
 20
62.77828628785009
 30
0.0
 11
-85.20119288060704
 21
62.77828628785009
 31
0.0
  0
MTEXT
  5
129
330
11B
100
AcDbEntity
  8
치수문자_일반주서
100
AcDbMText
 10
-18.83567657848986
 20
67.34349555371182
 30
0.0
 40
3.5
 41
0.0
 71
     1
 72
     1
  1

  7
SLDTEXTSTYLE0
 73
     1
 44
1.0
  0
MTEXT
  5
12A
330
11B
100
AcDbEntity
  8
치수문자_일반주서
100
AcDbMText
 10
-16.26900955537496
 20
72.52665492741241
 30
0.0
 40
3.5
 41
0.0
 71
     1
 72
     1
  1
6.00
  7
SLDTEXTSTYLE0
 73
     1
 44
1.0
  0
MTEXT
  5
12B
330
11B
100
AcDbEntity
  8
치수문자_일반주서
100
AcDbMText
 10
-18.85512098172845
 20
67.29002337705197
 30
0.0
 40
3.5
 41
0.0
 71
     1
 72
     1
  1
152.40
  7
SLDTEXTSTYLE0
 73
     1
 44
1.0
  0
MTEXT
  5
12C
330
11B
100
AcDbEntity
  8
치수문자_일반주서
100
AcDbMText
 10
-3.319008951691703
 20
67.3434955537117
 30
0.0
 40
3.5
 41
0.0
 71
     1
 72
     1
  1

  7
SLDTEXTSTYLE0
 73
     1
 44
1.0
  0
ENDBLK
  5
11D
330
11B
100
AcDbEntity
  8
0
100
AcDbBlockEnd
  0
BLOCK
  5
12E
330
12D
100
AcDbEntity
  8
0
100
AcDbBlockBegin
  2
SW_DOWELSYMBOL_0
 70
     0
 10
0.0
 20
0.0
 30
0.0
  3
SW_DOWELSYMBOL_0
  1
SW_DOWELSYMBOL_0
  0
CIRCLE
  5
130
330
12D
100
AcDbEntity
  8
외형선
 62
     0
100
AcDbCircle
 10
0.0
 20
0.0
 30
0.0
 40
3.000000000000004
  0
HATCH
  5
131
330
12D
100
AcDbEntity
  8
0
  6
Continuous
 62
     0
370
    35
100
AcDbHatch
 10
0.0
 20
0.0
 30
0.0
210
0.0
220
0.0
230
1.0
  2
SOLID
 70
     1
 71
     0
 91
        1
 92
        0
 93
        3
 72
     2
 10
0.0000000000000104
 20
0.0
 40
3.000000000000004
 50
0.0
 51
90.0
 73
     1
 72
     1
 10
0.0000000000000104
 20
3.000000000000004
 11
0.0000000000000104
 21
0.0
 72
     1
 10
0.0000000000000104
 20
0.0
 11
3.000000000000015
 21
0.0
 97
        0
 75
     0
 76
     1
 98
        1
 10
0.0
 20
0.0
  0
HATCH
  5
132
330
12D
100
AcDbEntity
  8
0
  6
Continuous
 62
     0
370
    35
100
AcDbHatch
 10
0.0
 20
0.0
 30
0.0
210
0.0
220
0.0
230
1.0
  2
SOLID
 70
     1
 71
     0
 91
        1
 92
        0
 93
        3
 72
     2
 10
0.0000000000000104
 20
0.0
 40
3.000000000000004
 50
180.0
 51
270.0000000000008
 73
     1
 72
     1
 10
0.0000000000000104
 20
-3.000000000000004
 11
0.0000000000000104
 21
0.0
 72
     1
 10
0.0000000000000104
 20
0.0
 11
-2.999999999999994
 21
0.0
 97
        0
 75
     0
 76
     1
 98
        1
 10
0.0
 20
0.0
  0
ENDBLK
  5
12F
330
12D
100
AcDbEntity
  8
0
100
AcDbBlockEnd
  0
BLOCK
  5
1FC
330
1FB
100
AcDbEntity
  8
0
100
AcDbBlockBegin
  2
*D9
 70
     1
 10
0.0
 20
0.0
 30
0.0
  3
*D9
  1
*D9
  0
LINE
  5
1FE
330
1FB
100
AcDbEntity
  8
치수문자_일반주서
 62
     0
370
    -2
100
AcDbLine
 10
16.80895802161211
 20
21.0625
 30
0.0
 11
4.375000000000015
 21
21.06249999999995
 31
0.0
  0
LINE
  5
1FF
330
1FB
100
AcDbEntity
  8
치수문자_일반주서
 62
     0
370
    -2
100
AcDbLine
 10
16.80895802161211
 20
5.187500000000016
 30
0.0
 11
4.37500000000007
 21
5.18749999999997
 31
0.0
  0
LINE
  5
200
330
1FB
100
AcDbEntity
  8
치수문자_일반주서
 62
     0
370
    -2
100
AcDbLine
 10
4.375000000000027
 20
17.76049999999995
 30
0.0
 11
4.375000000000059
 21
8.48949999999997
 31
0.0
  0
SOLID
  5
201
330
1FB
100
AcDbEntity
  8
치수문자_일반주서
 62
     0
100
AcDbTrace
 10
4.92533333333336
 20
17.76049999999996
 30
0.0
 11
3.824666666666694
 21
17.76049999999995
 31
0.0
 12
4.375000000000015
 22
21.06249999999995
 32
0.0
 13
4.375000000000015
 23
21.06249999999995
 33
0.0
  0
SOLID
  5
202
330
1FB
100
AcDbEntity
  8
치수문자_일반주서
 62
     0
100
AcDbTrace
 10
3.824666666666726
 20
8.489499999999968
 30
0.0
 11
4.925333333333392
 21
8.489499999999971
 31
0.0
 12
4.37500000000007
 22
5.18749999999997
 32
0.0
 13
4.37500000000007
 23
5.18749999999997
 33
0.0
  0
MTEXT
  5
203
330
1FB
100
AcDbEntity
  8
치수문자_일반주서
 62
     0
100
AcDbMText
 10
0.0000000000000426
 20
13.12499999999999
 30
0.0
 40
3.5
 41
0.0
 71
     2
 72
     1
  1
\A1;%%c15.88 [5/8]
  7
SLDTEXTSTYLE0
 11
-3.468791308435138E-15
 21
1.0
 31
0.0
 73
     1
 44
1.0
  0
POINT
  5
204
330
1FB
100
AcDbEntity
  8
Defpoints
 62
     0
100
AcDbPoint
 10
16.87145802161211
 20
21.0625
 30
0.0
  0
POINT
  5
205
330
1FB
100
AcDbEntity
  8
Defpoints
 62
     0
100
AcDbPoint
 10
16.87145802161211
 20
5.187500000000016
 30
0.0
  0
POINT
  5
206
330
1FB
100
AcDbEntity
  8
Defpoints
 62
     0
100
AcDbPoint
 10
4.375000000000071
 20
5.187499999999969
 30
0.0
  0
ENDBLK
  5
1FD
330
1FB
100
AcDbEntity
  8
0
100
AcDbBlockEnd
  0
BLOCK
  5
208
330
207
100
AcDbEntity
  8
0
100
AcDbBlockBegin
  2
*D10
 70
     1
 10
0.0
 20
0.0
 30
0.0
  3
*D10
  1
*D10
  0
LINE
  5
20A
330
207
100
AcDbEntity
  8
치수문자_일반주서
 62
     0
370
    -2
100
AcDbLine
 10
175.6838603056037
 20
21.06250000000001
 30
0.0
 11
217.720030516498
 21
21.06250000000017
 31
0.0
  0
LINE
  5
20B
330
207
100
AcDbEntity
  8
치수문자_일반주서
 62
     0
370
    -2
100
AcDbLine
 10
175.6838603056037
 20
5.187500000000009
 30
0.0
 11
217.7200305164981
 21
5.187500000000163
 31
0.0
  0
LINE
  5
20C
330
207
100
AcDbEntity
  8
치수문자_일반주서
 62
     0
370
    -2
100
AcDbLine
 10
217.720030516498
 20
21.06250000000017
 30
0.0
 11
217.7200305164979
 21
53.23611416738257
 31
0.0
  0
LINE
  5
20D
330
207
100
AcDbEntity
  8
치수문자_일반주서
 62
     0
370
    -2
100
AcDbLine
 10
217.720030516498
 20
17.76050000000017
 30
0.0
 11
217.7200305164981
 21
8.489500000000163
 31
0.0
  0
SOLID
  5
20E
330
207
100
AcDbEntity
  8
치수문자_일반주서
 62
     0
100
AcDbTrace
 10
218.2703638498313
 20
17.76050000000017
 30
0.0
 11
217.1696971831647
 21
17.76050000000017
 31
0.0
 12
217.720030516498
 22
21.06250000000017
 32
0.0
 13
217.720030516498
 23
21.06250000000017
 33
0.0
  0
SOLID
  5
20F
330
207
100
AcDbEntity
  8
치수문자_일반주서
 62
     0
100
AcDbTrace
 10
217.1696971831647
 20
8.489500000000161
 30
0.0
 11
218.2703638498314
 21
8.489500000000165
 31
0.0
 12
217.7200305164981
 22
5.187500000000163
 32
0.0
 13
217.7200305164981
 23
5.187500000000163
 33
0.0
  0
MTEXT
  5
210
330
207
100
AcDbEntity
  8
치수문자_일반주서
 62
     0
100
AcDbMText
 10
213.345030516498
 20
39.23611416738255
 30
0.0
 40
3.5
 41
0.0
 71
     2
 72
     1
  1
\A1;%%c15.88 [5/8]
  7
SLDTEXTSTYLE0
 11
-3.580687802255622E-15
 21
1.0
 31
0.0
 73
     1
 44
1.0
  0
POINT
  5
211
330
207
100
AcDbEntity
  8
Defpoints
 62
     0
100
AcDbPoint
 10
175.6213603056037
 20
21.06250000000001
 30
0.0
  0
POINT
  5
212
330
207
100
AcDbEntity
  8
Defpoints
 62
     0
100
AcDbPoint
 10
175.6213603056037
 20
5.187500000000009
 30
0.0
  0
POINT
  5
213
330
207
100
AcDbEntity
  8
Defpoints
 62
     0
100
AcDbPoint
 10
217.7200305164981
 20
5.187500000000166
 30
0.0
  0
ENDBLK
  5
209
330
207
100
AcDbEntity
  8
0
100
AcDbBlockEnd
  0
BLOCK
  5
215
330
214
100
AcDbEntity
  8
0
100
AcDbBlockBegin
  2
*D11
 70
     1
 10
0.0
 20
0.0
 30
0.0
  3
*D11
  1
*D11
  0
LINE
  5
217
330
214
100
AcDbEntity
  8
치수문자_일반주서
 62
     0
370
    -2
100
AcDbLine
 10
193.6714580216122
 20
21.11829134588444
 30
0.0
 11
193.6714580216122
 21
29.47231653835419
 31
0.0
  0
LINE
  5
218
330
214
100
AcDbEntity
  8
치수문자_일반주서
 62
     0
370
    -2
100
AcDbLine
 10
174.6214580216121
 20
21.12500000000001
 30
0.0
 11
174.6214580216121
 21
29.47231653835419
 31
0.0
  0
LINE
  5
219
330
214
100
AcDbEntity
  8
치수문자_일반주서
 62
     0
370
    -2
100
AcDbLine
 10
190.3694580216122
 20
29.47231653835419
 30
0.0
 11
177.9234580216121
 21
29.47231653835419
 31
0.0
  0
SOLID
  5
21A
330
214
100
AcDbEntity
  8
치수문자_일반주서
 62
     0
100
AcDbTrace
 10
190.3694580216122
 20
28.92198320502085
 30
0.0
 11
190.3694580216122
 21
30.02264987168752
 31
0.0
 12
193.6714580216122
 22
29.47231653835419
 32
0.0
 13
193.6714580216122
 23
29.47231653835419
 33
0.0
  0
SOLID
  5
21B
330
214
100
AcDbEntity
  8
치수문자_일반주서
 62
     0
100
AcDbTrace
 10
177.9234580216121
 20
30.02264987168752
 30
0.0
 11
177.9234580216121
 21
28.92198320502085
 31
0.0
 12
174.6214580216121
 22
29.47231653835419
 32
0.0
 13
174.6214580216121
 23
29.47231653835419
 33
0.0
  0
MTEXT
  5
21C
330
214
100
AcDbEntity
  8
치수문자_일반주서
 62
     0
100
AcDbMText
 10
184.1464580216121
 20
33.84731653835419
 30
0.0
 40
3.5
 41
0.0
 71
     2
 72
     1
  1
\A1;19.05 [3/4]
  7
SLDTEXTSTYLE0
 73
     1
 44
1.0
  0
POINT
  5
21D
330
214
100
AcDbEntity
  8
Defpoints
 62
     0
100
AcDbPoint
 10
193.6714580216122
 20
21.05579134588444
 30
0.0
  0
POINT
  5
21E
330
214
100
AcDbEntity
  8
Defpoints
 62
     0
100
AcDbPoint
 10
174.6214580216121
 20
21.06250000000001
 30
0.0
  0
POINT
  5
21F
330
214
100
AcDbEntity
  8
Defpoints
 62
     0
100
AcDbPoint
 10
174.6214580216121
 20
29.47231653835419
 30
0.0
  0
ENDBLK
  5
216
330
214
100
AcDbEntity
  8
0
100
AcDbBlockEnd
  0
BLOCK
  5
221
330
220
100
AcDbEntity
  8
0
100
AcDbBlockBegin
  2
*D12
 70
     1
 10
0.0
 20
0.0
 30
0.0
  3
*D12
  1
*D12
  0
LINE
  5
223
330
220
100
AcDbEntity
  8
치수문자_일반주서
 62
     0
370
    -2
100
AcDbLine
 10
193.6714580216121
 20
21.11829134588532
 30
0.0
 11
193.6714580216121
 21
46.07623849660053
 31
0.0
  0
LINE
  5
224
330
220
100
AcDbEntity
  8
치수문자_일반주서
 62
     0
370
    -2
100
AcDbLine
 10
85.72145802161212
 20
20.63750000000001
 30
0.0
 11
85.72145802161212
 21
46.07623849660053
 31
0.0
  0
LINE
  5
225
330
220
100
AcDbEntity
  8
치수문자_일반주서
 62
     0
370
    -2
100
AcDbLine
 10
190.3694580216121
 20
46.07623849660053
 30
0.0
 11
89.02345802161213
 21
46.07623849660053
 31
0.0
  0
SOLID
  5
226
330
220
100
AcDbEntity
  8
치수문자_일반주서
 62
     0
100
AcDbTrace
 10
190.3694580216121
 20
45.5259051632672
 30
0.0
 11
190.3694580216121
 21
46.62657182993387
 31
0.0
 12
193.6714580216121
 22
46.07623849660053
 32
0.0
 13
193.6714580216121
 23
46.07623849660053
 33
0.0
  0
SOLID
  5
227
330
220
100
AcDbEntity
  8
치수문자_일반주서
 62
     0
100
AcDbTrace
 10
89.02345802161213
 20
46.62657182993387
 30
0.0
 11
89.02345802161213
 21
45.5259051632672
 31
0.0
 12
85.72145802161212
 22
46.07623849660053
 32
0.0
 13
85.72145802161212
 23
46.07623849660053
 33
0.0
  0
MTEXT
  5
228
330
220
100
AcDbEntity
  8
치수문자_일반주서
 62
     0
100
AcDbMText
 10
139.6964580216121
 20
50.45123849660053
 30
0.0
 40
3.5
 41
0.0
 71
     2
 72
     1
  1
\A1;107.95 [4 1/4]
  7
SLDTEXTSTYLE0
 73
     1
 44
1.0
  0
POINT
  5
229
330
220
100
AcDbEntity
  8
Defpoints
 62
     0
100
AcDbPoint
 10
193.6714580216121
 20
21.05579134588532
 30
0.0
  0
POINT
  5
22A
330
220
100
AcDbEntity
  8
Defpoints
 62
     0
100
AcDbPoint
 10
85.72145802161212
 20
20.57500000000001
 30
0.0
  0
POINT
  5
22B
330
220
100
AcDbEntity
  8
Defpoints
 62
     0
100
AcDbPoint
 10
85.72145802161212
 20
46.07623849660053
 30
0.0
  0
ENDBLK
  5
222
330
220
100
AcDbEntity
  8
0
100
AcDbBlockEnd
  0
BLOCK
  5
22D
330
22C
100
AcDbEntity
  8
0
100
AcDbBlockBegin
  2
*D13
 70
     1
 10
0.0
 20
0.0
 30
0.0
  3
*D13
  1
*D13
  0
LINE
  5
22F
330
22C
100
AcDbEntity
  8
치수문자_일반주서
 62
     0
370
    -2
100
AcDbLine
 10
193.6714580216121
 20
21.11829134588532
 30
0.0
 11
193.6714580216121
 21
75.90221135912621
 31
0.0
  0
LINE
  5
230
330
22C
100
AcDbEntity
  8
치수문자_일반주서
 62
     0
370
    -2
100
AcDbLine
 10
15.87145802161211
 20
20.12500000000001
 30
0.0
 11
15.87145802161211
 21
75.90221135912621
 31
0.0
  0
LINE
  5
231
330
22C
100
AcDbEntity
  8
치수문자_일반주서
 62
     0
370
    -2
100
AcDbLine
 10
190.3694580216121
 20
75.90221135912621
 30
0.0
 11
19.17345802161211
 21
75.90221135912621
 31
0.0
  0
SOLID
  5
232
330
22C
100
AcDbEntity
  8
치수문자_일반주서
 62
     0
100
AcDbTrace
 10
190.3694580216121
 20
75.35187802579289
 30
0.0
 11
190.3694580216121
 21
76.45254469245954
 31
0.0
 12
193.6714580216121
 22
75.90221135912621
 32
0.0
 13
193.6714580216121
 23
75.90221135912621
 33
0.0
  0
SOLID
  5
233
330
22C
100
AcDbEntity
  8
치수문자_일반주서
 62
     0
100
AcDbTrace
 10
19.17345802161211
 20
76.45254469245954
 30
0.0
 11
19.17345802161211
 21
75.35187802579289
 31
0.0
 12
15.87145802161211
 22
75.90221135912621
 32
0.0
 13
15.87145802161211
 23
75.90221135912621
 33
0.0
  0
MTEXT
  5
234
330
22C
100
AcDbEntity
  8
치수문자_일반주서
 62
     0
100
AcDbMText
 10
101.5723151124627
 20
80.27721135912621
 30
0.0
 40
3.5
 41
0.0
 71
     2
 72
     1
  1
\A1;177.80 [7]
  7
SLDTEXTSTYLE0
 73
     1
 44
1.0
  0
POINT
  5
235
330
22C
100
AcDbEntity
  8
Defpoints
 62
     0
100
AcDbPoint
 10
193.6714580216121
 20
21.05579134588532
 30
0.0
  0
POINT
  5
236
330
22C
100
AcDbEntity
  8
Defpoints
 62
     0
100
AcDbPoint
 10
15.87145802161211
 20
20.06250000000001
 30
0.0
  0
POINT
  5
237
330
22C
100
AcDbEntity
  8
Defpoints
 62
     0
100
AcDbPoint
 10
15.87145802161211
 20
75.90221135912621
 30
0.0
  0
ENDBLK
  5
22E
330
22C
100
AcDbEntity
  8
0
100
AcDbBlockEnd
  0
BLOCK
  5
26D
330
26C
100
AcDbEntity
  8
0
100
AcDbBlockBegin
  2
*D14
 70
     1
 10
0.0
 20
0.0
 30
0.0
  3
*D14
  1
*D14
  0
LINE
  5
26F
330
26C
100
AcDbEntity
  8
치수문자_일반주서
 62
     0
370
    -2
100
AcDbLine
 10
-66.42500000000001
 20
7.937499999999986
 30
0.0
 11
-78.85895802161211
 21
7.937499999999939
 31
0.0
  0
LINE
  5
270
330
26C
100
AcDbEntity
  8
치수문자_일반주서
 62
     0
370
    -2
100
AcDbLine
 10
-66.42500000000001
 20
-7.9375
 30
0.0
 11
-78.85895802161205
 21
-7.937500000000047
 31
0.0
  0
LINE
  5
271
330
26C
100
AcDbEntity
  8
치수문자_일반주서
 62
     0
370
    -2
100
AcDbLine
 10
-78.8589580216121
 20
4.635499999999939
 30
0.0
 11
-78.85895802161207
 21
-4.635500000000047
 31
0.0
  0
SOLID
  5
272
330
26C
100
AcDbEntity
  8
치수문자_일반주서
 62
     0
100
AcDbTrace
 10
-78.30862468827877
 20
4.635499999999941
 30
0.0
 11
-79.40929135494542
 21
4.635499999999937
 31
0.0
 12
-78.85895802161211
 22
7.937499999999939
 32
0.0
 13
-78.85895802161211
 23
7.937499999999939
 33
0.0
  0
SOLID
  5
273
330
26C
100
AcDbEntity
  8
치수문자_일반주서
 62
     0
100
AcDbTrace
 10
-79.4092913549454
 20
-4.635500000000049
 30
0.0
 11
-78.30862468827874
 21
-4.635500000000046
 31
0.0
 12
-78.85895802161205
 22
-7.937500000000047
 32
0.0
 13
-78.85895802161205
 23
-7.937500000000047
 33
0.0
  0
MTEXT
  5
274
330
26C
100
AcDbEntity
  8
치수문자_일반주서
 62
     0
100
AcDbMText
 10
-83.23395802161208
 20
-0.0000000000000226
 30
0.0
 40
3.5
 41
0.0
 71
     2
 72
     1
  1
\A1;%%c15.88 [5/8]
  7
SLDTEXTSTYLE0
 11
-3.580687802255626E-15
 21
1.0
 31
0.0
 73
     1
 44
1.0
  0
POINT
  5
275
330
26C
100
AcDbEntity
  8
Defpoints
 62
     0
100
AcDbPoint
 10
-66.36250000000001
 20
7.937499999999986
 30
0.0
  0
POINT
  5
276
330
26C
100
AcDbEntity
  8
Defpoints
 62
     0
100
AcDbPoint
 10
-66.36250000000001
 20
-7.9375
 30
0.0
  0
POINT
  5
277
330
26C
100
AcDbEntity
  8
Defpoints
 62
     0
100
AcDbPoint
 10
-78.85895802161205
 20
-7.937500000000047
 30
0.0
  0
ENDBLK
  5
26E
330
26C
100
AcDbEntity
  8
0
100
AcDbBlockEnd
  0
BLOCK
  5
279
330
278
100
AcDbEntity
  8
0
100
AcDbBlockBegin
  2
*D15
 70
     1
 10
0.0
 20
0.0
 30
0.0
  3
*D15
  1
*D15
  0
LINE
  5
27B
330
278
100
AcDbEntity
  8
치수문자_일반주서
 62
     0
370
    -2
100
AcDbLine
 10
67.0499022839916
 20
7.9375
 30
0.0
 11
109.0860724948859
 21
7.93750000000016
 31
0.0
  0
LINE
  5
27C
330
278
100
AcDbEntity
  8
치수문자_일반주서
 62
     0
370
    -2
100
AcDbLine
 10
67.0499022839916
 20
-7.937500000000007
 30
0.0
 11
109.086072494886
 21
-7.937499999999851
 31
0.0
  0
LINE
  5
27D
330
278
100
AcDbEntity
  8
치수문자_일반주서
 62
     0
370
    -2
100
AcDbLine
 10
109.0860724948859
 20
7.93750000000016
 30
0.0
 11
109.0860724948858
 21
40.11111416738255
 31
0.0
  0
LINE
  5
27E
330
278
100
AcDbEntity
  8
치수문자_일반주서
 62
     0
370
    -2
100
AcDbLine
 10
109.0860724948859
 20
4.63550000000016
 30
0.0
 11
109.0860724948859
 21
-4.635499999999851
 31
0.0
  0
SOLID
  5
27F
330
278
100
AcDbEntity
  8
치수문자_일반주서
 62
     0
100
AcDbTrace
 10
109.6364058282192
 20
4.635500000000162
 30
0.0
 11
108.5357391615526
 21
4.635500000000158
 31
0.0
 12
109.0860724948859
 22
7.93750000000016
 32
0.0
 13
109.0860724948859
 23
7.93750000000016
 33
0.0
  0
SOLID
  5
280
330
278
100
AcDbEntity
  8
치수문자_일반주서
 62
     0
100
AcDbTrace
 10
108.5357391615526
 20
-4.635499999999853
 30
0.0
 11
109.6364058282193
 21
-4.635499999999849
 31
0.0
 12
109.086072494886
 22
-7.937499999999851
 32
0.0
 13
109.086072494886
 23
-7.937499999999851
 33
0.0
  0
MTEXT
  5
281
330
278
100
AcDbEntity
  8
치수문자_일반주서
 62
     0
100
AcDbMText
 10
104.7110724948858
 20
26.11111416738254
 30
0.0
 40
3.5
 41
0.0
 71
     2
 72
     1
  1
\A1;%%c15.88 [5/8]
  7
SLDTEXTSTYLE0
 11
-3.580687802255621E-15
 21
1.0
 31
0.0
 73
     1
 44
1.0
  0
POINT
  5
282
330
278
100
AcDbEntity
  8
Defpoints
 62
     0
100
AcDbPoint
 10
66.9874022839916
 20
7.9375
 30
0.0
  0
POINT
  5
283
330
278
100
AcDbEntity
  8
Defpoints
 62
     0
100
AcDbPoint
 10
66.9874022839916
 20
-7.937500000000007
 30
0.0
  0
POINT
  5
284
330
278
100
AcDbEntity
  8
Defpoints
 62
     0
100
AcDbPoint
 10
109.0860724948859
 20
-7.93749999999985
 30
0.0
  0
ENDBLK
  5
27A
330
278
100
AcDbEntity
  8
0
100
AcDbBlockEnd
  0
BLOCK
  5
286
330
285
100
AcDbEntity
  8
0
100
AcDbBlockBegin
  2
*D16
 70
     1
 10
0.0
 20
0.0
 30
0.0
  3
*D16
  1
*D16
  0
LINE
  5
288
330
285
100
AcDbEntity
  8
치수문자_일반주서
 62
     0
370
    -2
100
AcDbLine
 10
85.03750000000002
 20
7.99329134588443
 30
0.0
 11
85.03750000000002
 21
16.34731653835417
 31
0.0
  0
LINE
  5
289
330
285
100
AcDbEntity
  8
치수문자_일반주서
 62
     0
370
    -2
100
AcDbLine
 10
65.98749999999998
 20
8.0
 30
0.0
 11
65.98749999999998
 21
16.34731653835417
 31
0.0
  0
LINE
  5
28A
330
285
100
AcDbEntity
  8
치수문자_일반주서
 62
     0
370
    -2
100
AcDbLine
 10
81.73550000000003
 20
16.34731653835417
 30
0.0
 11
69.28949999999998
 21
16.34731653835417
 31
0.0
  0
SOLID
  5
28B
330
285
100
AcDbEntity
  8
치수문자_일반주서
 62
     0
100
AcDbTrace
 10
81.73550000000003
 20
15.79698320502084
 30
0.0
 11
81.73550000000003
 21
16.89764987168751
 31
0.0
 12
85.03750000000002
 22
16.34731653835417
 32
0.0
 13
85.03750000000002
 23
16.34731653835417
 33
0.0
  0
SOLID
  5
28C
330
285
100
AcDbEntity
  8
치수문자_일반주서
 62
     0
100
AcDbTrace
 10
69.28949999999998
 20
16.89764987168751
 30
0.0
 11
69.28949999999998
 21
15.79698320502084
 31
0.0
 12
65.98749999999998
 22
16.34731653835417
 32
0.0
 13
65.98749999999998
 23
16.34731653835417
 33
0.0
  0
MTEXT
  5
28D
330
285
100
AcDbEntity
  8
치수문자_일반주서
 62
     0
100
AcDbMText
 10
75.51250000000002
 20
20.72231653835417
 30
0.0
 40
3.5
 41
0.0
 71
     2
 72
     1
  1
\A1;19.05 [3/4]
  7
SLDTEXTSTYLE0
 73
     1
 44
1.0
  0
POINT
  5
28E
330
285
100
AcDbEntity
  8
Defpoints
 62
     0
100
AcDbPoint
 10
85.03750000000002
 20
7.93079134588443
 30
0.0
  0
POINT
  5
28F
330
285
100
AcDbEntity
  8
Defpoints
 62
     0
100
AcDbPoint
 10
65.98749999999998
 20
7.9375
 30
0.0
  0
POINT
  5
290
330
285
100
AcDbEntity
  8
Defpoints
 62
     0
100
AcDbPoint
 10
65.98749999999998
 20
16.34731653835417
 30
0.0
  0
ENDBLK
  5
287
330
285
100
AcDbEntity
  8
0
100
AcDbBlockEnd
  0
BLOCK
  5
292
330
291
100
AcDbEntity
  8
0
100
AcDbBlockBegin
  2
*D17
 70
     1
 10
0.0
 20
0.0
 30
0.0
  3
*D17
  1
*D17
  0
LINE
  5
294
330
291
100
AcDbEntity
  8
치수문자_일반주서
 62
     0
370
    -2
100
AcDbLine
 10
85.0375
 20
7.993291345885311
 30
0.0
 11
85.0375
 21
32.95123849660052
 31
0.0
  0
LINE
  5
295
330
291
100
AcDbEntity
  8
치수문자_일반주서
 62
     0
370
    -2
100
AcDbLine
 10
2.487499999999997
 20
7.512499999999998
 30
0.0
 11
2.487499999999997
 21
32.95123849660052
 31
0.0
  0
LINE
  5
296
330
291
100
AcDbEntity
  8
치수문자_일반주서
 62
     0
370
    -2
100
AcDbLine
 10
81.7355
 20
32.95123849660052
 30
0.0
 11
5.789499999999997
 21
32.95123849660052
 31
0.0
  0
SOLID
  5
297
330
291
100
AcDbEntity
  8
치수문자_일반주서
 62
     0
100
AcDbTrace
 10
81.7355
 20
32.40090516326718
 30
0.0
 11
81.7355
 21
33.50157182993385
 31
0.0
 12
85.0375
 22
32.95123849660052
 32
0.0
 13
85.0375
 23
32.95123849660052
 33
0.0
  0
SOLID
  5
298
330
291
100
AcDbEntity
  8
치수문자_일반주서
 62
     0
100
AcDbTrace
 10
5.789499999999997
 20
33.50157182993385
 30
0.0
 11
5.789499999999997
 21
32.40090516326718
 31
0.0
 12
2.487499999999997
 22
32.95123849660052
 32
0.0
 13
2.487499999999997
 23
32.95123849660052
 33
0.0
  0
MTEXT
  5
299
330
291
100
AcDbEntity
  8
치수문자_일반주서
 62
     0
100
AcDbMText
 10
31.06250000000001
 20
37.32623849660052
 30
0.0
 40
3.5
 41
0.0
 71
     2
 72
     1
  1
\A1;82.55 [3 1/4]
  7
SLDTEXTSTYLE0
 73
     1
 44
1.0
  0
POINT
  5
29A
330
291
100
AcDbEntity
  8
Defpoints
 62
     0
100
AcDbPoint
 10
85.0375
 20
7.930791345885311
 30
0.0
  0
POINT
  5
29B
330
291
100
AcDbEntity
  8
Defpoints
 62
     0
100
AcDbPoint
 10
2.487499999999997
 20
7.449999999999998
 30
0.0
  0
POINT
  5
29C
330
291
100
AcDbEntity
  8
Defpoints
 62
     0
100
AcDbPoint
 10
2.487499999999997
 20
32.95123849660052
 30
0.0
  0
ENDBLK
  5
293
330
291
100
AcDbEntity
  8
0
100
AcDbBlockEnd
  0
BLOCK
  5
29E
330
29D
100
AcDbEntity
  8
0
100
AcDbBlockBegin
  2
*D18
 70
     1
 10
0.0
 20
0.0
 30
0.0
  3
*D18
  1
*D18
  0
LINE
  5
2A0
330
29D
100
AcDbEntity
  8
치수문자_일반주서
 62
     0
370
    -2
100
AcDbLine
 10
85.0375
 20
7.993291345885311
 30
0.0
 11
85.0375
 21
62.7772113591262
 31
0.0
  0
LINE
  5
2A1
330
29D
100
AcDbEntity
  8
치수문자_일반주서
 62
     0
370
    -2
100
AcDbLine
 10
-67.36250000000001
 20
6.999999999999993
 30
0.0
 11
-67.36250000000001
 21
62.7772113591262
 31
0.0
  0
LINE
  5
2A2
330
29D
100
AcDbEntity
  8
치수문자_일반주서
 62
     0
370
    -2
100
AcDbLine
 10
81.7355
 20
62.7772113591262
 30
0.0
 11
-64.06050000000002
 21
62.7772113591262
 31
0.0
  0
SOLID
  5
2A3
330
29D
100
AcDbEntity
  8
치수문자_일반주서
 62
     0
100
AcDbTrace
 10
81.7355
 20
62.22687802579286
 30
0.0
 11
81.7355
 21
63.32754469245953
 31
0.0
 12
85.0375
 22
62.7772113591262
 32
0.0
 13
85.0375
 23
62.7772113591262
 33
0.0
  0
SOLID
  5
2A4
330
29D
100
AcDbEntity
  8
치수문자_일반주서
 62
     0
100
AcDbTrace
 10
-64.06050000000002
 20
63.32754469245953
 30
0.0
 11
-64.06050000000002
 21
62.22687802579286
 31
0.0
 12
-67.36250000000001
 22
62.7772113591262
 32
0.0
 13
-67.36250000000001
 23
62.7772113591262
 33
0.0
  0
MTEXT
  5
2A5
330
29D
100
AcDbEntity
  8
치수문자_일반주서
 62
     0
100
AcDbMText
 10
8.837499999999999
 20
67.1522113591262
 30
0.0
 40
3.5
 41
0.0
 71
     2
 72
     1
  1
\A1;152.40 [6]
  7
SLDTEXTSTYLE0
 73
     1
 44
1.0
  0
POINT
  5
2A6
330
29D
100
AcDbEntity
  8
Defpoints
 62
     0
100
AcDbPoint
 10
85.0375
 20
7.930791345885311
 30
0.0
  0
POINT
  5
2A7
330
29D
100
AcDbEntity
  8
Defpoints
 62
     0
100
AcDbPoint
 10
-67.36250000000001
 20
6.937499999999993
 30
0.0
  0
POINT
  5
2A8
330
29D
100
AcDbEntity
  8
Defpoints
 62
     0
100
AcDbPoint
 10
-67.36250000000001
 20
62.7772113591262
 30
0.0
  0
ENDBLK
  5
29F
330
29D
100
AcDbEntity
  8
0
100
AcDbBlockEnd
  0
ENDSEC
  0
SECTION
  2
ENTITIES
  0
INSERT
  5
C1
330
1F
100
AcDbEntity
  8
0
  6
Continuous
 62
     7
100
AcDbBlockReference
 66
     1
  2
블럭10
 10
-22.93944368806589
 20
-52.04609937292004
 30
0.0
  0
ATTRIB
  5
C2
330
C1
100
AcDbEntity
  8
FORMAT
 62
     2
100
AcDbText
 10
-32.12073897680717
 20
-49.97073246008785
 30
0.0
 40
4.233333333333333
  1
E5976903 [ 2 FLUTE ]
 41
0.75
  7
SLDTEXTSTYLE0
 11
-32.12073897680717
 21
-52.08739912675452
 31
0.0
100
AcDbAttribute
  2
AUTOATTR0
 70
     0
 74
     1
  0
SEQEND
  5
C3
330
C1
100
AcDbEntity
  8
0
  6
Continuous
 62
     7
  0
HATCH
  5
C4
330
1F
100
AcDbEntity
  8
중심선
100
AcDbHatch
 10
0.0
 20
0.0
 30
0.0
210
0.0
220
0.0
230
1.0
  2
SOLID
 70
     1
 71
     0
 91
        1
 92
        0
 93
        4
 72
     1
 10
-17.22453438368504
 20
-35.7989250712761
 11
-20.67080962752232
 21
-35.7989250712761
 72
     1
 10
-20.67080962752232
 20
-35.7989250712761
 11
-22.79903948672635
 21
-38.3352506518487
 72
     1
 10
-22.79903948672635
 20
-38.3352506518487
 11
-19.35273115777591
 21
-38.33521122254621
 72
     1
 10
-19.35273115777591
 20
-38.33521122254621
 11
-17.22453438368504
 21
-35.7989250712761
 97
        0
 75
     0
 76
     1
 98
        1
 10
0.0
 20
0.0
  0
HATCH
  5
C5
330
1F
100
AcDbEntity
  8
중심선
100
AcDbHatch
 10
0.0
 20
0.0
 30
0.0
210
0.0
220
0.0
230
1.0
  2
SOLID
 70
     1
 71
     0
 91
        1
 92
        0
 93
        4
 72
     1
 10
-12.21177039264909
 20
-35.7989250712761
 11
-15.65804563648637
 21
-35.7989250712761
 72
     1
 10
-15.65804563648637
 20
-35.7989250712761
 11
-20.18918364484376
 21
-41.19892507127612
 72
     1
 10
-20.18918364484376
 20
-41.19892507127612
 11
-16.74290840100648
 21
-41.19892507127612
 72
     1
 10
-16.74290840100648
 20
-41.19892507127612
 11
-12.21177039264909
 21
-35.7989250712761
 97
        0
 75
     0
 76
     1
 98
        1
 10
0.0
 20
0.0
  0
HATCH
  5
C6
330
1F
100
AcDbEntity
  8
중심선
100
AcDbHatch
 10
0.0
 20
0.0
 30
0.0
210
0.0
220
0.0
230
1.0
  2
SOLID
 70
     1
 71
     0
 91
        1
 92
        0
 93
        4
 72
     1
 10
-7.199006401613195
 20
-35.79892507127613
 11
-10.64528164545031
 21
-35.7989250712761
 72
     1
 10
-10.64528164545031
 20
-35.7989250712761
 11
-17.69371854733956
 21
-44.19892507127612
 72
     1
 10
-17.69371854733956
 20
-44.19892507127612
 11
-14.24744330350228
 21
-44.19892507127612
 72
     1
 10
-14.24744330350228
 20
-44.19892507127612
 11
-7.199006401613195
 21
-35.79892507127613
 97
        0
 75
     0
 76
     1
 98
        1
 10
0.0
 20
0.0
  0
HATCH
  5
C7
330
1F
100
AcDbEntity
  8
중심선
100
AcDbHatch
 10
0.0
 20
0.0
 30
0.0
210
0.0
220
0.0
230
1.0
  2
SOLID
 70
     1
 71
     0
 91
        1
 92
        0
 93
        6
 72
     3
 10
-2.399115970600996
 20
-39.99892507132738
 11
3.960054785062284
 21
1.540850780301639E-10
 40
0.3939339440162633
 50
17.09539180608433
 51
320.0019657685079
 73
     0
 72
     1
 10
-0.7161163149004002
 20
-38.58681907591441
 11
1.589185558800638
 21
-36.65249236586649
 72
     3
 10
-2.399115970653842
 20
-39.99892507127625
 11
6.600054785286829
 21
-1.249000902703301E-13
 40
0.6363583540795982
 50
39.99873849337408
 51
368.4976242363725
 73
     1
 72
     1
 10
4.026216521246767
 20
-39.03892507120613
 11
-3.71904866381792
 21
-39.0389250712061
 72
     1
 10
-3.71904866381792
 20
-39.0389250712061
 11
-3.719073708263854
 21
-40.95892507120602
 72
     1
 10
-3.719073708263854
 20
-40.95892507120602
 11
0.7223060612081831
 21
-40.95892507120599
 97
        0
 75
     0
 76
     1
 98
        1
 10
0.0
 20
0.0
  0
LINE
  5
239
330
1F
100
AcDbEntity
  8
0
  6
Continuous
 62
     4
370
    25
100
AcDbLine
 10
2.0
 20
-7.9375
 30
0.0
 11
2.487499999999997
 21
-7.450000000000003
 31
0.0
  0
LINE
  5
23A
330
1F
100
AcDbEntity
  8
0
  6
Continuous
 62
     4
370
    25
100
AcDbLine
 10
2.487499999999997
 20
7.450000000000003
 30
0.0
 11
2.0
 21
7.9375
 31
0.0
  0
LINE
  5
23B
330
1F
100
AcDbEntity
  8
0
  6
Continuous
 62
     4
370
    25
100
AcDbLine
 10
1.999999999999996
 20
7.937499999999997
 30
0.0
 11
-66.42500000000001
 21
7.937499999999986
 31
0.0
  0
LINE
  5
23C
330
1F
100
AcDbEntity
  8
0
  6
Continuous
 62
     4
370
    25
100
AcDbLine
 10
-66.42500000000001
 20
-7.9375
 30
0.0
 11
1.999999999999986
 21
-7.9375
 31
0.0
  0
LINE
  5
23D
330
1F
100
AcDbEntity
  8
0
  6
Continuous
 62
     4
370
    25
100
AcDbLine
 10
-66.36250000000001
 20
7.937499999999986
 30
0.0
 11
-67.36250000000001
 21
6.937499999999993
 31
0.0
  0
LINE
  5
23E
330
1F
100
AcDbEntity
  8
0
  6
Continuous
 62
     4
370
    25
100
AcDbLine
 10
-67.36250000000001
 20
-6.937500000000007
 30
0.0
 11
-66.36250000000001
 21
-7.9375
 31
0.0
  0
LINE
  5
23F
330
1F
100
AcDbEntity
  8
0
  6
Continuous
 62
     4
370
    25
100
AcDbLine
 10
65.98749999999998
 20
7.450000000000003
 30
0.0
 11
2.487499999999997
 21
7.449999999999998
 31
0.0
  0
LINE
  5
240
330
1F
100
AcDbEntity
  8
0
  6
Continuous
 62
     4
370
    25
100
AcDbLine
 10
2.487500000000001
 20
-7.449999999999998
 30
0.0
 11
65.98749999999998
 21
-7.449999999999996
 31
0.0
  0
LINE
  5
242
330
1F
100
AcDbEntity
  8
0
  6
Continuous
 62
     4
370
    25
100
AcDbLine
 10
2.0
 20
7.9375
 30
0.0
 11
2.0
 21
-7.9375
 31
0.0
  0
LINE
  5
243
330
1F
100
AcDbEntity
  8
0
  6
Continuous
 62
     4
370
    25
100
AcDbLine
 10
-66.36250000000001
 20
7.937499999999986
 30
0.0
 11
-66.36250000000001
 21
-7.937499999999993
 31
0.0
  0
LINE
  5
245
330
1F
100
AcDbEntity
  8
0
  6
Continuous
 62
     1
370
    25
100
AcDbLine
 10
85.0375
 20
-7.9307913458853
 30
0.0
 11
85.03750000000045
 21
-7.53221814952817
 31
0.0
  0
LINE
  5
246
330
1F
100
AcDbEntity
  8
0
  6
Continuous
 62
     4
370
    25
100
AcDbLine
 10
65.98749999999998
 20
0.0
 30
0.0
 11
65.98749999999998
 21
7.9375
 31
0.0
  0
LINE
  5
247
330
1F
100
AcDbEntity
  8
0
  6
Continuous
 62
     4
370
    25
100
AcDbLine
 10
65.98749999999998
 20
-7.937500000000004
 30
0.0
 11
65.98749999999998
 21
0.0
 31
0.0
  0
LINE
  5
248
330
1F
100
AcDbEntity
  8
중심선
100
AcDbLine
 10
-70.36250000000001
 20
-0.0000000000000071
 30
0.0
 11
11.43763985547157
 21
-0.0000000000000071
 31
0.0
  0
CIRCLE
  5
249
330
1F
100
AcDbEntity
  8
외형선
100
AcDbCircle
 10
0.0
 20
0.0
 30
0.0
 40
3.000000000000005
  0
DIMENSION
  5
24A
330
1F
100
AcDbEntity
  8
치수문자_일반주서
100
AcDbDimension
  2
*D14
 10
-78.85895802161205
 20
-7.937500000000047
 30
0.0
 11
-78.85895802161208
 21
-0.0000000000000071
 31
0.0
 70
   160
  1
%%c<>
 71
     2
 42
15.87499999999999
 52
-270.0
  3
SLDDIMSTYLE0
100
AcDbAlignedDimension
 13
-66.36250000000001
 23
7.937499999999986
 33
0.0
 14
-66.36250000000001
 24
-7.9375
 34
0.0
 50
90.0000000000002
100
AcDbRotatedDimension
1001
ACAD
1000
DSTYLE
1002
{
1070
   171
1070
     6
1070
   273
1070
     7
1002
}
  0
DIMENSION
  5
24B
330
1F
100
AcDbEntity
  8
치수문자_일반주서
100
AcDbDimension
  2
*D15
 10
109.086072494886
 20
-7.937499999999851
 30
0.0
 11
109.0860724948858
 21
26.11111416738255
 31
0.0
 70
   160
  1
%%c<>
 71
     2
 42
15.87500000000001
 52
-270.0
  3
SLDDIMSTYLE1
100
AcDbAlignedDimension
 13
66.9874022839916
 23
7.9375
 33
0.0
 14
66.9874022839916
 24
-7.937500000000007
 34
0.0
 50
90.0000000000002
100
AcDbRotatedDimension
1001
ACAD
1000
DSTYLE
1002
{
1070
   171
1070
     6
1070
   273
1070
     7
1002
}
  0
DIMENSION
  5
24C
330
1F
100
AcDbEntity
  8
치수문자_일반주서
100
AcDbDimension
  2
*D16
 10
65.98749999999998
 20
16.34731653835417
 30
0.0
 11
75.51250000000002
 21
16.34731653835417
 31
0.0
 70
   160
  1
<>
 71
     2
 42
19.05000000000004
  3
SLDDIMSTYLE1
100
AcDbAlignedDimension
 13
85.03750000000002
 23
7.93079134588443
 33
0.0
 14
65.98749999999998
 24
7.9375
 34
0.0
 50
0.0000000000000769
100
AcDbRotatedDimension
1001
ACAD
1000
DSTYLE
1002
{
1070
   171
1070
     6
1070
   273
1070
     7
1002
}
  0
DIMENSION
  5
24D
330
1F
100
AcDbEntity
  8
치수문자_일반주서
100
AcDbDimension
  2
*D17
 10
2.487499999999997
 20
32.95123849660052
 30
0.0
 11
31.06250000000001
 21
32.95123849660052
 31
0.0
 70
   160
  1
<>
 71
     2
 42
82.55
  3
SLDDIMSTYLE1
100
AcDbAlignedDimension
 13
85.0375
 23
7.930791345885311
 33
0.0
 14
2.487499999999997
 24
7.449999999999998
 34
0.0
 50
0.0000000000000038
100
AcDbRotatedDimension
1001
ACAD
1000
DSTYLE
1002
{
1070
   171
1070
     6
1070
   273
1070
     7
1002
}
  0
DIMENSION
  5
24E
330
1F
100
AcDbEntity
  8
치수문자_일반주서
100
AcDbDimension
  2
*D18
 10
-67.36250000000001
 20
62.7772113591262
 30
0.0
 11
8.837499999999999
 21
62.7772113591262
 31
0.0
 70
   160
  1
<>
 71
     2
 42
152.4
  3
SLDDIMSTYLE2
100
AcDbAlignedDimension
 13
85.0375
 23
7.930791345885311
 33
0.0
 14
-67.36250000000001
 24
6.937499999999993
 34
0.0
 50
0.0000000000000046
100
AcDbRotatedDimension
1001
ACAD
1000
DSTYLE
1002
{
1070
   171
1070
     6
1070
   273
1070
     7
1002
}
  0
INSERT
  5
24F
330
1F
100
AcDbEntity
  8
외형선
100
AcDbBlockReference
  2
SW_DOWELSYMBOL_0
 10
0.0
 20
0.0
 30
0.0
  0
LINE
  5
250
330
1F
100
AcDbEntity
  8
0
  6
Continuous
 62
     4
370
    25
100
AcDbLine
 10
70.63579917275337
 20
2.292276578097216
 30
0.0
 11
70.58090103947268
 21
2.34443601349858
 31
0.0
  0
SPLINE
  5
251
330
1F
100
AcDbEntity
  8
0
  6
Continuous
 62
     1
370
    25
100
AcDbSpline
210
0.0
220
0.0
230
1.0
 70
     8
 71
     3
 72
     9
 73
     5
 74
     0
 42
0.000000001
 43
0.00000001
 40
0.0
 40
0.0
 40
0.0
 40
0.0
 40
0.4368433499511264
 40
1.0
 40
1.0
 40
1.0
 40
1.0
 10
73.1657070564508
 20
2.096380666559085
 30
0.0
 10
72.98036060638591
 20
2.248865500122321
 30
0.0
 10
72.55607476093212
 20
2.597926172741694
 30
0.0
 10
72.13166366746077
 20
2.981738982041435
 30
0.0
 10
71.89265373781785
 20
3.197885717972525
 30
0.0
  0
SPLINE
  5
252
330
1F
100
AcDbEntity
  8
0
  6
Continuous
 62
     1
370
    25
100
AcDbSpline
210
0.0
220
0.0
230
1.0
 70
     8
 71
     3
 72
    17
 73
    13
 74
     0
 42
0.000000001
 43
0.00000001
 40
0.0
 40
0.0
 40
0.0
 40
0.0
 40
0.1568153687210765
 40
0.2914039090033485
 40
0.425317369062814
 40
0.5379174974739485
 40
0.6395201400296407
 40
0.733607702130664
 40
0.8250595922409936
 40
0.9041309725520762
 40
0.9868775637456306
 40
1.0
 40
1.0
 40
1.0
 40
1.0
 10
71.64955105249439
 20
6.369934060112676
 30
0.0
 10
71.46986050763735
 20
6.354064339827282
 30
0.0
 10
71.13594854728984
 20
6.324574254999064
 30
0.0
 10
70.61702840933043
 20
6.291485618300577
 30
0.0
 10
70.12028110775799
 20
6.271956403268511
 30
0.0
 10
69.65895961067343
 20
6.262708107910498
 30
0.0
 10
69.25376584689334
 20
6.259652285335882
 30
0.0
 10
68.89152671753644
 20
6.263642003554565
 30
0.0
 10
68.58585251369658
 20
6.271292493300372
 30
0.0
 10
68.27509962484163
 20
6.282632902418861
 30
0.0
 10
68.05599436865336
 20
6.292125928022088
 30
0.0
 10
67.93559165044576
 20
6.299663159844449
 30
0.0
 10
67.91911107234256
 20
6.300694846998859
 30
0.0
  0
SPLINE
  5
253
330
1F
100
AcDbEntity
  8
0
  6
Continuous
 62
     1
370
    25
100
AcDbSpline
210
0.0
220
0.0
230
1.0
 70
     8
 71
     3
 72
    16
 73
    12
 74
     0
 42
0.000000001
 43
0.00000001
 40
0.0
 40
0.0
 40
0.0
 40
0.0
 40
0.1658395451740597
 40
0.2882820861084159
 40
0.3764093587855045
 40
0.4682615282183782
 40
0.5678986213553827
 40
0.6665081630574219
 40
0.7553495693186947
 40
0.8920202119566782
 40
1.0
 40
1.0
 40
1.0
 40
1.0
 10
75.32942291381141
 20
-5.907569475077437
 30
0.0
 10
75.51052364145266
 20
-5.859191959269069
 30
0.0
 10
75.82533453595545
 20
-5.77509638867798
 30
0.0
 10
76.24773156059717
 20
-5.674766265616611
 30
0.0
 10
76.60623265216563
 20
-5.595876128529795
 30
0.0
 10
76.93097396660124
 20
-5.529218372907508
 30
0.0
 10
77.26245462818548
 20
-5.466413989324707
 30
0.0
 10
77.58707504726499
 20
-5.410246085380805
 30
0.0
 10
77.95476382848796
 20
-5.353246409621192
 30
0.0
 10
78.33355537124845
 20
-5.301210965908652
 30
0.0
 10
78.61147572900768
 20
-5.271795560493217
 30
0.0
 10
78.73413965091532
 20
-5.258812672079245
 30
0.0
  0
SPLINE
  5
254
330
1F
100
AcDbEntity
  8
0
  6
Continuous
 62
     1
370
    25
100
AcDbSpline
210
0.0
220
0.0
230
1.0
 70
     8
 71
     3
 72
    24
 73
    20
 74
     0
 42
0.000000001
 43
0.00000001
 40
0.0
 40
0.0
 40
0.0
 40
0.0
 40
0.0941569942176101
 40
0.173012146949651
 40
0.2383402582616217
 40
0.2923929350689008
 40
0.335833802006398
 40
0.376972315102594
 40
0.4266856820969288
 40
0.4909488579697713
 40
0.5625279522144073
 40
0.6179810798535509
 40
0.6716148926857736
 40
0.738301756026126
 40
0.7853776831812752
 40
0.8293999395947742
 40
0.8698797497141006
 40
0.9237993375456921
 40
1.0
 40
1.0
 40
1.0
 40
1.0
 10
83.33387800187626
 20
5.491371520733367
 30
0.0
 10
83.11658276719476
 20
5.460202889897587
 30
0.0
 10
82.71730584266496
 20
5.40293097097971
 30
0.0
 10
82.10123011941113
 20
5.340053585817842
 30
0.0
 10
81.5291319461054
 20
5.306178185008008
 30
0.0
 10
81.05420339941111
 20
5.290033848864383
 30
0.0
 10
80.66806127523756
 20
5.284910120368835
 30
0.0
 10
80.31908520185544
 20
5.287011607600149
 30
0.0
 10
79.90018809732703
 20
5.297682182493162
 30
0.0
 10
79.40430616584757
 20
5.323144777595743
 30
0.0
 10
78.89278301848088
 20
5.364908392017824
 30
0.0
 10
78.40758411755036
 20
5.417718798485325
 30
0.0
 10
77.9356406127377
 20
5.480115677409231
 30
0.0
 10
77.48734812428785
 20
5.550991103374685
 30
0.0
 10
77.06468262519081
 20
5.628068493791574
 30
0.0
 10
76.7059942937772
 20
5.69971034638948
 30
0.0
 10
76.31783544953606
 20
5.7836812230926
 30
0.0
 10
75.86124290313103
 20
5.89075208011019
 30
0.0
 10
75.52584040224906
 20
5.980191946785467
 30
0.0
 10
75.32942291381141
 20
6.032569475075704
 30
0.0
  0
SPLINE
  5
255
330
1F
100
AcDbEntity
  8
0
  6
Continuous
 62
     1
370
    25
100
AcDbSpline
210
0.0
220
0.0
230
1.0
 70
     8
 71
     3
 72
    16
 73
    12
 74
     0
 42
0.000000001
 43
0.00000001
 40
0.0
 40
0.0
 40
0.0
 40
0.0
 40
0.1220198921673987
 40
0.2438843788073935
 40
0.3657416315215314
 40
0.4877399323102125
 40
0.6097799414743014
 40
0.7316530682239731
 40
0.8535044942451329
 40
0.975482590481123
 40
1.0
 40
1.0
 40
1.0
 40
1.0
 10
85.03750000000002
 20
-6.199967348423584
 30
0.0
 10
84.55365459040223
 20
-6.026924009200627
 30
0.0
 10
83.58658000065685
 20
-5.681057720159416
 30
0.0
 10
82.13738020718202
 20
-4.914812280105224
 30
0.0
 10
80.68826813147416
 20
-3.997846626525984
 30
0.0
 10
79.23757728209222
 20
-2.941964180532665
 30
0.0
 10
77.78644513381892
 20
-1.788048304228866
 30
0.0
 10
76.33713879976358
 20
-0.5695912841407562
 30
0.0
 10
74.88810200069415
 20
0.6631096445453579
 30
0.0
 10
73.82428043462025
 20
1.57032234224657
 30
0.0
 10
73.2433796813217
 20
2.028759133002126
 30
0.0
 10
73.14616044182992
 20
2.105482869198383
 30
0.0
  0
LINE
  5
256
330
1F
100
AcDbEntity
  8
0
  6
Continuous
 62
     1
370
    25
100
AcDbLine
 10
85.03749999999974
 20
-7.469718149529072
 30
0.0
 11
85.03750000000002
 21
-6.199967348423584
 31
0.0
  0
LINE
  5
257
330
1F
100
AcDbEntity
  8
0
  6
Continuous
 62
     1
370
    25
100
AcDbLine
 10
85.03750000000002
 20
-7.868291345886163
 30
0.0
 11
85.03749999999877
 21
-7.469718149529001
 31
0.0
  0
SPLINE
  5
258
330
1F
100
AcDbEntity
  8
0
  6
Continuous
 62
     1
370
    25
100
AcDbSpline
210
0.0
220
0.0
230
1.0
 70
     8
 71
     3
 72
    13
 73
     9
 74
     0
 42
0.000000001
 43
0.00000001
 40
0.0
 40
0.0
 40
0.0
 40
0.0
 40
0.0142831587331259
 40
0.2112481672380882
 40
0.4084158418844068
 40
0.6057831410998027
 40
0.8027283564697709
 40
1.0
 40
1.0
 40
1.0
 40
1.0
 10
78.73428037393245
 20
5.383922852060465
 30
0.0
 10
78.76431301438043
 20
5.407528786141057
 30
0.0
 10
79.2084962913782
 20
5.756660963668551
 30
0.0
 10
80.06542058965636
 20
6.313891398702829
 30
0.0
 10
81.30839049595477
 20
7.017924728406292
 30
0.0
 10
82.55249972742752
 20
7.534266877812691
 30
0.0
 10
83.79397083613406
 20
7.886249599898576
 30
0.0
 10
84.62276152084848
 20
7.957591072641236
 30
0.0
 10
85.03750000000002
 20
7.99329134588443
 30
0.0
  0
SPLINE
  5
259
330
1F
100
AcDbEntity
  8
0
  6
Continuous
 62
     1
370
    25
100
AcDbSpline
210
0.0
220
0.0
230
1.0
 70
     8
 71
     3
 72
    14
 73
    10
 74
     0
 42
0.000000001
 43
0.00000001
 40
0.0
 40
0.0
 40
0.0
 40
0.0
 40
0.1469643548479155
 40
0.2943161885653631
 40
0.4413871676501392
 40
0.6140266595616843
 40
0.786850461884234
 40
0.9597873553430978
 40
1.0
 40
1.0
 40
1.0
 40
1.0
 10
80.0409123280046
 20
3.80065647316809
 30
0.0
 10
79.63011407797114
 20
4.058049020800766
 30
0.0
 10
78.80743448777883
 20
4.573512744387131
 30
0.0
 10
77.5714678773831
 20
5.21184469008368
 30
0.0
 10
76.26561956924826
 20
5.763090035912867
 30
0.0
 10
74.88800600599416
 20
6.180456092820819
 30
0.0
 10
73.43761954901353
 20
6.399030766646092
 30
0.0
 10
72.35703948153196
 20
6.452652733356985
 30
0.0
 10
71.76085443168711
 20
6.3672857660776
 30
0.0
 10
71.64837857191702
 20
6.351180492986288
 30
0.0
  0
LINE
  5
25A
330
1F
100
AcDbEntity
  8
0
  6
Continuous
 62
     1
370
    25
100
AcDbLine
 10
80.04091232800457
 20
3.800656473168104
 30
0.0
 11
80.03750000000002
 21
3.797793189998018
 31
0.0
  0
SPLINE
  5
25B
330
1F
100
AcDbEntity
  8
0
  6
Continuous
 62
     1
370
    25
100
AcDbSpline
210
0.0
220
0.0
230
1.0
 70
    24
 71
     3
 72
     8
 73
     4
 74
     0
 42
0.000000001
 43
0.00000001
 40
0.0
 40
0.0
 40
0.0
 40
0.0
 40
1.0
 40
1.0
 40
1.0
 40
1.0
 10
80.03750000000002
 20
2.432155125343144
 30
0.0
 10
80.03750000000002
 20
2.910673195386138
 30
0.0
 10
80.03750000000002
 20
3.368611602566318
 30
0.0
 10
80.03750000000002
 20
3.797793189997961
 30
0.0
  0
SPLINE
  5
25C
330
1F
100
AcDbEntity
  8
0
  6
Continuous
 62
     1
370
    25
100
AcDbSpline
210
0.0
220
0.0
230
1.0
 70
     8
 71
     3
 72
    12
 73
     8
 74
     0
 42
0.000000001
 43
0.00000001
 40
0.0
 40
0.0
 40
0.0
 40
0.0
 40
0.5000000000000007
 40
0.5000000000000007
 40
0.7500000000000004
 40
0.7500000000000004
 40
1.0
 40
1.0
 40
1.0
 40
1.0
 10
85.03750000000002
 20
-2.058740884111174
 30
0.0
 10
84.16482973825549
 20
-1.370927656967027
 30
0.0
 10
83.30520572116984
 20
-0.6504970034922053
 30
0.0
 10
82.03705254449562
 20
0.4833590594699331
 30
0.0
 10
81.61763585197275
 20
0.870857399137094
 30
0.0
 10
80.80824484029426
 20
1.647045176826197
 30
0.0
 10
80.41561696924776
 20
2.037925098419976
 30
0.0
 10
80.03750000000002
 20
2.432155125343144
 30
0.0
  0
SPLINE
  5
25D
330
1F
100
AcDbEntity
  8
0
  6
Continuous
 62
     1
370
    25
100
AcDbSpline
210
0.0
220
0.0
230
1.0
 70
    24
 71
     3
 72
    10
 73
     6
 74
     0
 42
0.000000001
 43
0.00000001
 40
0.0
 40
0.0
 40
0.0
 40
0.0
 40
0.5
 40
0.5
 40
1.0
 40
1.0
 40
1.0
 40
1.0
 10
85.03750000000002
 20
-6.199967348423584
 30
0.0
 10
85.03750000000002
 20
-5.719900400218563
 30
0.0
 10
85.03750000000002
 20
-5.113317403508461
 30
0.0
 10
85.03750000000002
 20
-3.703070313259389
 30
0.0
 10
85.03750000000002
 20
-2.900627829220639
 30
0.0
 10
85.03750000000002
 20
-2.05874088411143
 30
0.0
  0
LINE
  5
25E
330
1F
100
AcDbEntity
  8
0
  6
Continuous
 62
     1
370
    25
100
AcDbLine
 10
80.03750000000002
 20
3.000219435295719
 30
0.0
 11
85.03750000000002
 21
0.0624999999991331
 31
0.0
  0
LINE
  5
25F
330
1F
100
AcDbEntity
  8
0
  6
Continuous
 62
     1
370
    25
100
AcDbLine
 10
85.03750000000002
 20
0.0624999999991331
 30
0.0
 11
85.03750000000002
 21
-2.058740884111174
 31
0.0
  0
SPLINE
  5
260
330
1F
100
AcDbEntity
  8
0
  6
Continuous
 62
     1
370
    25
100
AcDbSpline
210
0.0
220
0.0
230
1.0
 70
    24
 71
     3
 72
     8
 73
     4
 74
     0
 42
0.000000001
 43
0.00000001
 40
0.0
 40
0.0
 40
0.0
 40
0.0
 40
1.0
 40
1.0
 40
1.0
 40
1.0
 10
80.88321283100885
 20
4.507430514579426
 30
0.0
 10
80.62952788756786
 20
4.294563572102874
 30
0.0
 10
80.34607687316554
 20
4.056719930461043
 30
0.0
 10
80.0409123280046
 20
3.80065647316809
 30
0.0
  0
SPLINE
  5
261
330
1F
100
AcDbEntity
  8
0
  6
Continuous
 62
     1
370
    25
100
AcDbSpline
210
0.0
220
0.0
230
1.0
 70
     8
 71
     3
 72
     9
 73
     5
 74
     0
 42
0.000000001
 43
0.00000001
 40
0.0
 40
0.0
 40
0.0
 40
0.0
 40
0.8513899591233703
 40
1.0
 40
1.0
 40
1.0
 40
1.0
 10
85.03750000000002
 20
5.618749999999125
 30
0.0
 10
84.55363278690083
 20
5.613753575740716
 30
0.0
 10
83.9853065952255
 20
5.607885026076872
 30
0.0
 10
83.41731085745863
 20
5.495068578182781
 30
0.0
 10
83.33290098765133
 20
5.478302921249679
 30
0.0
  0
SPLINE
  5
262
330
1F
100
AcDbEntity
  8
0
  6
Continuous
 62
     1
370
    25
100
AcDbSpline
210
0.0
220
0.0
230
1.0
 70
     8
 71
     3
 72
    10
 73
     6
 74
     0
 42
0.000000001
 43
0.00000001
 40
0.0
 40
0.0
 40
0.0
 40
0.0
 40
0.5
 40
0.5
 40
1.0
 40
1.0
 40
1.0
 40
1.0
 10
85.03750000000002
 20
5.618749999999125
 30
0.0
 10
84.35264655856025
 20
5.388569682912077
 30
0.0
 10
83.66396394394297
 20
5.177784851729172
 30
0.0
 10
82.27897315865437
 20
4.805453092228305
 30
0.0
 10
81.58242174548525
 20
4.644270864093698
 30
0.0
 10
80.88321283100328
 20
4.507430514574764
 30
0.0
  0
SPLINE
  5
263
330
1F
100
AcDbEntity
  8
0
  6
Continuous
 62
     1
370
    25
100
AcDbSpline
210
0.0
220
0.0
230
1.0
 70
    24
 71
     3
 72
    10
 73
     6
 74
     0
 42
0.000000001
 43
0.00000001
 40
0.0
 40
0.0
 40
0.0
 40
0.0
 40
0.5
 40
0.5
 40
1.0
 40
1.0
 40
1.0
 40
1.0
 10
85.03750000000002
 20
5.618749999999125
 30
0.0
 10
85.03750000000002
 20
5.955556038407195
 30
0.0
 10
85.03750000000002
 20
6.346955846631879
 30
0.0
 10
85.03750000000002
 20
7.168111590125925
 30
0.0
 10
85.03750000000002
 20
7.595770396673323
 30
0.0
 10
85.03750000000002
 20
7.99329134588443
 30
0.0
  0
LINE
  5
264
330
1F
100
AcDbEntity
  8
0
  6
Continuous
 62
     1
370
    25
100
AcDbLine
 10
85.03750000000002
 20
0.0624999999991331
 30
0.0
 11
85.03750000000002
 21
5.618749999999125
 31
0.0
  0
LINE
  5
265
330
1F
100
AcDbEntity
  8
중심선
100
AcDbLine
 10
-6.862499999999962
 20
0.0624999999991331
 30
0.0
 11
88.0375
 21
0.0624999999991331
 31
0.0
  0
SPLINE
  5
266
330
1F
100
AcDbEntity
  8
0
  6
Continuous
 62
     1
370
    25
100
AcDbSpline
210
0.0
220
0.0
230
1.0
 70
     8
 71
     3
 72
    23
 73
    19
 74
     0
 42
0.000000001
 43
0.00000001
 40
0.3900347520936818
 40
0.3900347520936818
 40
0.3900347520936818
 40
0.3900347520936818
 40
0.4030198131186304
 40
0.4428602084939381
 40
0.4826513507895462
 40
0.5224083495720125
 40
0.5622587520616111
 40
0.6020339443239875
 40
0.6418000089663842
 40
0.6816530868305134
 40
0.7214163060462913
 40
0.7611954204070487
 40
0.8010438393280918
 40
0.8407990714985112
 40
0.8805952096123967
 40
0.9204316397616585
 40
0.9601828769043163
 40
1.0
 40
1.0
 40
1.0
 40
1.0
 10
65.98749999999998
 20
6.130630033517875
 30
0.0
 10
66.12259600178703
 20
6.043442762544558
 30
0.0
 10
66.67228671852368
 20
5.678081498975295
 30
0.0
 10
67.6375717610569
 20
4.965191898338361
 30
0.0
 10
68.88027867354356
 20
3.925227094587584
 30
0.0
 10
70.12191611835038
 20
2.789454907077669
 30
0.0
 10
71.36648300397977
 20
1.590027804066807
 30
0.0
 10
72.60868797215528
 20
0.3507970632780371
 30
0.0
 10
73.85060696262718
 20
-0.8958417729655253
 30
0.0
 10
75.09525611386934
 20
-2.116124703334648
 30
0.0
 10
76.3370863336728
 20
-3.286101186504908
 30
0.0
 10
77.57941454842569
 20
-4.373411362698391
 30
0.0
 10
78.82392044094888
 20
-5.350489738183597
 30
0.0
 10
80.06550373638834
 20
-6.197277885669706
 30
0.0
 10
81.30836818820734
 20
-6.890674686478448
 30
0.0
 10
82.55250566416356
 20
-7.40986567897518
 30
0.0
 10
83.79396935040626
 20
-7.761099743896864
 30
0.0
 10
84.62276102533258
 20
-7.832541093074525
 30
0.0
 10
85.03750000000002
 20
-7.868291345886163
 30
0.0
  0
SPLINE
  5
267
330
1F
100
AcDbEntity
  8
0
  6
Continuous
 62
     1
370
    25
100
AcDbSpline
210
0.0
220
0.0
230
1.0
 70
     8
 71
     3
 72
    14
 73
    10
 74
     0
 42
0.000000001
 43
0.00000001
 40
0.0
 40
0.0
 40
0.0
 40
0.0
 40
0.0136367521843063
 40
0.1088239941387548
 40
0.2038653352994499
 40
0.2988760925031401
 40
0.3939817346478394
 40
0.4891786477178329
 40
0.5021745985217572
 40
0.5021745985217572
 40
0.5021745985217572
 40
0.5021745985217572
 10
73.64574185322789
 20
-0.6863655432455147
 30
0.0
 10
73.57641989861506
 20
-0.6389643680403339
 30
0.0
 10
73.0232169159317
 20
-0.2606935640408494
 30
0.0
 10
71.98634831630687
 20
0.4733548721438012
 30
0.0
 10
70.5368691653839
 20
1.476853943495755
 30
0.0
 10
69.08779076346872
 20
2.436079110129967
 30
0.0
 10
67.63750420273573
 20
3.315410780124409
 30
0.0
 10
66.60357086466911
 20
3.864401675217856
 30
0.0
 10
66.05356304268017
 20
4.127970336692051
 30
0.0
 10
65.98749999999998
 20
4.159207126009377
 30
0.0
  0
SPLINE
  5
268
330
1F
100
AcDbEntity
  8
0
  6
Continuous
 62
     1
370
    25
100
AcDbSpline
210
0.0
220
0.0
230
1.0
 70
     8
 71
     3
 72
    23
 73
    19
 74
     0
 42
0.000000001
 43
0.00000001
 40
0.0
 40
0.0
 40
0.0
 40
0.0
 40
0.0555407212325951
 40
0.1109895383113751
 40
0.1665571950507599
 40
0.2220686394500678
 40
0.277523031238204
 40
0.333107411611556
 40
0.3885951067276719
 40
0.4440606437326128
 40
0.4996515197541308
 40
0.5551210110088527
 40
0.6106032553397786
 40
0.6661903927628352
 40
0.7216472392864561
 40
0.7771517404690103
 40
0.8327249086505855
 40
0.8508419676168598
 40
0.8508419676168598
 40
0.8508419676168598
 40
0.8508419676168598
 10
85.03750000000002
 20
-7.469718149529072
 30
0.0
 10
84.62276315812687
 20
-7.321252576316709
 30
0.0
 10
83.7939757463206
 20
-7.024567098341606
 30
0.0
 10
82.55251845107585
 20
-6.355385005044013
 30
0.0
 10
81.30838727868553
 20
-5.544118731911354
 30
0.0
 10
80.06552933447773
 20
-4.59142497969539
 30
0.0
 10
78.82395238575475
 20
-3.524364417382813
 30
0.0
 10
77.57945278754937
 20
-2.372212601621143
 30
0.0
 10
76.3371311441013
 20
-1.158435004980007
 30
0.0
 10
75.09530717926486
 20
0.0858814793217419
 30
0.0
 10
73.85066439343984
 20
1.326558653887616
 30
0.0
 10
72.60875198364056
 20
2.539259110936143
 30
0.0
 10
71.36655315829498
 20
3.6908931185624
 30
0.0
 10
70.12199268819813
 20
4.751655809897898
 30
0.0
 10
68.88036215668336
 20
5.700232593610309
 30
0.0
 10
67.63765984360779
 20
6.510149257902761
 30
0.0
 10
66.76401213837434
 20
7.089854219975159
 30
0.0
 10
66.62501477140063
 20
7.41087211299859
 30
0.0
 10
65.98749999999998
 20
7.9375
 30
0.0
  0
SPLINE
  5
269
330
1F
100
AcDbEntity
  8
0
  6
Continuous
 62
     1
370
    25
100
AcDbSpline
210
0.0
220
0.0
230
1.0
 70
     8
 71
     3
 72
    15
 73
    11
 74
     0
 42
0.000000001
 43
0.00000001
 40
0.0
 40
0.0
 40
0.0
 40
0.0
 40
0.020199251439788
 40
0.0859937858822664
 40
0.151831374455966
 40
0.2175733355726519
 40
0.2832952542831905
 40
0.3490793625038631
 40
0.4149232900535197
 40
0.4239130324055812
 40
0.4239130324055812
 40
0.4239130324055812
 40
0.4239130324055812
 10
75.33364668683123
 20
-5.885439928188617
 30
0.0
 10
75.18525343625276
 20
-5.931936665269447
 30
0.0
 10
74.55350243029812
 20
-6.129886102389534
 30
0.0
 10
73.43755443984179
 20
-6.275818745655386
 30
0.0
 10
71.98632284192439
 20
-6.308187893726441
 30
0.0
 10
70.53685970452648
 20
-6.114154456482396
 30
0.0
 10
69.08784317387511
 20
-5.718340879620158
 30
0.0
 10
67.63756316375776
 20
-5.129067367282076
 30
0.0
 10
66.60355860735888
 20
-4.586824575628867
 30
0.0
 10
66.05356676554933
 20
-4.266203762989683
 30
0.0
 10
65.98749999999998
 20
-4.227238410288511
 30
0.0
  0
SPLINE
  5
26A
330
1F
100
AcDbEntity
  8
0
  6
Continuous
 62
     1
370
    25
100
AcDbSpline
210
0.0
220
0.0
230
1.0
 70
     8
 71
     3
 72
    19
 73
    15
 74
     0
 42
0.000000001
 43
0.00000001
 40
0.1864887288469853
 40
0.1864887288469853
 40
0.1864887288469853
 40
0.1864887288469853
 40
0.226000736725861
 40
0.2835900916240545
 40
0.3330055553775051
 40
0.3780442873635814
 40
0.4265397345467704
 40
0.487267976072014
 40
0.5658094849227658
 40
0.6369095204300593
 40
0.6951272013638916
 40
0.7658416252744307
 40
0.8678877470540765
 40
1.0
 40
1.0
 40
1.0
 40
1.0
 10
65.98749999999998
 20
-6.353877900406864
 30
0.0
 10
66.08071598943943
 20
-6.341906636842534
 30
0.0
 10
66.31272218762732
 20
-6.313491514958091
 30
0.0
 10
66.66680108504886
 20
-6.275251584453713
 30
0.0
 10
67.03097247747678
 20
-6.239783938126649
 30
0.0
 10
67.35184175078643
 20
-6.2128728586747
 30
0.0
 10
67.70829420062057
 20
-6.187113282447825
 30
0.0
 10
68.14084888045824
 20
-6.162369808210087
 30
0.0
 10
68.62604688168472
 20
-6.144043273416827
 30
0.0
 10
69.10703885327763
 20
-6.135803377876158
 30
0.0
 10
69.57520784463014
 20
-6.136168975282828
 30
0.0
 10
70.1092013810806
 20
-6.146679501169587
 30
0.0
 10
70.80860440914097
 20
-6.175471285060894
 30
0.0
 10
71.3462251855882
 20
-6.219879133470315
 30
0.0
 10
71.64955105249439
 20
-6.244934060114417
 30
0.0
  0
SPLINE
  5
26B
330
1F
100
AcDbEntity
  8
0
  6
Continuous
 62
     1
370
    25
100
AcDbSpline
210
0.0
220
0.0
230
1.0
 70
  1064
 71
     3
 72
     9
 73
     5
 74
     3
 42
0.000000001
 43
0.0000000001
 44
0.0
 40
0.0
 40
0.0
 40
0.0
 40
0.0
 40
1.936108492684846
 40
3.36834517281741
 40
3.36834517281741
 40
3.36834517281741
 40
3.36834517281741
 10
65.98749999999998
 20
-7.937500000000004
 30
0.0
 10
66.55196310083856
 20
-7.623174930918053
 30
0.0
 10
67.53398790374956
 20
-7.076327823362893
 30
0.0
 10
68.4460343266866
 20
-6.420016819235686
 30
0.0
 10
68.83384088269389
 20
-6.140950201814356
 30
0.0
 11
65.98749999999998
 21
-7.937500000000004
 31
0.0
 11
67.65776918246311
 21
-6.958359073697597
 31
0.0
 11
68.83384088269389
 21
-6.140950201814356
 31
0.0
  0
LINE
  5
2A9
330
1F
100
AcDbEntity
  8
0
  6
Continuous
 62
     4
370
    25
100
AcDbLine
 10
-67.36250000000001
 20
6.937499999999993
 30
0.0
 11
-67.36250000000001
 21
-6.937500000000007
 31
0.0
  0
LINE
  5
2AA
330
1F
100
AcDbEntity
  8
0
  6
Continuous
 62
     4
370
    25
100
AcDbLine
 10
2.487499999999997
 20
7.450000000000003
 30
0.0
 11
2.487499999999997
 21
-7.450000000000003
 31
0.0
  0
ENDSEC
  0
SECTION
  2
OBJECTS
  0
DICTIONARY
  5
C
330
0
100
AcDbDictionary
281
     1
  3
ACAD_GROUP
350
D
  3
ACAD_IMAGE_VARS
350
157
  3
ACAD_LAYOUT
350
1A
  3
ACAD_MLINESTYLE
350
17
  3
ACAD_PLOTSETTINGS
350
19
  3
ACAD_PLOTSTYLENAME
350
E
  3
ACAD_SCALELIST
350
47
  3
APPDATA
350
155
  3
DWGPROPS
350
2AC
  0
DICTIONARY
  5
D
102
{ACAD_REACTORS
330
C
102
}
330
C
100
AcDbDictionary
281
     1
  0
RASTERVARIABLES
  5
157
102
{ACAD_REACTORS
330
C
102
}
330
C
100
AcDbRasterVariables
 90
        0
 70
     1
 71
     1
 72
     1
  0
DICTIONARY
  5
1A
102
{ACAD_REACTORS
330
C
102
}
330
C
100
AcDbDictionary
281
     1
  3
Layout1
350
1E
  3
Layout2
350
26
  3
Model
350
22
  0
DICTIONARY
  5
17
102
{ACAD_REACTORS
330
C
102
}
330
C
100
AcDbDictionary
281
     1
  3
Standard
350
18
  0
DICTIONARY
  5
19
102
{ACAD_REACTORS
330
C
102
}
330
C
100
AcDbDictionary
281
     1
  0
ACDBDICTIONARYWDFLT
  5
E
102
{ACAD_REACTORS
330
C
102
}
330
C
100
AcDbDictionary
281
     1
  3
Normal
350
F
100
AcDbDictionaryWithDefault
340
F
  0
DICTIONARY
  5
47
102
{ACAD_REACTORS
330
C
102
}
330
C
100
AcDbDictionary
281
     1
  3
A0
350
48
  3
A1
350
49
  3
A2
350
4A
  3
A3
350
4B
  3
A4
350
4C
  3
A5
350
4D
  3
A6
350
4E
  3
A7
350
4F
  3
A8
350
50
  3
A9
350
51
  3
B0
350
52
  3
B1
350
53
  3
B2
350
54
  3
B3
350
55
  3
B4
350
56
  3
B5
350
57
  3
B6
350
58
  3
B7
350
59
  3
B8
350
5A
  3
B9
350
5B
  3
C0
350
5C
  3
C1
350
5D
  3
C2
350
5E
  3
C3
350
5F
  3
C4
350
60
  3
C5
350
61
  3
C6
350
62
  3
C7
350
63
  3
C8
350
64
  3
C9
350
65
  3
D0
350
66
  3
D1
350
67
  3
D2
350
68
  0
DICTIONARY
  5
155
102
{ACAD_REACTORS
330
C
102
}
330
C
100
AcDbDictionary
281
     1
  0
XRECORD
  5
2AC
102
{ACAD_REACTORS
330
C
102
}
330
C
100
AcDbXrecord
280
     1
  1
DWGPROPS COOKIE
  2

  3

  4

  6

  7

  8
12016016
  9

300
=
301
=
302
=
303
=
304
=
305
=
306
=
307
=
308
=
309
=
 40
0.0
 41
2458263.293163565
 42
2458274.430881956
  1

 90
        0
  0
LAYOUT
  5
1E
102
{ACAD_REACTORS
330
1A
102
}
330
1A
100
AcDbPlotSettings
  1

  2
none_device
  4

  6

 40
0.0
 41
0.0
 42
0.0
 43
0.0
 44
0.0
 45
0.0
 46
0.0
 47
0.0
 48
0.0
 49
0.0
140
0.0
141
0.0
142
1.0
143
1.0
 70
   688
 72
     1
 73
     0
 74
     5
  7

 75
    16
147
1.0
148
0.0
149
0.0
100
AcDbLayout
  1
Layout1
 70
     1
 71
     1
 10
0.0
 20
0.0
 11
420.0
 21
297.0
 12
0.0
 22
0.0
 32
0.0
 14
1.000000000000000E+20
 24
1.000000000000000E+20
 34
1.000000000000000E+20
 15
-1.000000000000000E+20
 25
-1.000000000000000E+20
 35
-1.000000000000000E+20
146
0.0
 13
0.0
 23
0.0
 33
0.0
 16
1.0
 26
0.0
 36
0.0
 17
0.0
 27
1.0
 37
0.0
 76
     0
330
1B
  0
LAYOUT
  5
26
102
{ACAD_REACTORS
330
1A
102
}
330
1A
100
AcDbPlotSettings
  1

  2
none_device
  4

  6

 40
0.0
 41
0.0
 42
0.0
 43
0.0
 44
0.0
 45
0.0
 46
0.0
 47
0.0
 48
0.0
 49
0.0
140
0.0
141
0.0
142
1.0
143
1.0
 70
   688
 72
     1
 73
     0
 74
     5
  7

 75
    16
147
1.0
148
0.0
149
0.0
100
AcDbLayout
  1
Layout2
 70
     1
 71
     2
 10
0.0
 20
0.0
 11
0.0
 21
0.0
 12
0.0
 22
0.0
 32
0.0
 14
0.0
 24
0.0
 34
0.0
 15
0.0
 25
0.0
 35
0.0
146
0.0
 13
0.0
 23
0.0
 33
0.0
 16
1.0
 26
0.0
 36
0.0
 17
0.0
 27
1.0
 37
0.0
 76
     0
330
23
  0
LAYOUT
  5
22
102
{ACAD_REACTORS
330
1A
102
}
330
1A
100
AcDbPlotSettings
  1

  2
none_device
  4
ANSI_A_(11.00_x_8.50_Inches)
  6

 40
6.35
 41
19.05
 42
6.35000508
 43
19.05000254
 44
279.4
 45
215.9
 46
132.6658534569754
 47
74.26856491809225
 48
0.0
 49
0.0
140
0.0
141
0.0
142
0.0504050455864131
143
1.0
 70
  1696
 72
     0
 73
     0
 74
     0
  7

 75
     0
147
0.0235690232323232
148
0.0
149
0.0
100
AcDbLayout
  1
Model
 70
     1
 71
     0
 10
0.0
 20
0.0
 11
420.0
 21
297.0
 12
0.0
 22
0.0
 32
0.0
 14
1.000000000000000E+20
 24
1.000000000000000E+20
 34
1.000000000000000E+20
 15
-1.000000000000000E+20
 25
-1.000000000000000E+20
 35
-1.000000000000000E+20
146
0.0
 13
0.0
 23
0.0
 33
0.0
 16
1.0
 26
0.0
 36
0.0
 17
0.0
 27
1.0
 37
0.0
 76
     0
330
1F
331
29
  0
MLINESTYLE
  5
18
102
{ACAD_REACTORS
330
17
102
}
330
17
100
AcDbMlineStyle
  2
Standard
 70
     0
  3

 62
   256
 51
90.0
 52
90.0
 71
     2
 49
0.5
 62
   256
  6
BYLAYER
 49
-0.5
 62
   256
  6
BYLAYER
  0
ACDBPLACEHOLDER
  5
F
102
{ACAD_REACTORS
330
E
102
}
330
E
  0
SCALE
  5
48
102
{ACAD_REACTORS
330
47
102
}
330
47
100
AcDbScale
 70
     0
300
1:1
140
1.0
141
1.0
290
     1
  0
SCALE
  5
49
102
{ACAD_REACTORS
330
47
102
}
330
47
100
AcDbScale
 70
     0
300
1:2
140
1.0
141
2.0
290
     0
  0
SCALE
  5
4A
102
{ACAD_REACTORS
330
47
102
}
330
47
100
AcDbScale
 70
     0
300
1:4
140
1.0
141
4.0
290
     0
  0
SCALE
  5
4B
102
{ACAD_REACTORS
330
47
102
}
330
47
100
AcDbScale
 70
     0
300
1:5
140
1.0
141
5.0
290
     0
  0
SCALE
  5
4C
102
{ACAD_REACTORS
330
47
102
}
330
47
100
AcDbScale
 70
     0
300
1:8
140
1.0
141
8.0
290
     0
  0
SCALE
  5
4D
102
{ACAD_REACTORS
330
47
102
}
330
47
100
AcDbScale
 70
     0
300
1:10
140
1.0
141
10.0
290
     0
  0
SCALE
  5
4E
102
{ACAD_REACTORS
330
47
102
}
330
47
100
AcDbScale
 70
     0
300
1:16
140
1.0
141
16.0
290
     0
  0
SCALE
  5
4F
102
{ACAD_REACTORS
330
47
102
}
330
47
100
AcDbScale
 70
     0
300
1:20
140
1.0
141
20.0
290
     0
  0
SCALE
  5
50
102
{ACAD_REACTORS
330
47
102
}
330
47
100
AcDbScale
 70
     0
300
1:30
140
1.0
141
30.0
290
     0
  0
SCALE
  5
51
102
{ACAD_REACTORS
330
47
102
}
330
47
100
AcDbScale
 70
     0
300
1:40
140
1.0
141
40.0
290
     0
  0
SCALE
  5
52
102
{ACAD_REACTORS
330
47
102
}
330
47
100
AcDbScale
 70
     0
300
1:50
140
1.0
141
50.0
290
     0
  0
SCALE
  5
53
102
{ACAD_REACTORS
330
47
102
}
330
47
100
AcDbScale
 70
     0
300
1:100
140
1.0
141
100.0
290
     0
  0
SCALE
  5
54
102
{ACAD_REACTORS
330
47
102
}
330
47
100
AcDbScale
 70
     0
300
2:1
140
2.0
141
1.0
290
     0
  0
SCALE
  5
55
102
{ACAD_REACTORS
330
47
102
}
330
47
100
AcDbScale
 70
     0
300
4:1
140
4.0
141
1.0
290
     0
  0
SCALE
  5
56
102
{ACAD_REACTORS
330
47
102
}
330
47
100
AcDbScale
 70
     0
300
8:1
140
8.0
141
1.0
290
     0
  0
SCALE
  5
57
102
{ACAD_REACTORS
330
47
102
}
330
47
100
AcDbScale
 70
     0
300
10:1
140
10.0
141
1.0
290
     0
  0
SCALE
  5
58
102
{ACAD_REACTORS
330
47
102
}
330
47
100
AcDbScale
 70
     0
300
100:1
140
100.0
141
1.0
290
     0
  0
SCALE
  5
59
102
{ACAD_REACTORS
330
47
102
}
330
47
100
AcDbScale
 70
     0
300
1/128" = 1'-0"
140
0.0078125
141
12.0
290
     0
  0
SCALE
  5
5A
102
{ACAD_REACTORS
330
47
102
}
330
47
100
AcDbScale
 70
     0
300
1/64" = 1'-0"
140
0.015625
141
12.0
290
     0
  0
SCALE
  5
5B
102
{ACAD_REACTORS
330
47
102
}
330
47
100
AcDbScale
 70
     0
300
1/32" = 1'-0"
140
0.03125
141
12.0
290
     0
  0
SCALE
  5
5C
102
{ACAD_REACTORS
330
47
102
}
330
47
100
AcDbScale
 70
     0
300
1/16" = 1'-0"
140
0.0625
141
12.0
290
     0
  0
SCALE
  5
5D
102
{ACAD_REACTORS
330
47
102
}
330
47
100
AcDbScale
 70
     0
300
3/32" = 1'-0"
140
0.09375
141
12.0
290
     0
  0
SCALE
  5
5E
102
{ACAD_REACTORS
330
47
102
}
330
47
100
AcDbScale
 70
     0
300
1/8" = 1'-0"
140
0.125
141
12.0
290
     0
  0
SCALE
  5
5F
102
{ACAD_REACTORS
330
47
102
}
330
47
100
AcDbScale
 70
     0
300
3/16" = 1'-0"
140
0.1875
141
12.0
290
     0
  0
SCALE
  5
60
102
{ACAD_REACTORS
330
47
102
}
330
47
100
AcDbScale
 70
     0
300
1/4" = 1'-0"
140
0.25
141
12.0
290
     0
  0
SCALE
  5
61
102
{ACAD_REACTORS
330
47
102
}
330
47
100
AcDbScale
 70
     0
300
3/8" = 1'-0"
140
0.375
141
12.0
290
     0
  0
SCALE
  5
62
102
{ACAD_REACTORS
330
47
102
}
330
47
100
AcDbScale
 70
     0
300
1/2" = 1'-0"
140
0.5
141
12.0
290
     0
  0
SCALE
  5
63
102
{ACAD_REACTORS
330
47
102
}
330
47
100
AcDbScale
 70
     0
300
3/4" = 1'-0"
140
0.75
141
12.0
290
     0
  0
SCALE
  5
64
102
{ACAD_REACTORS
330
47
102
}
330
47
100
AcDbScale
 70
     0
300
1" = 1'-0"
140
1.0
141
12.0
290
     0
  0
SCALE
  5
65
102
{ACAD_REACTORS
330
47
102
}
330
47
100
AcDbScale
 70
     0
300
1-1/2" = 1'-0"
140
1.5
141
12.0
290
     0
  0
SCALE
  5
66
102
{ACAD_REACTORS
330
47
102
}
330
47
100
AcDbScale
 70
     0
300
3" = 1'-0"
140
3.0
141
12.0
290
     0
  0
SCALE
  5
67
102
{ACAD_REACTORS
330
47
102
}
330
47
100
AcDbScale
 70
     0
300
6" = 1'-0"
140
6.0
141
12.0
290
     0
  0
SCALE
  5
68
102
{ACAD_REACTORS
330
47
102
}
330
47
100
AcDbScale
 70
     0
300
1'-0" = 1'-0"
140
12.0
141
12.0
290
     0
  0
ENDSEC
  0
EOF
