  0
SECTION
  2
HEADER
  9
$ACADVER
  1
AC1015
  9
$ACADMAINTVER
 70
     6
  9
$DWGCODEPAGE
  3
ANSI_949
  9
$INSBASE
 10
0.0
 20
0.0
 30
0.0
  9
$EXTMIN
 10
1.000000000000000E+20
 20
1.000000000000000E+20
 30
1.000000000000000E+20
  9
$EXTMAX
 10
-1.000000000000000E+20
 20
-1.000000000000000E+20
 30
-1.000000000000000E+20
  9
$LIMMIN
 10
0.0
 20
0.0
  9
$LIMMAX
 10
420.0
 20
297.0
  9
$ORTHOMODE
 70
     0
  9
$REGENMODE
 70
     1
  9
$FILLMODE
 70
     1
  9
$QTEXTMODE
 70
     0
  9
$MIRRTEXT
 70
     1
  9
$LTSCALE
 40
1.0
  9
$ATTMODE
 70
     1
  9
$TEXTSIZE
 40
3.5
  9
$TRACEWID
 40
1.0
  9
$TEXTSTYLE
  7
Standard
  9
$CLAYER
  8
0
  9
$CELTYPE
  6
ByLayer
  9
$CECOLOR
 62
   256
  9
$CELTSCALE
 40
1.0
  9
$DISPSILH
 70
     0
  9
$DIMSCALE
 40
1.0
  9
$DIMASZ
 40
3.302
  9
$DIMEXO
 40
1.0
  9
$DIMDLI
 40
3.75
  9
$DIMRND
 40
0.0
  9
$DIMDLE
 40
0.0
  9
$DIMEXE
 40
1.0
  9
$DIMTP
 40
0.0
  9
$DIMTM
 40
0.0
  9
$DIMTXT
 40
3.5
  9
$DIMCEN
 40
2.5
  9
$DIMTSZ
 40
0.0
  9
$DIMTOL
 70
     0
  9
$DIMLIM
 70
     0
  9
$DIMTIH
 70
     1
  9
$DIMTOH
 70
     1
  9
$DIMSE1
 70
     0
  9
$DIMSE2
 70
     0
  9
$DIMTAD
 70
     1
  9
$DIMZIN
 70
     0
  9
$DIMBLK
  1

  9
$DIMASO
 70
     1
  9
$DIMSHO
 70
     1
  9
$DIMPOST
  1

  9
$DIMAPOST
  1

  9
$DIMALT
 70
     0
  9
$DIMALTD
 70
     3
  9
$DIMALTF
 40
0.0393700787401575
  9
$DIMLFAC
 40
1.0
  9
$DIMTOFL
 70
     1
  9
$DIMTVP
 40
0.0
  9
$DIMTIX
 70
     0
  9
$DIMSOXD
 70
     0
  9
$DIMSAH
 70
     0
  9
$DIMBLK1
  1

  9
$DIMBLK2
  1

  9
$DIMSTYLE
  2
ISO-25
  9
$DIMCLRD
 70
     0
  9
$DIMCLRE
 70
     0
  9
$DIMCLRT
 70
     0
  9
$DIMTFAC
 40
1.0
  9
$DIMGAP
 40
1.524
  9
$DIMJUST
 70
     0
  9
$DIMSD1
 70
     0
  9
$DIMSD2
 70
     0
  9
$DIMTOLJ
 70
     0
  9
$DIMTZIN
 70
     0
  9
$DIMALTZ
 70
     0
  9
$DIMALTTZ
 70
     0
  9
$DIMUPT
 70
     0
  9
$DIMDEC
 70
     2
  9
$DIMTDEC
 70
     2
  9
$DIMALTU
 70
     2
  9
$DIMALTTD
 70
     3
  9
$DIMTXSTY
  7
Standard
  9
$DIMAUNIT
 70
     0
  9
$DIMADEC
 70
     2
  9
$DIMALTRND
 40
0.0
  9
$DIMAZIN
 70
     0
  9
$DIMDSEP
 70
    44
  9
$DIMATFIT
 70
     3
  9
$DIMFRAC
 70
     0
  9
$DIMLDRBLK
  1

  9
$DIMLUNIT
 70
     2
  9
$DIMLWD
 70
    -2
  9
$DIMLWE
 70
    -2
  9
$DIMTMOVE
 70
     0
  9
$LUNITS
 70
     2
  9
$LUPREC
 70
     2
  9
$SKETCHINC
 40
1.0
  9
$FILLETRAD
 40
10.0
  9
$AUNITS
 70
     0
  9
$AUPREC
 70
     2
  9
$MENU
  1
.
  9
$ELEVATION
 40
0.0
  9
$PELEVATION
 40
0.0
  9
$THICKNESS
 40
0.0
  9
$LIMCHECK
 70
     0
  9
$CHAMFERA
 40
0.0
  9
$CHAMFERB
 40
0.0
  9
$CHAMFERC
 40
0.0
  9
$CHAMFERD
 40
0.0
  9
$SKPOLY
 70
     0
  9
$TDCREATE
 40
2458263.668919722
  9
$TDUCREATE
 40
2458263.293919722
  9
$TDUPDATE
 40
2458274.797606134
  9
$TDUUPDATE
 40
2458274.422606134
  9
$TDINDWG
 40
0.0014950579
  9
$TDUSRTIMER
 40
2458274.42111125
  9
$USRTIMER
 70
     1
  9
$ANGBASE
 50
0.0
  9
$ANGDIR
 70
     0
  9
$PDMODE
 70
     0
  9
$PDSIZE
 40
-1.0
  9
$PLINEWID
 40
0.0
  9
$SPLFRAME
 70
     0
  9
$SPLINETYPE
 70
     6
  9
$SPLINESEGS
 70
     8
  9
$HANDSEED
  5
2A7
  9
$SURFTAB1
 70
     6
  9
$SURFTAB2
 70
     6
  9
$SURFTYPE
 70
     6
  9
$SURFU
 70
     6
  9
$SURFV
 70
     6
  9
$UCSBASE
  2

  9
$UCSNAME
  2

  9
$UCSORG
 10
0.0
 20
0.0
 30
0.0
  9
$UCSXDIR
 10
1.0
 20
0.0
 30
0.0
  9
$UCSYDIR
 10
0.0
 20
1.0
 30
0.0
  9
$UCSORTHOREF
  2

  9
$UCSORTHOVIEW
 70
     0
  9
$UCSORGTOP
 10
0.0
 20
0.0
 30
0.0
  9
$UCSORGBOTTOM
 10
0.0
 20
0.0
 30
0.0
  9
$UCSORGLEFT
 10
0.0
 20
0.0
 30
0.0
  9
$UCSORGRIGHT
 10
0.0
 20
0.0
 30
0.0
  9
$UCSORGFRONT
 10
0.0
 20
0.0
 30
0.0
  9
$UCSORGBACK
 10
0.0
 20
0.0
 30
0.0
  9
$PUCSBASE
  2

  9
$PUCSNAME
  2

  9
$PUCSORG
 10
0.0
 20
0.0
 30
0.0
  9
$PUCSXDIR
 10
1.0
 20
0.0
 30
0.0
  9
$PUCSYDIR
 10
0.0
 20
1.0
 30
0.0
  9
$PUCSORTHOREF
  2

  9
$PUCSORTHOVIEW
 70
     0
  9
$PUCSORGTOP
 10
0.0
 20
0.0
 30
0.0
  9
$PUCSORGBOTTOM
 10
0.0
 20
0.0
 30
0.0
  9
$PUCSORGLEFT
 10
0.0
 20
0.0
 30
0.0
  9
$PUCSORGRIGHT
 10
0.0
 20
0.0
 30
0.0
  9
$PUCSORGFRONT
 10
0.0
 20
0.0
 30
0.0
  9
$PUCSORGBACK
 10
0.0
 20
0.0
 30
0.0
  9
$USERI1
 70
     0
  9
$USERI2
 70
     0
  9
$USERI3
 70
     0
  9
$USERI4
 70
     0
  9
$USERI5
 70
     0
  9
$USERR1
 40
0.0
  9
$USERR2
 40
0.0
  9
$USERR3
 40
0.0
  9
$USERR4
 40
0.0
  9
$USERR5
 40
0.0
  9
$WORLDVIEW
 70
     1
  9
$SHADEDGE
 70
     3
  9
$SHADEDIF
 70
    70
  9
$TILEMODE
 70
     1
  9
$MAXACTVP
 70
    64
  9
$PINSBASE
 10
0.0
 20
0.0
 30
0.0
  9
$PLIMCHECK
 70
     0
  9
$PEXTMIN
 10
1.000000000000000E+20
 20
1.000000000000000E+20
 30
1.000000000000000E+20
  9
$PEXTMAX
 10
-1.000000000000000E+20
 20
-1.000000000000000E+20
 30
-1.000000000000000E+20
  9
$PLIMMIN
 10
0.0
 20
0.0
  9
$PLIMMAX
 10
0.0
 20
0.0
  9
$UNITMODE
 70
     0
  9
$VISRETAIN
 70
     1
  9
$PLINEGEN
 70
     0
  9
$PSLTSCALE
 70
     1
  9
$TREEDEPTH
 70
  3020
  9
$CMLSTYLE
  2
Standard
  9
$CMLJUST
 70
     0
  9
$CMLSCALE
 40
20.0
  9
$PROXYGRAPHICS
 70
     1
  9
$MEASUREMENT
 70
     1
  9
$CELWEIGHT
370
    -1
  9
$ENDCAPS
280
     0
  9
$JOINSTYLE
280
     0
  9
$LWDISPLAY
290
     1
  9
$INSUNITS
 70
     4
  9
$HYPERLINKBASE
  1

  9
$STYLESHEET
  1

  9
$XEDIT
290
     1
  9
$CEPSNTYPE
380
     0
  9
$PSTYLEMODE
290
     1
  9
$FINGERPRINTGUID
  2
{36666580-A2C2-4B15-A5D2-D5157E100D7E}
  9
$VERSIONGUID
  2
{FAEB1C32-E019-11D5-929B-00C0DF256EC4}
  9
$EXTNAMES
290
     1
  9
$PSVPSCALE
 40
0.0
  9
$OLESTARTUP
290
     0
  0
ENDSEC
  0
SECTION
  2
CLASSES
  0
CLASS
  1
ACDBDICTIONARYWDFLT
  2
AcDbDictionaryWithDefault
  3
ObjectDBX Classes
 90
        0
280
     0
281
     0
  0
CLASS
  1
VISUALSTYLE
  2
AcDbVisualStyle
  3
ObjectDBX Classes
 90
     4095
280
     0
281
     0
  0
CLASS
  1
MATERIAL
  2
AcDbMaterial
  3
ObjectDBX Classes
 90
     1153
280
     0
281
     0
  0
CLASS
  1
SCALE
  2
AcDbScale
  3
ObjectDBX Classes
 90
     1153
280
     0
281
     0
  0
CLASS
  1
TABLESTYLE
  2
AcDbTableStyle
  3
ObjectDBX Classes
 90
     4095
280
     0
281
     0
  0
CLASS
  1
MLEADERSTYLE
  2
AcDbMLeaderStyle
  3
ACDB_MLEADERSTYLE_CLASS
 90
     4095
280
     0
281
     0
  0
CLASS
  1
SUN
  2
AcDbSun
  3
SCENEOE
 90
     1153
280
     0
281
     0
  0
CLASS
  1
ACDBPLACEHOLDER
  2
AcDbPlaceHolder
  3
ObjectDBX Classes
 90
        0
280
     0
281
     0
  0
CLASS
  1
LAYOUT
  2
AcDbLayout
  3
ObjectDBX Classes
 90
        0
280
     0
281
     0
  0
CLASS
  1
RASTERVARIABLES
  2
AcDbRasterVariables
  3
ISM
 90
        0
280
     0
281
     0
  0
ENDSEC
  0
SECTION
  2
TABLES
  0
TABLE
  2
VPORT
  5
8
330
0
100
AcDbSymbolTable
 70
     1
  0
VPORT
  5
29
330
8
100
AcDbSymbolTableRecord
100
AcDbViewportTableRecord
  2
*Active
 70
     0
 10
0.0
 20
0.0
 11
1.0
 21
1.0
 12
50.11634740514811
 22
-23.60566646870984
 13
0.0
 23
0.0
 14
10.0
 24
10.0
 15
10.0
 25
10.0
 16
0.0
 26
0.0
 36
1.0
 17
0.0
 27
0.0
 37
0.0
 40
207.8521605889718
 41
1.666023166023166
 42
50.0
 43
0.0
 44
0.0
 50
0.0
 51
0.0
 71
    16
 72
  2000
 73
     1
 74
     3
 75
     0
 76
     0
 77
     0
 78
     0
281
     0
 65
     1
110
0.0
120
0.0
130
0.0
111
1.0
121
0.0
131
0.0
112
0.0
122
1.0
132
0.0
 79
     0
146
0.0
  0
ENDTAB
  0
TABLE
  2
LTYPE
  5
5
330
0
100
AcDbSymbolTable
 70
     6
  0
LTYPE
  5
14
330
5
100
AcDbSymbolTableRecord
100
AcDbLinetypeTableRecord
  2
ByBlock
 70
     0
  3

 72
    65
 73
     0
 40
0.0
  0
LTYPE
  5
15
330
5
100
AcDbSymbolTableRecord
100
AcDbLinetypeTableRecord
  2
ByLayer
 70
     0
  3

 72
    65
 73
     0
 40
0.0
  0
LTYPE
  5
16
330
5
100
AcDbSymbolTableRecord
100
AcDbLinetypeTableRecord
  2
Continuous
 70
     0
  3
Solid line
 72
    65
 73
     0
 40
0.0
  0
LTYPE
  5
6E
330
5
100
AcDbSymbolTableRecord
100
AcDbLinetypeTableRecord
  2
HIDDEN
 70
     0
  3
Hidden __ __ __ __ __ __ __ __ __ __ __ __ __ __
 72
    65
 73
     2
 40
1.905
 49
1.27
 74
     0
 49
-0.635
 74
     0
  0
LTYPE
  5
6F
330
5
100
AcDbSymbolTableRecord
100
AcDbLinetypeTableRecord
  2
PHANTOM
 70
     0
  3
Phantom ______  __  __  ______  __  __  ______
 72
    65
 73
     6
 40
12.7
 49
6.35
 74
     0
 49
-1.27
 74
     0
 49
1.27
 74
     0
 49
-1.27
 74
     0
 49
1.27
 74
     0
 49
-1.27
 74
     0
  0
LTYPE
  5
70
330
5
100
AcDbSymbolTableRecord
100
AcDbLinetypeTableRecord
  2
CENTER
 70
     0
  3
Center ____ _ ____ _ ____ _ ____ _ ____ _ ____
 72
    65
 73
     4
 40
10.16
 49
6.35
 74
     0
 49
-1.27
 74
     0
 49
1.27
 74
     0
 49
-1.27
 74
     0
  0
LTYPE
  5
71
330
5
100
AcDbSymbolTableRecord
100
AcDbLinetypeTableRecord
  2
CENTERX2
 70
     0
  3
Center (2x) ________  __  ________  __  _____
 72
    65
 73
     4
 40
20.32
 49
12.7
 74
     0
 49
-2.54
 74
     0
 49
2.54
 74
     0
 49
-2.54
 74
     0
  0
LTYPE
  5
72
330
5
100
AcDbSymbolTableRecord
100
AcDbLinetypeTableRecord
  2
DOT2
 70
     0
  3
Dot (.5x) ........................................
 72
    65
 73
     2
 40
0.635
 49
0.0
 74
     0
 49
-0.635
 74
     0
  0
ENDTAB
  0
TABLE
  2
LAYER
  5
2
330
0
100
AcDbSymbolTable
 70
    17
  0
LAYER
  5
10
330
2
100
AcDbSymbolTableRecord
100
AcDbLayerTableRecord
  2
0
 70
     0
 62
     7
  6
Continuous
370
    -3
390
F
  0
LAYER
  5
73
330
2
100
AcDbSymbolTableRecord
100
AcDbLayerTableRecord
  2
FORMAT
 70
     0
 62
     2
  6
Continuous
370
    -3
390
F
  0
LAYER
  5
74
330
2
100
AcDbSymbolTableRecord
100
AcDbLayerTableRecord
  2
외형선
 70
     0
 62
   100
  6
Continuous
370
    35
390
F
  0
LAYER
  5
75
330
2
100
AcDbSymbolTableRecord
100
AcDbLayerTableRecord
  2
숨은선
 70
     0
 62
     2
  6
HIDDEN
370
    25
390
F
  0
LAYER
  5
76
330
2
100
AcDbSymbolTableRecord
100
AcDbLayerTableRecord
  2
중심선
 70
     0
 62
     1
  6
CENTERX2
370
    -3
390
F
  0
LAYER
  5
77
330
2
100
AcDbSymbolTableRecord
100
AcDbLayerTableRecord
  2
파단선
 70
     0
 62
     4
  6
Continuous
370
    -3
390
F
  0
LAYER
  5
78
330
2
100
AcDbSymbolTableRecord
100
AcDbLayerTableRecord
  2
해칭선
 70
     0
 62
     4
  6
Continuous
370
    -3
390
F
  0
LAYER
  5
79
330
2
100
AcDbSymbolTableRecord
100
AcDbLayerTableRecord
  2
가는실선
 70
     0
 62
     4
  6
Continuous
370
    -3
390
F
  0
LAYER
  5
7A
330
2
100
AcDbSymbolTableRecord
100
AcDbLayerTableRecord
  2
치수_보조선
 70
     0
 62
     4
  6
Continuous
370
    -3
390
F
  0
LAYER
  5
7B
330
2
100
AcDbSymbolTableRecord
100
AcDbLayerTableRecord
  2
치수문자_일반주서
 70
     0
 62
     7
  6
Continuous
370
    25
390
F
  0
LAYER
  5
7C
330
2
100
AcDbSymbolTableRecord
100
AcDbLayerTableRecord
  2
개별주서
 70
     0
 62
   100
  6
Continuous
370
    35
390
F
  0
LAYER
  5
7D
330
2
100
AcDbSymbolTableRecord
100
AcDbLayerTableRecord
  2
중간선
 70
     0
 62
     2
  6
Continuous
370
    25
390
F
  0
LAYER
  5
7E
330
2
100
AcDbSymbolTableRecord
100
AcDbLayerTableRecord
  2
윤곽선
 70
     0
 62
     3
  6
Continuous
370
    50
390
F
  0
LAYER
  5
7F
330
2
100
AcDbSymbolTableRecord
100
AcDbLayerTableRecord
  2
중심마크
 70
     0
 62
   100
  6
Continuous
370
    35
390
F
  0
LAYER
  5
80
330
2
100
AcDbSymbolTableRecord
100
AcDbLayerTableRecord
  2
가상선
 70
     0
 62
     4
  6
PHANTOM
370
    -3
390
F
  0
LAYER
  5
81
330
2
100
AcDbSymbolTableRecord
100
AcDbLayerTableRecord
  2
특수지정선
 70
     0
 62
     5
  6
CENTERX2
370
    70
390
F
  0
LAYER
  5
156
330
2
100
AcDbSymbolTableRecord
100
AcDbLayerTableRecord
  2
Defpoints
 70
     0
 62
     7
  6
Continuous
290
     0
370
    -3
390
F
  0
ENDTAB
  0
TABLE
  2
STYLE
  5
3
330
0
100
AcDbSymbolTable
 70
     2
  0
STYLE
  5
11
330
3
100
AcDbSymbolTableRecord
100
AcDbTextStyleTableRecord
  2
Standard
 70
     0
 40
0.0
 41
1.0
 50
0.0
 71
     0
 42
3.5
  3
txt
  4

  0
STYLE
  5
97
330
3
100
AcDbSymbolTableRecord
100
AcDbTextStyleTableRecord
  2
SLDTEXTSTYLE0
 70
     0
 40
0.0
 41
0.75
 50
0.0
 71
     0
 42
3.5
  3
TXT
  4

  0
ENDTAB
  0
TABLE
  2
VIEW
  5
6
330
0
100
AcDbSymbolTable
 70
     0
  0
ENDTAB
  0
TABLE
  2
UCS
  5
7
330
0
100
AcDbSymbolTable
 70
     0
  0
ENDTAB
  0
TABLE
  2
APPID
  5
9
330
0
100
AcDbSymbolTable
 70
     1
  0
APPID
  5
12
330
9
100
AcDbSymbolTableRecord
100
AcDbRegAppTableRecord
  2
ACAD
 70
     0
  0
ENDTAB
  0
TABLE
  2
DIMSTYLE
  5
A
330
0
100
AcDbSymbolTable
 70
     4
100
AcDbDimStyleTable
  0
DIMSTYLE
105
27
330
A
100
AcDbSymbolTableRecord
100
AcDbDimStyleTableRecord
  2
ISO-25
 70
     0
 41
2.5
 42
0.625
 43
3.75
 44
1.25
 73
     0
 74
     0
 77
     1
 78
     8
140
2.5
141
2.5
143
0.03937007874016
147
0.625
171
     3
172
     1
178
     0
271
     2
272
     2
274
     3
278
    44
283
     0
284
     8
340
11
  0
DIMSTYLE
105
C7
102
{ACAD_REACTORS
330
191
330
245
102
}
330
A
100
AcDbSymbolTableRecord
100
AcDbDimStyleTableRecord
  2
SLDDIMSTYLE0
 70
     0
 41
3.302
 44
0.0
 45
0.000000001
 73
     0
 74
     0
 77
     1
 78
     4
 79
     1
140
3.5
143
0.0393700787401575
147
0.875
148
0.000000001
170
     1
172
     1
173
     1
178
     0
271
     2
272
     2
276
     2
284
    12
289
     0
340
97
  0
DIMSTYLE
105
DC
102
{ACAD_REACTORS
330
19E
330
1AC
330
1B9
330
246
330
247
330
248
102
}
330
A
100
AcDbSymbolTableRecord
100
AcDbDimStyleTableRecord
  2
SLDDIMSTYLE1
 70
     0
 41
3.302
 44
0.0
 45
0.000000001
 73
     0
 74
     0
 77
     1
 78
    12
 79
     3
140
3.5
143
0.0393700787401575
147
0.875
148
0.000000001
170
     1
173
     1
178
     0
271
     2
272
     2
276
     2
284
    12
340
97
  0
DIMSTYLE
105
118
102
{ACAD_REACTORS
330
1C6
330
249
102
}
330
A
100
AcDbSymbolTableRecord
100
AcDbDimStyleTableRecord
  2
SLDDIMSTYLE2
 70
     0
 41
3.302
 44
0.0
 45
0.000000001
 73
     0
 74
     0
 77
     1
 78
     4
 79
     1
140
3.5
143
0.0393700787401575
147
0.875
148
0.000000001
170
     1
173
     1
178
     0
271
     2
272
     2
276
     2
284
    12
340
97
  0
ENDTAB
  0
TABLE
  2
BLOCK_RECORD
  5
1
330
0
100
AcDbSymbolTable
 70
    19
  0
BLOCK_RECORD
  5
1F
330
1
100
AcDbSymbolTableRecord
100
AcDbBlockTableRecord
  2
*Model_Space
340
22
  0
BLOCK_RECORD
  5
1B
330
1
100
AcDbSymbolTableRecord
100
AcDbBlockTableRecord
  2
*Paper_Space
340
1E
  0
BLOCK_RECORD
  5
23
330
1
100
AcDbSymbolTableRecord
100
AcDbBlockTableRecord
  2
*Paper_Space0
340
26
  0
BLOCK_RECORD
  5
82
330
1
100
AcDbSymbolTableRecord
100
AcDbBlockTableRecord
  2
블럭10
340
0
102
{BLKREFS
331
BF
102
}
  0
BLOCK_RECORD
  5
C8
330
1
100
AcDbSymbolTableRecord
100
AcDbBlockTableRecord
  2
_D
340
0
  0
BLOCK_RECORD
  5
DD
330
1
100
AcDbSymbolTableRecord
100
AcDbBlockTableRecord
  2
_D_1
340
0
  0
BLOCK_RECORD
  5
F0
330
1
100
AcDbSymbolTableRecord
100
AcDbBlockTableRecord
  2
_D_2
340
0
  0
BLOCK_RECORD
  5
104
330
1
100
AcDbSymbolTableRecord
100
AcDbBlockTableRecord
  2
_D_3
340
0
  0
BLOCK_RECORD
  5
119
330
1
100
AcDbSymbolTableRecord
100
AcDbBlockTableRecord
  2
_D_4
340
0
  0
BLOCK_RECORD
  5
12B
330
1
100
AcDbSymbolTableRecord
100
AcDbBlockTableRecord
  2
SW_DOWELSYMBOL_0
340
0
102
{BLKREFS
331
0
331
1D3
331
24A
102
}
  0
BLOCK_RECORD
  5
1F7
330
1
100
AcDbSymbolTableRecord
100
AcDbBlockTableRecord
  2
*D9
340
0
  0
BLOCK_RECORD
  5
203
330
1
100
AcDbSymbolTableRecord
100
AcDbBlockTableRecord
  2
*D10
340
0
  0
BLOCK_RECORD
  5
210
330
1
100
AcDbSymbolTableRecord
100
AcDbBlockTableRecord
  2
*D11
340
0
  0
BLOCK_RECORD
  5
21C
330
1
100
AcDbSymbolTableRecord
100
AcDbBlockTableRecord
  2
*D12
340
0
  0
BLOCK_RECORD
  5
228
330
1
100
AcDbSymbolTableRecord
100
AcDbBlockTableRecord
  2
*D13
340
0
  0
BLOCK_RECORD
  5
266
330
1
100
AcDbSymbolTableRecord
100
AcDbBlockTableRecord
  2
*D14
340
0
  0
BLOCK_RECORD
  5
272
330
1
100
AcDbSymbolTableRecord
100
AcDbBlockTableRecord
  2
*D15
340
0
  0
BLOCK_RECORD
  5
27F
330
1
100
AcDbSymbolTableRecord
100
AcDbBlockTableRecord
  2
*D16
340
0
  0
BLOCK_RECORD
  5
28B
330
1
100
AcDbSymbolTableRecord
100
AcDbBlockTableRecord
  2
*D17
340
0
  0
BLOCK_RECORD
  5
297
330
1
100
AcDbSymbolTableRecord
100
AcDbBlockTableRecord
  2
*D18
340
0
  0
ENDTAB
  0
ENDSEC
  0
SECTION
  2
BLOCKS
  0
BLOCK
  5
20
330
1F
100
AcDbEntity
  8
0
100
AcDbBlockBegin
  2
*Model_Space
 70
     0
 10
0.0
 20
0.0
 30
0.0
  3
*Model_Space
  1
*Model_Space
  0
ENDBLK
  5
21
330
1F
100
AcDbEntity
  8
0
100
AcDbBlockEnd
  0
BLOCK
  5
1C
330
1B
100
AcDbEntity
 67
     1
  8
0
100
AcDbBlockBegin
  2
*Paper_Space
 70
     0
 10
0.0
 20
0.0
 30
0.0
  3
*Paper_Space
  1
*Paper_Space
  0
ENDBLK
  5
1D
330
1B
100
AcDbEntity
 67
     1
  8
0
100
AcDbBlockEnd
  0
BLOCK
  5
24
330
23
100
AcDbEntity
  8
0
100
AcDbBlockBegin
  2
*Paper_Space0
 70
     0
 10
0.0
 20
0.0
 30
0.0
  3
*Paper_Space0
  1
*Paper_Space0
  0
ENDBLK
  5
25
330
23
100
AcDbEntity
  8
0
100
AcDbBlockEnd
  0
BLOCK
  5
83
330
82
100
AcDbEntity
  8
0
100
AcDbBlockBegin
  2
블럭10
 70
     2
 10
0.0
 20
0.0
 30
0.0
  3
블럭10
  1
블럭10
  0
ELLIPSE
  5
85
330
82
100
AcDbEntity
  8
중심선
100
AcDbEllipse
 10
20.54032771741204
 20
12.0471743016438
 30
0.0
 11
6.600054785286829
 21
-1.261213355974178E-13
 31
0.0
210
0.0
220
0.0
230
1.0
 40
0.636358354079598
 41
0.9219305317359503
 42
6.513795318482858
  0
ELLIPSE
  5
86
330
82
100
AcDbEntity
  8
중심선
100
AcDbEllipse
 10
20.54032771746488
 20
12.04717430159265
 30
0.0
 11
3.960054785062283
 21
1.540847449632565E-10
 31
0.0
210
0.0
220
0.0
230
1.0
 40
0.3939339440162632
 41
1.131841032648279
 42
5.62031148352944
  0
LINE
  5
87
330
82
100
AcDbEntity
  8
중심선
100
AcDbLine
 10
2.268634060543552
 20
16.24717430164393
 30
0.0
 11
5.714909304380834
 21
16.24717430164393
 31
0.0
  0
LINE
  5
88
330
82
100
AcDbEntity
  8
중심선
100
AcDbLine
 10
5.245725140726316
 20
7.84717430164391
 30
0.0
 11
8.692000384563599
 21
7.84717430164391
 31
0.0
  0
LINE
  5
89
330
82
100
AcDbEntity
  8
중심선
100
AcDbLine
 10
15.74043728645272
 20
16.24717430164393
 30
0.0
 11
8.692000384563599
 21
7.84717430164391
 31
0.0
  0
LINE
  5
8A
330
82
100
AcDbEntity
  8
중심선
100
AcDbLine
 10
0.1404042013395286
 20
13.71084872107135
 30
0.0
 11
3.58671253028996
 21
13.71088815037384
 31
0.0
  0
LINE
  5
8B
330
82
100
AcDbEntity
  8
중심선
100
AcDbLine
 10
2.750260043222114
 20
10.84717430164391
 30
0.0
 11
6.196535287059397
 21
10.84717430164391
 31
0.0
  0
LINE
  5
8C
330
82
100
AcDbEntity
  8
중심선
100
AcDbLine
 10
12.29416204261559
 20
16.24717430164393
 30
0.0
 11
5.245725140726316
 21
7.84717430164391
 31
0.0
  0
LINE
  5
8D
330
82
100
AcDbEntity
  8
중심선
100
AcDbLine
 10
10.72767329541681
 20
16.24717430164393
 30
0.0
 11
6.196535287059397
 21
10.84717430164391
 31
0.0
  0
LINE
  5
8E
330
82
100
AcDbEntity
  8
중심선
100
AcDbLine
 10
7.28139805157953
 20
16.24717430164393
 30
0.0
 11
2.750260043222114
 21
10.84717430164391
 31
0.0
  0
LINE
  5
8F
330
82
100
AcDbEntity
  8
중심선
100
AcDbLine
 10
5.714909304380834
 20
16.24717430164393
 30
0.0
 11
3.58671253028996
 21
13.71088815037384
 31
0.0
  0
LINE
  5
90
330
82
100
AcDbEntity
  8
중심선
100
AcDbLine
 10
2.268634060543552
 20
16.24717430164393
 30
0.0
 11
0.1404042013395286
 21
13.71084872107135
 31
0.0
  0
LINE
  5
91
330
82
100
AcDbEntity
  8
중심선
100
AcDbLine
 10
7.28139805157953
 20
16.24717430164393
 30
0.0
 11
10.72767329541681
 21
16.24717430164393
 31
0.0
  0
LINE
  5
92
330
82
100
AcDbEntity
  8
중심선
100
AcDbLine
 10
12.29416204261559
 20
16.24717430164393
 30
0.0
 11
15.74043728645272
 21
16.24717430164393
 31
0.0
  0
LINE
  5
93
330
82
100
AcDbEntity
  8
중심선
100
AcDbLine
 10
19.22036997980202
 20
11.08717430171403
 30
0.0
 11
23.66174974927406
 21
11.08717430171406
 31
0.0
  0
LINE
  5
94
330
82
100
AcDbEntity
  8
중심선
100
AcDbLine
 10
19.22039502424796
 20
13.00717430171391
 30
0.0
 11
19.22036997980202
 21
11.08717430171403
 31
0.0
  0
LINE
  5
95
330
82
100
AcDbEntity
  8
중심선
100
AcDbLine
 10
19.22039502424796
 20
13.00717430171391
 30
0.0
 11
26.96566020931264
 21
13.00717430171391
 31
0.0
  0
LINE
  5
96
330
82
100
AcDbEntity
  8
중심선
100
AcDbLine
 10
22.22332737316547
 20
13.45928029700563
 30
0.0
 11
24.52862924686651
 21
15.39360700705356
 31
0.0
  0
ATTDEF
  5
98
330
82
100
AcDbEntity
  8
FORMAT
 62
     2
100
AcDbText
 10
-9.18129528874128
 20
2.075366912832191
 30
0.0
 40
4.233333333333333
  1
E5976907 [ 2 FLUTE ]
 41
0.75
  7
SLDTEXTSTYLE0
 11
-9.18129528874128
 21
-0.0412997538344756
 31
0.0
100
AcDbAttributeDefinition
  3

  2
AUTOATTR0
 70
     0
 74
     1
  0
ENDBLK
  5
84
330
82
100
AcDbEntity
  8
0
100
AcDbBlockEnd
  0
BLOCK
  5
C9
330
C8
100
AcDbEntity
  8
0
100
AcDbBlockBegin
  2
_D
 70
     0
 10
0.0
 20
0.0
 30
0.0
  3
_D
  1
_D
  0
SOLID
  5
CB
330
C8
100
AcDbEntity
  8
치수문자_일반주서
100
AcDbTrace
 10
-96.6976509022191
 20
12.70107492872388
 30
0.0
 11
-96.1896509022191
 21
16.00307492872388
 31
0.0
 12
-97.20565090221909
 22
16.00307492872388
 32
0.0
 13
-97.20565090221909
 23
16.00307492872388
 33
0.0
  0
SOLID
  5
CC
330
C8
100
AcDbEntity
  8
치수문자_일반주서
100
AcDbTrace
 10
-96.6976509022191
 20
-12.6989250712761
 30
0.0
 11
-97.20565090221909
 21
-16.0009250712761
 31
0.0
 12
-96.1896509022191
 22
-16.0009250712761
 32
0.0
 13
-96.1896509022191
 23
-16.0009250712761
 33
0.0
  0
LINE
  5
CD
330
C8
100
AcDbEntity
  8
치수문자_일반주서
100
AcDbLine
 10
-107.4905326182618
 20
-4.52461960173343
 30
0.0
 11
-107.4905326182618
 21
-5.59102585918401
 31
0.0
  0
LINE
  5
CE
330
C8
100
AcDbEntity
  8
치수문자_일반주서
100
AcDbLine
 10
-107.4905326182618
 20
-5.59102585918401
 30
0.0
 11
-101.9342826272025
 21
-5.591025859183971
 31
0.0
  0
LINE
  5
CF
330
C8
100
AcDbEntity
  8
치수문자_일반주서
100
AcDbLine
 10
-101.9342826272025
 20
-5.591025859183971
 30
0.0
 11
-101.9342826272025
 21
-4.524619601733391
 31
0.0
  0
LINE
  5
D0
330
C8
100
AcDbEntity
  8
치수문자_일반주서
100
AcDbLine
 10
-107.4905326182619
 20
4.526769459181087
 30
0.0
 11
-107.4905326182619
 21
5.593175716631667
 31
0.0
  0
LINE
  5
D1
330
C8
100
AcDbEntity
  8
치수문자_일반주서
100
AcDbLine
 10
-107.4905326182619
 20
5.593175716631667
 30
0.0
 11
-101.9342826272026
 21
5.593175716631706
 31
0.0
  0
LINE
  5
D2
330
C8
100
AcDbEntity
  8
치수문자_일반주서
100
AcDbLine
 10
-101.9342826272026
 20
5.593175716631706
 30
0.0
 11
-101.9342826272026
 21
4.526769459181126
 31
0.0
  0
LINE
  5
D3
330
C8
100
AcDbEntity
  8
치수문자_일반주서
100
AcDbLine
 10
-85.20119288060704
 20
12.70107492872388
 30
0.0
 11
-97.6976509022191
 21
12.70107492872388
 31
0.0
  0
LINE
  5
D4
330
C8
100
AcDbEntity
  8
치수문자_일반주서
100
AcDbLine
 10
-85.20119288060704
 20
-12.6989250712761
 30
0.0
 11
-97.6976509022191
 21
-12.6989250712761
 31
0.0
  0
LINE
  5
D5
330
C8
100
AcDbEntity
  8
치수문자_일반주서
100
AcDbLine
 10
-96.6976509022191
 20
12.70107492872388
 30
0.0
 11
-96.6976509022191
 21
19.05107492872389
 31
0.0
  0
LINE
  5
D6
330
C8
100
AcDbEntity
  8
치수문자_일반주서
100
AcDbLine
 10
-96.6976509022191
 20
12.70107492872388
 30
0.0
 11
-96.6976509022191
 21
-12.6989250712761
 31
0.0
  0
LINE
  5
D7
330
C8
100
AcDbEntity
  8
치수문자_일반주서
100
AcDbLine
 10
-96.6976509022191
 20
-12.6989250712761
 30
0.0
 11
-96.6976509022191
 21
-19.04892507127611
 31
0.0
  0
MTEXT
  5
D8
330
C8
100
AcDbEntity
  8
치수문자_일반주서
100
AcDbMText
 10
-106.4460195417814
 20
-4.524619601733423
 30
0.0
 40
3.5
 41
0.0
 71
     1
 72
     1
  1
1.00
  7
SLDTEXTSTYLE0
 11
-7.044195017643634E-15
 21
1.0
 31
0.0
 73
     1
 44
1.0
  0
MTEXT
  5
D9
330
C8
100
AcDbEntity
  8
치수문자_일반주서
100
AcDbMText
 10
-101.2093879914209
 20
-8.456894014097154
 30
0.0
 40
3.5
 41
0.0
 71
     1
 72
     1
  1
%%c
  7
SLDTEXTSTYLE0
 11
-7.044195017643634E-15
 21
1.0
 31
0.0
 73
     1
 44
1.0
  0
MTEXT
  5
DA
330
C8
100
AcDbEntity
  8
치수문자_일반주서
100
AcDbMText
 10
-101.209387991421
 20
-3.178456615723073
 30
0.0
 40
3.5
 41
0.0
 71
     1
 72
     1
  1
25.40
  7
SLDTEXTSTYLE0
 11
-7.044195017643634E-15
 21
1.0
 31
0.0
 73
     1
 44
1.0
  0
ENDBLK
  5
CA
330
C8
100
AcDbEntity
  8
0
100
AcDbBlockEnd
  0
BLOCK
  5
DE
330
DD
100
AcDbEntity
  8
0
100
AcDbBlockBegin
  2
_D_1
 70
     0
 10
0.0
 20
0.0
 30
0.0
  3
_D_1
  1
_D_1
  0
SOLID
  5
E0
330
DD
100
AcDbEntity
  8
치수문자_일반주서
100
AcDbTrace
 10
102.3422313209403
 20
12.69034108214038
 30
0.0
 11
101.8342313209403
 21
9.388341082140377
 31
0.0
 12
102.8502313209403
 22
9.388341082140377
 32
0.0
 13
102.8502313209403
 23
9.388341082140377
 33
0.0
  0
SOLID
  5
E1
330
DD
100
AcDbEntity
  8
치수문자_일반주서
100
AcDbTrace
 10
102.3422313209403
 20
-12.68819122469258
 30
0.0
 11
102.8502313209403
 21
-9.386191224692585
 31
0.0
 12
101.8342313209403
 22
-9.386191224692585
 32
0.0
 13
101.8342313209403
 23
-9.386191224692585
 33
0.0
  0
LINE
  5
E2
330
DD
100
AcDbEntity
  8
치수문자_일반주서
100
AcDbLine
 10
91.5493496048976
 20
37.20344287888089
 30
0.0
 11
91.54934960489761
 21
36.1370366214303
 31
0.0
  0
LINE
  5
E3
330
DD
100
AcDbEntity
  8
치수문자_일반주서
100
AcDbLine
 10
91.54934960489761
 20
36.1370366214303
 30
0.0
 11
97.10559959595692
 21
36.13703662143035
 31
0.0
  0
LINE
  5
E4
330
DD
100
AcDbEntity
  8
치수문자_일반주서
100
AcDbLine
 10
97.10559959595692
 20
36.13703662143035
 30
0.0
 11
97.1055995959569
 21
37.20344287888093
 31
0.0
  0
LINE
  5
E5
330
DD
100
AcDbEntity
  8
치수문자_일반주서
100
AcDbLine
 10
91.54934960489754
 20
46.2548319397954
 30
0.0
 11
91.54934960489753
 21
47.32123819724598
 31
0.0
  0
LINE
  5
E6
330
DD
100
AcDbEntity
  8
치수문자_일반주서
100
AcDbLine
 10
91.54934960489753
 20
47.32123819724598
 30
0.0
 11
97.10559959595683
 21
47.32123819724602
 31
0.0
  0
LINE
  5
E7
330
DD
100
AcDbEntity
  8
치수문자_일반주서
100
AcDbLine
 10
97.10559959595683
 20
47.32123819724602
 30
0.0
 11
97.10559959595685
 21
46.25483193979544
 31
0.0
  0
LINE
  5
E8
330
DD
100
AcDbEntity
  8
치수문자_일반주서
100
AcDbLine
 10
68.19880711939298
 20
12.69034108214038
 30
0.0
 11
103.3422313209403
 21
12.69034108214038
 31
0.0
  0
LINE
  5
E9
330
DD
100
AcDbEntity
  8
치수문자_일반주서
100
AcDbLine
 10
68.19880711939298
 20
-12.68819122469258
 30
0.0
 11
103.3422313209403
 21
-12.68819122469258
 31
0.0
  0
LINE
  5
EA
330
DD
100
AcDbEntity
  8
치수문자_일반주서
100
AcDbLine
 10
102.3422313209403
 20
12.69034108214038
 30
0.0
 11
102.3422313209403
 21
50.18710635215927
 31
0.0
  0
LINE
  5
EB
330
DD
100
AcDbEntity
  8
치수문자_일반주서
100
AcDbLine
 10
102.3422313209403
 20
12.69034108214038
 30
0.0
 11
102.3422313209403
 21
-12.68819122469258
 31
0.0
  0
MTEXT
  5
EC
330
DD
100
AcDbEntity
  8
치수문자_일반주서
100
AcDbMText
 10
92.59386268137801
 20
37.20344287888089
 30
0.0
 40
3.5
 41
0.0
 71
     1
 72
     1
  1
1.00
  7
SLDTEXTSTYLE0
 11
-7.044195017643634E-15
 21
1.0
 31
0.0
 73
     1
 44
1.0
  0
MTEXT
  5
ED
330
DD
100
AcDbEntity
  8
치수문자_일반주서
100
AcDbMText
 10
97.83049423173851
 20
33.27116846651717
 30
0.0
 40
3.5
 41
0.0
 71
     1
 72
     1
  1
%%c
  7
SLDTEXTSTYLE0
 11
-7.044195017643634E-15
 21
1.0
 31
0.0
 73
     1
 44
1.0
  0
MTEXT
  5
EE
330
DD
100
AcDbEntity
  8
치수문자_일반주서
100
AcDbMText
 10
97.83049423173847
 20
38.54960586489125
 30
0.0
 40
3.5
 41
0.0
 71
     1
 72
     1
  1
25.38
  7
SLDTEXTSTYLE0
 11
-7.044195017643634E-15
 21
1.0
 31
0.0
 73
     1
 44
1.0
  0
ENDBLK
  5
DF
330
DD
100
AcDbEntity
  8
0
100
AcDbBlockEnd
  0
BLOCK
  5
F1
330
F0
100
AcDbEntity
  8
0
100
AcDbBlockBegin
  2
_D_2
 70
     0
 10
0.0
 20
0.0
 30
0.0
  3
_D_2
  1
_D_2
  0
SOLID
  5
F3
330
F0
100
AcDbEntity
  8
치수문자_일반주서
100
AcDbTrace
 10
86.24880711939296
 20
16.34839146707804
 30
0.0
 11
82.94680711939296
 21
16.85639146707804
 31
0.0
 12
82.94680711939296
 22
15.84039146707804
 32
0.0
 13
82.94680711939296
 23
15.84039146707804
 33
0.0
  0
SOLID
  5
F4
330
F0
100
AcDbEntity
  8
치수문자_일반주서
100
AcDbTrace
 10
70.37380711939294
 20
16.34839146707802
 30
0.0
 11
73.67580711939294
 21
15.84039146707802
 31
0.0
 12
73.67580711939294
 22
16.85639146707802
 32
0.0
 13
73.67580711939294
 23
16.85639146707802
 33
0.0
  0
LINE
  5
F5
330
F0
100
AcDbEntity
  8
치수문자_일반주서
100
AcDbLine
 10
96.0820105518268
 20
27.14127318312084
 30
0.0
 11
95.01560429437622
 21
27.14127318312083
 31
0.0
  0
LINE
  5
F6
330
F0
100
AcDbEntity
  8
치수문자_일반주서
100
AcDbLine
 10
95.01560429437622
 20
27.14127318312083
 30
0.0
 11
95.01560429437626
 21
21.58502319206153
 31
0.0
  0
LINE
  5
F7
330
F0
100
AcDbEntity
  8
치수문자_일반주서
100
AcDbLine
 10
95.01560429437626
 20
21.58502319206153
 30
0.0
 11
96.08201055182684
 21
21.58502319206154
 31
0.0
  0
LINE
  5
F8
330
F0
100
AcDbEntity
  8
치수문자_일반주서
100
AcDbLine
 10
105.1333996127413
 20
27.14127318312092
 30
0.0
 11
106.1998058701919
 21
27.14127318312093
 31
0.0
  0
LINE
  5
F9
330
F0
100
AcDbEntity
  8
치수문자_일반주서
100
AcDbLine
 10
106.1998058701919
 20
27.14127318312093
 30
0.0
 11
106.1998058701919
 21
21.58502319206163
 31
0.0
  0
LINE
  5
FA
330
F0
100
AcDbEntity
  8
치수문자_일반주서
100
AcDbLine
 10
106.1998058701919
 20
21.58502319206163
 30
0.0
 11
105.1333996127414
 21
21.58502319206162
 31
0.0
  0
LINE
  5
FB
330
F0
100
AcDbEntity
  8
치수문자_일반주서
100
AcDbLine
 10
86.24880711939298
 20
7.345708005432146
 30
0.0
 11
86.24880711939296
 21
17.34839146707804
 31
0.0
  0
LINE
  5
FC
330
F0
100
AcDbEntity
  8
치수문자_일반주서
100
AcDbLine
 10
70.37380711939295
 20
6.039853687543351
 30
0.0
 11
70.37380711939294
 21
17.34839146707802
 31
0.0
  0
LINE
  5
FD
330
F0
100
AcDbEntity
  8
치수문자_일반주서
100
AcDbLine
 10
86.24880711939296
 20
16.34839146707804
 30
0.0
 11
108.559267025912
 21
16.34839146707807
 31
0.0
  0
LINE
  5
FE
330
F0
100
AcDbEntity
  8
치수문자_일반주서
100
AcDbLine
 10
86.24880711939296
 20
16.34839146707804
 30
0.0
 11
70.37380711939294
 21
16.34839146707802
 31
0.0
  0
MTEXT
  5
FF
330
F0
100
AcDbEntity
  8
치수문자_일반주서
100
AcDbMText
 10
93.96864244016429
 20
20.9136007329398
 30
0.0
 40
3.5
 41
0.0
 71
     1
 72
     1
  1

  7
SLDTEXTSTYLE0
 73
     1
 44
1.0
  0
MTEXT
  5
100
330
F0
100
AcDbEntity
  8
치수문자_일반주서
100
AcDbMText
 10
96.08201055182681
 20
26.09676010664043
 30
0.0
 40
3.5
 41
0.0
 71
     1
 72
     1
  1
0.63
  7
SLDTEXTSTYLE0
 73
     1
 44
1.0
  0
MTEXT
  5
101
330
F0
100
AcDbEntity
  8
치수문자_일반주서
100
AcDbMText
 10
94.78895483865013
 20
20.86012855627995
 30
0.0
 40
3.5
 41
0.0
 71
     1
 72
     1
  1
15.88
  7
SLDTEXTSTYLE0
 73
     1
 44
1.0
  0
MTEXT
  5
102
330
F0
100
AcDbEntity
  8
치수문자_일반주서
100
AcDbMText
 10
108.5787122440579
 20
20.91360073293993
 30
0.0
 40
3.5
 41
0.0
 71
     1
 72
     1
  1

  7
SLDTEXTSTYLE0
 73
     1
 44
1.0
  0
ENDBLK
  5
F2
330
F0
100
AcDbEntity
  8
0
100
AcDbBlockEnd
  0
BLOCK
  5
105
330
104
100
AcDbEntity
  8
0
100
AcDbBlockBegin
  2
_D_3
 70
     0
 10
0.0
 20
0.0
 30
0.0
  3
_D_3
  1
_D_3
  0
SOLID
  5
107
330
104
100
AcDbEntity
  8
치수문자_일반주서
100
AcDbTrace
 10
67.19880711939298
 20
37.71078823285558
 30
0.0
 11
63.89680711939298
 21
38.21878823285558
 31
0.0
 12
63.89680711939298
 22
37.20278823285557
 32
0.0
 13
63.89680711939298
 23
37.20278823285557
 33
0.0
  0
SOLID
  5
108
330
104
100
AcDbEntity
  8
치수문자_일반주서
100
AcDbTrace
 10
-15.35119288060704
 20
37.71078823285556
 30
0.0
 11
-12.04919288060704
 21
37.20278823285556
 31
0.0
 12
-12.04919288060704
 22
38.21878823285557
 32
0.0
 13
-12.04919288060704
 23
38.21878823285557
 33
0.0
  0
LINE
  5
109
330
104
100
AcDbEntity
  8
치수문자_일반주서
100
AcDbLine
 10
75.11749087000747
 20
48.50366994889836
 30
0.0
 11
74.05108461255689
 21
48.50366994889836
 31
0.0
  0
LINE
  5
10A
330
104
100
AcDbEntity
  8
치수문자_일반주서
100
AcDbLine
 10
74.05108461255689
 20
48.50366994889836
 30
0.0
 11
74.05108461255693
 21
42.94741995783905
 31
0.0
  0
LINE
  5
10B
330
104
100
AcDbEntity
  8
치수문자_일반주서
100
AcDbLine
 10
74.05108461255693
 20
42.94741995783905
 30
0.0
 11
75.11749087000752
 21
42.94741995783906
 31
0.0
  0
LINE
  5
10C
330
104
100
AcDbEntity
  8
치수문자_일반주서
100
AcDbLine
 10
84.16887993092199
 20
48.50366994889843
 30
0.0
 11
85.23528618837257
 21
48.50366994889843
 31
0.0
  0
LINE
  5
10D
330
104
100
AcDbEntity
  8
치수문자_일반주서
100
AcDbLine
 10
85.23528618837257
 20
48.50366994889843
 30
0.0
 11
85.23528618837261
 21
42.94741995783913
 31
0.0
  0
LINE
  5
10E
330
104
100
AcDbEntity
  8
치수문자_일반주서
100
AcDbLine
 10
85.23528618837261
 20
42.94741995783913
 30
0.0
 11
84.16887993092203
 21
42.94741995783912
 31
0.0
  0
LINE
  5
10F
330
104
100
AcDbEntity
  8
치수문자_일반주서
100
AcDbLine
 10
67.19880711939298
 20
13.69034108214038
 30
0.0
 11
67.19880711939298
 21
38.71078823285558
 31
0.0
  0
LINE
  5
110
330
104
100
AcDbEntity
  8
치수문자_일반주서
100
AcDbLine
 10
-15.35119288060703
 20
13.20107492872389
 30
0.0
 11
-15.35119288060704
 21
38.71078823285556
 31
0.0
  0
LINE
  5
111
330
104
100
AcDbEntity
  8
치수문자_일반주서
100
AcDbLine
 10
67.19880711939298
 20
37.71078823285558
 30
0.0
 11
87.59474734409261
 21
37.71078823285558
 31
0.0
  0
LINE
  5
112
330
104
100
AcDbEntity
  8
치수문자_일반주서
100
AcDbLine
 10
67.19880711939298
 20
37.71078823285558
 30
0.0
 11
-15.35119288060704
 21
37.71078823285556
 31
0.0
  0
MTEXT
  5
113
330
104
100
AcDbEntity
  8
치수문자_일반주서
100
AcDbMText
 10
73.00412275834493
 20
42.27599749871732
 30
0.0
 40
3.5
 41
0.0
 71
     1
 72
     1
  1

  7
SLDTEXTSTYLE0
 73
     1
 44
1.0
  0
MTEXT
  5
114
330
104
100
AcDbEntity
  8
치수문자_일반주서
100
AcDbMText
 10
75.11749087000747
 20
47.45915687241795
 30
0.0
 40
3.5
 41
0.0
 71
     1
 72
     1
  1
3.25
  7
SLDTEXTSTYLE0
 73
     1
 44
1.0
  0
MTEXT
  5
115
330
104
100
AcDbEntity
  8
치수문자_일반주서
100
AcDbMText
 10
73.8244351568308
 20
42.22252532205747
 30
0.0
 40
3.5
 41
0.0
 71
     1
 72
     1
  1
82.55
  7
SLDTEXTSTYLE0
 73
     1
 44
1.0
  0
MTEXT
  5
116
330
104
100
AcDbEntity
  8
치수문자_일반주서
100
AcDbMText
 10
87.6141925622385
 20
42.27599749871742
 30
0.0
 40
3.5
 41
0.0
 71
     1
 72
     1
  1

  7
SLDTEXTSTYLE0
 73
     1
 44
1.0
  0
ENDBLK
  5
106
330
104
100
AcDbEntity
  8
0
100
AcDbBlockEnd
  0
BLOCK
  5
11A
330
119
100
AcDbEntity
  8
0
100
AcDbBlockBegin
  2
_D_4
 70
     0
 10
0.0
 20
0.0
 30
0.0
  3
_D_4
  1
_D_4
  0
SOLID
  5
11C
330
119
100
AcDbEntity
  8
치수문자_일반주서
100
AcDbTrace
 10
67.19880711939298
 20
67.53676109538127
 30
0.0
 11
63.89680711939298
 21
68.04476109538126
 31
0.0
 12
63.89680711939298
 22
67.02876109538127
 32
0.0
 13
63.89680711939298
 23
67.02876109538127
 33
0.0
  0
SOLID
  5
11D
330
119
100
AcDbEntity
  8
치수문자_일반주서
100
AcDbTrace
 10
-85.20119288060704
 20
67.53676109538127
 30
0.0
 11
-81.89919288060705
 21
67.02876109538127
 31
0.0
 12
-81.89919288060705
 22
68.04476109538126
 32
0.0
 13
-81.89919288060705
 23
68.04476109538126
 33
0.0
  0
LINE
  5
11E
330
119
100
AcDbEntity
  8
치수문자_일반주서
100
AcDbLine
 10
-16.26900955537495
 20
78.32964281142398
 30
0.0
 11
-17.33541581282553
 21
78.329642811424
 31
0.0
  0
LINE
  5
11F
330
119
100
AcDbEntity
  8
치수문자_일반주서
100
AcDbLine
 10
-17.33541581282553
 20
78.329642811424
 30
0.0
 11
-17.33541581282557
 21
72.77339282036469
 31
0.0
  0
LINE
  5
120
330
119
100
AcDbEntity
  8
치수문자_일반주서
100
AcDbLine
 10
-17.33541581282557
 20
72.77339282036469
 30
0.0
 11
-16.26900955537499
 21
72.77339282036468
 31
0.0
  0
LINE
  5
121
330
119
100
AcDbEntity
  8
치수문자_일반주서
100
AcDbLine
 10
-7.217620494460435
 20
78.32964281142391
 30
0.0
 11
-6.151214237009855
 21
78.3296428114239
 31
0.0
  0
LINE
  5
122
330
119
100
AcDbEntity
  8
치수문자_일반주서
100
AcDbLine
 10
-6.151214237009855
 20
78.3296428114239
 30
0.0
 11
-6.151214237009895
 21
72.77339282036459
 31
0.0
  0
LINE
  5
123
330
119
100
AcDbEntity
  8
치수문자_일반주서
100
AcDbLine
 10
-6.151214237009895
 20
72.77339282036459
 30
0.0
 11
-7.217620494460475
 21
72.7733928203646
 31
0.0
  0
LINE
  5
124
330
119
100
AcDbEntity
  8
치수문자_일반주서
100
AcDbLine
 10
67.19880711939298
 20
13.69034108214038
 30
0.0
 11
67.19880711939298
 21
68.53676109538127
 31
0.0
  0
LINE
  5
125
330
119
100
AcDbEntity
  8
치수문자_일반주서
100
AcDbLine
 10
-85.20119288060704
 20
12.70107492872388
 30
0.0
 11
-85.20119288060704
 21
68.53676109538127
 31
0.0
  0
LINE
  5
126
330
119
100
AcDbEntity
  8
치수문자_일반주서
100
AcDbLine
 10
67.19880711939298
 20
67.53676109538127
 30
0.0
 11
-85.20119288060704
 21
67.53676109538127
 31
0.0
  0
MTEXT
  5
127
330
119
100
AcDbEntity
  8
치수문자_일반주서
100
AcDbMText
 10
-18.83567657848986
 20
72.10197036124298
 30
0.0
 40
3.5
 41
0.0
 71
     1
 72
     1
  1

  7
SLDTEXTSTYLE0
 73
     1
 44
1.0
  0
MTEXT
  5
128
330
119
100
AcDbEntity
  8
치수문자_일반주서
100
AcDbMText
 10
-16.26900955537496
 20
77.28512973494357
 30
0.0
 40
3.5
 41
0.0
 71
     1
 72
     1
  1
6.00
  7
SLDTEXTSTYLE0
 73
     1
 44
1.0
  0
MTEXT
  5
129
330
119
100
AcDbEntity
  8
치수문자_일반주서
100
AcDbMText
 10
-18.85512098172845
 20
72.04849818458312
 30
0.0
 40
3.5
 41
0.0
 71
     1
 72
     1
  1
152.40
  7
SLDTEXTSTYLE0
 73
     1
 44
1.0
  0
MTEXT
  5
12A
330
119
100
AcDbEntity
  8
치수문자_일반주서
100
AcDbMText
 10
-3.319008951691703
 20
72.10197036124288
 30
0.0
 40
3.5
 41
0.0
 71
     1
 72
     1
  1

  7
SLDTEXTSTYLE0
 73
     1
 44
1.0
  0
ENDBLK
  5
11B
330
119
100
AcDbEntity
  8
0
100
AcDbBlockEnd
  0
BLOCK
  5
12C
330
12B
100
AcDbEntity
  8
0
100
AcDbBlockBegin
  2
SW_DOWELSYMBOL_0
 70
     0
 10
0.0
 20
0.0
 30
0.0
  3
SW_DOWELSYMBOL_0
  1
SW_DOWELSYMBOL_0
  0
CIRCLE
  5
12E
330
12B
100
AcDbEntity
  8
외형선
 62
     0
100
AcDbCircle
 10
0.0
 20
0.0
 30
0.0
 40
3.000000000000004
  0
HATCH
  5
12F
330
12B
100
AcDbEntity
  8
0
  6
Continuous
 62
     0
370
    35
100
AcDbHatch
 10
0.0
 20
0.0
 30
0.0
210
0.0
220
0.0
230
1.0
  2
SOLID
 70
     1
 71
     0
 91
        1
 92
        0
 93
        3
 72
     2
 10
0.0000000000000104
 20
0.0
 40
3.000000000000004
 50
0.0
 51
90.0
 73
     1
 72
     1
 10
0.0000000000000104
 20
3.000000000000004
 11
0.0000000000000104
 21
0.0
 72
     1
 10
0.0000000000000104
 20
0.0
 11
3.000000000000015
 21
0.0
 97
        0
 75
     0
 76
     1
 98
        1
 10
0.0
 20
0.0
  0
HATCH
  5
130
330
12B
100
AcDbEntity
  8
0
  6
Continuous
 62
     0
370
    35
100
AcDbHatch
 10
0.0
 20
0.0
 30
0.0
210
0.0
220
0.0
230
1.0
  2
SOLID
 70
     1
 71
     0
 91
        1
 92
        0
 93
        3
 72
     2
 10
0.0000000000000104
 20
0.0
 40
3.000000000000004
 50
180.0
 51
270.0000000000008
 73
     1
 72
     1
 10
0.0000000000000104
 20
-3.000000000000004
 11
0.0000000000000104
 21
0.0
 72
     1
 10
0.0000000000000104
 20
0.0
 11
-2.999999999999994
 21
0.0
 97
        0
 75
     0
 76
     1
 98
        1
 10
0.0
 20
0.0
  0
ENDBLK
  5
12D
330
12B
100
AcDbEntity
  8
0
100
AcDbBlockEnd
  0
BLOCK
  5
1F8
330
1F7
100
AcDbEntity
  8
0
100
AcDbBlockBegin
  2
*D9
 70
     1
 10
0.0
 20
0.0
 30
0.0
  3
*D9
  1
*D9
  0
LINE
  5
1FA
330
1F7
100
AcDbEntity
  8
치수문자_일반주서
 62
     0
370
    -2
100
AcDbLine
 10
16.8089580216121
 20
25.40000000000003
 30
0.0
 11
4.374999999999984
 21
25.39999999999999
 31
0.0
  0
LINE
  5
1FB
330
1F7
100
AcDbEntity
  8
치수문자_일반주서
 62
     0
370
    -2
100
AcDbLine
 10
16.8089580216121
 20
0.000000000000046
 30
0.0
 11
4.375000000000073
 21
0.0
 31
0.0
  0
LINE
  5
1FC
330
1F7
100
AcDbEntity
  8
치수문자_일반주서
 62
     0
370
    -2
100
AcDbLine
 10
4.374999999999996
 20
22.09799999999999
 30
0.0
 11
4.375000000000061
 21
3.302
 31
0.0
  0
SOLID
  5
1FD
330
1F7
100
AcDbEntity
  8
치수문자_일반주서
 62
     0
100
AcDbTrace
 10
4.925333333333329
 20
22.09799999999999
 30
0.0
 11
3.824666666666662
 21
22.09799999999998
 31
0.0
 12
4.374999999999984
 22
25.39999999999999
 32
0.0
 13
4.374999999999984
 23
25.39999999999999
 33
0.0
  0
SOLID
  5
1FE
330
1F7
100
AcDbEntity
  8
치수문자_일반주서
 62
     0
100
AcDbTrace
 10
3.824666666666728
 20
3.301999999999998
 30
0.0
 11
4.925333333333395
 21
3.302000000000001
 31
0.0
 12
4.375000000000073
 22
0.0
 32
0.0
 13
4.375000000000073
 23
0.0
 33
0.0
  0
MTEXT
  5
1FF
330
1F7
100
AcDbEntity
  8
치수문자_일반주서
 62
     0
100
AcDbMText
 10
0.0000000000000284
 20
12.70000000000003
 30
0.0
 40
3.5
 41
0.0
 71
     2
 72
     1
  1
\A1;%%c25.40 [1]
  7
SLDTEXTSTYLE0
 11
-3.496765431890258E-15
 21
1.0
 31
0.0
 73
     1
 44
1.0
  0
POINT
  5
200
330
1F7
100
AcDbEntity
  8
Defpoints
 62
     0
100
AcDbPoint
 10
16.8714580216121
 20
25.40000000000003
 30
0.0
  0
POINT
  5
201
330
1F7
100
AcDbEntity
  8
Defpoints
 62
     0
100
AcDbPoint
 10
16.8714580216121
 20
0.0000000000000462
 30
0.0
  0
POINT
  5
202
330
1F7
100
AcDbEntity
  8
Defpoints
 62
     0
100
AcDbPoint
 10
4.375000000000071
 20
-0.0000000000000005
 30
0.0
  0
ENDBLK
  5
1F9
330
1F7
100
AcDbEntity
  8
0
100
AcDbBlockEnd
  0
BLOCK
  5
204
330
203
100
AcDbEntity
  8
0
100
AcDbBlockBegin
  2
*D10
 70
     1
 10
0.0
 20
0.0
 30
0.0
  3
*D10
  1
*D10
  0
LINE
  5
206
330
203
100
AcDbEntity
  8
치수문자_일반주서
 62
     0
370
    -2
100
AcDbLine
 10
193.7339580216121
 20
25.38926615341653
 30
0.0
 11
213.5696629175692
 21
25.38926615341661
 31
0.0
  0
LINE
  5
207
330
203
100
AcDbEntity
  8
치수문자_일반주서
 62
     0
370
    -2
100
AcDbLine
 10
193.7339580216121
 20
0.010733846583568
 30
0.0
 11
213.5696629175692
 21
0.0107338465836406
 31
0.0
  0
LINE
  5
208
330
203
100
AcDbEntity
  8
치수문자_일반주서
 62
     0
370
    -2
100
AcDbLine
 10
213.5696629175692
 20
25.38926615341661
 30
0.0
 11
213.569662917569
 21
65.80306248061439
 31
0.0
  0
LINE
  5
209
330
203
100
AcDbEntity
  8
치수문자_일반주서
 62
     0
370
    -2
100
AcDbLine
 10
213.5696629175692
 20
22.08726615341661
 30
0.0
 11
213.5696629175692
 21
3.31273384658364
 31
0.0
  0
SOLID
  5
20A
330
203
100
AcDbEntity
  8
치수문자_일반주서
 62
     0
100
AcDbTrace
 10
214.1199962509025
 20
22.08726615341661
 30
0.0
 11
213.0193295842358
 21
22.0872661534166
 31
0.0
 12
213.5696629175692
 22
25.38926615341661
 32
0.0
 13
213.5696629175692
 23
25.38926615341661
 33
0.0
  0
SOLID
  5
20B
330
203
100
AcDbEntity
  8
치수문자_일반주서
 62
     0
100
AcDbTrace
 10
213.0193295842359
 20
3.312733846583638
 30
0.0
 11
214.1199962509026
 21
3.312733846583642
 31
0.0
 12
213.5696629175692
 22
0.0107338465836406
 32
0.0
 13
213.5696629175692
 23
0.0107338465836406
 33
0.0
  0
MTEXT
  5
20C
330
203
100
AcDbEntity
  8
치수문자_일반주서
 62
     0
100
AcDbMText
 10
209.1946629175691
 20
54.42806248061438
 30
0.0
 40
3.5
 41
0.0
 71
     2
 72
     1
  1
\A1;%%c25.38 [1]
  7
SLDTEXTSTYLE0
 11
-3.359734410971239E-15
 21
1.0
 31
0.0
 73
     1
 44
1.0
  0
POINT
  5
20D
330
203
100
AcDbEntity
  8
Defpoints
 62
     0
100
AcDbPoint
 10
193.6714580216121
 20
25.38926615341653
 30
0.0
  0
POINT
  5
20E
330
203
100
AcDbEntity
  8
Defpoints
 62
     0
100
AcDbPoint
 10
193.6714580216121
 20
0.0107338465835678
 30
0.0
  0
POINT
  5
20F
330
203
100
AcDbEntity
  8
Defpoints
 62
     0
100
AcDbPoint
 10
213.5696629175693
 20
0.0107338465836421
 30
0.0
  0
ENDBLK
  5
205
330
203
100
AcDbEntity
  8
0
100
AcDbBlockEnd
  0
BLOCK
  5
211
330
210
100
AcDbEntity
  8
0
100
AcDbBlockBegin
  2
*D11
 70
     1
 10
0.0
 20
0.0
 30
0.0
  3
*D11
  1
*D11
  0
LINE
  5
213
330
210
100
AcDbEntity
  8
치수문자_일반주서
 62
     0
370
    -2
100
AcDbLine
 10
193.6714580216121
 20
19.1071330767083
 30
0.0
 11
193.6714580216121
 21
38.58985722180214
 31
0.0
  0
LINE
  5
214
330
210
100
AcDbEntity
  8
치수문자_일반주서
 62
     0
370
    -2
100
AcDbLine
 10
165.0964580216121
 20
24.96250000000004
 30
0.0
 11
165.0964580216121
 21
38.58985722180214
 31
0.0
  0
LINE
  5
215
330
210
100
AcDbEntity
  8
치수문자_일반주서
 62
     0
370
    -2
100
AcDbLine
 10
190.3694580216121
 20
38.58985722180214
 30
0.0
 11
168.3984580216121
 21
38.58985722180214
 31
0.0
  0
SOLID
  5
216
330
210
100
AcDbEntity
  8
치수문자_일반주서
 62
     0
100
AcDbTrace
 10
190.3694580216121
 20
38.03952388846881
 30
0.0
 11
190.3694580216121
 21
39.14019055513548
 31
0.0
 12
193.6714580216121
 22
38.58985722180214
 32
0.0
 13
193.6714580216121
 23
38.58985722180214
 33
0.0
  0
SOLID
  5
217
330
210
100
AcDbEntity
  8
치수문자_일반주서
 62
     0
100
AcDbTrace
 10
168.3984580216121
 20
39.14019055513548
 30
0.0
 11
168.3984580216121
 21
38.03952388846881
 31
0.0
 12
165.0964580216121
 22
38.58985722180214
 32
0.0
 13
165.0964580216121
 23
38.58985722180214
 33
0.0
  0
MTEXT
  5
218
330
210
100
AcDbEntity
  8
치수문자_일반주서
 62
     0
100
AcDbMText
 10
187.3968461212132
 20
42.96485722180214
 30
0.0
 40
3.5
 41
0.0
 71
     2
 72
     1
  1
\A1;28.58 [1 1/8]
  7
SLDTEXTSTYLE0
 73
     1
 44
1.0
  0
POINT
  5
219
330
210
100
AcDbEntity
  8
Defpoints
 62
     0
100
AcDbPoint
 10
193.6714580216121
 20
19.0446330767083
 30
0.0
  0
POINT
  5
21A
330
210
100
AcDbEntity
  8
Defpoints
 62
     0
100
AcDbPoint
 10
165.0964580216121
 20
24.90000000000004
 30
0.0
  0
POINT
  5
21B
330
210
100
AcDbEntity
  8
Defpoints
 62
     0
100
AcDbPoint
 10
165.0964580216121
 20
38.58985722180214
 30
0.0
  0
ENDBLK
  5
212
330
210
100
AcDbEntity
  8
0
100
AcDbBlockEnd
  0
BLOCK
  5
21D
330
21C
100
AcDbEntity
  8
0
100
AcDbBlockBegin
  2
*D12
 70
     1
 10
0.0
 20
0.0
 30
0.0
  3
*D12
  1
*D12
  0
LINE
  5
21F
330
21C
100
AcDbEntity
  8
치수문자_일반주서
 62
     0
370
    -2
100
AcDbLine
 10
193.6714580216121
 20
25.45176615341653
 30
0.0
 11
193.6714580216121
 21
50.40971330413173
 31
0.0
  0
LINE
  5
220
330
21C
100
AcDbEntity
  8
치수문자_일반주서
 62
     0
370
    -2
100
AcDbLine
 10
85.72145802161211
 20
24.96250000000004
 30
0.0
 11
85.72145802161211
 21
50.40971330413173
 31
0.0
  0
LINE
  5
221
330
21C
100
AcDbEntity
  8
치수문자_일반주서
 62
     0
370
    -2
100
AcDbLine
 10
190.3694580216121
 20
50.40971330413173
 30
0.0
 11
89.0234580216121
 21
50.40971330413173
 31
0.0
  0
SOLID
  5
222
330
21C
100
AcDbEntity
  8
치수문자_일반주서
 62
     0
100
AcDbTrace
 10
190.3694580216121
 20
49.8593799707984
 30
0.0
 11
190.3694580216121
 21
50.96004663746507
 31
0.0
 12
193.6714580216121
 22
50.40971330413173
 32
0.0
 13
193.6714580216121
 23
50.40971330413173
 33
0.0
  0
SOLID
  5
223
330
21C
100
AcDbEntity
  8
치수문자_일반주서
 62
     0
100
AcDbTrace
 10
89.0234580216121
 20
50.96004663746507
 30
0.0
 11
89.0234580216121
 21
49.8593799707984
 31
0.0
 12
85.72145802161211
 22
50.40971330413173
 32
0.0
 13
85.72145802161211
 23
50.40971330413173
 33
0.0
  0
MTEXT
  5
224
330
21C
100
AcDbEntity
  8
치수문자_일반주서
 62
     0
100
AcDbMText
 10
139.6964580216121
 20
54.78471330413173
 30
0.0
 40
3.5
 41
0.0
 71
     2
 72
     1
  1
\A1;107.95 [4 1/4]
  7
SLDTEXTSTYLE0
 73
     1
 44
1.0
  0
POINT
  5
225
330
21C
100
AcDbEntity
  8
Defpoints
 62
     0
100
AcDbPoint
 10
193.6714580216121
 20
25.38926615341653
 30
0.0
  0
POINT
  5
226
330
21C
100
AcDbEntity
  8
Defpoints
 62
     0
100
AcDbPoint
 10
85.72145802161211
 20
24.90000000000004
 30
0.0
  0
POINT
  5
227
330
21C
100
AcDbEntity
  8
Defpoints
 62
     0
100
AcDbPoint
 10
85.72145802161211
 20
50.40971330413173
 30
0.0
  0
ENDBLK
  5
21E
330
21C
100
AcDbEntity
  8
0
100
AcDbBlockEnd
  0
BLOCK
  5
229
330
228
100
AcDbEntity
  8
0
100
AcDbBlockBegin
  2
*D13
 70
     1
 10
0.0
 20
0.0
 30
0.0
  3
*D13
  1
*D13
  0
LINE
  5
22B
330
228
100
AcDbEntity
  8
치수문자_일반주서
 62
     0
370
    -2
100
AcDbLine
 10
193.6714580216121
 20
25.45176615341653
 30
0.0
 11
193.6714580216121
 21
69.58337891518222
 31
0.0
  0
LINE
  5
22C
330
228
100
AcDbEntity
  8
치수문자_일반주서
 62
     0
370
    -2
100
AcDbLine
 10
15.8714580216121
 20
24.46250000000003
 30
0.0
 11
15.8714580216121
 21
69.58337891518222
 31
0.0
  0
LINE
  5
22D
330
228
100
AcDbEntity
  8
치수문자_일반주서
 62
     0
370
    -2
100
AcDbLine
 10
190.3694580216121
 20
69.58337891518222
 30
0.0
 11
19.1734580216121
 21
69.58337891518222
 31
0.0
  0
SOLID
  5
22E
330
228
100
AcDbEntity
  8
치수문자_일반주서
 62
     0
100
AcDbTrace
 10
190.3694580216121
 20
69.0330455818489
 30
0.0
 11
190.3694580216121
 21
70.13371224851555
 31
0.0
 12
193.6714580216121
 22
69.58337891518222
 32
0.0
 13
193.6714580216121
 23
69.58337891518222
 33
0.0
  0
SOLID
  5
22F
330
228
100
AcDbEntity
  8
치수문자_일반주서
 62
     0
100
AcDbTrace
 10
19.1734580216121
 20
70.13371224851555
 30
0.0
 11
19.1734580216121
 21
69.0330455818489
 31
0.0
 12
15.8714580216121
 22
69.58337891518222
 32
0.0
 13
15.8714580216121
 23
69.58337891518222
 33
0.0
  0
MTEXT
  5
230
330
228
100
AcDbEntity
  8
치수문자_일반주서
 62
     0
100
AcDbMText
 10
98.16640090221914
 20
73.95837891518222
 30
0.0
 40
3.5
 41
0.0
 71
     2
 72
     1
  1
\A1;177.80 [7]
  7
SLDTEXTSTYLE0
 73
     1
 44
1.0
  0
POINT
  5
231
330
228
100
AcDbEntity
  8
Defpoints
 62
     0
100
AcDbPoint
 10
193.6714580216121
 20
25.38926615341653
 30
0.0
  0
POINT
  5
232
330
228
100
AcDbEntity
  8
Defpoints
 62
     0
100
AcDbPoint
 10
15.8714580216121
 20
24.40000000000003
 30
0.0
  0
POINT
  5
233
330
228
100
AcDbEntity
  8
Defpoints
 62
     0
100
AcDbPoint
 10
15.8714580216121
 20
69.58337891518222
 30
0.0
  0
ENDBLK
  5
22A
330
228
100
AcDbEntity
  8
0
100
AcDbBlockEnd
  0
BLOCK
  5
267
330
266
100
AcDbEntity
  8
0
100
AcDbBlockBegin
  2
*D14
 70
     1
 10
0.0
 20
0.0
 30
0.0
  3
*D14
  1
*D14
  0
LINE
  5
269
330
266
100
AcDbEntity
  8
치수문자_일반주서
 62
     0
370
    -2
100
AcDbLine
 10
-66.41250000000001
 20
12.69999999999999
 30
0.0
 11
-78.84645802161212
 21
12.69999999999994
 31
0.0
  0
LINE
  5
26A
330
266
100
AcDbEntity
  8
치수문자_일반주서
 62
     0
370
    -2
100
AcDbLine
 10
-66.41250000000001
 20
-12.7
 30
0.0
 11
-78.84645802161204
 21
-12.70000000000005
 31
0.0
  0
LINE
  5
26B
330
266
100
AcDbEntity
  8
치수문자_일반주서
 62
     0
370
    -2
100
AcDbLine
 10
-78.84645802161211
 20
9.397999999999943
 30
0.0
 11
-78.84645802161205
 21
-9.398000000000046
 31
0.0
  0
SOLID
  5
26C
330
266
100
AcDbEntity
  8
치수문자_일반주서
 62
     0
100
AcDbTrace
 10
-78.29612468827878
 20
9.397999999999945
 30
0.0
 11
-79.39679135494544
 21
9.397999999999941
 31
0.0
 12
-78.84645802161212
 22
12.69999999999994
 32
0.0
 13
-78.84645802161212
 23
12.69999999999994
 33
0.0
  0
SOLID
  5
26D
330
266
100
AcDbEntity
  8
치수문자_일반주서
 62
     0
100
AcDbTrace
 10
-79.39679135494538
 20
-9.398000000000048
 30
0.0
 11
-78.29612468827872
 21
-9.398000000000044
 31
0.0
 12
-78.84645802161204
 22
-12.70000000000005
 32
0.0
 13
-78.84645802161204
 23
-12.70000000000005
 33
0.0
  0
MTEXT
  5
26E
330
266
100
AcDbEntity
  8
치수문자_일반주서
 62
     0
100
AcDbMText
 10
-83.22145802161208
 20
-0.0000000000000199
 30
0.0
 40
3.5
 41
0.0
 71
     2
 72
     1
  1
\A1;%%c25.40 [1]
  7
SLDTEXTSTYLE0
 11
-3.356894814614648E-15
 21
1.0
 31
0.0
 73
     1
 44
1.0
  0
POINT
  5
26F
330
266
100
AcDbEntity
  8
Defpoints
 62
     0
100
AcDbPoint
 10
-66.35000000000001
 20
12.69999999999999
 30
0.0
  0
POINT
  5
270
330
266
100
AcDbEntity
  8
Defpoints
 62
     0
100
AcDbPoint
 10
-66.35000000000001
 20
-12.7
 30
0.0
  0
POINT
  5
271
330
266
100
AcDbEntity
  8
Defpoints
 62
     0
100
AcDbPoint
 10
-78.84645802161204
 20
-12.70000000000005
 30
0.0
  0
ENDBLK
  5
268
330
266
100
AcDbEntity
  8
0
100
AcDbBlockEnd
  0
BLOCK
  5
273
330
272
100
AcDbEntity
  8
0
100
AcDbBlockBegin
  2
*D15
 70
     1
 10
0.0
 20
0.0
 30
0.0
  3
*D15
  1
*D15
  0
LINE
  5
275
330
272
100
AcDbEntity
  8
치수문자_일반주서
 62
     0
370
    -2
100
AcDbLine
 10
85.11250000000001
 20
12.68926615341649
 30
0.0
 11
104.9482048959571
 21
12.68926615341656
 31
0.0
  0
LINE
  5
276
330
272
100
AcDbEntity
  8
치수문자_일반주서
 62
     0
370
    -2
100
AcDbLine
 10
85.11250000000001
 20
-12.68926615341648
 30
0.0
 11
104.9482048959571
 21
-12.6892661534164
 31
0.0
  0
LINE
  5
277
330
272
100
AcDbEntity
  8
치수문자_일반주서
 62
     0
370
    -2
100
AcDbLine
 10
104.9482048959571
 20
12.68926615341656
 30
0.0
 11
104.9482048959569
 21
53.10306248061435
 31
0.0
  0
LINE
  5
278
330
272
100
AcDbEntity
  8
치수문자_일반주서
 62
     0
370
    -2
100
AcDbLine
 10
104.9482048959571
 20
9.387266153416558
 30
0.0
 11
104.9482048959571
 21
-9.387266153416405
 31
0.0
  0
SOLID
  5
279
330
272
100
AcDbEntity
  8
치수문자_일반주서
 62
     0
100
AcDbTrace
 10
105.4985382292904
 20
9.38726615341656
 30
0.0
 11
104.3978715626237
 21
9.387266153416556
 31
0.0
 12
104.9482048959571
 22
12.68926615341656
 32
0.0
 13
104.9482048959571
 23
12.68926615341656
 33
0.0
  0
SOLID
  5
27A
330
272
100
AcDbEntity
  8
치수문자_일반주서
 62
     0
100
AcDbTrace
 10
104.3978715626238
 20
-9.387266153416407
 30
0.0
 11
105.4985382292905
 21
-9.387266153416403
 31
0.0
 12
104.9482048959571
 22
-12.6892661534164
 32
0.0
 13
104.9482048959571
 23
-12.6892661534164
 33
0.0
  0
MTEXT
  5
27B
330
272
100
AcDbEntity
  8
치수문자_일반주서
 62
     0
100
AcDbMText
 10
100.573204895957
 20
41.72806248061433
 30
0.0
 40
3.5
 41
0.0
 71
     2
 72
     1
  1
\A1;%%c25.38 [1]
  7
SLDTEXTSTYLE0
 11
-3.359734410971240E-15
 21
1.0
 31
0.0
 73
     1
 44
1.0
  0
POINT
  5
27C
330
272
100
AcDbEntity
  8
Defpoints
 62
     0
100
AcDbPoint
 10
85.05000000000001
 20
12.68926615341649
 30
0.0
  0
POINT
  5
27D
330
272
100
AcDbEntity
  8
Defpoints
 62
     0
100
AcDbPoint
 10
85.05000000000001
 20
-12.68926615341648
 30
0.0
  0
POINT
  5
27E
330
272
100
AcDbEntity
  8
Defpoints
 62
     0
100
AcDbPoint
 10
104.9482048959571
 20
-12.6892661534164
 30
0.0
  0
ENDBLK
  5
274
330
272
100
AcDbEntity
  8
0
100
AcDbBlockEnd
  0
BLOCK
  5
280
330
27F
100
AcDbEntity
  8
0
100
AcDbBlockBegin
  2
*D16
 70
     1
 10
0.0
 20
0.0
 30
0.0
  3
*D16
  1
*D16
  0
LINE
  5
282
330
27F
100
AcDbEntity
  8
치수문자_일반주서
 62
     0
370
    -2
100
AcDbLine
 10
85.05000000000001
 20
6.407133076708252
 30
0.0
 11
85.05000000000001
 21
25.8898572218021
 31
0.0
  0
LINE
  5
283
330
27F
100
AcDbEntity
  8
치수문자_일반주서
 62
     0
370
    -2
100
AcDbLine
 10
56.475
 20
12.2625
 30
0.0
 11
56.475
 21
25.8898572218021
 31
0.0
  0
LINE
  5
284
330
27F
100
AcDbEntity
  8
치수문자_일반주서
 62
     0
370
    -2
100
AcDbLine
 10
81.74800000000002
 20
25.8898572218021
 30
0.0
 11
59.777
 21
25.8898572218021
 31
0.0
  0
SOLID
  5
285
330
27F
100
AcDbEntity
  8
치수문자_일반주서
 62
     0
100
AcDbTrace
 10
81.74800000000002
 20
25.33952388846876
 30
0.0
 11
81.74800000000002
 21
26.44019055513543
 31
0.0
 12
85.05000000000001
 22
25.8898572218021
 32
0.0
 13
85.05000000000001
 23
25.8898572218021
 33
0.0
  0
SOLID
  5
286
330
27F
100
AcDbEntity
  8
치수문자_일반주서
 62
     0
100
AcDbTrace
 10
59.777
 20
26.44019055513543
 30
0.0
 11
59.777
 21
25.33952388846876
 31
0.0
 12
56.475
 22
25.8898572218021
 32
0.0
 13
56.475
 23
25.8898572218021
 33
0.0
  0
MTEXT
  5
287
330
27F
100
AcDbEntity
  8
치수문자_일반주서
 62
     0
100
AcDbMText
 10
78.77538809960109
 20
30.2648572218021
 30
0.0
 40
3.5
 41
0.0
 71
     2
 72
     1
  1
\A1;28.58 [1 1/8]
  7
SLDTEXTSTYLE0
 73
     1
 44
1.0
  0
POINT
  5
288
330
27F
100
AcDbEntity
  8
Defpoints
 62
     0
100
AcDbPoint
 10
85.05000000000001
 20
6.344633076708252
 30
0.0
  0
POINT
  5
289
330
27F
100
AcDbEntity
  8
Defpoints
 62
     0
100
AcDbPoint
 10
56.475
 20
12.2
 30
0.0
  0
POINT
  5
28A
330
27F
100
AcDbEntity
  8
Defpoints
 62
     0
100
AcDbPoint
 10
56.475
 20
25.8898572218021
 30
0.0
  0
ENDBLK
  5
281
330
27F
100
AcDbEntity
  8
0
100
AcDbBlockEnd
  0
BLOCK
  5
28C
330
28B
100
AcDbEntity
  8
0
100
AcDbBlockBegin
  2
*D17
 70
     1
 10
0.0
 20
0.0
 30
0.0
  3
*D17
  1
*D17
  0
LINE
  5
28E
330
28B
100
AcDbEntity
  8
치수문자_일반주서
 62
     0
370
    -2
100
AcDbLine
 10
85.05000000000001
 20
12.75176615341649
 30
0.0
 11
85.05000000000001
 21
37.70971330413169
 31
0.0
  0
LINE
  5
28F
330
28B
100
AcDbEntity
  8
치수문자_일반주서
 62
     0
370
    -2
100
AcDbLine
 10
2.5
 20
12.2625
 30
0.0
 11
2.5
 21
37.70971330413169
 31
0.0
  0
LINE
  5
290
330
28B
100
AcDbEntity
  8
치수문자_일반주서
 62
     0
370
    -2
100
AcDbLine
 10
81.74800000000002
 20
37.70971330413169
 30
0.0
 11
5.802
 21
37.70971330413169
 31
0.0
  0
SOLID
  5
291
330
28B
100
AcDbEntity
  8
치수문자_일반주서
 62
     0
100
AcDbTrace
 10
81.74800000000002
 20
37.15937997079835
 30
0.0
 11
81.74800000000002
 21
38.26004663746502
 31
0.0
 12
85.05000000000001
 22
37.70971330413169
 32
0.0
 13
85.05000000000001
 23
37.70971330413169
 33
0.0
  0
SOLID
  5
292
330
28B
100
AcDbEntity
  8
치수문자_일반주서
 62
     0
100
AcDbTrace
 10
5.802
 20
38.26004663746502
 30
0.0
 11
5.802
 21
37.15937997079835
 31
0.0
 12
2.5
 22
37.70971330413169
 32
0.0
 13
2.5
 23
37.70971330413169
 33
0.0
  0
MTEXT
  5
293
330
28B
100
AcDbEntity
  8
치수문자_일반주서
 62
     0
100
AcDbMText
 10
43.77500000000001
 20
42.08471330413169
 30
0.0
 40
3.5
 41
0.0
 71
     2
 72
     1
  1
\A1;82.55 [3 1/4]
  7
SLDTEXTSTYLE0
 73
     1
 44
1.0
  0
POINT
  5
294
330
28B
100
AcDbEntity
  8
Defpoints
 62
     0
100
AcDbPoint
 10
85.05000000000001
 20
12.68926615341649
 30
0.0
  0
POINT
  5
295
330
28B
100
AcDbEntity
  8
Defpoints
 62
     0
100
AcDbPoint
 10
2.5
 20
12.2
 30
0.0
  0
POINT
  5
296
330
28B
100
AcDbEntity
  8
Defpoints
 62
     0
100
AcDbPoint
 10
2.5
 20
37.70971330413169
 30
0.0
  0
ENDBLK
  5
28D
330
28B
100
AcDbEntity
  8
0
100
AcDbBlockEnd
  0
BLOCK
  5
298
330
297
100
AcDbEntity
  8
0
100
AcDbBlockBegin
  2
*D18
 70
     1
 10
0.0
 20
0.0
 30
0.0
  3
*D18
  1
*D18
  0
LINE
  5
29A
330
297
100
AcDbEntity
  8
치수문자_일반주서
 62
     0
370
    -2
100
AcDbLine
 10
85.05000000000001
 20
12.75176615341649
 30
0.0
 11
85.05000000000004
 21
56.88337891518217
 31
0.0
  0
LINE
  5
29B
330
297
100
AcDbEntity
  8
치수문자_일반주서
 62
     0
370
    -2
100
AcDbLine
 10
-67.35000000000001
 20
11.76249999999999
 30
0.0
 11
-67.35
 21
56.88337891518217
 31
0.0
  0
LINE
  5
29C
330
297
100
AcDbEntity
  8
치수문자_일반주서
 62
     0
370
    -2
100
AcDbLine
 10
81.74800000000005
 20
56.88337891518217
 30
0.0
 11
-64.048
 21
56.88337891518217
 31
0.0
  0
SOLID
  5
29D
330
297
100
AcDbEntity
  8
치수문자_일반주서
 62
     0
100
AcDbTrace
 10
81.74800000000005
 20
56.33304558184884
 30
0.0
 11
81.74800000000005
 21
57.4337122485155
 31
0.0
 12
85.05000000000004
 22
56.88337891518217
 32
0.0
 13
85.05000000000004
 23
56.88337891518217
 33
0.0
  0
SOLID
  5
29E
330
297
100
AcDbEntity
  8
치수문자_일반주서
 62
     0
100
AcDbTrace
 10
-64.048
 20
57.4337122485155
 30
0.0
 11
-64.048
 21
56.33304558184884
 31
0.0
 12
-67.35
 22
56.88337891518217
 32
0.0
 13
-67.35
 23
56.88337891518217
 33
0.0
  0
MTEXT
  5
29F
330
297
100
AcDbEntity
  8
치수문자_일반주서
 62
     0
100
AcDbMText
 10
8.850000000000001
 20
61.25837891518217
 30
0.0
 40
3.5
 41
0.0
 71
     2
 72
     1
  1
\A1;152.40 [6]
  7
SLDTEXTSTYLE0
 73
     1
 44
1.0
  0
POINT
  5
2A0
330
297
100
AcDbEntity
  8
Defpoints
 62
     0
100
AcDbPoint
 10
85.05000000000001
 20
12.68926615341649
 30
0.0
  0
POINT
  5
2A1
330
297
100
AcDbEntity
  8
Defpoints
 62
     0
100
AcDbPoint
 10
-67.35000000000001
 20
11.69999999999999
 30
0.0
  0
POINT
  5
2A2
330
297
100
AcDbEntity
  8
Defpoints
 62
     0
100
AcDbPoint
 10
-67.35000000000001
 20
56.88337891518217
 30
0.0
  0
ENDBLK
  5
299
330
297
100
AcDbEntity
  8
0
100
AcDbBlockEnd
  0
ENDSEC
  0
SECTION
  2
ENTITIES
  0
INSERT
  5
BF
330
1F
100
AcDbEntity
  8
0
  6
Continuous
 62
     7
100
AcDbBlockReference
 66
     1
  2
블럭10
 10
-22.93944368806589
 20
-52.04609937292004
 30
0.0
  0
ATTRIB
  5
C0
330
BF
100
AcDbEntity
  8
FORMAT
 62
     2
100
AcDbText
 10
-32.12073897680717
 20
-49.97073246008785
 30
0.0
 40
4.233333333333333
  1
E5976907 [ 2 FLUTE ]
 41
0.75
  7
SLDTEXTSTYLE0
 11
-32.12073897680717
 21
-52.08739912675452
 31
0.0
100
AcDbAttribute
  2
AUTOATTR0
 70
     0
 74
     1
  0
SEQEND
  5
C1
330
BF
100
AcDbEntity
  8
0
  6
Continuous
 62
     7
  0
HATCH
  5
C2
330
1F
100
AcDbEntity
  8
중심선
100
AcDbHatch
 10
0.0
 20
0.0
 30
0.0
210
0.0
220
0.0
230
1.0
  2
SOLID
 70
     1
 71
     0
 91
        1
 92
        0
 93
        4
 72
     1
 10
-17.22453438368504
 20
-35.7989250712761
 11
-20.67080962752232
 21
-35.7989250712761
 72
     1
 10
-20.67080962752232
 20
-35.7989250712761
 11
-22.79903948672635
 21
-38.3352506518487
 72
     1
 10
-22.79903948672635
 20
-38.3352506518487
 11
-19.35273115777591
 21
-38.33521122254621
 72
     1
 10
-19.35273115777591
 20
-38.33521122254621
 11
-17.22453438368504
 21
-35.7989250712761
 97
        0
 75
     0
 76
     1
 98
        1
 10
0.0
 20
0.0
  0
HATCH
  5
C3
330
1F
100
AcDbEntity
  8
중심선
100
AcDbHatch
 10
0.0
 20
0.0
 30
0.0
210
0.0
220
0.0
230
1.0
  2
SOLID
 70
     1
 71
     0
 91
        1
 92
        0
 93
        4
 72
     1
 10
-12.21177039264909
 20
-35.7989250712761
 11
-15.65804563648637
 21
-35.7989250712761
 72
     1
 10
-15.65804563648637
 20
-35.7989250712761
 11
-20.18918364484376
 21
-41.19892507127612
 72
     1
 10
-20.18918364484376
 20
-41.19892507127612
 11
-16.74290840100648
 21
-41.19892507127612
 72
     1
 10
-16.74290840100648
 20
-41.19892507127612
 11
-12.21177039264909
 21
-35.7989250712761
 97
        0
 75
     0
 76
     1
 98
        1
 10
0.0
 20
0.0
  0
HATCH
  5
C4
330
1F
100
AcDbEntity
  8
중심선
100
AcDbHatch
 10
0.0
 20
0.0
 30
0.0
210
0.0
220
0.0
230
1.0
  2
SOLID
 70
     1
 71
     0
 91
        1
 92
        0
 93
        4
 72
     1
 10
-7.199006401613195
 20
-35.79892507127613
 11
-10.64528164545031
 21
-35.7989250712761
 72
     1
 10
-10.64528164545031
 20
-35.7989250712761
 11
-17.69371854733956
 21
-44.19892507127612
 72
     1
 10
-17.69371854733956
 20
-44.19892507127612
 11
-14.24744330350228
 21
-44.19892507127612
 72
     1
 10
-14.24744330350228
 20
-44.19892507127612
 11
-7.199006401613195
 21
-35.79892507127613
 97
        0
 75
     0
 76
     1
 98
        1
 10
0.0
 20
0.0
  0
HATCH
  5
C5
330
1F
100
AcDbEntity
  8
중심선
100
AcDbHatch
 10
0.0
 20
0.0
 30
0.0
210
0.0
220
0.0
230
1.0
  2
SOLID
 70
     1
 71
     0
 91
        1
 92
        0
 93
        6
 72
     3
 10
-2.399115970600996
 20
-39.99892507132738
 11
3.960054785062284
 21
1.540850780301639E-10
 40
0.3939339440162633
 50
17.09539180608433
 51
320.0019657685079
 73
     0
 72
     1
 10
-0.7161163149004002
 20
-38.58681907591441
 11
1.589185558800638
 21
-36.65249236586649
 72
     3
 10
-2.399115970653842
 20
-39.99892507127625
 11
6.600054785286829
 21
-1.249000902703301E-13
 40
0.6363583540795982
 50
39.99873849337408
 51
368.4976242363725
 73
     1
 72
     1
 10
4.026216521246767
 20
-39.03892507120613
 11
-3.71904866381792
 21
-39.0389250712061
 72
     1
 10
-3.71904866381792
 20
-39.0389250712061
 11
-3.719073708263854
 21
-40.95892507120602
 72
     1
 10
-3.719073708263854
 20
-40.95892507120602
 11
0.7223060612081831
 21
-40.95892507120599
 97
        0
 75
     0
 76
     1
 98
        1
 10
0.0
 20
0.0
  0
LINE
  5
235
330
1F
100
AcDbEntity
  8
0
  6
Continuous
 62
     4
370
    25
100
AcDbLine
 10
2.0
 20
-12.7
 30
0.0
 11
2.5
 21
-12.2
 31
0.0
  0
LINE
  5
236
330
1F
100
AcDbEntity
  8
0
  6
Continuous
 62
     4
370
    25
100
AcDbLine
 10
2.5
 20
12.2
 30
0.0
 11
2.0
 21
12.7
 31
0.0
  0
LINE
  5
237
330
1F
100
AcDbEntity
  8
0
  6
Continuous
 62
     4
370
    25
100
AcDbLine
 10
1.999999999999993
 20
12.7
 30
0.0
 11
-66.41250000000001
 21
12.69999999999999
 31
0.0
  0
LINE
  5
238
330
1F
100
AcDbEntity
  8
0
  6
Continuous
 62
     4
370
    25
100
AcDbLine
 10
-66.41250000000001
 20
-12.7
 30
0.0
 11
2.0
 21
-12.7
 31
0.0
  0
LINE
  5
239
330
1F
100
AcDbEntity
  8
0
  6
Continuous
 62
     4
370
    25
100
AcDbLine
 10
-66.35000000000001
 20
12.69999999999999
 30
0.0
 11
-67.35000000000001
 21
11.69999999999999
 31
0.0
  0
LINE
  5
23A
330
1F
100
AcDbEntity
  8
0
  6
Continuous
 62
     4
370
    25
100
AcDbLine
 10
-67.35000000000001
 20
-11.7
 30
0.0
 11
-66.35000000000001
 21
-12.7
 31
0.0
  0
LINE
  5
23B
330
1F
100
AcDbEntity
  8
0
  6
Continuous
 62
     4
370
    25
100
AcDbLine
 10
56.475
 20
12.2
 30
0.0
 11
2.5
 21
12.2
 31
0.0
  0
LINE
  5
23C
330
1F
100
AcDbEntity
  8
0
  6
Continuous
 62
     4
370
    25
100
AcDbLine
 10
2.500000000000004
 20
-12.2
 30
0.0
 11
56.475
 21
-12.19999999999999
 31
0.0
  0
LINE
  5
23E
330
1F
100
AcDbEntity
  8
0
  6
Continuous
 62
     4
370
    25
100
AcDbLine
 10
2.0
 20
12.7
 30
0.0
 11
2.0
 21
-12.7
 31
0.0
  0
LINE
  5
23F
330
1F
100
AcDbEntity
  8
0
  6
Continuous
 62
     4
370
    25
100
AcDbLine
 10
-66.35000000000001
 20
12.69999999999999
 30
0.0
 11
-66.35000000000001
 21
-12.7
 31
0.0
  0
LINE
  5
241
330
1F
100
AcDbEntity
  8
0
  6
Continuous
 62
     4
370
    25
100
AcDbLine
 10
56.475
 20
-0.0000000000000018
 30
0.0
 11
56.475
 21
12.7
 31
0.0
  0
SPLINE
  5
242
330
1F
100
AcDbEntity
  8
0
  6
Continuous
 62
     1
370
    25
100
AcDbSpline
210
0.0
220
0.0
230
1.0
 70
    24
 71
     3
 72
    10
 73
     6
 74
     0
 42
0.000000001
 43
0.00000001
 40
0.0
 40
0.0
 40
0.0
 40
0.0
 40
0.5
 40
0.5
 40
1.0
 40
1.0
 40
1.0
 40
1.0
 10
85.05000000000001
 20
8.890000000000011
 30
0.0
 10
85.05000000000001
 20
9.428889661452896
 30
0.0
 10
85.05000000000001
 20
10.0551293546124
 30
0.0
 10
85.05000000000001
 20
11.36897854420288
 30
0.0
 10
85.05000000000001
 20
12.05323263467871
 30
0.0
 10
85.04999999999998
 20
12.68926615341649
 30
0.0
  0
LINE
  5
243
330
1F
100
AcDbEntity
  8
중심선
100
AcDbLine
 10
-74.35000000000001
 20
-0.0000000000000047
 30
0.0
 11
92.04999999999998
 21
0.0000000000000142
 31
0.0
  0
CIRCLE
  5
244
330
1F
100
AcDbEntity
  8
외형선
100
AcDbCircle
 10
0.0
 20
0.0
 30
0.0
 40
3.000000000000005
  0
DIMENSION
  5
245
330
1F
100
AcDbEntity
  8
치수문자_일반주서
100
AcDbDimension
  2
*D14
 10
-78.84645802161204
 20
-12.70000000000005
 30
0.0
 11
-78.84645802161208
 21
-0.0000000000000053
 31
0.0
 70
   160
  1
%%c<>
 71
     2
 42
25.39999999999999
 52
-270.0
  3
SLDDIMSTYLE0
100
AcDbAlignedDimension
 13
-66.35000000000001
 23
12.69999999999999
 33
0.0
 14
-66.35000000000001
 24
-12.7
 34
0.0
 50
90.0000000000002
100
AcDbRotatedDimension
1001
ACAD
1000
DSTYLE
1002
{
1070
   171
1070
     6
1070
   273
1070
     7
1002
}
  0
DIMENSION
  5
246
330
1F
100
AcDbEntity
  8
치수문자_일반주서
100
AcDbDimension
  2
*D15
 10
104.9482048959571
 20
-12.6892661534164
 30
0.0
 11
104.948204895957
 21
41.72806248061435
 31
0.0
 70
   160
  1
%%c<>
 71
     2
 42
25.37853230683297
 52
-270.0
  3
SLDDIMSTYLE1
100
AcDbAlignedDimension
 13
85.05000000000001
 23
12.68926615341649
 33
0.0
 14
85.05000000000001
 24
-12.68926615341648
 34
0.0
 50
90.0000000000002
100
AcDbRotatedDimension
1001
ACAD
1000
DSTYLE
1002
{
1070
   171
1070
     6
1070
   273
1070
     7
1002
}
  0
DIMENSION
  5
247
330
1F
100
AcDbEntity
  8
치수문자_일반주서
100
AcDbDimension
  2
*D16
 10
56.475
 20
25.8898572218021
 30
0.0
 11
78.77538809960109
 21
25.8898572218021
 31
0.0
 70
   160
  1
<>
 71
     2
 42
28.575
  3
SLDDIMSTYLE1
100
AcDbAlignedDimension
 13
85.05000000000001
 23
6.344633076708252
 33
0.0
 14
56.475
 24
12.2
 34
0.0
 50
0.0000000000000769
100
AcDbRotatedDimension
1001
ACAD
1000
DSTYLE
1002
{
1070
   171
1070
     6
1070
   273
1070
     7
1002
}
  0
DIMENSION
  5
248
330
1F
100
AcDbEntity
  8
치수문자_일반주서
100
AcDbDimension
  2
*D17
 10
2.5
 20
37.70971330413169
 30
0.0
 11
43.77500000000001
 21
37.70971330413169
 31
0.0
 70
   160
  1
<>
 71
     2
 42
82.55000000000001
  3
SLDDIMSTYLE1
100
AcDbAlignedDimension
 13
85.05000000000001
 23
12.68926615341649
 33
0.0
 14
2.5
 24
12.2
 34
0.0
 50
0.0000000000000075
100
AcDbRotatedDimension
1001
ACAD
1000
DSTYLE
1002
{
1070
   171
1070
     6
1070
   273
1070
     7
1002
}
  0
DIMENSION
  5
249
330
1F
100
AcDbEntity
  8
치수문자_일반주서
100
AcDbDimension
  2
*D18
 10
-67.35
 20
56.88337891518217
 30
0.0
 11
8.850000000000001
 21
56.88337891518217
 31
0.0
 70
   160
  1
<>
 71
     2
 42
152.4
  3
SLDDIMSTYLE2
100
AcDbAlignedDimension
 13
85.05000000000001
 23
12.68926615341649
 33
0.0
 14
-67.35000000000001
 24
11.69999999999999
 34
0.0
 50
0.0000000000000046
100
AcDbRotatedDimension
1001
ACAD
1000
DSTYLE
1002
{
1070
   171
1070
     6
1070
   273
1070
     7
1002
}
  0
INSERT
  5
24A
330
1F
100
AcDbEntity
  8
외형선
100
AcDbBlockReference
  2
SW_DOWELSYMBOL_0
 10
0.0
 20
0.0
 30
0.0
  0
SPLINE
  5
24B
330
1F
100
AcDbEntity
  8
0
  6
Continuous
 62
     4
370
    25
100
AcDbSpline
210
0.0
220
0.0
230
1.0
 70
     8
 71
     3
 72
    10
 73
     6
 74
     0
 42
0.000000001
 43
0.00000001
 40
0.0
 40
0.0
 40
0.0
 40
0.0
 40
0.4987269710619557
 40
0.6863040383831285
 40
0.9999999999999999
 40
0.9999999999999999
 40
0.9999999999999999
 40
0.9999999999999999
 10
66.05299968996385
 20
3.254418209138471
 30
0.0
 10
65.715214978035
 20
3.533770625901678
 30
0.0
 10
65.2503854714069
 20
3.918190765338771
 30
0.0
 10
64.5734543117137
 20
4.513740397823419
 30
0.0
 10
64.23310694999049
 20
4.822890724838199
 30
0.0
 10
64.0201180462274
 20
5.016356567839019
 30
0.0
  0
LINE
  5
24C
330
1F
100
AcDbEntity
  8
0
  6
Continuous
 62
     4
370
    25
100
AcDbLine
 10
61.97738622095643
 20
3.596744848719503
 30
0.0
 11
61.92032002774534
 21
3.651204590357324
 31
0.0
  0
SPLINE
  5
24D
330
1F
100
AcDbEntity
  8
0
  6
Continuous
 62
     1
370
    25
100
AcDbSpline
210
0.0
220
0.0
230
1.0
 70
     8
 71
     3
 72
    22
 73
    18
 74
     0
 42
0.000000001
 43
0.00000001
 40
0.0
 40
0.0
 40
0.0
 40
0.0
 40
0.0776125235301555
 40
0.1469931129901628
 40
0.2087898527191613
 40
0.2643859490375724
 40
0.3158527451146174
 40
0.3903254375177537
 40
0.4576113234425055
 40
0.5099808085563755
 40
0.5587420479740727
 40
0.6234310690308967
 40
0.7067207126028793
 40
0.7777671094719352
 40
0.8299407402256628
 40
0.9154321227552736
 40
1.0
 40
1.0
 40
1.0
 40
1.0
 10
63.62937739550154
 20
10.09190887895787
 30
0.0
 10
63.51335645340112
 20
10.08098652228796
 30
0.0
 10
63.29362027326312
 20
10.0603002833271
 30
0.0
 10
62.94497650616592
 20
10.02784528215109
 30
0.0
 10
62.60387154381764
 20
9.999664007060915
 30
0.0
 10
62.2666275713196
 20
9.977045680888267
 30
0.0
 10
61.878123328379
 20
9.957833895468085
 30
0.0
 10
61.4667724623073
 20
9.945958433463922
 30
0.0
 10
61.05384975923295
 20
9.934059704839854
 30
0.0
 10
60.68928735657227
 20
9.925553538262761
 30
0.0
 10
60.34791002423274
 20
9.920083624651024
 30
0.0
 10
59.93371607960166
 20
9.91710748643522
 30
0.0
 10
59.46971546630687
 20
9.91878249387294
 30
0.0
 10
59.03216945137834
 20
9.92574795887284
 30
0.0
 10
58.63407689277995
 20
9.937287693687214
 30
0.0
 10
58.20964630829571
 20
9.951972270730078
 30
0.0
 10
57.86222741943747
 20
9.97083774506612
 30
0.0
 10
57.68946130258826
 20
9.980219257839558
 30
0.0
  0
SPLINE
  5
24E
330
1F
100
AcDbEntity
  8
0
  6
Continuous
 62
     1
370
    25
100
AcDbSpline
210
0.0
220
0.0
230
1.0
 70
     8
 71
     3
 72
    31
 73
    27
 74
     0
 42
0.000000001
 43
0.00000001
 40
0.0
 40
0.0
 40
0.0
 40
0.0
 40
0.0526925210762584
 40
0.0956298990852593
 40
0.1311151165553702
 40
0.1610867558735584
 40
0.1861549788122759
 40
0.2110665372298627
 40
0.2472139692284248
 40
0.3075040553743928
 40
0.3504129134726401
 40
0.3916370016740214
 40
0.4405353730457618
 40
0.49548523966969
 40
0.5536965332040417
 40
0.5940376937970566
 40
0.6320279897283865
 40
0.6797139543672404
 40
0.7258509947832871
 40
0.7529328340457574
 40
0.7743396655554186
 40
0.7908019625350877
 40
0.8177893752860872
 40
0.8618353895014854
 40
0.9227118536197397
 40
1.0
 40
1.0
 40
1.0
 40
1.0
 10
82.34149091072999
 20
8.68851375715824
 30
0.0
 10
82.14700849076544
 20
8.659934848780019
 30
0.0
 10
81.7940488332051
 20
8.60806794113632
 30
0.0
 10
81.23678139040157
 20
8.539916482604816
 30
0.0
 10
80.72831803914073
 20
8.489552669458178
 30
0.0
 10
80.31017226016354
 20
8.45272613205757
 30
0.0
 10
79.95537979751225
 20
8.426026433706355
 30
0.0
 10
79.61149992066032
 20
8.404191497273452
 30
0.0
 10
79.09215553783343
 20
8.377507413687582
 30
0.0
 10
78.49530256976195
 20
8.359958670453619
 30
0.0
 10
77.87687945771569
 20
8.355862155992753
 30
0.0
 10
77.30760512713263
 20
8.362861424528113
 30
0.0
 10
76.6856622120834
 20
8.383020104286388
 30
0.0
 10
75.99104280779335
 20
8.42151101614548
 30
0.0
 10
75.33368281095318
 20
8.474371878596806
 30
0.0
 10
74.74812214821011
 20
8.534351483926415
 30
0.0
 10
74.20782063765216
 20
8.598666782004159
 30
0.0
 10
73.6443276137509
 20
8.675947396290852
 30
0.0
 10
73.12538883950432
 20
8.757387353656434
 30
0.0
 10
72.71917776112821
 20
8.827473739102594
 30
0.0
 10
72.44096217819288
 20
8.87837097136531
 30
0.0
 10
72.16447799464657
 20
8.930966264149014
 30
0.0
 10
71.7916210293211
 20
9.005002897764456
 30
0.0
 10
71.22749874098201
 20
9.124961185193207
 30
0.0
 10
70.44606661506106
 20
9.305616935636259
 30
0.0
 10
69.8503556989692
 20
9.463682235136368
 30
0.0
 10
69.51711991364687
 20
9.552102663213606
 30
0.0
  0
SPLINE
  5
24F
330
1F
100
AcDbEntity
  8
0
  6
Continuous
 62
     1
370
    25
100
AcDbSpline
210
0.0
220
0.0
230
1.0
 70
     8
 71
     3
 72
    19
 73
    15
 74
     0
 42
0.000000001
 43
0.00000001
 40
0.0
 40
0.0
 40
0.0
 40
0.0
 40
0.124006439460684
 40
0.2254223741959
 40
0.3041346064352652
 40
0.3938818921644291
 40
0.4799151652543468
 40
0.5942314691757756
 40
0.6833864554963528
 40
0.7414757782972392
 40
0.8054813511872649
 40
0.9009274926147951
 40
0.996161655378817
 40
1.0
 40
1.0
 40
1.0
 40
1.0
 10
69.51711991364687
 20
-9.552102663213596
 30
0.0
 10
69.74470224306816
 20
-9.491179349859884
 30
0.0
 10
70.15840776712241
 20
-9.380431246779082
 30
0.0
 10
70.71323553906433
 20
-9.244570239293076
 30
0.0
 10
71.20491575340503
 20
-9.131029542409522
 30
0.0
 10
71.66079939799877
 20
-9.032171759440864
 30
0.0
 10
72.18233963341092
 20
-8.926410757005002
 30
0.0
 10
72.70732133740029
 20
-8.828436796879437
 30
0.0
 10
73.1803939239461
 20
-8.748765336360137
 30
0.0
 10
73.56390841287953
 20
-8.689270844940225
 30
0.0
 10
73.96002880633273
 20
-8.632036481922725
 30
0.0
 10
74.42382988015464
 20
-8.572349606893304
 30
0.0
 10
74.77829528604843
 20
-8.53083506028051
 30
0.0
 10
74.95744083814748
 20
-8.513399328882123
 30
0.0
 10
74.96438143533692
 20
-8.512723820130041
 30
0.0
  0
SPLINE
  5
250
330
1F
100
AcDbEntity
  8
0
  6
Continuous
 62
     1
370
    25
100
AcDbSpline
210
0.0
220
0.0
230
1.0
 70
     8
 71
     3
 72
    17
 73
    13
 74
     0
 42
0.000000001
 43
0.00000001
 40
0.0
 40
0.0
 40
0.0
 40
0.0
 40
0.1082318990136187
 40
0.2164094634059733
 40
0.3245618647384967
 40
0.4327184071432382
 40
0.5409083729200805
 40
0.6491542256225767
 40
0.7573678339771859
 40
0.8655353255679665
 40
0.973685924998177
 40
1.0
 40
1.0
 40
1.0
 40
1.0
 10
85.04999999999995
 20
-10.01994775747634
 30
0.0
 10
84.36375932059201
 20
-9.777656179431808
 30
0.0
 10
82.99162246859663
 20
-9.293194658657747
 30
0.0
 10
80.93431366414214
 20
-8.252623377631409
 30
0.0
 10
78.87762894915394
 20
-7.014880997010394
 30
0.0
 10
76.82083108473932
 20
-5.588429424933935
 30
0.0
 10
74.76324889772644
 20
-4.016571348927791
 30
0.0
 10
72.70462549594981
 20
-2.340149862964715
 30
0.0
 10
70.64658124701529
 20
-0.6001598492448608
 30
0.0
 10
68.58949986964396
 20
1.14799606177543
 30
0.0
 10
67.05167521135047
 20
2.453544292302716
 30
0.0
 10
66.19935123458828
 20
3.130593111430038
 30
0.0
 10
66.03255562715378
 20
3.263088233153752
 30
0.0
  0
LINE
  5
251
330
1F
100
AcDbEntity
  8
0
  6
Continuous
 62
     1
370
    25
100
AcDbLine
 10
85.05000000000024
 20
-12.0515490392451
 30
0.0
 11
85.04999999999995
 21
-10.01994775747634
 31
0.0
  0
LINE
  5
252
330
1F
100
AcDbEntity
  8
0
  6
Continuous
 62
     1
370
    25
100
AcDbLine
 10
85.04999999999995
 20
-12.68926615341647
 30
0.0
 11
85.05000000000024
 21
-12.0515490392451
 31
0.0
  0
SPLINE
  5
253
330
1F
100
AcDbEntity
  8
0
  6
Continuous
 62
     1
370
    25
100
AcDbSpline
210
0.0
220
0.0
230
1.0
 70
     8
 71
     3
 72
    10
 73
     6
 74
     0
 42
0.000000001
 43
0.00000001
 40
0.0
 40
0.0
 40
0.0
 40
0.0
 40
0.5
 40
0.5
 40
1.0
 40
1.0
 40
1.0
 40
1.0
 10
85.04999999999995
 20
-3.393985414576463
 30
0.0
 10
84.20065312275193
 20
-2.724561678542315
 30
0.0
 10
83.35915908231561
 20
-2.03543445906827
 30
0.0
 10
81.69203266162776
 20
-0.6173816687384175
 30
0.0
 10
80.864802676068
 20
0.1128356661079764
 30
0.0
 10
80.05000000000081
 20
0.8629873872533409
 30
0.0
  0
LINE
  5
254
330
1F
100
AcDbEntity
  8
0
  6
Continuous
 62
     1
370
    25
100
AcDbLine
 10
80.04999999999998
 20
2.937719435296597
 30
0.0
 11
85.04999999999995
 21
0.0000000000000142
 31
0.0
  0
LINE
  5
255
330
1F
100
AcDbEntity
  8
0
  6
Continuous
 62
     1
370
    25
100
AcDbLine
 10
85.04999999999995
 20
0.0000000000000142
 30
0.0
 11
85.04999999999995
 21
-3.393985414576477
 31
0.0
  0
SPLINE
  5
256
330
1F
100
AcDbEntity
  8
0
  6
Continuous
 62
     1
370
    25
100
AcDbSpline
210
0.0
220
0.0
230
1.0
 70
     8
 71
     3
 72
    15
 73
    11
 74
     0
 42
0.000000001
 43
0.00000001
 40
0.0
 40
0.0
 40
0.0
 40
0.0
 40
0.1264842206190572
 40
0.2529070104188669
 40
0.3792987109396116
 40
0.5056899005766634
 40
0.6321111602222125
 40
0.7563448351925628
 40
0.8805652502640838
 40
1.0
 40
1.0
 40
1.0
 40
1.0
 10
80.04999999999998
 20
3.897494195119314
 30
0.0
 10
79.35755249430332
 20
4.398783342000932
 30
0.0
 10
77.9729937906119
 20
5.401118169798039
 30
0.0
 10
75.89698917848801
 20
6.733025870077064
 30
0.0
 10
73.82163991821267
 20
7.892790790220516
 30
0.0
 10
71.74629735138902
 20
8.83973272881753
 30
0.0
 10
69.6826443955025
 20
9.548900441239901
 30
0.0
 10
67.63032962475862
 20
9.998569472048437
 30
0.0
 10
65.61637300461814
 20
10.2062657952953
 30
0.0
 10
64.28286945286584
 20
10.12631867190345
 30
0.0
 10
63.62921344232593
 20
10.08713023655072
 30
0.0
  0
SPLINE
  5
257
330
1F
100
AcDbEntity
  8
0
  6
Continuous
 62
     1
370
    25
100
AcDbSpline
210
0.0
220
0.0
230
1.0
 70
    24
 71
     3
 72
     8
 73
     4
 74
     0
 42
0.000000001
 43
0.00000001
 40
0.0
 40
0.0
 40
0.0
 40
0.0
 40
1.0
 40
1.0
 40
1.0
 40
1.0
 10
80.04999999999998
 20
0.8629873872503637
 30
0.0
 10
80.04999999999998
 20
1.905823460394338
 30
0.0
 10
80.05000000000001
 20
2.928628269465776
 30
0.0
 10
80.05000000000001
 20
3.897494195119307
 30
0.0
  0
LINE
  5
258
330
1F
100
AcDbEntity
  8
0
  6
Continuous
 62
     1
370
    25
100
AcDbLine
 10
85.04999999999995
 20
-10.01994775747633
 30
0.0
 11
85.04999999999995
 21
-3.393985414576463
 31
0.0
  0
SPLINE
  5
259
330
1F
100
AcDbEntity
  8
0
  6
Continuous
 62
     1
370
    25
100
AcDbSpline
210
0.0
220
0.0
230
1.0
 70
     8
 71
     3
 72
     9
 73
     5
 74
     0
 42
0.000000001
 43
0.00000001
 40
0.0
 40
0.0
 40
0.0
 40
0.0
 40
0.7349479836058951
 40
1.0
 40
1.0
 40
1.0
 40
1.0
 10
85.04999999999995
 20
8.890000000000008
 30
0.0
 10
84.38576273676097
 20
8.880043799909195
 30
0.0
 10
83.48197460745683
 20
8.866496990729637
 30
0.0
 10
82.57844710023048
 20
8.7062466482285
 30
0.0
 10
82.33896531257258
 20
8.66377197182073
 30
0.0
  0
SPLINE
  5
25A
330
1F
100
AcDbEntity
  8
0
  6
Continuous
 62
     1
370
    25
100
AcDbSpline
210
0.0
220
0.0
230
1.0
 70
     8
 71
     3
 72
     8
 73
     4
 74
     0
 42
0.000000001
 43
0.00000001
 40
0.0
 40
0.0
 40
0.0
 40
0.0
 40
1.0
 40
1.0
 40
1.0
 40
1.0
 10
85.04999999999995
 20
8.890000000000008
 30
0.0
 10
83.39717930000381
 20
8.334905379337329
 30
0.0
 10
81.73061701313071
 20
7.850906917388425
 30
0.0
 10
80.04999999999973
 20
7.462923368370713
 30
0.0
  0
SPLINE
  5
25B
330
1F
100
AcDbEntity
  8
0
  6
Continuous
 62
     1
370
    25
100
AcDbSpline
210
0.0
220
0.0
230
1.0
 70
    24
 71
     3
 72
    10
 73
     6
 74
     0
 42
0.000000001
 43
0.00000001
 40
0.0
 40
0.0
 40
0.0
 40
0.0
 40
0.4999999999999998
 40
0.4999999999999998
 40
1.0
 40
1.0
 40
1.0
 40
1.0
 10
80.05000000000001
 20
3.897494195119311
 30
0.0
 10
80.05000000000001
 20
4.646987762107312
 30
0.0
 10
80.05000000000001
 20
5.342356506791141
 30
0.0
 10
80.04999999999998
 20
6.552348866570451
 30
0.0
 10
80.05000000000001
 20
7.066303210147879
 30
0.0
 10
80.04999999999998
 20
7.462923368370586
 30
0.0
  0
LINE
  5
25C
330
1F
100
AcDbEntity
  8
0
  6
Continuous
 62
     1
370
    25
100
AcDbLine
 10
85.04999999999995
 20
0.0000000000000142
 30
0.0
 11
85.04999999999995
 21
8.890000000000008
 31
0.0
  0
SPLINE
  5
25D
330
1F
100
AcDbEntity
  8
0
  6
Continuous
 62
     1
370
    25
100
AcDbSpline
210
0.0
220
0.0
230
1.0
 70
     8
 71
     3
 72
    13
 73
     9
 74
     0
 42
0.000000001
 43
0.00000001
 40
0.0
 40
0.0
 40
0.0
 40
0.0
 40
0.1499330389739077
 40
0.3198524034186461
 40
0.4899860877037371
 40
0.6600100445708555
 40
0.8299176519617614
 40
1.0
 40
1.0
 40
1.0
 40
1.0
 10
74.9656058674949
 20
8.513587648872772
 30
0.0
 10
75.4695999147522
 20
8.8790663049584
 30
0.0
 10
76.54477126075548
 20
9.658742534742213
 30
0.0
 10
78.19090017150418
 20
10.64511883736066
 30
0.0
 10
79.90668704322164
 20
11.4930284089502
 30
0.0
 10
81.62131300040062
 20
12.12400666830259
 30
0.0
 10
83.334772895877
 20
12.55204418488094
 30
0.0
 10
84.47806176437157
 20
12.64350982739702
 30
0.0
 10
85.04999999999998
 20
12.68926615341648
 30
0.0
  0
LINE
  5
25E
330
1F
100
AcDbEntity
  8
0
  6
Continuous
 62
     1
370
    25
100
AcDbLine
 10
85.04999999999995
 20
8.890000000000008
 30
0.0
 11
85.04999999999995
 21
12.68926615341648
 31
0.0
  0
SPLINE
  5
25F
330
1F
100
AcDbEntity
  8
0
  6
Continuous
 62
     1
370
    25
100
AcDbSpline
210
0.0
220
0.0
230
1.0
 70
     8
 71
     3
 72
    13
 73
     9
 74
     0
 42
0.000000001
 43
0.00000001
 40
0.0
 40
0.0
 40
0.0
 40
0.0
 40
0.0625946407219679
 40
0.1569924969167563
 40
0.2623388156634553
 40
0.3677000765767969
 40
0.4730993211420472
 40
0.5209893832840834
 40
0.5209893832840834
 40
0.5209893832840834
 40
0.5209893832840834
 10
66.83472754340602
 20
-1.207330908149885
 30
0.0
 10
66.41974737649383
 20
-0.9196803107970624
 30
0.0
 10
65.378943054861
 20
-0.1982290012735746
 30
0.0
 10
63.64059700505533
 20
1.024555530805962
 30
0.0
 10
61.61832454402384
 20
2.41838339429875
 30
0.0
 10
59.5232161121486
 20
3.797846051291728
 30
0.0
 10
57.80872233286403
 20
4.8417552862558
 30
0.0
 10
56.79248874609738
 20
5.411601675599123
 30
0.0
 10
56.475
 20
5.584419003111577
 30
0.0
  0
SPLINE
  5
260
330
1F
100
AcDbEntity
  8
0
  6
Continuous
 62
     1
370
    25
100
AcDbSpline
210
0.0
220
0.0
230
1.0
 70
     8
 71
     3
 72
    46
 73
    42
 74
     0
 42
0.000000001
 43
0.00000001
 40
0.0
 40
0.0
 40
0.0
 40
0.0
 40
0.0624999999999999
 40
0.0624999999999999
 40
0.1249999999999998
 40
0.1249999999999998
 40
0.1562499999999998
 40
0.1562499999999998
 40
0.1874999999999997
 40
0.1874999999999997
 40
0.2187499999999997
 40
0.2187499999999997
 40
0.2499999999999997
 40
0.2499999999999997
 40
0.2812499999999997
 40
0.2812499999999997
 40
0.3124999999999997
 40
0.3124999999999997
 40
0.3437499999999997
 40
0.3437499999999997
 40
0.3749999999999997
 40
0.3749999999999997
 40
0.4062499999999997
 40
0.4062499999999997
 40
0.4374999999999997
 40
0.4374999999999997
 40
0.4687499999999997
 40
0.4687499999999997
 40
0.4999999999999997
 40
0.4999999999999997
 40
0.5312499999999997
 40
0.5312499999999997
 40
0.5624999999999996
 40
0.5624999999999996
 40
0.5937499999999996
 40
0.5937499999999996
 40
0.6249999999999994
 40
0.6249999999999994
 40
0.6874999999999994
 40
0.6874999999999994
 40
0.7499853517838297
 40
0.7499853517838297
 40
0.7499853517838297
 40
0.7499853517838297
 10
85.04999999999998
 20
-12.68926615341647
 30
0.0
 10
84.26004996093207
 20
-12.65669020256161
 30
0.0
 10
83.45914704902322
 20
-12.5491973157508
 30
0.0
 10
81.87727900350382
 20
-12.18981256961707
 30
0.0
 10
81.07838516550777
 20
-11.93670068004285
 30
0.0
 10
79.89064563288113
 20
-11.45578103276306
 30
0.0
 10
79.49504915400536
 20
-11.27853822156858
 30
0.0
 10
78.69965331540061
 20
-10.89086737544915
 30
0.0
 10
78.30133770282504
 20
-10.68063647515689
 30
0.0
 10
77.5087110140046
 20
-10.23026094382006
 30
0.0
 10
77.11380317244505
 20
-9.990060174948766
 30
0.0
 10
76.31868769387029
 20
-9.480013314941374
 30
0.0
 10
75.9202639856091
 20
-9.210497293369286
 30
0.0
 10
75.12692927347214
 20
-8.646089966027617
 30
0.0
 10
74.73246427592241
 20
-8.351360867047397
 30
0.0
 10
73.93772243995727
 20
-7.736866909960078
 30
0.0
 10
73.5392376159212
 20
-7.417514499912322
 30
0.0
 10
72.7452874670729
 20
-6.75882638186328
 30
0.0
 10
72.35101934753948
 20
-6.419869849172294
 30
0.0
 10
71.55674429057524
 20
-5.722525147802891
 30
0.0
 10
71.1582453547544
 20
-5.364538426133151
 30
0.0
 10
70.36377259611447
 20
-4.634646635778807
 30
0.0
 10
69.969455311817
 20
-4.263283346205334
 30
0.0
 10
69.17573998773474
 20
-3.507589597215443
 30
0.0
 10
68.77727394967982
 20
-3.123529368823995
 30
0.0
 10
67.98237161241457
 20
-2.348025106309187
 30
0.0
 10
67.58775913974887
 20
-1.957193136555482
 30
0.0
 10
66.7946962837475
 20
-1.16969297194882
 30
0.0
 10
66.39631014004652
 20
-0.7730361768982021
 30
0.0
 10
65.60107142333334
 20
0.0208763973324295
 30
0.0
 10
65.20591785381873
 20
0.4175615156956454
 30
0.0
 10
64.41359994642224
 20
1.209220644264036
 30
0.0
 10
64.01534066218784
 20
1.60455584546704
 30
0.0
 10
63.21985889684192
 20
2.389017968456105
 30
0.0
 10
62.82391853297458
 20
2.777726205195616
 30
0.0
 10
62.03243776424751
 20
3.545766710469557
 30
0.0
 10
61.63435225463059
 20
3.92591137380311
 30
0.0
 10
60.44090517262004
 20
5.047131387525305
 30
0.0
 10
59.65117542635227
 20
5.767532964935679
 30
0.0
 10
58.05998686059861
 20
7.135899902989262
 30
0.0
 10
57.2704608966833
 20
7.780451262361876
 30
0.0
 10
56.47500000000003
 20
8.377368763492559
 30
0.0
  0
SPLINE
  5
261
330
1F
100
AcDbEntity
  8
0
  6
Continuous
 62
     1
370
    25
100
AcDbSpline
210
0.0
220
0.0
230
1.0
 70
     8
 71
     3
 72
    24
 73
    20
 74
     0
 42
0.000000001
 43
0.00000001
 40
0.0
 40
0.0
 40
0.0
 40
0.0
 40
0.0478812136045647
 40
0.0957132346048223
 40
0.1435780100345075
 40
0.191473675721242
 40
0.239309006550525
 40
0.2871606329627035
 40
0.3350634892567162
 40
0.3829054376534721
 40
0.4307472124994657
 40
0.4786499922102281
 40
0.5265018617342221
 40
0.5743370886833656
 40
0.6222325246812319
 40
0.670097612630384
 40
0.7179295994867326
 40
0.7658104328174288
 40
0.7976722241752661
 40
0.7976722241752661
 40
0.7976722241752661
 40
0.7976722241752661
 10
85.04999999999995
 20
-12.05154903924511
 30
0.0
 10
84.47806159666584
 20
-11.85009413063398
 30
0.0
 10
83.33477239288916
 20
-11.44739128585159
 30
0.0
 10
81.62131457600162
 20
-10.57553260743843
 30
0.0
 10
79.90668036755542
 20
-9.527258921165867
 30
0.0
 10
78.19092399936036
 20
-8.302206495830873
 30
0.0
 10
76.47734163419443
 20
-6.925816039649561
 30
0.0
 10
74.76317315077787
 20
-5.423295100078349
 30
0.0
 10
73.04715567121542
 20
-3.823745104587211
 30
0.0
 10
71.33333306517989
 20
-2.152759954517705
 30
0.0
 10
69.61951670202035
 20
-0.4425531558433349
 30
0.0
 10
67.90350200363838
 20
1.273756275256744
 30
0.0
 10
66.18932487459347
 20
2.96856291846327
 30
0.0
 10
64.47574633340565
 20
4.609699283736784
 30
0.0
 10
62.75999833047684
 20
6.165236453968944
 30
0.0
 10
61.04535299812188
 20
7.609562557885294
 30
0.0
 10
59.33189686853152
 20
8.915935709256665
 30
0.0
 10
57.80803627385226
 20
9.931646386721326
 30
0.0
 10
56.85551208938899
 20
10.48167289584087
 30
0.0
 10
56.47500000000003
 20
10.68719214404234
 30
0.0
  0
SPLINE
  5
262
330
1F
100
AcDbEntity
  8
0
  6
Continuous
 62
     1
370
    25
100
AcDbSpline
210
0.0
220
0.0
230
1.0
 70
     8
 71
     3
 72
     9
 73
     5
 74
     0
 42
0.000000001
 43
0.00000001
 40
0.0
 40
0.0
 40
0.0
 40
0.0
 40
0.0067186745882317
 40
0.1130054935212496
 40
0.1130054935212496
 40
0.1130054935212496
 40
0.1130054935212496
 10
57.68885186856011
 20
-9.980624335715817
 30
0.0
 10
57.6647971802637
 20
-9.996658832022717
 30
0.0
 10
57.26020667856034
 20
-10.26635282370667
 30
0.0
 10
56.85554054832213
 20
-10.49718000188915
 30
0.0
 10
56.47499999999997
 20
-10.69666102408429
 30
0.0
  0
LINE
  5
263
330
1F
100
AcDbEntity
  8
0
  6
Continuous
 62
     4
370
    25
100
AcDbLine
 10
56.475
 20
-12.19999999999999
 30
0.0
 11
56.475
 21
-0.0000000000000018
 31
0.0
  0
SPLINE
  5
264
330
1F
100
AcDbEntity
  8
0
  6
Continuous
 62
     1
370
    25
100
AcDbSpline
210
0.0
220
0.0
230
1.0
 70
     8
 71
     3
 72
    20
 73
    16
 74
     0
 42
0.000000001
 43
0.00000001
 40
0.3506858960706086
 40
0.3506858960706086
 40
0.3506858960706086
 40
0.3506858960706086
 40
0.3786547657003597
 40
0.4371109838498981
 40
0.5045841273056385
 40
0.5642139043905011
 40
0.6157926461516887
 40
0.6575529413634951
 40
0.6940531431825889
 40
0.7214497623407856
 40
0.7522004110423492
 40
0.7936505160126801
 40
0.8487813259558252
 40
0.917513195527216
 40
1.0
 40
1.0
 40
1.0
 40
1.0
 10
56.47500000000003
 20
-10.06415032692463
 30
0.0
 10
56.57799538813925
 20
-10.05541897338698
 30
0.0
 10
56.89628182418722
 20
-10.02961864601976
 30
0.0
 10
57.46289606137521
 20
-9.990205376089705
 30
0.0
 10
58.14486127089021
 20
-9.954385318071154
 30
0.0
 10
58.80163174178779
 20
-9.931484033003784
 30
0.0
 10
59.36636766433967
 20
-9.920461551139645
 30
0.0
 10
59.83860105483797
 20
-9.91731605087687
 30
0.0
 10
60.22399546342474
 20
-9.918817549481858
 30
0.0
 10
60.58506641224734
 20
-9.92358980169491
 30
0.0
 10
60.96949089725428
 20
-9.93139299498398
 30
0.0
 10
61.44869570359555
 20
-9.94622148864331
 30
0.0
 10
62.05399162176915
 20
-9.973895964262553
 30
0.0
 10
62.796265748662
 20
-10.01975580289139
 30
0.0
 10
63.33532901480914
 20
-10.06644231002942
 30
0.0
 10
63.62937739550154
 20
-10.09190887895786
 30
0.0
  0
SPLINE
  5
265
330
1F
100
AcDbEntity
  8
0
  6
Continuous
 62
     1
370
    25
100
AcDbSpline
210
0.0
220
0.0
230
1.0
 70
     8
 71
     3
 72
    14
 73
    10
 74
     0
 42
0.000000001
 43
0.00000001
 40
0.0
 40
0.0
 40
0.0
 40
0.0
 40
0.0836840937742233
 40
0.1740625462619166
 40
0.2643933180841418
 40
0.3547050282264018
 40
0.4468697127490633
 40
0.5390638817443963
 40
0.5779598647529264
 40
0.5779598647529264
 40
0.5779598647529264
 40
0.5779598647529264
 10
69.51925142033355
 20
-9.542915713872027
 30
0.0
 10
68.88959376691778
 20
-9.697686339685248
 30
0.0
 10
67.57990862265905
 20
-10.01960855931617
 30
0.0
 10
65.59053531125443
 20
-10.19259558384211
 30
0.0
 10
63.5518319233338
 20
-10.12892855266448
 30
0.0
 10
61.49983059983681
 20
-9.796838985488321
 30
0.0
 10
59.43362871832387
 20
-9.205976168732711
 30
0.0
 10
57.75407102431769
 20
-8.526418402591935
 30
0.0
 10
56.76767868798303
 20
-8.052105934252484
 30
0.0
 10
56.47499999999997
 20
-7.905092287647092
 30
0.0
  0
LINE
  5
2A3
330
1F
100
AcDbEntity
  8
0
  6
Continuous
 62
     4
370
    25
100
AcDbLine
 10
-67.35000000000001
 20
11.69999999999999
 30
0.0
 11
-67.35000000000001
 21
-11.7
 31
0.0
  0
LINE
  5
2A4
330
1F
100
AcDbEntity
  8
0
  6
Continuous
 62
     4
370
    25
100
AcDbLine
 10
2.5
 20
12.2
 30
0.0
 11
2.5
 21
-12.20000000000002
 31
0.0
  0
ENDSEC
  0
SECTION
  2
OBJECTS
  0
DICTIONARY
  5
C
330
0
100
AcDbDictionary
281
     1
  3
ACAD_GROUP
350
D
  3
ACAD_IMAGE_VARS
350
155
  3
ACAD_LAYOUT
350
1A
  3
ACAD_MLINESTYLE
350
17
  3
ACAD_PLOTSETTINGS
350
19
  3
ACAD_PLOTSTYLENAME
350
E
  3
ACAD_SCALELIST
350
47
  3
APPDATA
350
153
  3
DWGPROPS
350
2A6
  0
DICTIONARY
  5
D
102
{ACAD_REACTORS
330
C
102
}
330
C
100
AcDbDictionary
281
     1
  0
RASTERVARIABLES
  5
155
102
{ACAD_REACTORS
330
C
102
}
330
C
100
AcDbRasterVariables
 90
        0
 70
     1
 71
     1
 72
     1
  0
DICTIONARY
  5
1A
102
{ACAD_REACTORS
330
C
102
}
330
C
100
AcDbDictionary
281
     1
  3
Layout1
350
1E
  3
Layout2
350
26
  3
Model
350
22
  0
DICTIONARY
  5
17
102
{ACAD_REACTORS
330
C
102
}
330
C
100
AcDbDictionary
281
     1
  3
Standard
350
18
  0
DICTIONARY
  5
19
102
{ACAD_REACTORS
330
C
102
}
330
C
100
AcDbDictionary
281
     1
  0
ACDBDICTIONARYWDFLT
  5
E
102
{ACAD_REACTORS
330
C
102
}
330
C
100
AcDbDictionary
281
     1
  3
Normal
350
F
100
AcDbDictionaryWithDefault
340
F
  0
DICTIONARY
  5
47
102
{ACAD_REACTORS
330
C
102
}
330
C
100
AcDbDictionary
281
     1
  3
A0
350
48
  3
A1
350
49
  3
A2
350
4A
  3
A3
350
4B
  3
A4
350
4C
  3
A5
350
4D
  3
A6
350
4E
  3
A7
350
4F
  3
A8
350
50
  3
A9
350
51
  3
B0
350
52
  3
B1
350
53
  3
B2
350
54
  3
B3
350
55
  3
B4
350
56
  3
B5
350
57
  3
B6
350
58
  3
B7
350
59
  3
B8
350
5A
  3
B9
350
5B
  3
C0
350
5C
  3
C1
350
5D
  3
C2
350
5E
  3
C3
350
5F
  3
C4
350
60
  3
C5
350
61
  3
C6
350
62
  3
C7
350
63
  3
C8
350
64
  3
C9
350
65
  3
D0
350
66
  3
D1
350
67
  3
D2
350
68
  0
DICTIONARY
  5
153
102
{ACAD_REACTORS
330
C
102
}
330
C
100
AcDbDictionary
281
     1
  0
XRECORD
  5
2A6
102
{ACAD_REACTORS
330
C
102
}
330
C
100
AcDbXrecord
280
     1
  1
DWGPROPS COOKIE
  2

  3

  4

  6

  7

  8
12016016
  9

300
=
301
=
302
=
303
=
304
=
305
=
306
=
307
=
308
=
309
=
 40
0.0
 41
2458263.293919722
 42
2458274.422606134
  1

 90
        0
  0
LAYOUT
  5
1E
102
{ACAD_REACTORS
330
1A
102
}
330
1A
100
AcDbPlotSettings
  1

  2
none_device
  4

  6

 40
0.0
 41
0.0
 42
0.0
 43
0.0
 44
0.0
 45
0.0
 46
0.0
 47
0.0
 48
0.0
 49
0.0
140
0.0
141
0.0
142
1.0
143
1.0
 70
   688
 72
     1
 73
     0
 74
     5
  7

 75
    16
147
1.0
148
0.0
149
0.0
100
AcDbLayout
  1
Layout1
 70
     1
 71
     1
 10
0.0
 20
0.0
 11
420.0
 21
297.0
 12
0.0
 22
0.0
 32
0.0
 14
1.000000000000000E+20
 24
1.000000000000000E+20
 34
1.000000000000000E+20
 15
-1.000000000000000E+20
 25
-1.000000000000000E+20
 35
-1.000000000000000E+20
146
0.0
 13
0.0
 23
0.0
 33
0.0
 16
1.0
 26
0.0
 36
0.0
 17
0.0
 27
1.0
 37
0.0
 76
     0
330
1B
  0
LAYOUT
  5
26
102
{ACAD_REACTORS
330
1A
102
}
330
1A
100
AcDbPlotSettings
  1

  2
none_device
  4

  6

 40
0.0
 41
0.0
 42
0.0
 43
0.0
 44
0.0
 45
0.0
 46
0.0
 47
0.0
 48
0.0
 49
0.0
140
0.0
141
0.0
142
1.0
143
1.0
 70
   688
 72
     1
 73
     0
 74
     5
  7

 75
    16
147
1.0
148
0.0
149
0.0
100
AcDbLayout
  1
Layout2
 70
     1
 71
     2
 10
0.0
 20
0.0
 11
0.0
 21
0.0
 12
0.0
 22
0.0
 32
0.0
 14
0.0
 24
0.0
 34
0.0
 15
0.0
 25
0.0
 35
0.0
146
0.0
 13
0.0
 23
0.0
 33
0.0
 16
1.0
 26
0.0
 36
0.0
 17
0.0
 27
1.0
 37
0.0
 76
     0
330
23
  0
LAYOUT
  5
22
102
{ACAD_REACTORS
330
1A
102
}
330
1A
100
AcDbPlotSettings
  1

  2
none_device
  4
ANSI_A_(11.00_x_8.50_Inches)
  6

 40
6.35
 41
19.05
 42
6.35000508
 43
19.05000254
 44
279.4
 45
215.9
 46
132.6658534569754
 47
71.2224554452306
 48
0.0
 49
0.0
140
0.0
141
0.0
142
0.0504050455864131
143
1.0
 70
  1696
 72
     0
 73
     0
 74
     0
  7

 75
     0
147
0.0235690232323232
148
0.0
149
0.0
100
AcDbLayout
  1
Model
 70
     1
 71
     0
 10
0.0
 20
0.0
 11
420.0
 21
297.0
 12
0.0
 22
0.0
 32
0.0
 14
1.000000000000000E+20
 24
1.000000000000000E+20
 34
1.000000000000000E+20
 15
-1.000000000000000E+20
 25
-1.000000000000000E+20
 35
-1.000000000000000E+20
146
0.0
 13
0.0
 23
0.0
 33
0.0
 16
1.0
 26
0.0
 36
0.0
 17
0.0
 27
1.0
 37
0.0
 76
     0
330
1F
331
29
  0
MLINESTYLE
  5
18
102
{ACAD_REACTORS
330
17
102
}
330
17
100
AcDbMlineStyle
  2
Standard
 70
     0
  3

 62
   256
 51
90.0
 52
90.0
 71
     2
 49
0.5
 62
   256
  6
BYLAYER
 49
-0.5
 62
   256
  6
BYLAYER
  0
ACDBPLACEHOLDER
  5
F
102
{ACAD_REACTORS
330
E
102
}
330
E
  0
SCALE
  5
48
102
{ACAD_REACTORS
330
47
102
}
330
47
100
AcDbScale
 70
     0
300
1:1
140
1.0
141
1.0
290
     1
  0
SCALE
  5
49
102
{ACAD_REACTORS
330
47
102
}
330
47
100
AcDbScale
 70
     0
300
1:2
140
1.0
141
2.0
290
     0
  0
SCALE
  5
4A
102
{ACAD_REACTORS
330
47
102
}
330
47
100
AcDbScale
 70
     0
300
1:4
140
1.0
141
4.0
290
     0
  0
SCALE
  5
4B
102
{ACAD_REACTORS
330
47
102
}
330
47
100
AcDbScale
 70
     0
300
1:5
140
1.0
141
5.0
290
     0
  0
SCALE
  5
4C
102
{ACAD_REACTORS
330
47
102
}
330
47
100
AcDbScale
 70
     0
300
1:8
140
1.0
141
8.0
290
     0
  0
SCALE
  5
4D
102
{ACAD_REACTORS
330
47
102
}
330
47
100
AcDbScale
 70
     0
300
1:10
140
1.0
141
10.0
290
     0
  0
SCALE
  5
4E
102
{ACAD_REACTORS
330
47
102
}
330
47
100
AcDbScale
 70
     0
300
1:16
140
1.0
141
16.0
290
     0
  0
SCALE
  5
4F
102
{ACAD_REACTORS
330
47
102
}
330
47
100
AcDbScale
 70
     0
300
1:20
140
1.0
141
20.0
290
     0
  0
SCALE
  5
50
102
{ACAD_REACTORS
330
47
102
}
330
47
100
AcDbScale
 70
     0
300
1:30
140
1.0
141
30.0
290
     0
  0
SCALE
  5
51
102
{ACAD_REACTORS
330
47
102
}
330
47
100
AcDbScale
 70
     0
300
1:40
140
1.0
141
40.0
290
     0
  0
SCALE
  5
52
102
{ACAD_REACTORS
330
47
102
}
330
47
100
AcDbScale
 70
     0
300
1:50
140
1.0
141
50.0
290
     0
  0
SCALE
  5
53
102
{ACAD_REACTORS
330
47
102
}
330
47
100
AcDbScale
 70
     0
300
1:100
140
1.0
141
100.0
290
     0
  0
SCALE
  5
54
102
{ACAD_REACTORS
330
47
102
}
330
47
100
AcDbScale
 70
     0
300
2:1
140
2.0
141
1.0
290
     0
  0
SCALE
  5
55
102
{ACAD_REACTORS
330
47
102
}
330
47
100
AcDbScale
 70
     0
300
4:1
140
4.0
141
1.0
290
     0
  0
SCALE
  5
56
102
{ACAD_REACTORS
330
47
102
}
330
47
100
AcDbScale
 70
     0
300
8:1
140
8.0
141
1.0
290
     0
  0
SCALE
  5
57
102
{ACAD_REACTORS
330
47
102
}
330
47
100
AcDbScale
 70
     0
300
10:1
140
10.0
141
1.0
290
     0
  0
SCALE
  5
58
102
{ACAD_REACTORS
330
47
102
}
330
47
100
AcDbScale
 70
     0
300
100:1
140
100.0
141
1.0
290
     0
  0
SCALE
  5
59
102
{ACAD_REACTORS
330
47
102
}
330
47
100
AcDbScale
 70
     0
300
1/128" = 1'-0"
140
0.0078125
141
12.0
290
     0
  0
SCALE
  5
5A
102
{ACAD_REACTORS
330
47
102
}
330
47
100
AcDbScale
 70
     0
300
1/64" = 1'-0"
140
0.015625
141
12.0
290
     0
  0
SCALE
  5
5B
102
{ACAD_REACTORS
330
47
102
}
330
47
100
AcDbScale
 70
     0
300
1/32" = 1'-0"
140
0.03125
141
12.0
290
     0
  0
SCALE
  5
5C
102
{ACAD_REACTORS
330
47
102
}
330
47
100
AcDbScale
 70
     0
300
1/16" = 1'-0"
140
0.0625
141
12.0
290
     0
  0
SCALE
  5
5D
102
{ACAD_REACTORS
330
47
102
}
330
47
100
AcDbScale
 70
     0
300
3/32" = 1'-0"
140
0.09375
141
12.0
290
     0
  0
SCALE
  5
5E
102
{ACAD_REACTORS
330
47
102
}
330
47
100
AcDbScale
 70
     0
300
1/8" = 1'-0"
140
0.125
141
12.0
290
     0
  0
SCALE
  5
5F
102
{ACAD_REACTORS
330
47
102
}
330
47
100
AcDbScale
 70
     0
300
3/16" = 1'-0"
140
0.1875
141
12.0
290
     0
  0
SCALE
  5
60
102
{ACAD_REACTORS
330
47
102
}
330
47
100
AcDbScale
 70
     0
300
1/4" = 1'-0"
140
0.25
141
12.0
290
     0
  0
SCALE
  5
61
102
{ACAD_REACTORS
330
47
102
}
330
47
100
AcDbScale
 70
     0
300
3/8" = 1'-0"
140
0.375
141
12.0
290
     0
  0
SCALE
  5
62
102
{ACAD_REACTORS
330
47
102
}
330
47
100
AcDbScale
 70
     0
300
1/2" = 1'-0"
140
0.5
141
12.0
290
     0
  0
SCALE
  5
63
102
{ACAD_REACTORS
330
47
102
}
330
47
100
AcDbScale
 70
     0
300
3/4" = 1'-0"
140
0.75
141
12.0
290
     0
  0
SCALE
  5
64
102
{ACAD_REACTORS
330
47
102
}
330
47
100
AcDbScale
 70
     0
300
1" = 1'-0"
140
1.0
141
12.0
290
     0
  0
SCALE
  5
65
102
{ACAD_REACTORS
330
47
102
}
330
47
100
AcDbScale
 70
     0
300
1-1/2" = 1'-0"
140
1.5
141
12.0
290
     0
  0
SCALE
  5
66
102
{ACAD_REACTORS
330
47
102
}
330
47
100
AcDbScale
 70
     0
300
3" = 1'-0"
140
3.0
141
12.0
290
     0
  0
SCALE
  5
67
102
{ACAD_REACTORS
330
47
102
}
330
47
100
AcDbScale
 70
     0
300
6" = 1'-0"
140
6.0
141
12.0
290
     0
  0
SCALE
  5
68
102
{ACAD_REACTORS
330
47
102
}
330
47
100
AcDbScale
 70
     0
300
1'-0" = 1'-0"
140
12.0
141
12.0
290
     0
  0
ENDSEC
  0
EOF
