  0
SECTION
  2
HEADER
  9
$ACADVER
  1
AC1015
  9
$ACADMAINTVER
 70
     6
  9
$DWGCODEPAGE
  3
ANSI_949
  9
$INSBASE
 10
0.0
 20
0.0
 30
0.0
  9
$EXTMIN
 10
-84.71700000000004
 20
-49.9017130727328
 30
0.0
  9
$EXTMAX
 10
87.85957008771172
 20
51.32562537290535
 30
0.0
  9
$LIMMIN
 10
0.0
 20
0.0
  9
$LIMMAX
 10
420.0
 20
297.0
  9
$ORTHOMODE
 70
     0
  9
$REGENMODE
 70
     1
  9
$FILLMODE
 70
     1
  9
$QTEXTMODE
 70
     0
  9
$MIRRTEXT
 70
     1
  9
$LTSCALE
 40
1.0
  9
$ATTMODE
 70
     1
  9
$TEXTSIZE
 40
3.5
  9
$TRACEWID
 40
1.0
  9
$TEXTSTYLE
  7
Standard
  9
$CLAYER
  8
0
  9
$CELTYPE
  6
ByLayer
  9
$CECOLOR
 62
   256
  9
$CELTSCALE
 40
1.0
  9
$DISPSILH
 70
     0
  9
$DIMSCALE
 40
1.0
  9
$DIMASZ
 40
3.302
  9
$DIMEXO
 40
1.0
  9
$DIMDLI
 40
3.75
  9
$DIMRND
 40
0.0
  9
$DIMDLE
 40
0.0
  9
$DIMEXE
 40
1.0
  9
$DIMTP
 40
0.0
  9
$DIMTM
 40
0.0
  9
$DIMTXT
 40
3.5
  9
$DIMCEN
 40
2.5
  9
$DIMTSZ
 40
0.0
  9
$DIMTOL
 70
     0
  9
$DIMLIM
 70
     0
  9
$DIMTIH
 70
     1
  9
$DIMTOH
 70
     1
  9
$DIMSE1
 70
     0
  9
$DIMSE2
 70
     0
  9
$DIMTAD
 70
     1
  9
$DIMZIN
 70
     0
  9
$DIMBLK
  1

  9
$DIMASO
 70
     1
  9
$DIMSHO
 70
     1
  9
$DIMPOST
  1

  9
$DIMAPOST
  1

  9
$DIMALT
 70
     0
  9
$DIMALTD
 70
     3
  9
$DIMALTF
 40
0.0393700787401575
  9
$DIMLFAC
 40
1.0
  9
$DIMTOFL
 70
     1
  9
$DIMTVP
 40
0.0
  9
$DIMTIX
 70
     0
  9
$DIMSOXD
 70
     0
  9
$DIMSAH
 70
     0
  9
$DIMBLK1
  1

  9
$DIMBLK2
  1

  9
$DIMSTYLE
  2
ISO-25
  9
$DIMCLRD
 70
     0
  9
$DIMCLRE
 70
     0
  9
$DIMCLRT
 70
     0
  9
$DIMTFAC
 40
1.0
  9
$DIMGAP
 40
1.524
  9
$DIMJUST
 70
     0
  9
$DIMSD1
 70
     0
  9
$DIMSD2
 70
     0
  9
$DIMTOLJ
 70
     0
  9
$DIMTZIN
 70
     0
  9
$DIMALTZ
 70
     0
  9
$DIMALTTZ
 70
     0
  9
$DIMUPT
 70
     0
  9
$DIMDEC
 70
     2
  9
$DIMTDEC
 70
     2
  9
$DIMALTU
 70
     2
  9
$DIMALTTD
 70
     3
  9
$DIMTXSTY
  7
Standard
  9
$DIMAUNIT
 70
     0
  9
$DIMADEC
 70
     2
  9
$DIMALTRND
 40
0.0
  9
$DIMAZIN
 70
     0
  9
$DIMDSEP
 70
    44
  9
$DIMATFIT
 70
     3
  9
$DIMFRAC
 70
     0
  9
$DIMLDRBLK
  1

  9
$DIMLUNIT
 70
     2
  9
$DIMLWD
 70
    -2
  9
$DIMLWE
 70
    -2
  9
$DIMTMOVE
 70
     0
  9
$LUNITS
 70
     2
  9
$LUPREC
 70
     2
  9
$SKETCHINC
 40
1.0
  9
$FILLETRAD
 40
10.0
  9
$AUNITS
 70
     0
  9
$AUPREC
 70
     2
  9
$MENU
  1
.
  9
$ELEVATION
 40
0.0
  9
$PELEVATION
 40
0.0
  9
$THICKNESS
 40
0.0
  9
$LIMCHECK
 70
     0
  9
$CHAMFERA
 40
0.0
  9
$CHAMFERB
 40
0.0
  9
$CHAMFERC
 40
0.0
  9
$CHAMFERD
 40
0.0
  9
$SKPOLY
 70
     0
  9
$TDCREATE
 40
2458269.699901204
  9
$TDUCREATE
 40
2458269.324901204
  9
$TDUPDATE
 40
2458275.393595567
  9
$TDUUPDATE
 40
2458275.018595567
  9
$TDINDWG
 40
0.0008799421
  9
$TDUSRTIMER
 40
2458275.017715845
  9
$USRTIMER
 70
     1
  9
$ANGBASE
 50
0.0
  9
$ANGDIR
 70
     0
  9
$PDMODE
 70
     0
  9
$PDSIZE
 40
-1.0
  9
$PLINEWID
 40
0.0
  9
$SPLFRAME
 70
     0
  9
$SPLINETYPE
 70
     6
  9
$SPLINESEGS
 70
     8
  9
$HANDSEED
  5
16D
  9
$SURFTAB1
 70
     6
  9
$SURFTAB2
 70
     6
  9
$SURFTYPE
 70
     6
  9
$SURFU
 70
     6
  9
$SURFV
 70
     6
  9
$UCSBASE
  2

  9
$UCSNAME
  2

  9
$UCSORG
 10
0.0
 20
0.0
 30
0.0
  9
$UCSXDIR
 10
1.0
 20
0.0
 30
0.0
  9
$UCSYDIR
 10
0.0
 20
1.0
 30
0.0
  9
$UCSORTHOREF
  2

  9
$UCSORTHOVIEW
 70
     0
  9
$UCSORGTOP
 10
0.0
 20
0.0
 30
0.0
  9
$UCSORGBOTTOM
 10
0.0
 20
0.0
 30
0.0
  9
$UCSORGLEFT
 10
0.0
 20
0.0
 30
0.0
  9
$UCSORGRIGHT
 10
0.0
 20
0.0
 30
0.0
  9
$UCSORGFRONT
 10
0.0
 20
0.0
 30
0.0
  9
$UCSORGBACK
 10
0.0
 20
0.0
 30
0.0
  9
$PUCSBASE
  2

  9
$PUCSNAME
  2

  9
$PUCSORG
 10
0.0
 20
0.0
 30
0.0
  9
$PUCSXDIR
 10
1.0
 20
0.0
 30
0.0
  9
$PUCSYDIR
 10
0.0
 20
1.0
 30
0.0
  9
$PUCSORTHOREF
  2

  9
$PUCSORTHOVIEW
 70
     0
  9
$PUCSORGTOP
 10
0.0
 20
0.0
 30
0.0
  9
$PUCSORGBOTTOM
 10
0.0
 20
0.0
 30
0.0
  9
$PUCSORGLEFT
 10
0.0
 20
0.0
 30
0.0
  9
$PUCSORGRIGHT
 10
0.0
 20
0.0
 30
0.0
  9
$PUCSORGFRONT
 10
0.0
 20
0.0
 30
0.0
  9
$PUCSORGBACK
 10
0.0
 20
0.0
 30
0.0
  9
$USERI1
 70
     0
  9
$USERI2
 70
     0
  9
$USERI3
 70
     0
  9
$USERI4
 70
     0
  9
$USERI5
 70
     0
  9
$USERR1
 40
0.0
  9
$USERR2
 40
0.0
  9
$USERR3
 40
0.0
  9
$USERR4
 40
0.0
  9
$USERR5
 40
0.0
  9
$WORLDVIEW
 70
     1
  9
$SHADEDGE
 70
     3
  9
$SHADEDIF
 70
    70
  9
$TILEMODE
 70
     1
  9
$MAXACTVP
 70
    64
  9
$PINSBASE
 10
0.0
 20
0.0
 30
0.0
  9
$PLIMCHECK
 70
     0
  9
$PEXTMIN
 10
1.000000000000000E+20
 20
1.000000000000000E+20
 30
1.000000000000000E+20
  9
$PEXTMAX
 10
-1.000000000000000E+20
 20
-1.000000000000000E+20
 30
-1.000000000000000E+20
  9
$PLIMMIN
 10
0.0
 20
0.0
  9
$PLIMMAX
 10
0.0
 20
0.0
  9
$UNITMODE
 70
     0
  9
$VISRETAIN
 70
     1
  9
$PLINEGEN
 70
     0
  9
$PSLTSCALE
 70
     1
  9
$TREEDEPTH
 70
  3020
  9
$CMLSTYLE
  2
Standard
  9
$CMLJUST
 70
     0
  9
$CMLSCALE
 40
20.0
  9
$PROXYGRAPHICS
 70
     1
  9
$MEASUREMENT
 70
     1
  9
$CELWEIGHT
370
    -1
  9
$ENDCAPS
280
     0
  9
$JOINSTYLE
280
     0
  9
$LWDISPLAY
290
     1
  9
$INSUNITS
 70
     4
  9
$HYPERLINKBASE
  1

  9
$STYLESHEET
  1

  9
$XEDIT
290
     1
  9
$CEPSNTYPE
380
     0
  9
$PSTYLEMODE
290
     1
  9
$FINGERPRINTGUID
  2
{5ACC3334-1788-4479-B728-E01120BB1A78}
  9
$VERSIONGUID
  2
{FAEB1C32-E019-11D5-929B-00C0DF256EC4}
  9
$EXTNAMES
290
     1
  9
$PSVPSCALE
 40
0.0
  9
$OLESTARTUP
290
     0
  0
ENDSEC
  0
SECTION
  2
CLASSES
  0
CLASS
  1
ACDBDICTIONARYWDFLT
  2
AcDbDictionaryWithDefault
  3
ObjectDBX Classes
 90
        0
280
     0
281
     0
  0
CLASS
  1
VISUALSTYLE
  2
AcDbVisualStyle
  3
ObjectDBX Classes
 90
     4095
280
     0
281
     0
  0
CLASS
  1
MATERIAL
  2
AcDbMaterial
  3
ObjectDBX Classes
 90
     1153
280
     0
281
     0
  0
CLASS
  1
SCALE
  2
AcDbScale
  3
ObjectDBX Classes
 90
     1153
280
     0
281
     0
  0
CLASS
  1
SUN
  2
AcDbSun
  3
SCENEOE
 90
     1153
280
     0
281
     0
  0
CLASS
  1
ACDBPLACEHOLDER
  2
AcDbPlaceHolder
  3
ObjectDBX Classes
 90
        0
280
     0
281
     0
  0
CLASS
  1
LAYOUT
  2
AcDbLayout
  3
ObjectDBX Classes
 90
        0
280
     0
281
     0
  0
CLASS
  1
TABLESTYLE
  2
AcDbTableStyle
  3
ObjectDBX Classes
 90
     4095
280
     0
281
     0
  0
CLASS
  1
MLEADERSTYLE
  2
AcDbMLeaderStyle
  3
ACDB_MLEADERSTYLE_CLASS
 90
     4095
280
     0
281
     0
  0
CLASS
  1
RASTERVARIABLES
  2
AcDbRasterVariables
  3
ISM
 90
        0
280
     0
281
     0
  0
CLASS
  1
DIMASSOC
  2
AcDbDimAssoc
  3
"AcDbDimAssoc|Product Desc:     AcDim ARX App For Dimension|Company:          Autodesk, Inc.|WEB Address:      www.autodesk.com"
 90
        0
280
     0
281
     0
  0
ENDSEC
  0
SECTION
  2
TABLES
  0
TABLE
  2
VPORT
  5
8
330
0
100
AcDbSymbolTable
 70
     1
  0
VPORT
  5
29
330
8
100
AcDbSymbolTableRecord
100
AcDbViewportTableRecord
  2
*Active
 70
     0
 10
0.0
 20
0.0
 11
1.0
 21
1.0
 12
70.43114005425079
 22
4.524907258790831
 13
0.0
 23
0.0
 14
10.0
 24
10.0
 15
10.0
 25
10.0
 16
0.0
 26
0.0
 36
1.0
 17
0.0
 27
0.0
 37
0.0
 40
218.6662589158484
 41
1.671814671814672
 42
50.0
 43
0.0
 44
0.0
 50
0.0
 51
0.0
 71
    16
 72
  2000
 73
     1
 74
     3
 75
     0
 76
     0
 77
     0
 78
     0
281
     0
 65
     1
110
0.0
120
0.0
130
0.0
111
1.0
121
0.0
131
0.0
112
0.0
122
1.0
132
0.0
 79
     0
146
0.0
  0
ENDTAB
  0
TABLE
  2
LTYPE
  5
5
330
0
100
AcDbSymbolTable
 70
     6
  0
LTYPE
  5
14
330
5
100
AcDbSymbolTableRecord
100
AcDbLinetypeTableRecord
  2
ByBlock
 70
     0
  3

 72
    65
 73
     0
 40
0.0
  0
LTYPE
  5
15
330
5
100
AcDbSymbolTableRecord
100
AcDbLinetypeTableRecord
  2
ByLayer
 70
     0
  3

 72
    65
 73
     0
 40
0.0
  0
LTYPE
  5
16
330
5
100
AcDbSymbolTableRecord
100
AcDbLinetypeTableRecord
  2
Continuous
 70
     0
  3
Solid line
 72
    65
 73
     0
 40
0.0
  0
LTYPE
  5
6A
330
5
100
AcDbSymbolTableRecord
100
AcDbLinetypeTableRecord
  2
HIDDEN
 70
     0
  3
Hidden __ __ __ __ __ __ __ __ __ __ __ __ __ __
 72
    65
 73
     2
 40
1.905
 49
1.27
 74
     0
 49
-0.635
 74
     0
  0
LTYPE
  5
6B
330
5
100
AcDbSymbolTableRecord
100
AcDbLinetypeTableRecord
  2
PHANTOM
 70
     0
  3
Phantom ______  __  __  ______  __  __  ______
 72
    65
 73
     6
 40
12.7
 49
6.35
 74
     0
 49
-1.27
 74
     0
 49
1.27
 74
     0
 49
-1.27
 74
     0
 49
1.27
 74
     0
 49
-1.27
 74
     0
  0
LTYPE
  5
6C
330
5
100
AcDbSymbolTableRecord
100
AcDbLinetypeTableRecord
  2
CENTER
 70
     0
  3
Center ____ _ ____ _ ____ _ ____ _ ____ _ ____
 72
    65
 73
     4
 40
10.16
 49
6.35
 74
     0
 49
-1.27
 74
     0
 49
1.27
 74
     0
 49
-1.27
 74
     0
  0
LTYPE
  5
6D
330
5
100
AcDbSymbolTableRecord
100
AcDbLinetypeTableRecord
  2
CENTERX2
 70
     0
  3
Center (2x) ________  __  ________  __  _____
 72
    65
 73
     4
 40
20.32
 49
12.7
 74
     0
 49
-2.54
 74
     0
 49
2.54
 74
     0
 49
-2.54
 74
     0
  0
LTYPE
  5
6E
330
5
100
AcDbSymbolTableRecord
100
AcDbLinetypeTableRecord
  2
DOT2
 70
     0
  3
Dot (.5x) ........................................
 72
    65
 73
     2
 40
0.635
 49
0.0
 74
     0
 49
-0.635
 74
     0
  0
ENDTAB
  0
TABLE
  2
LAYER
  5
2
330
0
100
AcDbSymbolTable
 70
    17
  0
LAYER
  5
10
330
2
100
AcDbSymbolTableRecord
100
AcDbLayerTableRecord
  2
0
 70
     0
 62
     7
  6
Continuous
370
    -3
390
F
  0
LAYER
  5
6F
330
2
100
AcDbSymbolTableRecord
100
AcDbLayerTableRecord
  2
FORMAT
 70
     0
 62
     2
  6
Continuous
370
    -3
390
F
  0
LAYER
  5
70
330
2
100
AcDbSymbolTableRecord
100
AcDbLayerTableRecord
  2
외형선
 70
     0
 62
   100
  6
Continuous
370
    30
390
F
  0
LAYER
  5
71
330
2
100
AcDbSymbolTableRecord
100
AcDbLayerTableRecord
  2
숨은선
 70
     0
 62
     2
  6
HIDDEN
370
    15
390
F
  0
LAYER
  5
72
330
2
100
AcDbSymbolTableRecord
100
AcDbLayerTableRecord
  2
중심선
 70
     0
 62
     1
  6
CENTERX2
370
    -3
390
F
  0
LAYER
  5
73
330
2
100
AcDbSymbolTableRecord
100
AcDbLayerTableRecord
  2
파단선
 70
     0
 62
     4
  6
Continuous
370
    -3
390
F
  0
LAYER
  5
74
330
2
100
AcDbSymbolTableRecord
100
AcDbLayerTableRecord
  2
해칭선
 70
     0
 62
     4
  6
Continuous
370
    -3
390
F
  0
LAYER
  5
75
330
2
100
AcDbSymbolTableRecord
100
AcDbLayerTableRecord
  2
가는실선
 70
     0
 62
     4
  6
Continuous
370
    -3
390
F
  0
LAYER
  5
76
330
2
100
AcDbSymbolTableRecord
100
AcDbLayerTableRecord
  2
치수_보조선
 70
     0
 62
     4
  6
Continuous
370
    -3
390
F
  0
LAYER
  5
77
330
2
100
AcDbSymbolTableRecord
100
AcDbLayerTableRecord
  2
치수문자_일반주서
 70
     0
 62
     7
  6
Continuous
370
    15
390
F
  0
LAYER
  5
78
330
2
100
AcDbSymbolTableRecord
100
AcDbLayerTableRecord
  2
개별주서
 70
     0
 62
   100
  6
Continuous
370
    30
390
F
  0
LAYER
  5
79
330
2
100
AcDbSymbolTableRecord
100
AcDbLayerTableRecord
  2
중간선
 70
     0
 62
     2
  6
Continuous
370
    15
390
F
  0
LAYER
  5
7A
330
2
100
AcDbSymbolTableRecord
100
AcDbLayerTableRecord
  2
윤곽선
 70
     0
 62
     3
  6
Continuous
370
    40
390
F
  0
LAYER
  5
7B
330
2
100
AcDbSymbolTableRecord
100
AcDbLayerTableRecord
  2
중심마크
 70
     0
 62
   100
  6
Continuous
370
    30
390
F
  0
LAYER
  5
7C
330
2
100
AcDbSymbolTableRecord
100
AcDbLayerTableRecord
  2
가상선
 70
     0
 62
     4
  6
PHANTOM
370
    -3
390
F
  0
LAYER
  5
7D
330
2
100
AcDbSymbolTableRecord
100
AcDbLayerTableRecord
  2
특수지정선
 70
     0
 62
     5
  6
CENTERX2
370
    60
390
F
  0
LAYER
  5
155
330
2
100
AcDbSymbolTableRecord
100
AcDbLayerTableRecord
  2
Defpoints
 70
     0
 62
     7
  6
Continuous
290
     0
370
    -3
390
F
  0
ENDTAB
  0
TABLE
  2
STYLE
  5
3
330
0
100
AcDbSymbolTable
 70
     2
  0
STYLE
  5
11
330
3
100
AcDbSymbolTableRecord
100
AcDbTextStyleTableRecord
  2
Standard
 70
     0
 40
0.0
 41
1.0
 50
0.0
 71
     0
 42
3.5
  3
txt
  4

  0
STYLE
  5
93
330
3
100
AcDbSymbolTableRecord
100
AcDbTextStyleTableRecord
  2
SLDTEXTSTYLE0
 70
     0
 40
0.0
 41
0.75
 50
0.0
 71
     0
 42
3.5
  3
TXT
  4

  0
ENDTAB
  0
TABLE
  2
VIEW
  5
6
330
0
100
AcDbSymbolTable
 70
     0
  0
ENDTAB
  0
TABLE
  2
UCS
  5
7
330
0
100
AcDbSymbolTable
 70
     0
  0
ENDTAB
  0
TABLE
  2
APPID
  5
9
330
0
100
AcDbSymbolTable
 70
     2
  0
APPID
  5
12
330
9
100
AcDbSymbolTableRecord
100
AcDbRegAppTableRecord
  2
ACAD
 70
     0
  0
APPID
  5
168
330
9
100
AcDbSymbolTableRecord
100
AcDbRegAppTableRecord
  2
PE_DIMMEASUREMENT
 70
     0
  0
ENDTAB
  0
TABLE
  2
DIMSTYLE
  5
A
330
0
100
AcDbSymbolTable
 70
     4
100
AcDbDimStyleTable
  0
DIMSTYLE
105
27
330
A
100
AcDbSymbolTableRecord
100
AcDbDimStyleTableRecord
  2
ISO-25
 70
     0
 41
2.5
 42
0.625
 43
3.75
 44
1.25
 73
     0
 74
     0
 77
     1
 78
     8
140
2.5
141
2.5
143
0.03937007874016
147
0.625
171
     3
172
     1
178
     0
271
     2
272
     2
274
     3
278
    44
283
     0
284
     8
340
11
  0
DIMSTYLE
105
D9
102
{ACAD_REACTORS
330
D8
102
}
330
A
100
AcDbSymbolTableRecord
100
AcDbDimStyleTableRecord
  2
SLDDIMSTYLE0
 70
     0
 41
3.302
 44
0.0
 45
0.000000001
 73
     0
 74
     0
 77
     1
 78
    12
 79
     3
140
3.5
143
0.0393700787401575
147
0.875
148
0.000000001
170
     1
172
     1
173
     1
178
     0
271
     2
272
     2
276
     2
284
    12
289
     0
340
93
  0
DIMSTYLE
105
EE
102
{ACAD_REACTORS
330
ED
330
101
102
}
330
A
100
AcDbSymbolTableRecord
100
AcDbDimStyleTableRecord
  2
SLDDIMSTYLE1
 70
     0
 41
3.302
 44
0.0
 45
0.000000001
 73
     0
 74
     0
 77
     1
 78
    12
 79
     3
140
3.5
143
0.0393700787401575
147
0.875
148
0.000000001
170
     1
173
     1
178
     0
271
     2
272
     2
276
     2
284
    12
340
93
  0
DIMSTYLE
105
115
102
{ACAD_REACTORS
330
114
330
156
102
}
330
A
100
AcDbSymbolTableRecord
100
AcDbDimStyleTableRecord
  2
SLDDIMSTYLE2
 70
     0
 41
3.302
 44
0.0
 45
0.000000001
 73
     0
 74
     0
 77
     1
 78
     4
 79
     1
140
3.5
143
0.0393700787401575
147
0.875
148
0.000000001
170
     1
172
     1
173
     1
178
     0
271
     2
272
     2
276
     2
284
    12
289
     0
340
93
  0
ENDTAB
  0
TABLE
  2
BLOCK_RECORD
  5
1
330
0
100
AcDbSymbolTable
 70
     8
  0
BLOCK_RECORD
  5
1F
330
1
100
AcDbSymbolTableRecord
100
AcDbBlockTableRecord
  2
*Model_Space
340
22
  0
BLOCK_RECORD
  5
1B
330
1
100
AcDbSymbolTableRecord
100
AcDbBlockTableRecord
  2
*Paper_Space
340
1E
  0
BLOCK_RECORD
  5
23
330
1
100
AcDbSymbolTableRecord
100
AcDbBlockTableRecord
  2
*Paper_Space0
340
26
  0
BLOCK_RECORD
  5
7E
330
1
100
AcDbSymbolTableRecord
100
AcDbBlockTableRecord
  2
블럭10
340
0
102
{BLKREFS
331
D0
102
}
  0
BLOCK_RECORD
  5
DA
330
1
100
AcDbSymbolTableRecord
100
AcDbBlockTableRecord
  2
_D
340
0
  0
BLOCK_RECORD
  5
EF
330
1
100
AcDbSymbolTableRecord
100
AcDbBlockTableRecord
  2
_D_1
340
0
  0
BLOCK_RECORD
  5
102
330
1
100
AcDbSymbolTableRecord
100
AcDbBlockTableRecord
  2
_D_2
340
0
  0
BLOCK_RECORD
  5
116
330
1
100
AcDbSymbolTableRecord
100
AcDbBlockTableRecord
  2
_D_3
340
0
  0
BLOCK_RECORD
  5
12A
330
1
100
AcDbSymbolTableRecord
100
AcDbBlockTableRecord
  2
SW_DOWELSYMBOL_0
340
0
102
{BLKREFS
331
130
102
}
  0
BLOCK_RECORD
  5
159
330
1
100
AcDbSymbolTableRecord
100
AcDbBlockTableRecord
  2
*D7
340
0
  0
ENDTAB
  0
ENDSEC
  0
SECTION
  2
BLOCKS
  0
BLOCK
  5
20
330
1F
100
AcDbEntity
  8
0
100
AcDbBlockBegin
  2
*Model_Space
 70
     0
 10
0.0
 20
0.0
 30
0.0
  3
*Model_Space
  1
*Model_Space
  0
ENDBLK
  5
21
330
1F
100
AcDbEntity
  8
0
100
AcDbBlockEnd
  0
BLOCK
  5
1C
330
1B
100
AcDbEntity
 67
     1
  8
0
100
AcDbBlockBegin
  2
*Paper_Space
 70
     0
 10
0.0
 20
0.0
 30
0.0
  3
*Paper_Space
  1
*Paper_Space
  0
ENDBLK
  5
1D
330
1B
100
AcDbEntity
 67
     1
  8
0
100
AcDbBlockEnd
  0
BLOCK
  5
24
330
23
100
AcDbEntity
  8
0
100
AcDbBlockBegin
  2
*Paper_Space0
 70
     0
 10
0.0
 20
0.0
 30
0.0
  3
*Paper_Space0
  1
*Paper_Space0
  0
ENDBLK
  5
25
330
23
100
AcDbEntity
  8
0
100
AcDbBlockEnd
  0
BLOCK
  5
7F
330
7E
100
AcDbEntity
  8
0
100
AcDbBlockBegin
  2
블럭10
 70
     2
 10
0.0
 20
0.0
 30
0.0
  3
블럭10
  1
블럭10
  0
ELLIPSE
  5
81
330
7E
100
AcDbEntity
  8
중심선
100
AcDbEllipse
 10
20.54032771741204
 20
12.0471743016438
 30
0.0
 11
6.600054785286829
 21
-1.261213355974178E-13
 31
0.0
210
0.0
220
0.0
230
1.0
 40
0.636358354079598
 41
0.9219305317359503
 42
6.513795318482858
  0
ELLIPSE
  5
82
330
7E
100
AcDbEntity
  8
중심선
100
AcDbEllipse
 10
20.54032771746488
 20
12.04717430159265
 30
0.0
 11
3.960054785062283
 21
1.540847449632565E-10
 31
0.0
210
0.0
220
0.0
230
1.0
 40
0.3939339440162632
 41
1.131841032648279
 42
5.62031148352944
  0
LINE
  5
83
330
7E
100
AcDbEntity
  8
중심선
100
AcDbLine
 10
2.268634060543552
 20
16.24717430164393
 30
0.0
 11
5.714909304380834
 21
16.24717430164393
 31
0.0
  0
LINE
  5
84
330
7E
100
AcDbEntity
  8
중심선
100
AcDbLine
 10
5.245725140726316
 20
7.84717430164391
 30
0.0
 11
8.692000384563599
 21
7.84717430164391
 31
0.0
  0
LINE
  5
85
330
7E
100
AcDbEntity
  8
중심선
100
AcDbLine
 10
15.74043728645272
 20
16.24717430164393
 30
0.0
 11
8.692000384563599
 21
7.84717430164391
 31
0.0
  0
LINE
  5
86
330
7E
100
AcDbEntity
  8
중심선
100
AcDbLine
 10
0.1404042013395286
 20
13.71084872107135
 30
0.0
 11
3.58671253028996
 21
13.71088815037384
 31
0.0
  0
LINE
  5
87
330
7E
100
AcDbEntity
  8
중심선
100
AcDbLine
 10
2.750260043222114
 20
10.84717430164391
 30
0.0
 11
6.196535287059397
 21
10.84717430164391
 31
0.0
  0
LINE
  5
88
330
7E
100
AcDbEntity
  8
중심선
100
AcDbLine
 10
12.29416204261559
 20
16.24717430164393
 30
0.0
 11
5.245725140726316
 21
7.84717430164391
 31
0.0
  0
LINE
  5
89
330
7E
100
AcDbEntity
  8
중심선
100
AcDbLine
 10
10.72767329541681
 20
16.24717430164393
 30
0.0
 11
6.196535287059397
 21
10.84717430164391
 31
0.0
  0
LINE
  5
8A
330
7E
100
AcDbEntity
  8
중심선
100
AcDbLine
 10
7.28139805157953
 20
16.24717430164393
 30
0.0
 11
2.750260043222114
 21
10.84717430164391
 31
0.0
  0
LINE
  5
8B
330
7E
100
AcDbEntity
  8
중심선
100
AcDbLine
 10
5.714909304380834
 20
16.24717430164393
 30
0.0
 11
3.58671253028996
 21
13.71088815037384
 31
0.0
  0
LINE
  5
8C
330
7E
100
AcDbEntity
  8
중심선
100
AcDbLine
 10
2.268634060543552
 20
16.24717430164393
 30
0.0
 11
0.1404042013395286
 21
13.71084872107135
 31
0.0
  0
LINE
  5
8D
330
7E
100
AcDbEntity
  8
중심선
100
AcDbLine
 10
7.28139805157953
 20
16.24717430164393
 30
0.0
 11
10.72767329541681
 21
16.24717430164393
 31
0.0
  0
LINE
  5
8E
330
7E
100
AcDbEntity
  8
중심선
100
AcDbLine
 10
12.29416204261559
 20
16.24717430164393
 30
0.0
 11
15.74043728645272
 21
16.24717430164393
 31
0.0
  0
LINE
  5
8F
330
7E
100
AcDbEntity
  8
중심선
100
AcDbLine
 10
19.22036997980202
 20
11.08717430171403
 30
0.0
 11
23.66174974927406
 21
11.08717430171406
 31
0.0
  0
LINE
  5
90
330
7E
100
AcDbEntity
  8
중심선
100
AcDbLine
 10
19.22039502424796
 20
13.00717430171391
 30
0.0
 11
19.22036997980202
 21
11.08717430171403
 31
0.0
  0
LINE
  5
91
330
7E
100
AcDbEntity
  8
중심선
100
AcDbLine
 10
19.22039502424796
 20
13.00717430171391
 30
0.0
 11
26.96566020931264
 21
13.00717430171391
 31
0.0
  0
LINE
  5
92
330
7E
100
AcDbEntity
  8
중심선
100
AcDbLine
 10
22.22332737316547
 20
13.45928029700563
 30
0.0
 11
24.52862924686651
 21
15.39360700705356
 31
0.0
  0
ATTDEF
  5
94
330
7E
100
AcDbEntity
  8
FORMAT
 62
     2
100
AcDbText
 10
-9.18129528874128
 20
2.075366912832191
 30
0.0
 40
4.233333333333333
  1
E5977048 [ 3 FLUTE ]
 41
0.75
  7
SLDTEXTSTYLE0
 11
-9.18129528874128
 21
-0.0412997538344756
 31
0.0
100
AcDbAttributeDefinition
  3

  2
AUTOATTR0
 70
     0
 74
     1
  0
ENDBLK
  5
80
330
7E
100
AcDbEntity
  8
0
100
AcDbBlockEnd
  0
BLOCK
  5
DB
330
DA
100
AcDbEntity
  8
0
100
AcDbBlockBegin
  2
_D
 70
     0
 10
0.0
 20
0.0
 30
0.0
  3
_D
  1
_D
  0
LINE
  5
DD
330
DA
100
AcDbEntity
  8
치수문자_일반주서
 62
     0
370
    -2
100
AcDbLine
 10
-66.90449999999998
 20
9.524999999999963
 30
0.0
 11
-80.34200000000001
 21
9.524999999999913
 31
0.0
  0
LINE
  5
DE
330
DA
100
AcDbEntity
  8
치수문자_일반주서
 62
     0
370
    -2
100
AcDbLine
 10
-66.90449999999998
 20
-9.52500000000002
 30
0.0
 11
-80.34199999999994
 21
-9.52500000000007
 31
0.0
  0
LINE
  5
DF
330
DA
100
AcDbEntity
  8
치수문자_일반주서
 62
     0
370
    -2
100
AcDbLine
 10
-80.342
 20
6.222999999999914
 30
0.0
 11
-80.34199999999996
 21
-6.22300000000007
 31
0.0
  0
SOLID
  5
E0
330
DA
100
AcDbEntity
  8
치수문자_일반주서
 62
     0
100
AcDbTrace
 10
-79.79166666666667
 20
6.222999999999915
 30
0.0
 11
-80.89233333333333
 21
6.222999999999912
 31
0.0
 12
-80.34200000000001
 22
9.524999999999913
 32
0.0
 13
-80.34200000000001
 23
9.524999999999913
 33
0.0
  0
SOLID
  5
E1
330
DA
100
AcDbEntity
  8
치수문자_일반주서
 62
     0
100
AcDbTrace
 10
-80.89233333333328
 20
-6.223000000000072
 30
0.0
 11
-79.79166666666663
 21
-6.223000000000068
 31
0.0
 12
-80.34199999999994
 22
-9.52500000000007
 32
0.0
 13
-80.34199999999994
 23
-9.52500000000007
 33
0.0
  0
MTEXT
  5
E2
330
DA
100
AcDbEntity
  8
치수문자_일반주서
 62
     0
100
AcDbMText
 10
-84.71699999999998
 20
0.2102829482368737
 30
0.0
 40
3.5
 41
0.0
 71
     2
 72
     1
  1
\A1;%%c19.05 [3/4]
  7
SLDTEXTSTYLE0
 11
-3.729883127349610E-15
 21
1.0
 31
0.0
 73
     1
 44
1.0
  0
POINT
  5
E3
330
DA
100
AcDbEntity
  8
Defpoints
 62
     0
100
AcDbPoint
 10
-66.84199999999998
 20
9.524999999999963
 30
0.0
  0
POINT
  5
E4
330
DA
100
AcDbEntity
  8
Defpoints
 62
     0
100
AcDbPoint
 10
-66.84199999999998
 20
-9.52500000000002
 30
0.0
  0
POINT
  5
E5
330
DA
100
AcDbEntity
  8
Defpoints
 62
     0
100
AcDbPoint
 10
-80.34199999999996
 20
-9.52500000000007
 30
0.0
  0
ENDBLK
  5
DC
330
DA
100
AcDbEntity
  8
0
100
AcDbBlockEnd
  0
BLOCK
  5
F0
330
EF
100
AcDbEntity
  8
0
100
AcDbBlockBegin
  2
_D_1
 70
     0
 10
0.0
 20
0.0
 30
0.0
  3
_D_1
  1
_D_1
  0
LINE
  5
F2
330
EF
100
AcDbEntity
  8
치수문자_일반주서
 62
     0
370
    -2
100
AcDbLine
 10
-67.34199999999998
 20
9.087499999999968
 30
0.0
 11
-67.34199999999998
 21
46.95062537290535
 31
0.0
  0
LINE
  5
F3
330
EF
100
AcDbEntity
  8
치수문자_일반주서
 62
     0
370
    -2
100
AcDbLine
 10
59.65800000000002
 20
6.229975262783484
 30
0.0
 11
59.65800000000003
 21
46.95062537290535
 31
0.0
  0
LINE
  5
F4
330
EF
100
AcDbEntity
  8
치수문자_일반주서
 62
     0
370
    -2
100
AcDbLine
 10
-64.03999999999999
 20
46.95062537290535
 30
0.0
 11
56.35600000000003
 21
46.95062537290535
 31
0.0
  0
SOLID
  5
F5
330
EF
100
AcDbEntity
  8
치수문자_일반주서
 62
     0
100
AcDbTrace
 10
-64.03999999999999
 20
47.50095870623868
 30
0.0
 11
-64.03999999999999
 21
46.40029203957202
 31
0.0
 12
-67.34199999999998
 22
46.95062537290535
 32
0.0
 13
-67.34199999999998
 23
46.95062537290535
 33
0.0
  0
SOLID
  5
F6
330
EF
100
AcDbEntity
  8
치수문자_일반주서
 62
     0
100
AcDbTrace
 10
56.35600000000003
 20
46.40029203957202
 30
0.0
 11
56.35600000000003
 21
47.50095870623868
 31
0.0
 12
59.65800000000003
 22
46.95062537290535
 32
0.0
 13
59.65800000000003
 23
46.95062537290535
 33
0.0
  0
MTEXT
  5
F7
330
EF
100
AcDbEntity
  8
치수문자_일반주서
 62
     0
100
AcDbMText
 10
-8.505911818196711
 20
51.32562537290535
 30
0.0
 40
3.5
 41
0.0
 71
     2
 72
     1
  1
\A1;127 [5]
  7
SLDTEXTSTYLE0
 73
     1
 44
1.0
  0
POINT
  5
F8
330
EF
100
AcDbEntity
  8
Defpoints
 62
     0
100
AcDbPoint
 10
-67.34199999999998
 20
9.024999999999968
 30
0.0
  0
POINT
  5
F9
330
EF
100
AcDbEntity
  8
Defpoints
 62
     0
100
AcDbPoint
 10
59.65800000000002
 20
6.167475262783484
 30
0.0
  0
POINT
  5
FA
330
EF
100
AcDbEntity
  8
Defpoints
 62
     0
100
AcDbPoint
 10
59.65800000000002
 20
46.95062537290535
 30
0.0
  0
ENDBLK
  5
F1
330
EF
100
AcDbEntity
  8
0
100
AcDbBlockEnd
  0
BLOCK
  5
103
330
102
100
AcDbEntity
  8
0
100
AcDbBlockBegin
  2
_D_2
 70
     0
 10
0.0
 20
0.0
 30
0.0
  3
_D_2
  1
_D_2
  0
LINE
  5
105
330
102
100
AcDbEntity
  8
치수문자_일반주서
 62
     0
370
    -2
100
AcDbLine
 10
2.50800000000001
 20
9.079499999999971
 30
0.0
 11
2.50800000000001
 21
34.42376142194367
 31
0.0
  0
LINE
  5
106
330
102
100
AcDbEntity
  8
치수문자_일반주서
 62
     0
370
    -2
100
AcDbLine
 10
59.65800000000002
 20
6.229975262783484
 30
0.0
 11
59.65800000000002
 21
34.42376142194367
 31
0.0
  0
LINE
  5
107
330
102
100
AcDbEntity
  8
치수문자_일반주서
 62
     0
370
    -2
100
AcDbLine
 10
5.810000000000009
 20
34.42376142194367
 30
0.0
 11
56.35600000000002
 21
34.42376142194367
 31
0.0
  0
SOLID
  5
108
330
102
100
AcDbEntity
  8
치수문자_일반주서
 62
     0
100
AcDbTrace
 10
5.810000000000009
 20
34.974094755277
 30
0.0
 11
5.810000000000009
 21
33.87342808861033
 31
0.0
 12
2.50800000000001
 22
34.42376142194367
 32
0.0
 13
2.50800000000001
 23
34.42376142194367
 33
0.0
  0
SOLID
  5
109
330
102
100
AcDbEntity
  8
치수문자_일반주서
 62
     0
100
AcDbTrace
 10
56.35600000000002
 20
33.87342808861033
 30
0.0
 11
56.35600000000002
 21
34.974094755277
 31
0.0
 12
59.65800000000002
 22
34.42376142194367
 32
0.0
 13
59.65800000000002
 23
34.42376142194367
 33
0.0
  0
MTEXT
  5
10A
330
102
100
AcDbEntity
  8
치수문자_일반주서
 62
     0
100
AcDbMText
 10
30.38651674387773
 20
38.79876142194367
 30
0.0
 40
3.5
 41
0.0
 71
     2
 72
     1
  1
\A1;57.15 [2 1/4]
  7
SLDTEXTSTYLE0
 73
     1
 44
1.0
  0
POINT
  5
10B
330
102
100
AcDbEntity
  8
Defpoints
 62
     0
100
AcDbPoint
 10
2.50800000000001
 20
9.016999999999971
 30
0.0
  0
POINT
  5
10C
330
102
100
AcDbEntity
  8
Defpoints
 62
     0
100
AcDbPoint
 10
59.65800000000002
 20
6.167475262783484
 30
0.0
  0
POINT
  5
10D
330
102
100
AcDbEntity
  8
Defpoints
 62
     0
100
AcDbPoint
 10
59.65800000000002
 20
34.42376142194367
 30
0.0
  0
ENDBLK
  5
104
330
102
100
AcDbEntity
  8
0
100
AcDbBlockEnd
  0
BLOCK
  5
117
330
116
100
AcDbEntity
  8
0
100
AcDbBlockBegin
  2
_D_3
 70
     0
 10
0.0
 20
0.0
 30
0.0
  3
_D_3
  1
_D_3
  0
LINE
  5
119
330
116
100
AcDbEntity
  8
치수문자_일반주서
 62
     0
370
    -2
100
AcDbLine
 10
34.25800000000001
 20
9.484043673277526
 30
0.0
 11
34.25800000000001
 21
19.61135534719195
 31
0.0
  0
LINE
  5
11A
330
116
100
AcDbEntity
  8
치수문자_일반주서
 62
     0
370
    -2
100
AcDbLine
 10
59.65800000000002
 20
6.229975262783484
 30
0.0
 11
59.65800000000002
 21
19.61135534719195
 31
0.0
  0
LINE
  5
11B
330
116
100
AcDbEntity
  8
치수문자_일반주서
 62
     0
370
    -2
100
AcDbLine
 10
37.56000000000001
 20
19.61135534719195
 30
0.0
 11
56.35600000000002
 21
19.61135534719195
 31
0.0
  0
SOLID
  5
11C
330
116
100
AcDbEntity
  8
치수문자_일반주서
 62
     0
100
AcDbTrace
 10
37.56000000000001
 20
20.16168868052528
 30
0.0
 11
37.56000000000001
 21
19.06102201385861
 31
0.0
 12
34.25800000000001
 22
19.61135534719195
 32
0.0
 13
34.25800000000001
 23
19.61135534719195
 33
0.0
  0
SOLID
  5
11D
330
116
100
AcDbEntity
  8
치수문자_일반주서
 62
     0
100
AcDbTrace
 10
56.35600000000002
 20
19.06102201385861
 30
0.0
 11
56.35600000000002
 21
20.16168868052528
 31
0.0
 12
59.65800000000002
 22
19.61135534719195
 32
0.0
 13
59.65800000000002
 23
19.61135534719195
 33
0.0
  0
MTEXT
  5
11E
330
116
100
AcDbEntity
  8
치수문자_일반주서
 62
     0
100
AcDbMText
 10
48.11910958090451
 20
23.98635534719195
 30
0.0
 40
3.5
 41
0.0
 71
     2
 72
     1
  1
\A1;25.40 [1]
  7
SLDTEXTSTYLE0
 73
     1
 44
1.0
  0
POINT
  5
11F
330
116
100
AcDbEntity
  8
Defpoints
 62
     0
100
AcDbPoint
 10
34.25800000000001
 20
9.421543673277526
 30
0.0
  0
POINT
  5
120
330
116
100
AcDbEntity
  8
Defpoints
 62
     0
100
AcDbPoint
 10
59.65800000000002
 20
6.167475262783484
 30
0.0
  0
POINT
  5
121
330
116
100
AcDbEntity
  8
Defpoints
 62
     0
100
AcDbPoint
 10
59.65800000000002
 20
19.61135534719195
 30
0.0
  0
ENDBLK
  5
118
330
116
100
AcDbEntity
  8
0
100
AcDbBlockEnd
  0
BLOCK
  5
12B
330
12A
100
AcDbEntity
  8
0
100
AcDbBlockBegin
  2
SW_DOWELSYMBOL_0
 70
     0
 10
0.0
 20
0.0
 30
0.0
  3
SW_DOWELSYMBOL_0
  1
SW_DOWELSYMBOL_0
  0
CIRCLE
  5
12D
330
12A
100
AcDbEntity
  8
외형선
 62
     0
100
AcDbCircle
 10
0.0
 20
0.0
 30
0.0
 40
2.999999999999994
  0
HATCH
  5
12E
330
12A
100
AcDbEntity
  8
0
  6
Continuous
 62
     0
370
    30
100
AcDbHatch
 10
0.0
 20
0.0
 30
0.0
210
0.0
220
0.0
230
1.0
  2
SOLID
 70
     1
 71
     0
 91
        1
 92
        0
 93
        3
 72
     2
 10
0.0
 20
0.0
 40
2.999999999999994
 50
0.0
 51
90.0
 73
     1
 72
     1
 10
0.0
 20
2.999999999999994
 11
0.0
 21
0.0
 72
     1
 10
0.0
 20
0.0
 11
2.999999999999996
 21
0.0
 97
        0
 75
     0
 76
     1
 98
        1
 10
0.0
 20
0.0
  0
HATCH
  5
12F
330
12A
100
AcDbEntity
  8
0
  6
Continuous
 62
     0
370
    30
100
AcDbHatch
 10
0.0
 20
0.0
 30
0.0
210
0.0
220
0.0
230
1.0
  2
SOLID
 70
     1
 71
     0
 91
        1
 92
        0
 93
        3
 72
     2
 10
0.0
 20
0.0
 40
2.999999999999994
 50
180.0
 51
270.0000000000008
 73
     1
 72
     1
 10
0.0
 20
-2.999999999999994
 11
0.0
 21
0.0
 72
     1
 10
0.0
 20
0.0
 11
-2.999999999999996
 21
0.0
 97
        0
 75
     0
 76
     1
 98
        1
 10
0.0
 20
0.0
  0
ENDBLK
  5
12C
330
12A
100
AcDbEntity
  8
0
100
AcDbBlockEnd
  0
BLOCK
  5
15A
330
159
100
AcDbEntity
  8
0
100
AcDbBlockBegin
  2
*D7
 70
     1
 10
0.0
 20
0.0
 30
0.0
  3
*D7
  1
*D7
  0
LINE
  5
15C
330
159
100
AcDbEntity
  8
치수문자_일반주서
 62
     0
370
    -2
100
AcDbLine
 10
46.40455665134677
 20
-9.52500000000002
 30
0.0
 11
87.30923675437839
 21
-9.525000000000023
 31
0.0
  0
LINE
  5
15D
330
159
100
AcDbEntity
  8
치수문자_일반주서
 62
     0
370
    -2
100
AcDbLine
 10
59.72050000000002
 20
9.524999999999984
 30
0.0
 11
87.30923675437839
 21
9.52499999999998
 31
0.0
  0
LINE
  5
15E
330
159
100
AcDbEntity
  8
치수문자_일반주서
 62
     0
370
    -2
100
AcDbLine
 10
87.30923675437839
 20
9.52499999999998
 30
0.0
 11
87.30923675437839
 21
43.91024999999998
 31
0.0
  0
LINE
  5
15F
330
159
100
AcDbEntity
  8
치수문자_일반주서
 62
     0
370
    -2
100
AcDbLine
 10
87.30923675437839
 20
-9.525000000000023
 30
0.0
 11
87.30923675437839
 21
9.52499999999998
 31
0.0
  0
LINE
  5
160
330
159
100
AcDbEntity
  8
치수문자_일반주서
 62
     0
370
    -2
100
AcDbLine
 10
87.30923675437839
 20
-12.82700000000002
 30
0.0
 11
87.30923675437839
 21
-16.12900000000002
 31
0.0
  0
LINE
  5
161
330
159
100
AcDbEntity
  8
치수문자_일반주서
 62
     0
370
    -2
100
AcDbLine
 10
87.30923675437839
 20
12.82699999999998
 30
0.0
 11
87.30923675437839
 21
16.12899999999998
 31
0.0
  0
SOLID
  5
162
330
159
100
AcDbEntity
  8
치수문자_일반주서
 62
     0
100
AcDbTrace
 10
87.85957008771172
 20
-12.82700000000002
 30
0.0
 11
86.75890342104506
 21
-12.82700000000002
 31
0.0
 12
87.30923675437839
 22
-9.525000000000023
 32
0.0
 13
87.30923675437839
 23
-9.525000000000023
 33
0.0
  0
SOLID
  5
163
330
159
100
AcDbEntity
  8
치수문자_일반주서
 62
     0
100
AcDbTrace
 10
86.75890342104506
 20
12.82699999999998
 30
0.0
 11
87.85957008771172
 21
12.82699999999998
 31
0.0
 12
87.30923675437839
 22
9.52499999999998
 32
0.0
 13
87.30923675437839
 23
9.52499999999998
 33
0.0
  0
MTEXT
  5
164
330
159
100
AcDbEntity
  8
치수문자_일반주서
 62
     0
100
AcDbMText
 10
84.68423675437839
 20
30.12899999999998
 30
0.0
 40
3.5
 41
0.0
 71
     5
 72
     1
  1
\A1;{%%c19.05 [3/4]}
  7
SLDTEXTSTYLE0
 11
0.0
 21
1.0
 31
0.0
 73
     1
 44
1.0
  0
POINT
  5
165
330
159
100
AcDbEntity
  8
Defpoints
 62
     0
100
AcDbPoint
 10
46.34205665134677
 20
-9.52500000000002
 30
0.0
  0
POINT
  5
167
330
159
100
AcDbEntity
  8
Defpoints
 62
     0
100
AcDbPoint
 10
59.65800000000002
 20
9.524999999999984
 30
0.0
  0
POINT
  5
169
330
159
100
AcDbEntity
  8
Defpoints
 62
     0
100
AcDbPoint
 10
87.30923675437839
 20
9.524999999999983
 30
0.0
  0
ENDBLK
  5
15B
330
159
100
AcDbEntity
  8
0
100
AcDbBlockEnd
  0
ENDSEC
  0
SECTION
  2
ENTITIES
  0
LINE
  5
95
330
1F
100
AcDbEntity
  8
0
  6
Continuous
 62
     4
370
    15
100
AcDbLine
 10
2.0
 20
9.524999999999984
 30
0.0
 11
-66.84199999999998
 21
9.524999999999963
 31
0.0
  0
LINE
  5
96
330
1F
100
AcDbEntity
  8
0
  6
Continuous
 62
     4
370
    15
100
AcDbLine
 10
-66.84199999999998
 20
-9.52500000000002
 30
0.0
 11
2.0
 21
-9.525
 31
0.0
  0
LINE
  5
97
330
1F
100
AcDbEntity
  8
0
  6
Continuous
 62
     4
370
    15
100
AcDbLine
 10
-66.84199999999998
 20
9.524999999999967
 30
0.0
 11
-67.34199999999998
 21
9.024999999999968
 31
0.0
  0
LINE
  5
98
330
1F
100
AcDbEntity
  8
0
  6
Continuous
 62
     4
370
    15
100
AcDbLine
 10
-67.34199999999998
 20
-9.025000000000032
 30
0.0
 11
-66.84199999999998
 21
-9.52500000000003
 31
0.0
  0
LINE
  5
99
330
1F
100
AcDbEntity
  8
0
  6
Continuous
 62
     4
370
    15
100
AcDbLine
 10
2.0
 20
-9.524999999999993
 30
0.0
 11
2.508000000000017
 21
-9.016999999999989
 31
0.0
  0
LINE
  5
9A
330
1F
100
AcDbEntity
  8
0
  6
Continuous
 62
     4
370
    15
100
AcDbLine
 10
2.50800000000001
 20
9.016999999999971
 30
0.0
 11
2.0
 21
9.524999999999977
 31
0.0
  0
LINE
  5
9B
330
1F
100
AcDbEntity
  8
0
  6
Continuous
 62
     4
370
    15
100
AcDbLine
 10
31.2080571126683
 20
9.01699999999998
 30
0.0
 11
2.50800000000001
 21
9.016999999999971
 31
0.0
  0
LINE
  5
9C
330
1F
100
AcDbEntity
  8
0
  6
Continuous
 62
     4
370
    15
100
AcDbLine
 10
34.25800000000001
 20
9.016999999999982
 30
0.0
 11
32.28288661581269
 21
9.01699999999998
 31
0.0
  0
LINE
  5
9D
330
1F
100
AcDbEntity
  8
0
  6
Continuous
 62
     4
370
    15
100
AcDbLine
 10
2.508000000000017
 20
-9.016999999999989
 30
0.0
 11
31.20805711266831
 21
-9.01699999999998
 31
0.0
  0
LINE
  5
9E
102
{ACAD_REACTORS
102
}
330
1F
100
AcDbEntity
  8
0
  6
Continuous
 62
     1
370
    15
100
AcDbLine
 10
45.63010553679024
 20
-9.52500000000002
 30
0.0
 11
47.05400776590329
 21
-9.52500000000002
 31
0.0
  0
LINE
  5
9F
330
1F
100
AcDbEntity
  8
0
  6
Continuous
 62
     1
370
    15
100
AcDbLine
 10
59.65800000000002
 20
9.524999999999984
 30
0.0
 11
58.8661080681238
 21
9.524999999999984
 31
0.0
  0
LINE
  5
A0
330
1F
100
AcDbEntity
  8
0
  6
Continuous
 62
     4
370
    15
100
AcDbLine
 10
2.0
 20
9.524999999999977
 30
0.0
 11
2.0
 21
-9.524999999999979
 31
0.0
  0
LINE
  5
A1
330
1F
100
AcDbEntity
  8
0
  6
Continuous
 62
     4
370
    15
100
AcDbLine
 10
-66.84199999999998
 20
9.52499999999997
 30
0.0
 11
-66.84199999999998
 21
-9.525000000000015
 31
0.0
  0
LINE
  5
A2
330
1F
100
AcDbEntity
  8
0
  6
Continuous
 62
     4
370
    15
100
AcDbLine
 10
-67.34199999999998
 20
9.024999999999968
 30
0.0
 11
-67.34199999999998
 21
-9.025000000000032
 31
0.0
  0
LINE
  5
A3
330
1F
100
AcDbEntity
  8
0
  6
Continuous
 62
     4
370
    15
100
AcDbLine
 10
2.50800000000001
 20
9.016999999999971
 30
0.0
 11
2.508000000000017
 21
-9.016999999999989
 31
0.0
  0
SPLINE
  5
A4
330
1F
100
AcDbEntity
  8
0
  6
Continuous
 62
     4
370
    15
100
AcDbSpline
210
0.0
220
0.0
230
1.0
 70
     8
 71
     3
 72
    10
 73
     6
 74
     0
 42
0.000000001
 43
0.00000001
 40
0.0
 40
0.0
 40
0.0
 40
0.0
 40
0.5
 40
0.5
 40
1.0
 40
1.0
 40
1.0
 40
1.0
 10
34.258
 20
8.907256650009447
 30
0.0
 10
33.7496409534858
 20
8.963649264193062
 30
0.0
 10
33.23888160960966
 20
8.998451159519275
 30
0.0
 10
32.22367303111671
 20
9.024180779217456
 30
0.0
 10
31.71743375865177
 20
9.015219533158607
 30
0.0
 10
31.2080571126683
 20
8.984394913532844
 30
0.0
  0
SPLINE
  5
A5
330
1F
100
AcDbEntity
  8
0
  6
Continuous
 62
     1
370
    15
100
AcDbSpline
210
0.0
220
0.0
230
1.0
 70
     8
 71
     3
 72
     8
 73
     4
 74
     0
 42
0.000000001
 43
0.00000001
 40
0.0
 40
0.0
 40
0.0
 40
0.0
 40
1.0
 40
1.0
 40
1.0
 40
1.0
 10
34.15825945517093
 20
-0.0350666569322083
 30
0.0
 10
34.19151552849323
 20
-0.0585666794686647
 30
0.0
 10
34.22476289233541
 20
-0.0820642874863433
 30
0.0
 10
34.25800000000001
 20
-0.1055583857226944
 30
0.0
  0
SPLINE
  5
A6
330
1F
100
AcDbEntity
  8
0
  6
Continuous
 62
     4
370
    15
100
AcDbSpline
210
0.0
220
0.0
230
1.0
 70
     8
 71
     3
 72
    10
 73
     6
 74
     0
 42
0.000000001
 43
0.00000001
 40
0.0
 40
0.0
 40
0.0
 40
0.0
 40
0.5000000000000001
 40
0.5000000000000001
 40
1.0
 40
1.0
 40
1.0
 40
1.0
 10
34.15816942010372
 20
-0.050895100071371
 30
0.0
 10
33.66616310525421
 20
0.2998587797542254
 30
0.0
 10
33.17225144805919
 20
0.6511778369295929
 30
0.0
 10
32.19067067613289
 20
1.347799341346775
 30
0.0
 10
31.70076691159526
 20
1.693638256575548
 30
0.0
 10
31.20805711266831
 20
2.035506450307616
 30
0.0
  0
SPLINE
  5
A7
330
1F
100
AcDbEntity
  8
0
  6
Continuous
 62
     4
370
    15
100
AcDbSpline
210
0.0
220
0.0
230
1.0
 70
    24
 71
     3
 72
    20
 73
    16
 74
     0
 42
0.000000001
 43
0.00000001
 40
0.0
 40
0.0
 40
0.0
 40
0.0
 40
0.2500000000000002
 40
0.2500000000000002
 40
0.3750000000000001
 40
0.3750000000000001
 40
0.5000000000000001
 40
0.5000000000000001
 40
0.6250000000000001
 40
0.6250000000000001
 40
0.75
 40
0.75
 40
0.875
 40
0.875
 40
1.0
 40
1.0
 40
1.0
 40
1.0
 10
34.25800000000001
 20
8.907256650009401
 30
0.0
 10
34.25800000000001
 20
8.174796572154548
 30
0.0
 10
34.25800000000001
 20
7.366694302584081
 30
0.0
 10
34.25800000000001
 20
6.078891756375053
 30
0.0
 10
34.25800000000001
 20
5.637611545298965
 30
0.0
 10
34.25800000000001
 20
4.746557675365512
 30
0.0
 10
34.25800000000001
 20
4.296773943577275
 30
0.0
 10
34.25800000000001
 20
3.411782426400343
 30
0.0
 10
34.25800000000001
 20
2.976637769699301
 30
0.0
 10
34.25800000000001
 20
2.150969618608145
 30
0.0
 10
34.25800000000001
 20
1.760606271080392
 30
0.0
 10
34.25800000000001
 20
1.058236111975645
 30
0.0
 10
34.25800000000001
 20
0.7464673319140565
 30
0.0
 10
34.25800000000001
 20
0.2326058810895824
 30
0.0
 10
34.25800000000001
 20
0.030750314504031
 30
0.0
 10
34.25800000000001
 20
-0.1055583857225723
 30
0.0
  0
SPLINE
  5
A8
330
1F
100
AcDbEntity
  8
0
  6
Continuous
 62
     1
370
    15
100
AcDbSpline
210
0.0
220
0.0
230
1.0
 70
     8
 71
     3
 72
     8
 73
     4
 74
     0
 42
0.000000001
 43
0.00000001
 40
0.0
 40
0.0
 40
0.0
 40
0.0
 40
1.0
 40
1.0
 40
1.0
 40
1.0
 10
34.15816942010372
 20
-0.0508951000714983
 30
0.0
 10
34.15816790494357
 20
-0.0457058207926894
 30
0.0
 10
34.15816638810658
 20
-0.0404079559760042
 30
0.0
 10
34.15816486959982
 20
-0.0350019635211187
 30
0.0
  0
SPLINE
  5
A9
330
1F
100
AcDbEntity
  8
0
  6
Continuous
 62
     4
370
    15
100
AcDbSpline
210
0.0
220
0.0
230
1.0
 70
     8
 71
     3
 72
    10
 73
     6
 74
     0
 42
0.000000001
 43
0.00000001
 40
0.0
 40
0.0
 40
0.0
 40
0.0
 40
0.5
 40
0.5
 40
1.0
 40
1.0
 40
1.0
 40
1.0
 10
34.25800000000001
 20
-5.668248009575554
 30
0.0
 10
33.7496409534858
 20
-5.386283349774298
 30
0.0
 10
33.23888160960966
 20
-5.090082309565572
 30
0.0
 10
32.22367303111671
 20
-4.475688798312504
 30
0.0
 10
31.71743375865177
 20
-4.157187544737596
 30
0.0
 10
31.20805711266831
 20
-3.828719666434562
 30
0.0
  0
LINE
  5
AA
330
1F
100
AcDbEntity
  8
0
  6
Continuous
 62
     4
370
    15
100
AcDbLine
 10
31.20805711266831
 20
-3.828714724614972
 30
0.0
 11
31.20805711266831
 21
-9.01699999999998
 31
0.0
  0
SPLINE
  5
AB
330
1F
100
AcDbEntity
  8
0
  6
Continuous
 62
     4
370
    15
100
AcDbSpline
210
0.0
220
0.0
230
1.0
 70
     8
 71
     3
 72
    10
 73
     6
 74
     0
 42
0.000000001
 43
0.00000001
 40
0.0
 40
0.0
 40
0.0
 40
0.0
 40
0.4999999999999999
 40
0.4999999999999999
 40
1.0
 40
1.0
 40
1.0
 40
1.0
 10
34.15816942010373
 20
-7.783379123453193
 30
0.0
 10
33.66616310525422
 20
-7.960470628296224
 30
0.0
 10
33.17225144805919
 20
-8.120062247123531
 30
0.0
 10
32.19067067613289
 20
-8.401086519990054
 30
0.0
 10
31.70076691159526
 20
-8.522805769528677
 30
0.0
 10
31.20805711266831
 20
-8.62513463192362
 30
0.0
  0
ELLIPSE
  5
AC
330
1F
100
AcDbEntity
  8
0
  6
Continuous
 62
     4
370
    15
100
AcDbEllipse
 10
34.15771246779961
 20
0.0000000000000013
 30
0.0
 11
-0.0002383106934260581
 21
9.01699999999998
 31
0.0
210
0.0
220
0.0
230
1.0
 40
0.0000551883089432
 41
3.670835807461455
 42
3.685121048314975
  0
SPLINE
  5
AD
330
1F
100
AcDbEntity
  8
0
  6
Continuous
 62
     4
370
    15
100
AcDbSpline
210
0.0
220
0.0
230
1.0
 70
     8
 71
     3
 72
     8
 73
     4
 74
     0
 42
0.000000001
 43
0.00000001
 40
0.0
 40
0.0
 40
0.0
 40
0.0
 40
1.0
 40
1.0
 40
1.0
 40
1.0
 10
34.25800000000001
 20
-3.343784216986131
 30
0.0
 10
34.22476289233541
 20
-3.321770018633346
 30
0.0
 10
34.19151552849323
 20
-3.299718893873385
 30
0.0
 10
34.15825945517093
 20
-3.277631851362211
 30
0.0
  0
LINE
  5
AE
330
1F
100
AcDbEntity
  8
0
  6
Continuous
 62
     4
370
    15
100
AcDbLine
 10
31.2080571126683
 20
9.01699999999998
 30
0.0
 11
31.20805711266831
 21
2.035507294810371
 31
0.0
  0
LINE
  5
AF
330
1F
100
AcDbEntity
  8
0
  6
Continuous
 62
     4
370
    15
100
AcDbLine
 10
34.25800000000002
 20
-3.343784217017366
 30
0.0
 11
34.25800000000001
 21
-5.046915573204215
 31
0.0
  0
ELLIPSE
  5
B0
330
1F
100
AcDbEntity
  8
0
  6
Continuous
 62
     4
370
    15
100
AcDbEllipse
 10
34.15771246779961
 20
-0.0000000000000281
 30
0.0
 11
-0.0003118074587007414
 21
9.016999999999985
 31
0.0
210
0.0
220
0.0
230
1.0
 40
0.0000504823782161
 41
4.340372498146023
 42
4.706744599098352
  0
LINE
  5
B1
330
1F
100
AcDbEntity
  8
0
  6
Continuous
 62
     4
370
    15
100
AcDbLine
 10
34.25800000000002
 20
-0.1055583857225734
 30
0.0
 11
34.25800000000002
 21
-3.343784217017367
 31
0.0
  0
SPLINE
  5
B2
330
1F
100
AcDbEntity
  8
0
  6
Continuous
 62
     4
370
    15
100
AcDbSpline
210
0.0
220
0.0
230
1.0
 70
     8
 71
     3
 72
     8
 73
     4
 74
     0
 42
0.000000001
 43
0.00000001
 40
0.0
 40
0.0
 40
0.0
 40
0.0
 40
1.0
 40
1.0
 40
1.0
 40
1.0
 10
34.15825945517093
 20
-7.722648257215348
 30
0.0
 10
34.19151552849323
 20
-7.710818396344846
 30
0.0
 10
34.22476289233542
 20
-7.698909481290273
 30
0.0
 10
34.25800000000002
 20
-7.686922112909196
 30
0.0
  0
SPLINE
  5
B3
330
1F
100
AcDbEntity
  8
0
  6
Continuous
 62
     4
370
    15
100
AcDbSpline
210
0.0
220
0.0
230
1.0
 70
     8
 71
     3
 72
     8
 73
     4
 74
     0
 42
0.000000001
 43
0.00000001
 40
0.0
 40
0.0
 40
0.0
 40
0.0
 40
1.0
 40
1.0
 40
1.0
 40
1.0
 10
34.15816942010373
 20
-7.783379123453201
 30
0.0
 10
34.15816790494357
 20
-7.76305956509358
 30
0.0
 10
34.15816638810658
 20
-7.742829948269929
 30
0.0
 10
34.15816486959982
 20
-7.72268989370338
 30
0.0
  0
SPLINE
  5
B4
330
1F
100
AcDbEntity
  8
0
  6
Continuous
 62
     1
370
    15
100
AcDbSpline
210
0.0
220
0.0
230
1.0
 70
    24
 71
     3
 72
    10
 73
     6
 74
     0
 42
0.000000001
 43
0.00000001
 40
0.0
 40
0.0
 40
0.0
 40
0.0
 40
0.1500259267022915
 40
0.7656398235607911
 40
1.0
 40
1.0
 40
1.0
 40
1.0
 10
34.25800000000002
 20
-6.01220374706415
 30
0.0
 10
34.25800000000002
 20
-6.07603332944129
 30
0.0
 10
34.25800000000002
 20
-6.401780160428519
 30
0.0
 10
34.25800000000002
 20
-6.99349087509886
 30
0.0
 10
34.25800000000002
 20
-7.537048891362317
 30
0.0
 10
34.25800000000002
 20
-7.686922112909197
 30
0.0
  0
SPLINE
  5
B5
330
1F
100
AcDbEntity
  8
0
  6
Continuous
 62
     1
370
    15
100
AcDbSpline
210
0.0
220
0.0
230
1.0
 70
     8
 71
     3
 72
    19
 73
    15
 74
     0
 42
0.000000001
 43
0.00000001
 40
0.0
 40
0.0
 40
0.0
 40
0.0
 40
0.0258760535300525
 40
0.1064383610030945
 40
0.1851610000276346
 40
0.2638834955856029
 40
0.3444437915784856
 40
0.4250039955694571
 40
0.5123248849137834
 40
0.5996460661852863
 40
0.6894959372693144
 40
0.7793454859190242
 40
0.8890595390594029
 40
0.9999999999999999
 40
0.9999999999999999
 40
0.9999999999999999
 40
0.9999999999999999
 10
38.70227888187107
 20
8.806223878728977
 30
0.0
 10
38.88296126373541
 20
8.83136484933286
 30
0.0
 10
39.62617879362033
 20
8.934779525840487
 30
0.0
 10
40.92021138855902
 20
8.955961078280819
 30
0.0
 10
42.58293895249701
 20
8.868072370220734
 30
0.0
 10
44.245139519888
 20
8.618406553580298
 30
0.0
 10
45.92034741601276
 20
8.217983739235166
 30
0.0
 10
47.65509822255441
 20
7.652751962503817
 30
0.0
 10
49.43745683532696
 20
6.920851822261629
 30
0.0
 10
51.28567216201923
 20
6.018331954173973
 30
0.0
 10
53.15115008777413
 20
4.975403156873837
 30
0.0
 10
55.1716202881881
 20
3.725811147805557
 30
0.0
 10
57.34136722407715
 20
2.27941723012302
 30
0.0
 10
58.88293304377049
 20
1.196668911706334
 30
0.0
 10
59.65800000000002
 20
0.6522857703593077
 30
0.0
  0
LINE
  5
B6
330
1F
100
AcDbEntity
  8
0
  6
Continuous
 62
     1
370
    15
100
AcDbLine
 10
59.65800000000002
 20
-4.344098551086427
 30
0.0
 11
59.65800000000002
 21
0.6522857703592946
 31
0.0
  0
SPLINE
  5
B7
330
1F
100
AcDbEntity
  8
0
  6
Continuous
 62
     1
370
    15
100
AcDbSpline
210
0.0
220
0.0
230
1.0
 70
     8
 71
     3
 72
    37
 73
    33
 74
     0
 42
0.000000001
 43
0.00000001
 40
0.0
 40
0.0
 40
0.0
 40
0.0
 40
0.0126065158695221
 40
0.0334502021738502
 40
0.0625305498068945
 40
0.0795485171271299
 40
0.0937746404774793
 40
0.1249831048887227
 40
0.1875319603795866
 40
0.203115011913509
 40
0.2187301145973173
 40
0.2356693564185495
 40
0.2500287863160829
 40
0.3124789636839388
 40
0.3437694825773941
 40
0.3750520198775012
 40
0.4062397081846225
 40
0.4375212097487783
 40
0.499991692069497
 40
0.5312548644671808
 40
0.5625597894779434
 40
0.5937575356691167
 40
0.6250142603207808
 40
0.6875151722252659
 40
0.750049136583808
 40
0.7812760225603824
 40
0.8124990468503919
 40
0.8750362160583423
 40
0.9020700390170825
 40
0.93754447627511
 40
0.9687935874302572
 40
1.0
 40
1.0
 40
1.0
 40
1.0
 10
59.65800000000002
 20
-4.34409855108643
 30
0.0
 10
59.55133597211626
 20
-4.272177038609982
 30
0.0
 10
59.26831302316533
 20
-4.081340081128132
 30
0.0
 10
58.73878942166275
 20
-3.718064514166155
 30
0.0
 10
58.17180640225784
 20
-3.321229402583466
 30
0.0
 10
57.66092734738523
 20
-2.957425957626892
 30
0.0
 10
57.13252470161925
 20
-2.576316801357389
 30
0.0
 10
56.21903828110126
 20
-1.908299902925417
 30
0.0
 10
55.29153357687593
 20
-1.219809205870426
 30
0.0
 10
54.49893278756128
 20
-0.6223277467030836
 30
0.0
 10
54.09146133702394
 20
-0.315500437723961
 30
0.0
 10
53.69414309729729
 20
-0.0164059745320587
 30
0.0
 10
52.89992520008565
 20
0.5808580627955411
 30
0.0
 10
51.98532183223967
 20
1.270578970303094
 30
0.0
 10
50.92634251267872
 20
2.054037973488775
 30
0.0
 10
50.13201030509377
 20
2.633457325282119
 30
0.0
 10
49.33935344203824
 20
3.204445311172435
 30
0.0
 10
48.28082709505787
 20
3.945677339844447
 30
0.0
 10
47.2224384533566
 20
4.659542059460358
 30
0.0
 10
46.16428057716411
 20
5.33499150720413
 30
0.0
 10
45.36926670843044
 20
5.818982407778439
 30
0.0
 10
44.5765096339871
 20
6.282299526749894
 30
0.0
 10
43.5182357514245
 20
6.864905524806945
 30
0.0
 10
42.19501786899157
 20
7.52832696797835
 30
0.0
 10
40.87108170370375
 20
8.091934294066036
 30
0.0
 10
39.81331840505672
 20
8.478683136419672
 30
0.0
 10
38.75571603752662
 20
8.820922727486153
 30
0.0
 10
37.73173551367476
 20
9.084461199744927
 30
0.0
 10
36.67390929723778
 20
9.289118223124985
 30
0.0
 10
35.87961151992339
 20
9.404913822058539
 30
0.0
 10
35.05031084975319
 20
9.487516963032105
 30
0.0
 10
34.52198321707875
 20
9.508657720097034
 30
0.0
 10
34.25800000000001
 20
9.519220872043546
 30
0.0
  0
SPLINE
  5
B8
330
1F
100
AcDbEntity
  8
0
  6
Continuous
 62
     1
370
    15
100
AcDbSpline
210
0.0
220
0.0
230
1.0
 70
     8
 71
     3
 72
    38
 73
    34
 74
     0
 42
0.000000001
 43
0.00000001
 40
0.0
 40
0.0
 40
0.0
 40
0.0
 40
0.0625
 40
0.0625
 40
0.125
 40
0.125
 40
0.1875
 40
0.1875
 40
0.25
 40
0.25
 40
0.3124999999999999
 40
0.3124999999999999
 40
0.3749999999999999
 40
0.3749999999999999
 40
0.4375
 40
0.4375
 40
0.5
 40
0.5
 40
0.5625
 40
0.5625
 40
0.625
 40
0.625
 40
0.6875
 40
0.6875
 40
0.75
 40
0.75
 40
0.8125000000000001
 40
0.8125000000000001
 40
0.8750000000000001
 40
0.8750000000000001
 40
0.9375000000000001
 40
0.9375000000000001
 40
1.0
 40
1.0
 40
1.0
 40
1.0
 10
59.65800000000002
 20
-5.269722087595496
 30
0.0
 10
59.13135775914075
 20
-4.938071389685513
 30
0.0
 10
58.59982555553336
 20
-4.591532385755138
 30
0.0
 10
57.5394895019974
 20
-3.876676783955618
 30
0.0
 10
57.01364129388673
 20
-3.509097942112351
 30
0.0
 10
55.95420111026424
 20
-2.755659649303925
 30
0.0
 10
55.42231811252898
 20
-2.370159639818207
 30
0.0
 10
54.36676189415174
 20
-1.590736125200084
 30
0.0
 10
53.83778297275737
 20
-1.195524471065894
 30
0.0
 10
52.77695347794279
 20
-0.400167591593
 30
0.0
 10
52.25036313352688
 20
-0.0013488632802402
 30
0.0
 10
51.19222011509452
 20
0.7954457192698834
 30
0.0
 10
50.66018970258943
 20
1.193533042598824
 30
0.0
 10
49.60275814279676
 20
1.979702889888633
 30
0.0
 10
49.07559431915591
 20
2.36823904764556
 30
0.0
 10
48.01467443644636
 20
3.132424849821982
 30
0.0
 10
47.4866007569037
 20
3.506696877545306
 30
0.0
 10
46.43015455997933
 20
4.234972918200588
 30
0.0
 10
45.89818030073147
 20
4.589764320551142
 30
0.0
 10
44.83927215796071
 20
5.272233777406156
 30
0.0
 10
44.31318295738713
 20
5.599802515448096
 30
0.0
 10
43.25257585464539
 20
6.225523270160304
 30
0.0
 10
42.72227951363827
 20
6.52277020564104
 30
0.0
 10
41.66792765432364
 20
7.080398228154829
 30
0.0
 10
41.13621304448463
 20
7.342102196481195
 30
0.0
 10
40.07622894148575
 20
7.824920935094706
 30
0.0
 10
39.55047253214903
 20
8.045773430767161
 30
0.0
 10
38.49058098114288
 20
8.445228363918682
 30
0.0
 10
37.95883013087001
 20
8.623395037826583
 30
0.0
 10
36.90424357935019
 20
8.932630962428126
 30
0.0
 10
36.37421101693872
 20
9.06443870416263
 30
0.0
 10
35.31355293695701
 20
9.279686251230999
 30
0.0
 10
34.78738706655939
 20
9.362921915133105
 30
0.0
 10
34.25800000000001
 20
9.421543673277531
 30
0.0
  0
LINE
  5
B9
330
1F
100
AcDbEntity
  8
0
  6
Continuous
 62
     4
370
    15
100
AcDbLine
 10
34.25800000000001
 20
9.421543673277528
 30
0.0
 11
34.25800000000001
 21
9.51922087204971
 31
0.0
  0
LINE
  5
BA
330
1F
100
AcDbEntity
  8
0
  6
Continuous
 62
     1
370
    15
100
AcDbLine
 10
59.65800000000002
 20
-5.269722087595503
 30
0.0
 11
59.65800000000002
 21
-4.344098551086431
 31
0.0
  0
SPLINE
  5
BB
330
1F
100
AcDbEntity
  8
0
  6
Continuous
 62
     1
370
    15
100
AcDbSpline
210
0.0
220
0.0
230
1.0
 70
     8
 71
     3
 72
    11
 73
     7
 74
     0
 42
0.000000001
 43
0.00000001
 40
0.0
 40
0.0
 40
0.0
 40
0.0
 40
0.2156048011005502
 40
0.5742646981149316
 40
0.9417278011685248
 40
1.0
 40
1.0
 40
1.0
 40
1.0
 10
58.10004233223648
 20
-4.239824087326735
 30
0.0
 10
57.99454187089284
 20
-4.265029507765922
 30
0.0
 10
57.71354075090274
 20
-4.33216429829695
 30
0.0
 10
57.19849423563792
 20
-4.542538882405633
 30
0.0
 10
56.75911329563592
 20
-4.755841180337894
 30
0.0
 10
56.51760189117463
 20
-4.887648908501999
 30
0.0
 10
56.48454519956714
 20
-4.905689992032295
 30
0.0
  0
SPLINE
  5
BC
330
1F
100
AcDbEntity
  8
0
  6
Continuous
 62
     1
370
    15
100
AcDbSpline
210
0.0
220
0.0
230
1.0
 70
     8
 71
     3
 72
     8
 73
     4
 74
     0
 42
0.000000001
 43
0.00000001
 40
0.0
 40
0.0
 40
0.0
 40
0.0
 40
1.0
 40
1.0
 40
1.0
 40
1.0
 10
59.65800000000002
 20
-5.56839286237375
 30
0.0
 10
58.56688231960771
 20
-5.493565819759753
 30
0.0
 10
57.50828603980415
 20
-5.276077758008864
 30
0.0
 10
56.48454519956716
 20
-4.905689992032261
 30
0.0
  0
LINE
  5
BD
330
1F
100
AcDbEntity
  8
0
  6
Continuous
 62
     1
370
    15
100
AcDbLine
 10
59.65800000000002
 20
-8.045742984115059
 30
0.0
 11
59.65800000000002
 21
-5.56839286237374
 31
0.0
  0
SPLINE
  5
BE
330
1F
100
AcDbEntity
  8
0
  6
Continuous
 62
     1
370
    15
100
AcDbSpline
210
0.0
220
0.0
230
1.0
 70
     8
 71
     3
 72
    38
 73
    34
 74
     0
 42
0.000000001
 43
0.00000001
 40
0.0
 40
0.0
 40
0.0
 40
0.0
 40
0.0624999999999998
 40
0.0624999999999998
 40
0.1249999999999996
 40
0.1249999999999996
 40
0.1874999999999993
 40
0.1874999999999993
 40
0.2499999999999991
 40
0.2499999999999991
 40
0.3124999999999991
 40
0.3124999999999991
 40
0.3749999999999991
 40
0.3749999999999991
 40
0.4374999999999991
 40
0.4374999999999991
 40
0.4999999999999991
 40
0.4999999999999991
 40
0.5624999999999991
 40
0.5624999999999991
 40
0.6249999999999992
 40
0.6249999999999992
 40
0.6874999999999993
 40
0.6874999999999993
 40
0.7499999999999996
 40
0.7499999999999996
 40
0.8124999999999997
 40
0.8124999999999997
 40
0.8749999999999998
 40
0.8749999999999998
 40
0.9374999999999999
 40
0.9374999999999999
 40
1.0
 40
1.0
 40
1.0
 40
1.0
 10
34.25800000000001
 20
-0.1055583857226925
 30
0.0
 10
34.7873870665594
 20
-0.4797627801696147
 30
0.0
 10
35.31355293695702
 20
-0.8529326310271503
 30
0.0
 10
36.37421101693872
 20
-1.594782761812552
 30
0.0
 10
36.90424357935019
 20
-1.962403893166068
 30
0.0
 10
37.95883013087002
 20
-2.684182281484187
 30
0.0
 10
38.4905809811429
 20
-3.039967138780514
 30
0.0
 10
39.55047253214904
 20
-3.7328667528819
 30
0.0
 10
40.07622894148577
 20
-4.069511998746666
 30
0.0
 10
41.13621304448464
 20
-4.721453962296256
 30
0.0
 10
41.66792765432365
 20
-5.03615962672482
 30
0.0
 10
42.72227951363827
 20
-5.635758585939285
 30
0.0
 10
43.25257585464539
 20
-5.922118244603521
 30
0.0
 10
44.31318295738714
 20
-6.462156800119443
 30
0.0
 10
44.8392721579607
 20
-6.715187641743538
 30
0.0
 10
45.89818030073146
 20
-7.185752802032355
 30
0.0
 10
46.43015455997934
 20
-7.403053725021533
 30
0.0
 10
47.48660075690371
 20
-7.79665680776055
 30
0.0
 10
48.01467443644636
 20
-7.973478625266443
 30
0.0
 10
49.07559431915591
 20
-8.284767945101452
 30
0.0
 10
49.60275814279677
 20
-8.418697843190856
 30
0.0
 10
50.66018970258944
 20
-8.641979131003259
 30
0.0
 10
51.19222011509452
 20
-8.731349246997308
 30
0.0
 10
52.25036313352688
 20
-8.863410198112359
 30
0.0
 10
52.77695347794279
 20
-8.906242408777654
 30
0.0
 10
53.83778297275737
 20
-8.945057014761318
 30
0.0
 10
54.36676189415177
 20
-8.940915234802583
 30
0.0
 10
55.42231811252898
 20
-8.885830723718957
 30
0.0
 10
55.95420111026426
 20
-8.834732041591302
 30
0.0
 10
57.01364129388673
 20
-8.686456476388674
 30
0.0
 10
57.53948950199742
 20
-8.589499781151137
 30
0.0
 10
58.59982555553336
 20
-8.350439150687667
 30
0.0
 10
59.13135775914075
 20
-8.208424529842308
 30
0.0
 10
59.65800000000002
 20
-8.045742984114991
 30
0.0
  0
SPLINE
  5
BF
330
1F
100
AcDbEntity
  8
0
  6
Continuous
 62
     4
370
    15
100
AcDbSpline
210
0.0
220
0.0
230
1.0
 70
    24
 71
     3
 72
    20
 73
    16
 74
     0
 42
0.000000001
 43
0.00000001
 40
0.0
 40
0.0
 40
0.0
 40
0.0
 40
0.2500000000000001
 40
0.2500000000000001
 40
0.3750000000000002
 40
0.3750000000000002
 40
0.5000000000000002
 40
0.5000000000000002
 40
0.6250000000000002
 40
0.6250000000000002
 40
0.7500000000000001
 40
0.7500000000000001
 40
0.875
 40
0.875
 40
1.0
 40
1.0
 40
1.0
 40
1.0
 10
34.25800000000001
 20
9.4215436732774
 30
0.0
 10
34.25800000000001
 20
8.682382763996255
 30
0.0
 10
34.25800000000001
 20
7.857123243236941
 30
0.0
 10
34.25800000000001
 20
6.52122514934006
 30
0.0
 10
34.25800000000001
 20
6.060221598001246
 30
0.0
 10
34.25800000000001
 20
5.122521676781876
 30
0.0
 10
34.25800000000001
 20
4.645792270407739
 30
0.0
 10
34.25800000000001
 20
3.701622041235962
 30
0.0
 10
34.25800000000001
 20
3.234238296164066
 30
0.0
 10
34.25800000000001
 20
2.342998782625732
 30
0.0
 10
34.25800000000001
 20
1.919333555425383
 30
0.0
 10
34.25800000000001
 20
1.155448449737631
 30
0.0
 10
34.25800000000001
 20
0.8155380138091055
 30
0.0
 10
34.25800000000001
 20
0.2571141539830724
 30
0.0
 10
34.25800000000001
 20
0.0389212082524817
 30
0.0
 10
34.25800000000001
 20
-0.1055583857225676
 30
0.0
  0
SPLINE
  5
C0
330
1F
100
AcDbEntity
  8
0
  6
Continuous
 62
     1
370
    15
100
AcDbSpline
210
0.0
220
0.0
230
1.0
 70
     8
 71
     3
 72
    41
 73
    37
 74
     0
 42
0.000000001
 43
0.00000001
 40
0.0
 40
0.0
 40
0.0
 40
0.0
 40
0.0343264534694332
 40
0.1549670766835727
 40
0.2812862124014368
 40
0.3215443251040058
 40
0.3618506101529588
 40
0.3936196619658243
 40
0.4400709478698319
 40
0.4880114095550618
 40
0.5097578933247545
 40
0.5286013987152678
 40
0.5445419010888384
 40
0.5545718248793106
 40
0.566425121909806
 40
0.5847353016981308
 40
0.6095022304014517
 40
0.6407257262434514
 40
0.6550114227775766
 40
0.6681277211094679
 40
0.6800746218536562
 40
0.6913450540291375
 40
0.7034917399084446
 40
0.7165393288607953
 40
0.730487822804196
 40
0.7662424188190936
 40
0.7931444907955172
 40
0.8111936671066854
 40
0.8152427161670519
 40
0.8183080670827911
 40
0.8203897196453589
 40
0.850503468394337
 40
0.8883819113081584
 40
0.9282058987334576
 40
0.964122584054002
 40
0.9999999999999999
 40
0.9999999999999999
 40
0.9999999999999999
 40
0.9999999999999999
 10
51.93090976138095
 20
-8.801879766408383
 30
0.0
 10
51.72867428872906
 20
-8.865702913027107
 30
0.0
 10
50.8156804652776
 20
-9.153833070867543
 30
0.0
 10
49.15841570845505
 20
-9.42848426953091
 30
0.0
 10
47.46499736874163
 20
-9.544357004611316
 30
0.0
 10
46.24693272539479
 20
-9.510436839470602
 30
0.0
 10
45.58454116519931
 20
-9.464830444100537
 30
0.0
 10
44.88647029703587
 20
-9.39013970564125
 30
0.0
 10
44.14393255948711
 20
-9.280258085607727
 30
0.0
 10
43.4592503194803
 20
-9.146287156478731
 30
0.0
 10
42.93769711175553
 20
-9.025791225277306
 30
0.0
 10
42.60473148586371
 20
-8.942073698845062
 30
0.0
 10
42.34086274704724
 20
-8.871129790932514
 30
0.0
 10
42.11828061790758
 20
-8.80834753300673
 30
0.0
 10
41.88150476774343
 20
-8.73922853419613
 30
0.0
 10
41.55790183797235
 20
-8.640053265245463
 30
0.0
 10
41.12012674990755
 20
-8.496923787638622
 30
0.0
 10
40.70600941159445
 20
-8.350675733846671
 30
0.0
 10
40.36060410303313
 20
-8.221434964325777
 30
0.0
 10
40.12886929902012
 20
-8.131736708778309
 30
0.0
 10
39.914976012195
 20
-8.046440708685651
 30
0.0
 10
39.70692599308259
 20
-7.961166206607346
 30
0.0
 10
39.49226922234884
 20
-7.871110212150986
 30
0.0
 10
39.26175846061536
 20
-7.771973667038637
 30
0.0
 10
38.89205993012657
 20
-7.608884143346396
 30
0.0
 10
38.44064247923906
 20
-7.400329567450509
 30
0.0
 10
37.96514227972234
 20
-7.168438167197921
 30
0.0
 10
37.67646176658788
 20
-7.022511280923944
 30
0.0
 10
37.52824852756262
 20
-6.946278899161962
 30
0.0
 10
37.4740888667783
 20
-6.918267034575122
 30
0.0
 10
37.26652432297639
 20
-6.810358793129078
 30
0.0
 10
36.85398247469173
 20
-6.590840737531526
 30
0.0
 10
36.21876563441396
 20
-6.23780628322675
 30
0.0
 10
35.5491075196226
 20
-5.847818907938819
 30
0.0
 10
34.89168583454486
 20
-5.449162415989956
 30
0.0
 10
34.46915157335599
 20
-5.180948952467192
 30
0.0
 10
34.25800000000002
 20
-5.046915573354369
 30
0.0
  0
LINE
  5
C1
330
1F
100
AcDbEntity
  8
0
  6
Continuous
 62
     4
370
    15
100
AcDbLine
 10
34.25800000000001
 20
-0.1055583857226963
 30
0.0
 11
34.25800000000001
 21
-5.046915573354364
 31
0.0
  0
SPLINE
  5
C2
330
1F
100
AcDbEntity
  8
0
  6
Continuous
 62
     1
370
    15
100
AcDbSpline
210
0.0
220
0.0
230
1.0
 70
     8
 71
     3
 72
    12
 73
     8
 74
     0
 42
0.000000001
 43
0.00000001
 40
0.0
 40
0.0
 40
0.0
 40
0.0
 40
0.1318046605212894
 40
0.3488114777448653
 40
0.5658394188801082
 40
0.7828988294985995
 40
0.9999999999999999
 40
0.9999999999999999
 40
0.9999999999999999
 40
0.9999999999999999
 10
49.35882120614261
 20
6.929304269273695
 30
0.0
 10
49.81128315932134
 20
7.16478673318216
 30
0.0
 10
51.00869091324603
 20
7.787974000567486
 30
0.0
 10
52.95114771773574
 20
8.540777536363679
 30
0.0
 10
55.18634354966908
 20
9.17013193857166
 30
0.0
 10
57.42195497209753
 20
9.525347865101253
 30
0.0
 10
58.91260386450924
 20
9.5126529582078
 30
0.0
 10
59.65800000000002
 20
9.50630489422911
 30
0.0
  0
SPLINE
  5
C3
330
1F
100
AcDbEntity
  8
0
  6
Continuous
 62
     1
370
    15
100
AcDbSpline
210
0.0
220
0.0
230
1.0
 70
     8
 71
     3
 72
    18
 73
    14
 74
     0
 42
0.000000001
 43
0.00000001
 40
0.0
 40
0.0
 40
0.0
 40
0.0
 40
0.2500000000000004
 40
0.2500000000000004
 40
0.3750000000000006
 40
0.3750000000000006
 40
0.5000000000000008
 40
0.5000000000000008
 40
0.625000000000001
 40
0.625000000000001
 40
0.7500000000000011
 40
0.7500000000000011
 40
1.0
 40
1.0
 40
1.0
 40
1.0
 10
59.65800000000002
 20
6.167475262783482
 30
0.0
 10
59.50937962124053
 20
5.79460038638496
 30
0.0
 10
59.32986809478636
 20
5.448209991890942
 30
0.0
 10
59.00688471461788
 20
4.974677814563415
 30
0.0
 10
58.88915234346576
 20
4.823443571571203
 30
0.0
 10
58.64009111837331
 20
4.54482314809115
 30
0.0
 10
58.50893987808985
 20
4.417230060198671
 30
0.0
 10
58.23363926191285
 20
4.185047860890309
 30
0.0
 10
58.08949164311026
 20
4.080455639791785
 30
0.0
 10
57.78810603171711
 20
3.894438416319153
 30
0.0
 10
57.63068105620716
 20
3.813209580290851
 30
0.0
 10
57.15335535194844
 20
3.610426227940102
 30
0.0
 10
56.82194241105554
 20
3.526080230646867
 30
0.0
 10
56.48454519956713
 20
3.487962176439289
 30
0.0
  0
SPLINE
  5
C4
330
1F
100
AcDbEntity
  8
0
  6
Continuous
 62
     1
370
    15
100
AcDbSpline
210
0.0
220
0.0
230
1.0
 70
     8
 71
     3
 72
     8
 73
     4
 74
     0
 42
0.000000001
 43
0.00000001
 40
0.0
 40
0.0
 40
0.0
 40
0.0
 40
1.0
 40
1.0
 40
1.0
 40
1.0
 10
59.65800000000002
 20
1.837376426293245
 30
0.0
 10
58.56688231960769
 20
2.469810806431666
 30
0.0
 10
57.50828603980414
 20
3.021927505083439
 30
0.0
 10
56.48454519956713
 20
3.487962176439307
 30
0.0
  0
LINE
  5
C5
330
1F
100
AcDbEntity
  8
0
  6
Continuous
 62
     1
370
    15
100
AcDbLine
 10
59.65800000000002
 20
0.6522857703594251
 30
0.0
 11
59.65800000000002
 21
1.837376426293244
 31
0.0
  0
LINE
  5
C6
330
1F
100
AcDbEntity
  8
0
  6
Continuous
 62
     1
370
    15
100
AcDbLine
 10
59.65800000000002
 20
6.167475262783484
 30
0.0
 11
59.65800000000002
 21
9.506304894229112
 31
0.0
  0
SPLINE
  5
C7
330
1F
100
AcDbEntity
  8
0
  6
Continuous
 62
     1
370
    15
100
AcDbSpline
210
0.0
220
0.0
230
1.0
 70
     8
 71
     3
 72
    12
 73
     8
 74
     0
 42
0.000000001
 43
0.00000001
 40
0.0
 40
0.0
 40
0.0
 40
0.0
 40
0.2084637763386661
 40
0.4169233104576706
 40
0.6253794614790424
 40
0.8338330897420906
 40
0.9999999999999999
 40
0.9999999999999999
 40
0.9999999999999999
 40
0.9999999999999999
 10
34.25800000000001
 20
-5.923250644450696
 30
0.0
 10
35.04823305620634
 20
-6.369344943427026
 30
0.0
 10
36.62868308744524
 20
-7.261524463399621
 30
0.0
 10
38.99931699112722
 20
-8.29195184212627
 30
0.0
 10
41.3699013856406
 20
-9.036411010886617
 30
0.0
 10
43.58015888714363
 20
-9.46640919628365
 30
0.0
 10
45.0002216485186
 20
-9.488259346098198
 30
0.0
 10
45.63010553679023
 20
-9.497951211626159
 30
0.0
  0
LINE
  5
C8
330
1F
100
AcDbEntity
  8
0
  6
Continuous
 62
     4
370
    15
100
AcDbLine
 10
34.25800000000001
 20
-5.923250644450699
 30
0.0
 11
34.25800000000001
 21
-5.046915573204215
 31
0.0
  0
SPLINE
  5
C9
330
1F
100
AcDbEntity
  8
0
  6
Continuous
 62
     1
370
    15
100
AcDbSpline
210
0.0
220
0.0
230
1.0
 70
     8
 71
     3
 72
     9
 73
     5
 74
     0
 42
0.000000001
 43
0.00000001
 40
0.0
 40
0.0
 40
0.0
 40
0.0
 40
0.8863936391476243
 40
1.0
 40
1.0
 40
1.0
 40
1.0
 10
34.25800000000002
 20
-7.686922112909196
 30
0.0
 10
34.80613465059519
 20
-7.485503965959028
 30
0.0
 10
35.4245220423665
 20
-7.258270671343041
 30
0.0
 10
36.04305551163059
 20
-6.963891638183607
 30
0.0
 10
36.11332484813907
 20
-6.930448307515124
 30
0.0
  0
SPLINE
  5
CA
330
1F
100
AcDbEntity
  8
0
  6
Continuous
 62
     4
370
    15
100
AcDbSpline
210
0.0
220
0.0
230
1.0
 70
    24
 71
     3
 72
    11
 73
     7
 74
     0
 42
0.000000001
 43
0.00000001
 40
0.0
 40
0.0
 40
0.0
 40
0.0
 40
0.2334109852501644
 40
0.5459351355409587
 40
0.7725257475175503
 40
1.0
 40
1.0
 40
1.0
 40
1.0
 10
34.25800000000002
 20
-6.01220374706415
 30
0.0
 10
34.25800000000002
 20
-6.121782609140499
 30
0.0
 10
34.25800000000002
 20
-6.378081389833961
 30
0.0
 10
34.25800000000002
 20
-6.80216124102381
 30
0.0
 10
34.25800000000002
 20
-7.252404177417055
 30
0.0
 10
34.25800000000002
 20
-7.541895011589083
 30
0.0
 10
34.25800000000002
 20
-7.686922112909193
 30
0.0
  0
LINE
  5
CB
330
1F
100
AcDbEntity
  8
0
  6
Continuous
 62
     1
370
    15
100
AcDbLine
 10
59.65800000000002
 20
1.837376426293245
 30
0.0
 11
59.65800000000002
 21
6.167475262783484
 31
0.0
  0
LINE
  5
CC
330
1F
100
AcDbEntity
  8
0
  6
Continuous
 62
     1
370
    15
100
AcDbLine
 10
59.65800000000002
 20
-5.269722087595493
 30
0.0
 11
59.65800000000002
 21
-5.568392862373752
 31
0.0
  0
LINE
  5
CD
102
{ACAD_REACTORS
102
}
330
1F
100
AcDbEntity
  8
0
  6
Continuous
 62
     1
370
    15
100
AcDbLine
 10
59.65800000000002
 20
9.506304894229112
 30
0.0
 11
59.65800000000002
 21
9.524999999999984
 31
0.0
  0
LINE
  5
CE
330
1F
100
AcDbEntity
  8
중심선
100
AcDbLine
 10
-70.34199999999998
 20
-0.0000000000000341
 30
0.0
 11
62.65800000000002
 21
-0.0000000000000341
 31
0.0
  0
CIRCLE
  5
CF
330
1F
100
AcDbEntity
  8
외형선
100
AcDbCircle
 10
0.0
 20
0.0
 30
0.0
 40
2.999999999999997
  0
INSERT
  5
D0
330
1F
100
AcDbEntity
  8
0
  6
Continuous
 62
     7
100
AcDbBlockReference
 66
     1
  2
블럭10
 10
-11.94027293212521
 20
-51.97707998556498
 30
0.0
  0
ATTRIB
  5
D1
330
D0
100
AcDbEntity
  8
FORMAT
 62
     2
100
AcDbText
 10
-21.12156822086649
 20
-49.9017130727328
 30
0.0
 40
4.233333333333333
  1
E5977048 [ 3 FLUTE ]
 41
0.75
  7
SLDTEXTSTYLE0
 11
-21.12156822086649
 21
-52.01837973939946
 31
0.0
100
AcDbAttribute
  2
AUTOATTR0
 70
     0
 74
     1
  0
SEQEND
  5
D2
330
D0
100
AcDbEntity
  8
0
  6
Continuous
 62
     7
  0
HATCH
  5
D3
330
1F
100
AcDbEntity
  8
중심선
100
AcDbHatch
 10
0.0
 20
0.0
 30
0.0
210
0.0
220
0.0
230
1.0
  2
SOLID
 70
     1
 71
     0
 91
        1
 92
        0
 93
        4
 72
     1
 10
-6.225363627744369
 20
-35.72990568392106
 11
-9.671638871581651
 21
-35.72990568392106
 72
     1
 10
-9.671638871581651
 20
-35.72990568392106
 11
-11.79986873078567
 21
-38.26623126449365
 72
     1
 10
-11.79986873078567
 20
-38.26623126449365
 11
-8.353560401835242
 21
-38.26619183519117
 72
     1
 10
-8.353560401835242
 20
-38.26619183519117
 11
-6.225363627744369
 21
-35.72990568392106
 97
        0
 75
     0
 76
     1
 98
        1
 10
-13.74799999999998
 20
-0.8966207392715972
  0
HATCH
  5
D4
330
1F
100
AcDbEntity
  8
중심선
100
AcDbHatch
 10
0.0
 20
0.0
 30
0.0
210
0.0
220
0.0
230
1.0
  2
SOLID
 70
     1
 71
     0
 91
        1
 92
        0
 93
        4
 72
     1
 10
-1.212599636708418
 20
-35.72990568392109
 11
-4.658874880545673
 21
-35.72990568392109
 72
     1
 10
-4.658874880545673
 20
-35.72990568392109
 11
-9.190012888903087
 21
-41.12990568392107
 72
     1
 10
-9.190012888903087
 20
-41.12990568392107
 11
-5.743737645065806
 21
-41.12990568392107
 72
     1
 10
-5.743737645065806
 20
-41.12990568392107
 11
-1.212599636708418
 21
-35.72990568392109
 97
        0
 75
     0
 76
     1
 98
        1
 10
-13.74799999999998
 20
-0.8966207392715972
  0
HATCH
  5
D5
330
1F
100
AcDbEntity
  8
중심선
100
AcDbHatch
 10
0.0
 20
0.0
 30
0.0
210
0.0
220
0.0
230
1.0
  2
SOLID
 70
     1
 71
     0
 91
        1
 92
        0
 93
        4
 72
     1
 10
3.800164354327478
 20
-35.72990568392106
 11
0.3538891104903623
 21
-35.72990568392106
 72
     1
 10
0.3538891104903623
 20
-35.72990568392106
 11
-6.694547791398887
 21
-44.12990568392108
 72
     1
 10
-6.694547791398887
 20
-44.12990568392108
 11
-3.248272547561605
 21
-44.12990568392108
 72
     1
 10
-3.248272547561605
 20
-44.12990568392108
 11
3.800164354327478
 21
-35.72990568392106
 97
        0
 75
     0
 76
     1
 98
        1
 10
-13.74799999999998
 20
-0.8966207392715972
  0
HATCH
  5
D6
330
1F
100
AcDbEntity
  8
중심선
100
AcDbHatch
 10
0.0
 20
0.0
 30
0.0
210
0.0
220
0.0
230
1.0
  2
SOLID
 70
     1
 71
     0
 91
        1
 92
        0
 93
        6
 72
     3
 10
8.600054785339676
 20
-39.92990568397234
 11
3.960054785062283
 21
1.540882976769353E-10
 40
0.3939339440162628
 50
17.09539180608437
 51
320.0019657685079
 73
     0
 72
     1
 10
10.28305444104027
 20
-38.51779968855936
 11
12.58835631474134
 21
-36.58347297851141
 72
     3
 10
8.60005478528683
 20
-39.92990568392121
 11
6.600054785286829
 21
-1.278976924368180E-13
 40
0.636358354079598
 50
39.99873849337411
 51
368.4976242363725
 73
     1
 72
     1
 10
15.02538727718744
 20
-38.96990568385108
 11
7.280122092122753
 21
-38.96990568385108
 72
     1
 10
7.280122092122753
 20
-38.96990568385108
 11
7.280097047676819
 21
-40.88990568385098
 72
     1
 10
7.280097047676819
 20
-40.88990568385098
 11
11.72147681714885
 21
-40.88990568385095
 97
        0
 75
     0
 76
     1
 98
        1
 10
-13.74799999999998
 20
-0.8966207392715972
  0
POINT
  5
D7
330
1F
100
AcDbEntity
  8
치수문자_일반주서
100
AcDbPoint
 10
-67.34199999999998
 20
-0.0000000000000341
 30
0.0
  0
DIMENSION
  5
D8
330
1F
100
AcDbEntity
  8
치수문자_일반주서
100
AcDbDimension
  2
_D
 10
-80.34199999999994
 20
-9.52500000000007
 30
0.0
 11
-80.34199999999998
 21
0.21028294823689
 31
0.0
 70
   160
  1
%%c<>
 71
     2
 42
19.04999999999998
 52
-270.0
  3
SLDDIMSTYLE0
100
AcDbAlignedDimension
 13
-66.84199999999998
 23
9.524999999999963
 33
0.0
 14
-66.84199999999998
 24
-9.52500000000002
 34
0.0
 50
90.0000000000002
100
AcDbRotatedDimension
1001
ACAD
1000
DSTYLE
1002
{
1070
   171
1070
     6
1070
   273
1070
     7
1002
}
  0
DIMENSION
  5
ED
330
1F
100
AcDbEntity
  8
치수문자_일반주서
100
AcDbDimension
  2
_D_1
 10
59.65800000000003
 20
46.95062537290535
 30
0.0
 11
-8.505911818196711
 21
46.95062537290535
 31
0.0
 70
   160
  1
<>
 71
     2
 42
127.0
  3
SLDDIMSTYLE1
100
AcDbAlignedDimension
 13
-67.34199999999998
 23
9.024999999999968
 33
0.0
 14
59.65800000000002
 24
6.167475262783484
 34
0.0
 50
-0.0000000000000064
100
AcDbRotatedDimension
1001
ACAD
1000
DSTYLE
1002
{
1070
   171
1070
     6
1070
   273
1070
     7
1002
}
  0
DIMENSION
  5
101
330
1F
100
AcDbEntity
  8
치수문자_일반주서
100
AcDbDimension
  2
_D_2
 10
59.65800000000002
 20
34.42376142194367
 30
0.0
 11
30.38651674387773
 21
34.42376142194367
 31
0.0
 70
   160
  1
<>
 71
     2
 42
57.15000000000001
  3
SLDDIMSTYLE1
100
AcDbAlignedDimension
 13
2.50800000000001
 23
9.016999999999971
 33
0.0
 14
59.65800000000002
 24
6.167475262783484
 34
0.0
 50
0.0000000000000285
100
AcDbRotatedDimension
1001
ACAD
1000
DSTYLE
1002
{
1070
   171
1070
     6
1070
   273
1070
     7
1002
}
  0
DIMENSION
  5
114
330
1F
100
AcDbEntity
  8
치수문자_일반주서
100
AcDbDimension
  2
_D_3
 10
59.65800000000002
 20
19.61135534719195
 30
0.0
 11
48.11910958090451
 21
19.61135534719195
 31
0.0
 70
   160
  1
<>
 71
     2
 42
25.40000000000001
  3
SLDDIMSTYLE2
100
AcDbAlignedDimension
 13
34.25800000000001
 23
9.421543673277526
 33
0.0
 14
59.65800000000002
 24
6.167475262783484
 34
0.0
 50
0.0000000000000321
100
AcDbRotatedDimension
1001
ACAD
1000
DSTYLE
1002
{
1070
   171
1070
     6
1070
   273
1070
     7
1002
}
  0
INSERT
  5
130
330
1F
100
AcDbEntity
  8
외형선
100
AcDbBlockReference
  2
SW_DOWELSYMBOL_0
 10
0.0
 20
0.0
 30
0.0
  0
DIMENSION
  5
156
102
{ACAD_REACTORS
102
}
102
{ACAD_XDICTIONARY
360
157
102
}
330
1F
100
AcDbEntity
  8
치수문자_일반주서
100
AcDbDimension
  2
*D7
 10
87.30923675437839
 20
9.52499999999998
 30
0.0
 11
87.30923675437839
 21
30.12899999999998
 31
0.0
 70
   160
  1
{%%c<>[]}
 71
     5
 42
19.05
  3
SLDDIMSTYLE2
100
AcDbAlignedDimension
 13
46.34205665134677
 23
-9.52500000000002
 33
0.0
 14
59.65800000000002
 24
9.524999999999984
 34
0.0
 50
90.0
100
AcDbRotatedDimension
1001
ACAD
1000
DSTYLE
1002
{
1070
   171
1070
     6
1070
   273
1070
     7
1070
   283
1070
     1
1070
   170
1070
     1
1002
}
  0
ENDSEC
  0
SECTION
  2
OBJECTS
  0
DICTIONARY
  5
C
330
0
100
AcDbDictionary
281
     1
  3
ACAD_GROUP
350
D
  3
ACAD_IMAGE_VARS
350
154
  3
ACAD_LAYOUT
350
1A
  3
ACAD_MLINESTYLE
350
17
  3
ACAD_PLOTSETTINGS
350
19
  3
ACAD_PLOTSTYLENAME
350
E
  3
ACAD_SCALELIST
350
47
  3
APPDATA
350
152
  3
DWGPROPS
350
16C
  0
DICTIONARY
  5
157
330
156
100
AcDbDictionary
280
     1
281
     1
  0
DICTIONARY
  5
D
102
{ACAD_REACTORS
330
C
102
}
330
C
100
AcDbDictionary
281
     1
  0
RASTERVARIABLES
  5
154
102
{ACAD_REACTORS
330
C
102
}
330
C
100
AcDbRasterVariables
 90
        0
 70
     1
 71
     1
 72
     1
  0
DICTIONARY
  5
1A
102
{ACAD_REACTORS
330
C
102
}
330
C
100
AcDbDictionary
281
     1
  3
Layout1
350
1E
  3
Layout2
350
26
  3
Model
350
22
  0
DICTIONARY
  5
17
102
{ACAD_REACTORS
330
C
102
}
330
C
100
AcDbDictionary
281
     1
  3
Standard
350
18
  0
DICTIONARY
  5
19
102
{ACAD_REACTORS
330
C
102
}
330
C
100
AcDbDictionary
281
     1
  0
ACDBDICTIONARYWDFLT
  5
E
102
{ACAD_REACTORS
330
C
102
}
330
C
100
AcDbDictionary
281
     1
  3
Normal
350
F
100
AcDbDictionaryWithDefault
340
F
  0
DICTIONARY
  5
47
102
{ACAD_REACTORS
330
C
102
}
330
C
100
AcDbDictionary
281
     1
  3
A0
350
48
  3
A1
350
49
  3
A2
350
4A
  3
A3
350
4B
  3
A4
350
4C
  3
A5
350
4D
  3
A6
350
4E
  3
A7
350
4F
  3
A8
350
50
  3
A9
350
51
  3
B0
350
52
  3
B1
350
53
  3
B2
350
54
  3
B3
350
55
  3
B4
350
56
  3
B5
350
57
  3
B6
350
58
  3
B7
350
59
  3
B8
350
5A
  3
B9
350
5B
  3
C0
350
5C
  3
C1
350
5D
  3
C2
350
5E
  3
C3
350
5F
  3
C4
350
60
  3
C5
350
61
  3
C6
350
62
  3
C7
350
63
  3
C8
350
64
  3
C9
350
65
  3
D0
350
66
  3
D1
350
67
  3
D2
350
68
  0
DICTIONARY
  5
152
102
{ACAD_REACTORS
330
C
102
}
330
C
100
AcDbDictionary
281
     1
  0
XRECORD
  5
16C
102
{ACAD_REACTORS
330
C
102
}
330
C
100
AcDbXrecord
280
     1
  1
DWGPROPS COOKIE
  2

  3

  4

  6

  7

  8
12016016
  9

300
=
301
=
302
=
303
=
304
=
305
=
306
=
307
=
308
=
309
=
 40
0.0
 41
2458269.324901204
 42
2458275.018595567
  1

 90
        0
  0
LAYOUT
  5
1E
102
{ACAD_REACTORS
330
1A
102
}
330
1A
100
AcDbPlotSettings
  1

  2
none_device
  4

  6

 40
0.0
 41
0.0
 42
0.0
 43
0.0
 44
0.0
 45
0.0
 46
0.0
 47
0.0
 48
0.0
 49
0.0
140
0.0
141
0.0
142
1.0
143
1.0
 70
   688
 72
     1
 73
     0
 74
     5
  7

 75
    16
147
1.0
148
0.0
149
0.0
100
AcDbLayout
  1
Layout1
 70
     1
 71
     1
 10
0.0
 20
0.0
 11
420.0
 21
297.0
 12
0.0
 22
0.0
 32
0.0
 14
1.000000000000000E+20
 24
1.000000000000000E+20
 34
1.000000000000000E+20
 15
-1.000000000000000E+20
 25
-1.000000000000000E+20
 35
-1.000000000000000E+20
146
0.0
 13
0.0
 23
0.0
 33
0.0
 16
1.0
 26
0.0
 36
0.0
 17
0.0
 27
1.0
 37
0.0
 76
     0
330
1B
  0
LAYOUT
  5
26
102
{ACAD_REACTORS
330
1A
102
}
330
1A
100
AcDbPlotSettings
  1

  2
none_device
  4

  6

 40
0.0
 41
0.0
 42
0.0
 43
0.0
 44
0.0
 45
0.0
 46
0.0
 47
0.0
 48
0.0
 49
0.0
140
0.0
141
0.0
142
1.0
143
1.0
 70
   688
 72
     1
 73
     0
 74
     5
  7

 75
    16
147
1.0
148
0.0
149
0.0
100
AcDbLayout
  1
Layout2
 70
     1
 71
     2
 10
0.0
 20
0.0
 11
0.0
 21
0.0
 12
0.0
 22
0.0
 32
0.0
 14
0.0
 24
0.0
 34
0.0
 15
0.0
 25
0.0
 35
0.0
146
0.0
 13
0.0
 23
0.0
 33
0.0
 16
1.0
 26
0.0
 36
0.0
 17
0.0
 27
1.0
 37
0.0
 76
     0
330
23
  0
LAYOUT
  5
22
102
{ACAD_REACTORS
330
1A
102
}
330
1A
100
AcDbPlotSettings
  1

  2
none_device
  4
ANSI_A_(11.00_x_8.50_Inches)
  6

 40
6.35
 41
19.05
 42
6.35000508
 43
19.05000254
 44
279.4
 45
215.9
 46
131.2649130931611
 47
81.07488054991988
 48
0.0
 49
0.0
140
0.0
141
0.0
142
0.0692999891632268
143
1.0
 70
  1696
 72
     0
 73
     0
 74
     0
  7

 75
     0
147
0.0235690232323232
148
0.0
149
0.0
100
AcDbLayout
  1
Model
 70
     1
 71
     0
 10
0.0
 20
0.0
 11
420.0
 21
297.0
 12
0.0
 22
0.0
 32
0.0
 14
-84.71700000000004
 24
-49.9017130727328
 34
0.0
 15
87.85957008771172
 25
51.32562537290535
 35
0.0
146
0.0
 13
0.0
 23
0.0
 33
0.0
 16
1.0
 26
0.0
 36
0.0
 17
0.0
 27
1.0
 37
0.0
 76
     0
330
1F
331
29
  0
MLINESTYLE
  5
18
102
{ACAD_REACTORS
330
17
102
}
330
17
100
AcDbMlineStyle
  2
Standard
 70
     0
  3

 62
   256
 51
90.0
 52
90.0
 71
     2
 49
0.5
 62
   256
  6
BYLAYER
 49
-0.5
 62
   256
  6
BYLAYER
  0
ACDBPLACEHOLDER
  5
F
102
{ACAD_REACTORS
330
E
102
}
330
E
  0
SCALE
  5
48
102
{ACAD_REACTORS
330
47
102
}
330
47
100
AcDbScale
 70
     0
300
1:1
140
1.0
141
1.0
290
     1
  0
SCALE
  5
49
102
{ACAD_REACTORS
330
47
102
}
330
47
100
AcDbScale
 70
     0
300
1:2
140
1.0
141
2.0
290
     0
  0
SCALE
  5
4A
102
{ACAD_REACTORS
330
47
102
}
330
47
100
AcDbScale
 70
     0
300
1:4
140
1.0
141
4.0
290
     0
  0
SCALE
  5
4B
102
{ACAD_REACTORS
330
47
102
}
330
47
100
AcDbScale
 70
     0
300
1:5
140
1.0
141
5.0
290
     0
  0
SCALE
  5
4C
102
{ACAD_REACTORS
330
47
102
}
330
47
100
AcDbScale
 70
     0
300
1:8
140
1.0
141
8.0
290
     0
  0
SCALE
  5
4D
102
{ACAD_REACTORS
330
47
102
}
330
47
100
AcDbScale
 70
     0
300
1:10
140
1.0
141
10.0
290
     0
  0
SCALE
  5
4E
102
{ACAD_REACTORS
330
47
102
}
330
47
100
AcDbScale
 70
     0
300
1:16
140
1.0
141
16.0
290
     0
  0
SCALE
  5
4F
102
{ACAD_REACTORS
330
47
102
}
330
47
100
AcDbScale
 70
     0
300
1:20
140
1.0
141
20.0
290
     0
  0
SCALE
  5
50
102
{ACAD_REACTORS
330
47
102
}
330
47
100
AcDbScale
 70
     0
300
1:30
140
1.0
141
30.0
290
     0
  0
SCALE
  5
51
102
{ACAD_REACTORS
330
47
102
}
330
47
100
AcDbScale
 70
     0
300
1:40
140
1.0
141
40.0
290
     0
  0
SCALE
  5
52
102
{ACAD_REACTORS
330
47
102
}
330
47
100
AcDbScale
 70
     0
300
1:50
140
1.0
141
50.0
290
     0
  0
SCALE
  5
53
102
{ACAD_REACTORS
330
47
102
}
330
47
100
AcDbScale
 70
     0
300
1:100
140
1.0
141
100.0
290
     0
  0
SCALE
  5
54
102
{ACAD_REACTORS
330
47
102
}
330
47
100
AcDbScale
 70
     0
300
2:1
140
2.0
141
1.0
290
     0
  0
SCALE
  5
55
102
{ACAD_REACTORS
330
47
102
}
330
47
100
AcDbScale
 70
     0
300
4:1
140
4.0
141
1.0
290
     0
  0
SCALE
  5
56
102
{ACAD_REACTORS
330
47
102
}
330
47
100
AcDbScale
 70
     0
300
8:1
140
8.0
141
1.0
290
     0
  0
SCALE
  5
57
102
{ACAD_REACTORS
330
47
102
}
330
47
100
AcDbScale
 70
     0
300
10:1
140
10.0
141
1.0
290
     0
  0
SCALE
  5
58
102
{ACAD_REACTORS
330
47
102
}
330
47
100
AcDbScale
 70
     0
300
100:1
140
100.0
141
1.0
290
     0
  0
SCALE
  5
59
102
{ACAD_REACTORS
330
47
102
}
330
47
100
AcDbScale
 70
     0
300
1/128" = 1'-0"
140
0.0078125
141
12.0
290
     0
  0
SCALE
  5
5A
102
{ACAD_REACTORS
330
47
102
}
330
47
100
AcDbScale
 70
     0
300
1/64" = 1'-0"
140
0.015625
141
12.0
290
     0
  0
SCALE
  5
5B
102
{ACAD_REACTORS
330
47
102
}
330
47
100
AcDbScale
 70
     0
300
1/32" = 1'-0"
140
0.03125
141
12.0
290
     0
  0
SCALE
  5
5C
102
{ACAD_REACTORS
330
47
102
}
330
47
100
AcDbScale
 70
     0
300
1/16" = 1'-0"
140
0.0625
141
12.0
290
     0
  0
SCALE
  5
5D
102
{ACAD_REACTORS
330
47
102
}
330
47
100
AcDbScale
 70
     0
300
3/32" = 1'-0"
140
0.09375
141
12.0
290
     0
  0
SCALE
  5
5E
102
{ACAD_REACTORS
330
47
102
}
330
47
100
AcDbScale
 70
     0
300
1/8" = 1'-0"
140
0.125
141
12.0
290
     0
  0
SCALE
  5
5F
102
{ACAD_REACTORS
330
47
102
}
330
47
100
AcDbScale
 70
     0
300
3/16" = 1'-0"
140
0.1875
141
12.0
290
     0
  0
SCALE
  5
60
102
{ACAD_REACTORS
330
47
102
}
330
47
100
AcDbScale
 70
     0
300
1/4" = 1'-0"
140
0.25
141
12.0
290
     0
  0
SCALE
  5
61
102
{ACAD_REACTORS
330
47
102
}
330
47
100
AcDbScale
 70
     0
300
3/8" = 1'-0"
140
0.375
141
12.0
290
     0
  0
SCALE
  5
62
102
{ACAD_REACTORS
330
47
102
}
330
47
100
AcDbScale
 70
     0
300
1/2" = 1'-0"
140
0.5
141
12.0
290
     0
  0
SCALE
  5
63
102
{ACAD_REACTORS
330
47
102
}
330
47
100
AcDbScale
 70
     0
300
3/4" = 1'-0"
140
0.75
141
12.0
290
     0
  0
SCALE
  5
64
102
{ACAD_REACTORS
330
47
102
}
330
47
100
AcDbScale
 70
     0
300
1" = 1'-0"
140
1.0
141
12.0
290
     0
  0
SCALE
  5
65
102
{ACAD_REACTORS
330
47
102
}
330
47
100
AcDbScale
 70
     0
300
1-1/2" = 1'-0"
140
1.5
141
12.0
290
     0
  0
SCALE
  5
66
102
{ACAD_REACTORS
330
47
102
}
330
47
100
AcDbScale
 70
     0
300
3" = 1'-0"
140
3.0
141
12.0
290
     0
  0
SCALE
  5
67
102
{ACAD_REACTORS
330
47
102
}
330
47
100
AcDbScale
 70
     0
300
6" = 1'-0"
140
6.0
141
12.0
290
     0
  0
SCALE
  5
68
102
{ACAD_REACTORS
330
47
102
}
330
47
100
AcDbScale
 70
     0
300
1'-0" = 1'-0"
140
12.0
141
12.0
290
     0
  0
ENDSEC
  0
EOF
