  0
SECTION
  2
HEADER
  9
$ACADVER
  1
AC1015
  9
$ACADMAINTVER
 70
     6
  9
$DWGCODEPAGE
  3
ANSI_949
  9
$INSBASE
 10
0.0
 20
0.0
 30
0.0
  9
$EXTMIN
 10
-83.21345802161213
 20
-49.88227576695243
 30
0.0
  9
$EXTMAX
 10
75.30332334579855
 20
53.90000000000005
 30
0.0
  9
$LIMMIN
 10
0.0
 20
0.0
  9
$LIMMAX
 10
420.0
 20
297.0
  9
$ORTHOMODE
 70
     1
  9
$REGENMODE
 70
     1
  9
$FILLMODE
 70
     1
  9
$QTEXTMODE
 70
     0
  9
$MIRRTEXT
 70
     1
  9
$LTSCALE
 40
1.0
  9
$ATTMODE
 70
     1
  9
$TEXTSIZE
 40
3.5
  9
$TRACEWID
 40
1.0
  9
$TEXTSTYLE
  7
Standard
  9
$CLAYER
  8
0
  9
$CELTYPE
  6
ByLayer
  9
$CECOLOR
 62
   256
  9
$CELTSCALE
 40
1.0
  9
$DISPSILH
 70
     0
  9
$DIMSCALE
 40
1.0
  9
$DIMASZ
 40
3.302
  9
$DIMEXO
 40
1.0
  9
$DIMDLI
 40
3.75
  9
$DIMRND
 40
0.0
  9
$DIMDLE
 40
0.0
  9
$DIMEXE
 40
1.0
  9
$DIMTP
 40
0.0
  9
$DIMTM
 40
0.0
  9
$DIMTXT
 40
3.5
  9
$DIMCEN
 40
2.5
  9
$DIMTSZ
 40
0.0
  9
$DIMTOL
 70
     0
  9
$DIMLIM
 70
     0
  9
$DIMTIH
 70
     1
  9
$DIMTOH
 70
     1
  9
$DIMSE1
 70
     0
  9
$DIMSE2
 70
     0
  9
$DIMTAD
 70
     1
  9
$DIMZIN
 70
     0
  9
$DIMBLK
  1

  9
$DIMASO
 70
     1
  9
$DIMSHO
 70
     1
  9
$DIMPOST
  1

  9
$DIMAPOST
  1

  9
$DIMALT
 70
     0
  9
$DIMALTD
 70
     3
  9
$DIMALTF
 40
0.0393700787401575
  9
$DIMLFAC
 40
1.0
  9
$DIMTOFL
 70
     1
  9
$DIMTVP
 40
0.0
  9
$DIMTIX
 70
     0
  9
$DIMSOXD
 70
     0
  9
$DIMSAH
 70
     0
  9
$DIMBLK1
  1

  9
$DIMBLK2
  1

  9
$DIMSTYLE
  2
ISO-25
  9
$DIMCLRD
 70
     0
  9
$DIMCLRE
 70
     0
  9
$DIMCLRT
 70
     0
  9
$DIMTFAC
 40
1.0
  9
$DIMGAP
 40
1.524
  9
$DIMJUST
 70
     0
  9
$DIMSD1
 70
     0
  9
$DIMSD2
 70
     0
  9
$DIMTOLJ
 70
     0
  9
$DIMTZIN
 70
     0
  9
$DIMALTZ
 70
     0
  9
$DIMALTTZ
 70
     0
  9
$DIMUPT
 70
     0
  9
$DIMDEC
 70
     2
  9
$DIMTDEC
 70
     2
  9
$DIMALTU
 70
     2
  9
$DIMALTTD
 70
     3
  9
$DIMTXSTY
  7
Standard
  9
$DIMAUNIT
 70
     0
  9
$DIMADEC
 70
     2
  9
$DIMALTRND
 40
0.0
  9
$DIMAZIN
 70
     0
  9
$DIMDSEP
 70
    44
  9
$DIMATFIT
 70
     3
  9
$DIMFRAC
 70
     0
  9
$DIMLDRBLK
  1

  9
$DIMLUNIT
 70
     2
  9
$DIMLWD
 70
    -2
  9
$DIMLWE
 70
    -2
  9
$DIMTMOVE
 70
     0
  9
$LUNITS
 70
     2
  9
$LUPREC
 70
     2
  9
$SKETCHINC
 40
1.0
  9
$FILLETRAD
 40
10.0
  9
$AUNITS
 70
     0
  9
$AUPREC
 70
     2
  9
$MENU
  1
.
  9
$ELEVATION
 40
0.0
  9
$PELEVATION
 40
0.0
  9
$THICKNESS
 40
0.0
  9
$LIMCHECK
 70
     0
  9
$CHAMFERA
 40
0.0
  9
$CHAMFERB
 40
0.0
  9
$CHAMFERC
 40
0.0
  9
$CHAMFERD
 40
0.0
  9
$SKPOLY
 70
     0
  9
$TDCREATE
 40
2458269.736451181
  9
$TDUCREATE
 40
2458269.361451181
  9
$TDUPDATE
 40
2458275.430249502
  9
$TDUUPDATE
 40
2458275.055249502
  9
$TDINDWG
 40
0.0010209144
  9
$TDUSRTIMER
 40
2458275.04151919
  9
$USRTIMER
 70
     1
  9
$ANGBASE
 50
0.0
  9
$ANGDIR
 70
     0
  9
$PDMODE
 70
     0
  9
$PDSIZE
 40
-1.0
  9
$PLINEWID
 40
0.0
  9
$SPLFRAME
 70
     0
  9
$SPLINETYPE
 70
     6
  9
$SPLINESEGS
 70
     8
  9
$HANDSEED
  5
166
  9
$SURFTAB1
 70
     6
  9
$SURFTAB2
 70
     6
  9
$SURFTYPE
 70
     6
  9
$SURFU
 70
     6
  9
$SURFV
 70
     6
  9
$UCSBASE
  2

  9
$UCSNAME
  2

  9
$UCSORG
 10
0.0
 20
0.0
 30
0.0
  9
$UCSXDIR
 10
1.0
 20
0.0
 30
0.0
  9
$UCSYDIR
 10
0.0
 20
1.0
 30
0.0
  9
$UCSORTHOREF
  2

  9
$UCSORTHOVIEW
 70
     0
  9
$UCSORGTOP
 10
0.0
 20
0.0
 30
0.0
  9
$UCSORGBOTTOM
 10
0.0
 20
0.0
 30
0.0
  9
$UCSORGLEFT
 10
0.0
 20
0.0
 30
0.0
  9
$UCSORGRIGHT
 10
0.0
 20
0.0
 30
0.0
  9
$UCSORGFRONT
 10
0.0
 20
0.0
 30
0.0
  9
$UCSORGBACK
 10
0.0
 20
0.0
 30
0.0
  9
$PUCSBASE
  2

  9
$PUCSNAME
  2

  9
$PUCSORG
 10
0.0
 20
0.0
 30
0.0
  9
$PUCSXDIR
 10
1.0
 20
0.0
 30
0.0
  9
$PUCSYDIR
 10
0.0
 20
1.0
 30
0.0
  9
$PUCSORTHOREF
  2

  9
$PUCSORTHOVIEW
 70
     0
  9
$PUCSORGTOP
 10
0.0
 20
0.0
 30
0.0
  9
$PUCSORGBOTTOM
 10
0.0
 20
0.0
 30
0.0
  9
$PUCSORGLEFT
 10
0.0
 20
0.0
 30
0.0
  9
$PUCSORGRIGHT
 10
0.0
 20
0.0
 30
0.0
  9
$PUCSORGFRONT
 10
0.0
 20
0.0
 30
0.0
  9
$PUCSORGBACK
 10
0.0
 20
0.0
 30
0.0
  9
$USERI1
 70
     0
  9
$USERI2
 70
     0
  9
$USERI3
 70
     0
  9
$USERI4
 70
     0
  9
$USERI5
 70
     0
  9
$USERR1
 40
0.0
  9
$USERR2
 40
0.0
  9
$USERR3
 40
0.0
  9
$USERR4
 40
0.0
  9
$USERR5
 40
0.0
  9
$WORLDVIEW
 70
     1
  9
$SHADEDGE
 70
     3
  9
$SHADEDIF
 70
    70
  9
$TILEMODE
 70
     1
  9
$MAXACTVP
 70
    64
  9
$PINSBASE
 10
0.0
 20
0.0
 30
0.0
  9
$PLIMCHECK
 70
     0
  9
$PEXTMIN
 10
1.000000000000000E+20
 20
1.000000000000000E+20
 30
1.000000000000000E+20
  9
$PEXTMAX
 10
-1.000000000000000E+20
 20
-1.000000000000000E+20
 30
-1.000000000000000E+20
  9
$PLIMMIN
 10
0.0
 20
0.0
  9
$PLIMMAX
 10
0.0
 20
0.0
  9
$UNITMODE
 70
     0
  9
$VISRETAIN
 70
     1
  9
$PLINEGEN
 70
     0
  9
$PSLTSCALE
 70
     1
  9
$TREEDEPTH
 70
  3020
  9
$CMLSTYLE
  2
Standard
  9
$CMLJUST
 70
     0
  9
$CMLSCALE
 40
20.0
  9
$PROXYGRAPHICS
 70
     1
  9
$MEASUREMENT
 70
     1
  9
$CELWEIGHT
370
    -1
  9
$ENDCAPS
280
     0
  9
$JOINSTYLE
280
     0
  9
$LWDISPLAY
290
     1
  9
$INSUNITS
 70
     4
  9
$HYPERLINKBASE
  1

  9
$STYLESHEET
  1

  9
$XEDIT
290
     1
  9
$CEPSNTYPE
380
     0
  9
$PSTYLEMODE
290
     1
  9
$FINGERPRINTGUID
  2
{F5BB66B7-51AD-449B-AB81-9C433D195B04}
  9
$VERSIONGUID
  2
{FAEB1C32-E019-11D5-929B-00C0DF256EC4}
  9
$EXTNAMES
290
     1
  9
$PSVPSCALE
 40
0.0
  9
$OLESTARTUP
290
     0
  0
ENDSEC
  0
SECTION
  2
CLASSES
  0
CLASS
  1
ACDBDICTIONARYWDFLT
  2
AcDbDictionaryWithDefault
  3
ObjectDBX Classes
 90
        0
280
     0
281
     0
  0
CLASS
  1
VISUALSTYLE
  2
AcDbVisualStyle
  3
ObjectDBX Classes
 90
     4095
280
     0
281
     0
  0
CLASS
  1
MATERIAL
  2
AcDbMaterial
  3
ObjectDBX Classes
 90
     1153
280
     0
281
     0
  0
CLASS
  1
SCALE
  2
AcDbScale
  3
ObjectDBX Classes
 90
     1153
280
     0
281
     0
  0
CLASS
  1
SUN
  2
AcDbSun
  3
SCENEOE
 90
     1153
280
     0
281
     0
  0
CLASS
  1
ACDBPLACEHOLDER
  2
AcDbPlaceHolder
  3
ObjectDBX Classes
 90
        0
280
     0
281
     0
  0
CLASS
  1
LAYOUT
  2
AcDbLayout
  3
ObjectDBX Classes
 90
        0
280
     0
281
     0
  0
CLASS
  1
TABLESTYLE
  2
AcDbTableStyle
  3
ObjectDBX Classes
 90
     4095
280
     0
281
     0
  0
CLASS
  1
MLEADERSTYLE
  2
AcDbMLeaderStyle
  3
ACDB_MLEADERSTYLE_CLASS
 90
     4095
280
     0
281
     0
  0
CLASS
  1
RASTERVARIABLES
  2
AcDbRasterVariables
  3
ISM
 90
        0
280
     0
281
     0
  0
CLASS
  1
DIMASSOC
  2
AcDbDimAssoc
  3
"AcDbDimAssoc|Product Desc:     AcDim ARX App For Dimension|Company:          Autodesk, Inc.|WEB Address:      www.autodesk.com"
 90
        0
280
     0
281
     0
  0
ENDSEC
  0
SECTION
  2
TABLES
  0
TABLE
  2
VPORT
  5
8
330
0
100
AcDbSymbolTable
 70
     1
  0
VPORT
  5
29
330
8
100
AcDbSymbolTableRecord
100
AcDbViewportTableRecord
  2
*Active
 70
     0
 10
0.0
 20
0.0
 11
1.0
 21
1.0
 12
29.35038880772084
 22
-18.47196959365885
 13
0.0
 23
0.0
 14
10.0
 24
10.0
 15
10.0
 25
10.0
 16
0.0
 26
0.0
 36
1.0
 17
0.0
 27
0.0
 37
0.0
 40
114.5631606326552
 41
1.515444015444015
 42
50.0
 43
0.0
 44
0.0
 50
0.0
 51
0.0
 71
    16
 72
  2000
 73
     1
 74
     3
 75
     0
 76
     0
 77
     0
 78
     0
281
     0
 65
     1
110
0.0
120
0.0
130
0.0
111
1.0
121
0.0
131
0.0
112
0.0
122
1.0
132
0.0
 79
     0
146
0.0
  0
ENDTAB
  0
TABLE
  2
LTYPE
  5
5
330
0
100
AcDbSymbolTable
 70
     6
  0
LTYPE
  5
14
330
5
100
AcDbSymbolTableRecord
100
AcDbLinetypeTableRecord
  2
ByBlock
 70
     0
  3

 72
    65
 73
     0
 40
0.0
  0
LTYPE
  5
15
330
5
100
AcDbSymbolTableRecord
100
AcDbLinetypeTableRecord
  2
ByLayer
 70
     0
  3

 72
    65
 73
     0
 40
0.0
  0
LTYPE
  5
16
330
5
100
AcDbSymbolTableRecord
100
AcDbLinetypeTableRecord
  2
Continuous
 70
     0
  3
Solid line
 72
    65
 73
     0
 40
0.0
  0
LTYPE
  5
6A
330
5
100
AcDbSymbolTableRecord
100
AcDbLinetypeTableRecord
  2
HIDDEN
 70
     0
  3
Hidden __ __ __ __ __ __ __ __ __ __ __ __ __ __
 72
    65
 73
     2
 40
1.905
 49
1.27
 74
     0
 49
-0.635
 74
     0
  0
LTYPE
  5
6B
330
5
100
AcDbSymbolTableRecord
100
AcDbLinetypeTableRecord
  2
PHANTOM
 70
     0
  3
Phantom ______  __  __  ______  __  __  ______
 72
    65
 73
     6
 40
12.7
 49
6.35
 74
     0
 49
-1.27
 74
     0
 49
1.27
 74
     0
 49
-1.27
 74
     0
 49
1.27
 74
     0
 49
-1.27
 74
     0
  0
LTYPE
  5
6C
330
5
100
AcDbSymbolTableRecord
100
AcDbLinetypeTableRecord
  2
CENTER
 70
     0
  3
Center ____ _ ____ _ ____ _ ____ _ ____ _ ____
 72
    65
 73
     4
 40
10.16
 49
6.35
 74
     0
 49
-1.27
 74
     0
 49
1.27
 74
     0
 49
-1.27
 74
     0
  0
LTYPE
  5
6D
330
5
100
AcDbSymbolTableRecord
100
AcDbLinetypeTableRecord
  2
CENTERX2
 70
     0
  3
Center (2x) ________  __  ________  __  _____
 72
    65
 73
     4
 40
20.32
 49
12.7
 74
     0
 49
-2.54
 74
     0
 49
2.54
 74
     0
 49
-2.54
 74
     0
  0
LTYPE
  5
6E
330
5
100
AcDbSymbolTableRecord
100
AcDbLinetypeTableRecord
  2
DOT2
 70
     0
  3
Dot (.5x) ........................................
 72
    65
 73
     2
 40
0.635
 49
0.0
 74
     0
 49
-0.635
 74
     0
  0
ENDTAB
  0
TABLE
  2
LAYER
  5
2
330
0
100
AcDbSymbolTable
 70
    17
  0
LAYER
  5
10
330
2
100
AcDbSymbolTableRecord
100
AcDbLayerTableRecord
  2
0
 70
     0
 62
     7
  6
Continuous
370
    -3
390
F
  0
LAYER
  5
6F
330
2
100
AcDbSymbolTableRecord
100
AcDbLayerTableRecord
  2
FORMAT
 70
     0
 62
     2
  6
Continuous
370
    -3
390
F
  0
LAYER
  5
70
330
2
100
AcDbSymbolTableRecord
100
AcDbLayerTableRecord
  2
외형선
 70
     0
 62
   100
  6
Continuous
370
    30
390
F
  0
LAYER
  5
71
330
2
100
AcDbSymbolTableRecord
100
AcDbLayerTableRecord
  2
숨은선
 70
     0
 62
     2
  6
HIDDEN
370
    15
390
F
  0
LAYER
  5
72
330
2
100
AcDbSymbolTableRecord
100
AcDbLayerTableRecord
  2
중심선
 70
     0
 62
     1
  6
CENTERX2
370
    -3
390
F
  0
LAYER
  5
73
330
2
100
AcDbSymbolTableRecord
100
AcDbLayerTableRecord
  2
파단선
 70
     0
 62
     4
  6
Continuous
370
    -3
390
F
  0
LAYER
  5
74
330
2
100
AcDbSymbolTableRecord
100
AcDbLayerTableRecord
  2
해칭선
 70
     0
 62
     4
  6
Continuous
370
    -3
390
F
  0
LAYER
  5
75
330
2
100
AcDbSymbolTableRecord
100
AcDbLayerTableRecord
  2
가는실선
 70
     0
 62
     4
  6
Continuous
370
    -3
390
F
  0
LAYER
  5
76
330
2
100
AcDbSymbolTableRecord
100
AcDbLayerTableRecord
  2
치수_보조선
 70
     0
 62
     4
  6
Continuous
370
    -3
390
F
  0
LAYER
  5
77
330
2
100
AcDbSymbolTableRecord
100
AcDbLayerTableRecord
  2
치수문자_일반주서
 70
     0
 62
     7
  6
Continuous
370
    15
390
F
  0
LAYER
  5
78
330
2
100
AcDbSymbolTableRecord
100
AcDbLayerTableRecord
  2
개별주서
 70
     0
 62
   100
  6
Continuous
370
    30
390
F
  0
LAYER
  5
79
330
2
100
AcDbSymbolTableRecord
100
AcDbLayerTableRecord
  2
중간선
 70
     0
 62
     2
  6
Continuous
370
    15
390
F
  0
LAYER
  5
7A
330
2
100
AcDbSymbolTableRecord
100
AcDbLayerTableRecord
  2
윤곽선
 70
     0
 62
     3
  6
Continuous
370
    40
390
F
  0
LAYER
  5
7B
330
2
100
AcDbSymbolTableRecord
100
AcDbLayerTableRecord
  2
중심마크
 70
     0
 62
   100
  6
Continuous
370
    30
390
F
  0
LAYER
  5
7C
330
2
100
AcDbSymbolTableRecord
100
AcDbLayerTableRecord
  2
가상선
 70
     0
 62
     4
  6
PHANTOM
370
    -3
390
F
  0
LAYER
  5
7D
330
2
100
AcDbSymbolTableRecord
100
AcDbLayerTableRecord
  2
특수지정선
 70
     0
 62
     5
  6
CENTERX2
370
    60
390
F
  0
LAYER
  5
14D
330
2
100
AcDbSymbolTableRecord
100
AcDbLayerTableRecord
  2
Defpoints
 70
     0
 62
     7
  6
Continuous
290
     0
370
    -3
390
F
  0
ENDTAB
  0
TABLE
  2
STYLE
  5
3
330
0
100
AcDbSymbolTable
 70
     2
  0
STYLE
  5
11
330
3
100
AcDbSymbolTableRecord
100
AcDbTextStyleTableRecord
  2
Standard
 70
     0
 40
0.0
 41
1.0
 50
0.0
 71
     0
 42
3.5
  3
txt
  4

  0
STYLE
  5
93
330
3
100
AcDbSymbolTableRecord
100
AcDbTextStyleTableRecord
  2
SLDTEXTSTYLE0
 70
     0
 40
0.0
 41
0.75
 50
0.0
 71
     0
 42
3.5
  3
TXT
  4

  0
ENDTAB
  0
TABLE
  2
VIEW
  5
6
330
0
100
AcDbSymbolTable
 70
     0
  0
ENDTAB
  0
TABLE
  2
UCS
  5
7
330
0
100
AcDbSymbolTable
 70
     0
  0
ENDTAB
  0
TABLE
  2
APPID
  5
9
330
0
100
AcDbSymbolTable
 70
     2
  0
APPID
  5
12
330
9
100
AcDbSymbolTableRecord
100
AcDbRegAppTableRecord
  2
ACAD
 70
     0
  0
APPID
  5
162
330
9
100
AcDbSymbolTableRecord
100
AcDbRegAppTableRecord
  2
PE_DIMMEASUREMENT
 70
     0
  0
ENDTAB
  0
TABLE
  2
DIMSTYLE
  5
A
330
0
100
AcDbSymbolTable
 70
     3
100
AcDbDimStyleTable
  0
DIMSTYLE
105
27
330
A
100
AcDbSymbolTableRecord
100
AcDbDimStyleTableRecord
  2
ISO-25
 70
     0
 41
2.5
 42
0.625
 43
3.75
 44
1.25
 73
     0
 74
     0
 77
     1
 78
     8
140
2.5
141
2.5
143
0.03937007874016
147
0.625
171
     3
172
     1
178
     0
271
     2
272
     2
274
     3
278
    44
283
     0
284
     8
340
11
  0
DIMSTYLE
105
D2
102
{ACAD_REACTORS
330
D1
330
10D
330
151
102
}
330
A
100
AcDbSymbolTableRecord
100
AcDbDimStyleTableRecord
  2
SLDDIMSTYLE0
 70
     0
 41
3.302
 44
0.0
 45
0.000000001
 73
     0
 74
     0
 77
     1
 78
    12
 79
     3
140
3.5
143
0.0393700787401575
147
0.875
148
0.000000001
170
     1
172
     1
173
     1
178
     0
271
     2
272
     2
276
     2
284
    12
289
     0
340
93
  0
DIMSTYLE
105
E7
102
{ACAD_REACTORS
330
E6
330
FA
102
}
330
A
100
AcDbSymbolTableRecord
100
AcDbDimStyleTableRecord
  2
SLDDIMSTYLE1
 70
     0
 41
3.302
 44
0.0
 45
0.000000001
 73
     0
 74
     0
 77
     1
 78
    12
 79
     3
140
3.5
143
0.0393700787401575
147
0.875
148
0.000000001
170
     1
173
     1
178
     0
271
     2
272
     2
276
     2
284
    12
340
93
  0
ENDTAB
  0
TABLE
  2
BLOCK_RECORD
  5
1
330
0
100
AcDbSymbolTable
 70
     8
  0
BLOCK_RECORD
  5
1F
330
1
100
AcDbSymbolTableRecord
100
AcDbBlockTableRecord
  2
*Model_Space
340
22
  0
BLOCK_RECORD
  5
1B
330
1
100
AcDbSymbolTableRecord
100
AcDbBlockTableRecord
  2
*Paper_Space
340
1E
  0
BLOCK_RECORD
  5
23
330
1
100
AcDbSymbolTableRecord
100
AcDbBlockTableRecord
  2
*Paper_Space0
340
26
  0
BLOCK_RECORD
  5
7E
330
1
100
AcDbSymbolTableRecord
100
AcDbBlockTableRecord
  2
블럭10
340
0
102
{BLKREFS
331
C9
102
}
  0
BLOCK_RECORD
  5
D3
330
1
100
AcDbSymbolTableRecord
100
AcDbBlockTableRecord
  2
_D
340
0
  0
BLOCK_RECORD
  5
E8
330
1
100
AcDbSymbolTableRecord
100
AcDbBlockTableRecord
  2
_D_1
340
0
  0
BLOCK_RECORD
  5
FB
330
1
100
AcDbSymbolTableRecord
100
AcDbBlockTableRecord
  2
_D_2
340
0
  0
BLOCK_RECORD
  5
10E
330
1
100
AcDbSymbolTableRecord
100
AcDbBlockTableRecord
  2
_D_3
340
0
  0
BLOCK_RECORD
  5
122
330
1
100
AcDbSymbolTableRecord
100
AcDbBlockTableRecord
  2
SW_DOWELSYMBOL_0
340
0
102
{BLKREFS
331
128
102
}
  0
BLOCK_RECORD
  5
154
330
1
100
AcDbSymbolTableRecord
100
AcDbBlockTableRecord
  2
*D7
340
0
  0
ENDTAB
  0
ENDSEC
  0
SECTION
  2
BLOCKS
  0
BLOCK
  5
20
330
1F
100
AcDbEntity
  8
0
100
AcDbBlockBegin
  2
*Model_Space
 70
     0
 10
0.0
 20
0.0
 30
0.0
  3
*Model_Space
  1
*Model_Space
  0
ENDBLK
  5
21
330
1F
100
AcDbEntity
  8
0
100
AcDbBlockEnd
  0
BLOCK
  5
1C
330
1B
100
AcDbEntity
 67
     1
  8
0
100
AcDbBlockBegin
  2
*Paper_Space
 70
     0
 10
0.0
 20
0.0
 30
0.0
  3
*Paper_Space
  1
*Paper_Space
  0
ENDBLK
  5
1D
330
1B
100
AcDbEntity
 67
     1
  8
0
100
AcDbBlockEnd
  0
BLOCK
  5
24
330
23
100
AcDbEntity
  8
0
100
AcDbBlockBegin
  2
*Paper_Space0
 70
     0
 10
0.0
 20
0.0
 30
0.0
  3
*Paper_Space0
  1
*Paper_Space0
  0
ENDBLK
  5
25
330
23
100
AcDbEntity
  8
0
100
AcDbBlockEnd
  0
BLOCK
  5
7F
330
7E
100
AcDbEntity
  8
0
100
AcDbBlockBegin
  2
블럭10
 70
     2
 10
0.0
 20
0.0
 30
0.0
  3
블럭10
  1
블럭10
  0
ELLIPSE
  5
81
330
7E
100
AcDbEntity
  8
중심선
100
AcDbEllipse
 10
20.54032771741204
 20
12.0471743016438
 30
0.0
 11
6.600054785286829
 21
-1.261213355974178E-13
 31
0.0
210
0.0
220
0.0
230
1.0
 40
0.636358354079598
 41
0.9219305317359503
 42
6.513795318482858
  0
ELLIPSE
  5
82
330
7E
100
AcDbEntity
  8
중심선
100
AcDbEllipse
 10
20.54032771746488
 20
12.04717430159265
 30
0.0
 11
3.960054785062283
 21
1.540847449632565E-10
 31
0.0
210
0.0
220
0.0
230
1.0
 40
0.3939339440162632
 41
1.131841032648279
 42
5.62031148352944
  0
LINE
  5
83
330
7E
100
AcDbEntity
  8
중심선
100
AcDbLine
 10
2.268634060543552
 20
16.24717430164393
 30
0.0
 11
5.714909304380834
 21
16.24717430164393
 31
0.0
  0
LINE
  5
84
330
7E
100
AcDbEntity
  8
중심선
100
AcDbLine
 10
5.245725140726316
 20
7.84717430164391
 30
0.0
 11
8.692000384563599
 21
7.84717430164391
 31
0.0
  0
LINE
  5
85
330
7E
100
AcDbEntity
  8
중심선
100
AcDbLine
 10
15.74043728645272
 20
16.24717430164393
 30
0.0
 11
8.692000384563599
 21
7.84717430164391
 31
0.0
  0
LINE
  5
86
330
7E
100
AcDbEntity
  8
중심선
100
AcDbLine
 10
0.1404042013395286
 20
13.71084872107135
 30
0.0
 11
3.58671253028996
 21
13.71088815037384
 31
0.0
  0
LINE
  5
87
330
7E
100
AcDbEntity
  8
중심선
100
AcDbLine
 10
2.750260043222114
 20
10.84717430164391
 30
0.0
 11
6.196535287059397
 21
10.84717430164391
 31
0.0
  0
LINE
  5
88
330
7E
100
AcDbEntity
  8
중심선
100
AcDbLine
 10
12.29416204261559
 20
16.24717430164393
 30
0.0
 11
5.245725140726316
 21
7.84717430164391
 31
0.0
  0
LINE
  5
89
330
7E
100
AcDbEntity
  8
중심선
100
AcDbLine
 10
10.72767329541681
 20
16.24717430164393
 30
0.0
 11
6.196535287059397
 21
10.84717430164391
 31
0.0
  0
LINE
  5
8A
330
7E
100
AcDbEntity
  8
중심선
100
AcDbLine
 10
7.28139805157953
 20
16.24717430164393
 30
0.0
 11
2.750260043222114
 21
10.84717430164391
 31
0.0
  0
LINE
  5
8B
330
7E
100
AcDbEntity
  8
중심선
100
AcDbLine
 10
5.714909304380834
 20
16.24717430164393
 30
0.0
 11
3.58671253028996
 21
13.71088815037384
 31
0.0
  0
LINE
  5
8C
330
7E
100
AcDbEntity
  8
중심선
100
AcDbLine
 10
2.268634060543552
 20
16.24717430164393
 30
0.0
 11
0.1404042013395286
 21
13.71084872107135
 31
0.0
  0
LINE
  5
8D
330
7E
100
AcDbEntity
  8
중심선
100
AcDbLine
 10
7.28139805157953
 20
16.24717430164393
 30
0.0
 11
10.72767329541681
 21
16.24717430164393
 31
0.0
  0
LINE
  5
8E
330
7E
100
AcDbEntity
  8
중심선
100
AcDbLine
 10
12.29416204261559
 20
16.24717430164393
 30
0.0
 11
15.74043728645272
 21
16.24717430164393
 31
0.0
  0
LINE
  5
8F
330
7E
100
AcDbEntity
  8
중심선
100
AcDbLine
 10
19.22036997980202
 20
11.08717430171403
 30
0.0
 11
23.66174974927406
 21
11.08717430171406
 31
0.0
  0
LINE
  5
90
330
7E
100
AcDbEntity
  8
중심선
100
AcDbLine
 10
19.22039502424796
 20
13.00717430171391
 30
0.0
 11
19.22036997980202
 21
11.08717430171403
 31
0.0
  0
LINE
  5
91
330
7E
100
AcDbEntity
  8
중심선
100
AcDbLine
 10
19.22039502424796
 20
13.00717430171391
 30
0.0
 11
26.96566020931264
 21
13.00717430171391
 31
0.0
  0
LINE
  5
92
330
7E
100
AcDbEntity
  8
중심선
100
AcDbLine
 10
22.22332737316547
 20
13.45928029700563
 30
0.0
 11
24.52862924686651
 21
15.39360700705356
 31
0.0
  0
ATTDEF
  5
94
330
7E
100
AcDbEntity
  8
FORMAT
 62
     2
100
AcDbText
 10
-9.18129528874128
 20
2.075366912832191
 30
0.0
 40
4.233333333333333
  1
E5978048 [ 3 FLUTE ]
 41
0.75
  7
SLDTEXTSTYLE0
 11
-9.18129528874128
 21
-0.0412997538344756
 31
0.0
100
AcDbAttributeDefinition
  3

  2
AUTOATTR0
 70
     0
 74
     1
  0
ENDBLK
  5
80
330
7E
100
AcDbEntity
  8
0
100
AcDbBlockEnd
  0
BLOCK
  5
D4
330
D3
100
AcDbEntity
  8
0
100
AcDbBlockBegin
  2
_D
 70
     0
 10
0.0
 20
0.0
 30
0.0
  3
_D
  1
_D
  0
LINE
  5
D6
330
D3
100
AcDbEntity
  8
치수문자_일반주서
 62
     0
370
    -2
100
AcDbLine
 10
-66.40450000000001
 20
9.524999999999995
 30
0.0
 11
-78.83845802161211
 21
9.524999999999949
 31
0.0
  0
LINE
  5
D7
330
D3
100
AcDbEntity
  8
치수문자_일반주서
 62
     0
370
    -2
100
AcDbLine
 10
-66.40450000000001
 20
-9.525000000000006
 30
0.0
 11
-78.83845802161204
 21
-9.525000000000052
 31
0.0
  0
LINE
  5
D8
330
D3
100
AcDbEntity
  8
치수문자_일반주서
 62
     0
370
    -2
100
AcDbLine
 10
-78.8384580216121
 20
6.222999999999949
 30
0.0
 11
-78.83845802161206
 21
-6.223000000000052
 31
0.0
  0
SOLID
  5
D9
330
D3
100
AcDbEntity
  8
치수문자_일반주서
 62
     0
100
AcDbTrace
 10
-78.28812468827877
 20
6.222999999999951
 30
0.0
 11
-79.38879135494543
 21
6.222999999999947
 31
0.0
 12
-78.83845802161211
 22
9.524999999999949
 32
0.0
 13
-78.83845802161211
 23
9.524999999999949
 33
0.0
  0
SOLID
  5
DA
330
D3
100
AcDbEntity
  8
치수문자_일반주서
 62
     0
100
AcDbTrace
 10
-79.38879135494538
 20
-6.223000000000054
 30
0.0
 11
-78.28812468827873
 21
-6.22300000000005
 31
0.0
 12
-78.83845802161204
 22
-9.525000000000052
 32
0.0
 13
-78.83845802161204
 23
-9.525000000000052
 33
0.0
  0
MTEXT
  5
DB
330
D3
100
AcDbEntity
  8
치수문자_일반주서
 62
     0
100
AcDbMText
 10
-83.21345802161208
 20
-0.0000000000000224
 30
0.0
 40
3.5
 41
0.0
 71
     2
 72
     1
  1
\A1;%%c19.05 [3/4]
  7
SLDTEXTSTYLE0
 11
-3.729883127349607E-15
 21
1.0
 31
0.0
 73
     1
 44
1.0
  0
POINT
  5
DC
330
D3
100
AcDbEntity
  8
Defpoints
 62
     0
100
AcDbPoint
 10
-66.34200000000001
 20
9.524999999999995
 30
0.0
  0
POINT
  5
DD
330
D3
100
AcDbEntity
  8
Defpoints
 62
     0
100
AcDbPoint
 10
-66.34200000000001
 20
-9.525000000000006
 30
0.0
  0
POINT
  5
DE
330
D3
100
AcDbEntity
  8
Defpoints
 62
     0
100
AcDbPoint
 10
-78.83845802161204
 20
-9.525000000000052
 30
0.0
  0
ENDBLK
  5
D5
330
D3
100
AcDbEntity
  8
0
100
AcDbBlockEnd
  0
BLOCK
  5
E9
330
E8
100
AcDbEntity
  8
0
100
AcDbBlockBegin
  2
_D_1
 70
     0
 10
0.0
 20
0.0
 30
0.0
  3
_D_1
  1
_D_1
  0
LINE
  5
EB
330
E8
100
AcDbEntity
  8
치수문자_일반주서
 62
     0
370
    -2
100
AcDbLine
 10
-67.34200000000001
 20
8.587499999999995
 30
0.0
 11
-67.34200000000001
 21
49.52500000000005
 31
0.0
  0
LINE
  5
EC
330
E8
100
AcDbEntity
  8
치수문자_일반주서
 62
     0
370
    -2
100
AcDbLine
 10
59.65800000000002
 20
0.0625000000000043
 30
0.0
 11
59.65800000000002
 21
49.52500000000005
 31
0.0
  0
LINE
  5
ED
330
E8
100
AcDbEntity
  8
치수문자_일반주서
 62
     0
370
    -2
100
AcDbLine
 10
-64.04000000000002
 20
49.52500000000005
 30
0.0
 11
56.35600000000002
 21
49.52500000000005
 31
0.0
  0
SOLID
  5
EE
330
E8
100
AcDbEntity
  8
치수문자_일반주서
 62
     0
100
AcDbTrace
 10
-64.04000000000002
 20
50.07533333333338
 30
0.0
 11
-64.04000000000002
 21
48.97466666666671
 31
0.0
 12
-67.34200000000001
 22
49.52500000000005
 32
0.0
 13
-67.34200000000001
 23
49.52500000000005
 33
0.0
  0
SOLID
  5
EF
330
E8
100
AcDbEntity
  8
치수문자_일반주서
 62
     0
100
AcDbTrace
 10
56.35600000000002
 20
48.97466666666671
 30
0.0
 11
56.35600000000002
 21
50.07533333333338
 31
0.0
 12
59.65800000000002
 22
49.52500000000005
 32
0.0
 13
59.65800000000002
 23
49.52500000000005
 33
0.0
  0
MTEXT
  5
F0
330
E8
100
AcDbEntity
  8
치수문자_일반주서
 62
     0
100
AcDbMText
 10
1.005987261005268
 20
53.90000000000005
 30
0.0
 40
3.5
 41
0.0
 71
     2
 72
     1
  1
\A1;127 [5]
  7
SLDTEXTSTYLE0
 73
     1
 44
1.0
  0
POINT
  5
F1
330
E8
100
AcDbEntity
  8
Defpoints
 62
     0
100
AcDbPoint
 10
-67.34200000000001
 20
8.524999999999995
 30
0.0
  0
POINT
  5
F2
330
E8
100
AcDbEntity
  8
Defpoints
 62
     0
100
AcDbPoint
 10
59.65800000000002
 20
0.0000000000000043
 30
0.0
  0
POINT
  5
F3
330
E8
100
AcDbEntity
  8
Defpoints
 62
     0
100
AcDbPoint
 10
59.65800000000002
 20
49.52500000000005
 30
0.0
  0
ENDBLK
  5
EA
330
E8
100
AcDbEntity
  8
0
100
AcDbBlockEnd
  0
BLOCK
  5
FC
330
FB
100
AcDbEntity
  8
0
100
AcDbBlockBegin
  2
_D_2
 70
     0
 10
0.0
 20
0.0
 30
0.0
  3
_D_2
  1
_D_2
  0
LINE
  5
FE
330
FB
100
AcDbEntity
  8
치수문자_일반주서
 62
     0
370
    -2
100
AcDbLine
 10
2.508000000000001
 20
9.079500000000005
 30
0.0
 11
2.508000000000003
 21
36.90471645742494
 31
0.0
  0
LINE
  5
FF
330
FB
100
AcDbEntity
  8
치수문자_일반주서
 62
     0
370
    -2
100
AcDbLine
 10
59.65800000000002
 20
0.0625000000000042
 30
0.0
 11
59.65800000000002
 21
36.90471645742494
 31
0.0
  0
LINE
  5
100
330
FB
100
AcDbEntity
  8
치수문자_일반주서
 62
     0
370
    -2
100
AcDbLine
 10
5.810000000000002
 20
36.90471645742494
 30
0.0
 11
56.35600000000002
 21
36.90471645742494
 31
0.0
  0
SOLID
  5
101
330
FB
100
AcDbEntity
  8
치수문자_일반주서
 62
     0
100
AcDbTrace
 10
5.810000000000002
 20
37.45504979075827
 30
0.0
 11
5.810000000000002
 21
36.3543831240916
 31
0.0
 12
2.508000000000003
 22
36.90471645742494
 32
0.0
 13
2.508000000000003
 23
36.90471645742494
 33
0.0
  0
SOLID
  5
102
330
FB
100
AcDbEntity
  8
치수문자_일반주서
 62
     0
100
AcDbTrace
 10
56.35600000000002
 20
36.3543831240916
 30
0.0
 11
56.35600000000002
 21
37.45504979075827
 31
0.0
 12
59.65800000000002
 22
36.90471645742494
 32
0.0
 13
59.65800000000002
 23
36.90471645742494
 33
0.0
  0
MTEXT
  5
103
330
FB
100
AcDbEntity
  8
치수문자_일반주서
 62
     0
100
AcDbMText
 10
28.05593591434266
 20
41.27971645742494
 30
0.0
 40
3.5
 41
0.0
 71
     2
 72
     1
  1
\A1;57.15 [2 1/4]
  7
SLDTEXTSTYLE0
 73
     1
 44
1.0
  0
POINT
  5
104
330
FB
100
AcDbEntity
  8
Defpoints
 62
     0
100
AcDbPoint
 10
2.508000000000001
 20
9.017000000000005
 30
0.0
  0
POINT
  5
105
330
FB
100
AcDbEntity
  8
Defpoints
 62
     0
100
AcDbPoint
 10
59.65800000000002
 20
0.0000000000000043
 30
0.0
  0
POINT
  5
106
330
FB
100
AcDbEntity
  8
Defpoints
 62
     0
100
AcDbPoint
 10
59.65800000000002
 20
36.90471645742494
 30
0.0
  0
ENDBLK
  5
FD
330
FB
100
AcDbEntity
  8
0
100
AcDbBlockEnd
  0
BLOCK
  5
10F
330
10E
100
AcDbEntity
  8
0
100
AcDbBlockBegin
  2
_D_3
 70
     0
 10
0.0
 20
0.0
 30
0.0
  3
_D_3
  1
_D_3
  0
LINE
  5
111
330
10E
100
AcDbEntity
  8
치수문자_일반주서
 62
     0
370
    -2
100
AcDbLine
 10
34.25799999999999
 20
9.554255539397024
 30
0.0
 11
34.25799999999999
 21
26.10606911247279
 31
0.0
  0
LINE
  5
112
330
10E
100
AcDbEntity
  8
치수문자_일반주서
 62
     0
370
    -2
100
AcDbLine
 10
59.65800000000002
 20
0.0625000000000043
 30
0.0
 11
59.65800000000002
 21
26.10606911247279
 31
0.0
  0
LINE
  5
113
330
10E
100
AcDbEntity
  8
치수문자_일반주서
 62
     0
370
    -2
100
AcDbLine
 10
37.55999999999999
 20
26.10606911247279
 30
0.0
 11
56.35600000000002
 21
26.10606911247279
 31
0.0
  0
SOLID
  5
114
330
10E
100
AcDbEntity
  8
치수문자_일반주서
 62
     0
100
AcDbTrace
 10
37.55999999999999
 20
26.65640244580613
 30
0.0
 11
37.55999999999999
 21
25.55573577913946
 31
0.0
 12
34.25799999999999
 22
26.10606911247279
 32
0.0
 13
34.25799999999999
 23
26.10606911247279
 33
0.0
  0
SOLID
  5
115
330
10E
100
AcDbEntity
  8
치수문자_일반주서
 62
     0
100
AcDbTrace
 10
56.35600000000002
 20
25.55573577913946
 30
0.0
 11
56.35600000000002
 21
26.65640244580613
 31
0.0
 12
59.65800000000002
 22
26.10606911247279
 32
0.0
 13
59.65800000000002
 23
26.10606911247279
 33
0.0
  0
MTEXT
  5
116
330
10E
100
AcDbEntity
  8
치수문자_일반주서
 62
     0
100
AcDbMText
 10
46.63023841557765
 20
30.48106911247279
 30
0.0
 40
3.5
 41
0.0
 71
     2
 72
     1
  1
\A1;25.4 [1]
  7
SLDTEXTSTYLE0
 73
     1
 44
1.0
  0
POINT
  5
117
330
10E
100
AcDbEntity
  8
Defpoints
 62
     0
100
AcDbPoint
 10
34.25799999999999
 20
9.491755539397024
 30
0.0
  0
POINT
  5
118
330
10E
100
AcDbEntity
  8
Defpoints
 62
     0
100
AcDbPoint
 10
59.65800000000002
 20
0.0000000000000043
 30
0.0
  0
POINT
  5
119
330
10E
100
AcDbEntity
  8
Defpoints
 62
     0
100
AcDbPoint
 10
59.65800000000002
 20
26.10606911247279
 30
0.0
  0
ENDBLK
  5
110
330
10E
100
AcDbEntity
  8
0
100
AcDbBlockEnd
  0
BLOCK
  5
123
330
122
100
AcDbEntity
  8
0
100
AcDbBlockBegin
  2
SW_DOWELSYMBOL_0
 70
     0
 10
0.0
 20
0.0
 30
0.0
  3
SW_DOWELSYMBOL_0
  1
SW_DOWELSYMBOL_0
  0
CIRCLE
  5
125
330
122
100
AcDbEntity
  8
외형선
 62
     0
100
AcDbCircle
 10
0.0
 20
0.0
 30
0.0
 40
3.000000000000004
  0
HATCH
  5
126
330
122
100
AcDbEntity
  8
0
  6
Continuous
 62
     0
370
    30
100
AcDbHatch
 10
0.0
 20
0.0
 30
0.0
210
0.0
220
0.0
230
1.0
  2
SOLID
 70
     1
 71
     0
 91
        1
 92
        0
 93
        3
 72
     2
 10
0.0
 20
0.0
 40
3.000000000000004
 50
0.0
 51
90.0
 73
     1
 72
     1
 10
0.0
 20
3.000000000000004
 11
0.0
 21
0.0
 72
     1
 10
0.0
 20
0.0
 11
3.000000000000006
 21
0.0
 97
        0
 75
     0
 76
     1
 98
        1
 10
0.0
 20
0.0
  0
HATCH
  5
127
330
122
100
AcDbEntity
  8
0
  6
Continuous
 62
     0
370
    30
100
AcDbHatch
 10
0.0
 20
0.0
 30
0.0
210
0.0
220
0.0
230
1.0
  2
SOLID
 70
     1
 71
     0
 91
        1
 92
        0
 93
        3
 72
     2
 10
0.0
 20
0.0
 40
3.000000000000004
 50
180.0
 51
270.0000000000008
 73
     1
 72
     1
 10
0.0
 20
-3.000000000000004
 11
0.0
 21
0.0
 72
     1
 10
0.0
 20
0.0
 11
-3.000000000000006
 21
0.0
 97
        0
 75
     0
 76
     1
 98
        1
 10
0.0
 20
0.0
  0
ENDBLK
  5
124
330
122
100
AcDbEntity
  8
0
100
AcDbBlockEnd
  0
BLOCK
  5
155
330
154
100
AcDbEntity
  8
0
100
AcDbBlockBegin
  2
*D7
 70
     1
 10
0.0
 20
0.0
 30
0.0
  3
*D7
  1
*D7
  0
LINE
  5
157
330
154
100
AcDbEntity
  8
치수문자_일반주서
 62
     0
370
    -2
100
AcDbLine
 10
59.72050000000002
 20
9.525000000000006
 30
0.0
 11
74.75299001246522
 21
9.525000000000006
 31
0.0
  0
LINE
  5
158
330
154
100
AcDbEntity
  8
치수문자_일반주서
 62
     0
370
    -2
100
AcDbLine
 10
59.72050000000002
 20
-9.524999999999995
 30
0.0
 11
74.75299001246522
 21
-9.524999999999991
 31
0.0
  0
LINE
  5
159
330
154
100
AcDbEntity
  8
치수문자_일반주서
 62
     0
370
    -2
100
AcDbLine
 10
74.75299001246522
 20
9.525000000000006
 30
0.0
 11
74.75299001246522
 21
43.6915
 31
0.0
  0
LINE
  5
15A
330
154
100
AcDbEntity
  8
치수문자_일반주서
 62
     0
370
    -2
100
AcDbLine
 10
74.75299001246522
 20
9.525000000000006
 30
0.0
 11
74.75299001246522
 21
-9.524999999999991
 31
0.0
  0
LINE
  5
15B
330
154
100
AcDbEntity
  8
치수문자_일반주서
 62
     0
370
    -2
100
AcDbLine
 10
74.75299001246522
 20
12.82700000000001
 30
0.0
 11
74.75299001246522
 21
16.129
 31
0.0
  0
LINE
  5
15C
330
154
100
AcDbEntity
  8
치수문자_일반주서
 62
     0
370
    -2
100
AcDbLine
 10
74.75299001246522
 20
-12.82699999999999
 30
0.0
 11
74.75299001246522
 21
-16.12899999999999
 31
0.0
  0
SOLID
  5
15D
330
154
100
AcDbEntity
  8
치수문자_일반주서
 62
     0
100
AcDbTrace
 10
74.20265667913189
 20
12.82700000000001
 30
0.0
 11
75.30332334579855
 21
12.82700000000001
 31
0.0
 12
74.75299001246522
 22
9.525000000000006
 32
0.0
 13
74.75299001246522
 23
9.525000000000006
 33
0.0
  0
SOLID
  5
15E
330
154
100
AcDbEntity
  8
치수문자_일반주서
 62
     0
100
AcDbTrace
 10
75.30332334579855
 20
-12.82699999999999
 30
0.0
 11
74.20265667913189
 21
-12.82699999999999
 31
0.0
 12
74.75299001246522
 22
-9.524999999999991
 32
0.0
 13
74.75299001246522
 23
-9.524999999999991
 33
0.0
  0
MTEXT
  5
15F
330
154
100
AcDbEntity
  8
치수문자_일반주서
 62
     0
100
AcDbMText
 10
72.12799001246522
 20
29.91025
 30
0.0
 40
3.5
 41
0.0
 71
     5
 72
     1
  1
\A1;{%%C19.05 [3/4]}
  7
SLDTEXTSTYLE0
 11
0.0
 21
1.0
 31
0.0
 73
     1
 44
1.0
  0
POINT
  5
160
330
154
100
AcDbEntity
  8
Defpoints
 62
     0
100
AcDbPoint
 10
59.65800000000002
 20
9.525000000000006
 30
0.0
  0
POINT
  5
161
330
154
100
AcDbEntity
  8
Defpoints
 62
     0
100
AcDbPoint
 10
59.65800000000002
 20
-9.524999999999995
 30
0.0
  0
POINT
  5
163
330
154
100
AcDbEntity
  8
Defpoints
 62
     0
100
AcDbPoint
 10
74.75299001246522
 20
-9.524999999999997
 30
0.0
  0
ENDBLK
  5
156
330
154
100
AcDbEntity
  8
0
100
AcDbBlockEnd
  0
ENDSEC
  0
SECTION
  2
ENTITIES
  0
LINE
  5
95
330
1F
100
AcDbEntity
  8
0
  6
Continuous
 62
     4
370
    15
100
AcDbLine
 10
2.0
 20
9.525000000000002
 30
0.0
 11
-66.34200000000001
 21
9.524999999999995
 31
0.0
  0
LINE
  5
96
330
1F
100
AcDbEntity
  8
0
  6
Continuous
 62
     4
370
    15
100
AcDbLine
 10
-66.34200000000001
 20
-9.52500000000001
 30
0.0
 11
2.0
 21
-9.525000000000002
 31
0.0
  0
LINE
  5
97
330
1F
100
AcDbEntity
  8
0
  6
Continuous
 62
     4
370
    15
100
AcDbLine
 10
2.0
 20
-9.525000000000002
 30
0.0
 11
2.508000000000003
 21
-9.017000000000001
 31
0.0
  0
LINE
  5
98
330
1F
100
AcDbEntity
  8
0
  6
Continuous
 62
     4
370
    15
100
AcDbLine
 10
2.508000000000003
 20
9.017000000000005
 30
0.0
 11
2.0
 21
9.525000000000002
 31
0.0
  0
LINE
  5
99
330
1F
100
AcDbEntity
  8
0
  6
Continuous
 62
     4
370
    15
100
AcDbLine
 10
-66.34200000000001
 20
9.524999999999991
 30
0.0
 11
-67.34200000000001
 21
8.524999999999995
 31
0.0
  0
LINE
  5
9A
330
1F
100
AcDbEntity
  8
0
  6
Continuous
 62
     4
370
    15
100
AcDbLine
 10
-67.34200000000001
 20
-8.52500000000001
 30
0.0
 11
-66.34200000000001
 21
-9.52500000000001
 31
0.0
  0
LINE
  5
9B
330
1F
100
AcDbEntity
  8
0
  6
Continuous
 62
     4
370
    15
100
AcDbLine
 10
33.2803003109376
 20
9.017000000000005
 30
0.0
 11
2.508000000000003
 21
9.017000000000001
 31
0.0
  0
LINE
  5
9C
330
1F
100
AcDbEntity
  8
0
  6
Continuous
 62
     4
370
    15
100
AcDbLine
 10
2.508000000000003
 20
-9.017000000000001
 30
0.0
 11
31.20808512733661
 21
-9.016999999999998
 31
0.0
  0
ARC
  5
9D
330
1F
100
AcDbEntity
  8
0
  6
Continuous
 62
     1
370
    15
100
AcDbCircle
 10
50.133
 20
0.0000000000000043
 30
0.0
 40
9.525000000000013
100
AcDbArc
 50
353.5800701243586
 51
0.0
  0
ARC
  5
9E
330
1F
100
AcDbEntity
  8
0
  6
Continuous
 62
     1
370
    15
100
AcDbCircle
 10
50.133
 20
0.0000000000000043
 30
0.0
 40
9.525000000000013
100
AcDbArc
 50
0.0
 51
60.07316309254129
  0
LINE
  5
9F
330
1F
100
AcDbEntity
  8
0
  6
Continuous
 62
     1
370
    15
100
AcDbLine
 10
41.99243960686907
 20
-9.524999999999999
 30
0.0
 11
46.43659994685399
 21
-9.524999999999999
 31
0.0
  0
LINE
  5
A0
330
1F
100
AcDbEntity
  8
0
  6
Continuous
 62
     4
370
    15
100
AcDbLine
 10
2.0
 20
9.525000000000002
 30
0.0
 11
2.0
 21
-9.525000000000002
 31
0.0
  0
LINE
  5
A1
330
1F
100
AcDbEntity
  8
0
  6
Continuous
 62
     4
370
    15
100
AcDbLine
 10
-66.34200000000001
 20
9.524999999999995
 30
0.0
 11
-66.34200000000001
 21
-9.52500000000001
 31
0.0
  0
LINE
  5
A2
330
1F
100
AcDbEntity
  8
0
  6
Continuous
 62
     4
370
    15
100
AcDbLine
 10
2.508000000000003
 20
9.017000000000005
 30
0.0
 11
2.508000000000003
 21
-9.017000000000001
 31
0.0
  0
LINE
  5
A3
330
1F
100
AcDbEntity
  8
0
  6
Continuous
 62
     4
370
    15
100
AcDbLine
 10
-67.34200000000001
 20
8.524999999999995
 30
0.0
 11
-67.34200000000001
 21
-8.52500000000001
 31
0.0
  0
SPLINE
  5
A4
330
1F
100
AcDbEntity
  8
0
  6
Continuous
 62
     4
370
    15
100
AcDbSpline
210
0.0
220
0.0
230
1.0
 70
     8
 71
     3
 72
     9
 73
     5
 74
     0
 42
0.000000001
 43
0.00000001
 40
0.0
 40
0.0
 40
0.0
 40
0.0
 40
0.7777217264091764
 40
1.0
 40
1.0
 40
1.0
 40
1.0
 10
34.25799999999999
 20
8.990098080862273
 30
0.0
 10
34.00451554531151
 20
9.002843082097826
 30
0.0
 10
33.67858347207648
 20
9.019230693248142
 30
0.0
 10
33.35273037483636
 20
9.014681375525239
 30
0.0
 10
33.2803003109376
 20
9.013670161035773
 30
0.0
  0
SPLINE
  5
A5
330
1F
100
AcDbEntity
  8
0
  6
Continuous
 62
     4
370
    15
100
AcDbSpline
210
0.0
220
0.0
230
1.0
 70
     8
 71
     3
 72
    10
 73
     6
 74
     0
 42
0.000000001
 43
0.00000001
 40
0.0
 40
0.0
 40
0.0
 40
0.0
 40
0.5
 40
0.5
 40
1.0
 40
1.0
 40
1.0
 40
1.0
 10
34.25799999999998
 20
8.152315437375071
 30
0.0
 10
33.74963662649629
 20
8.307240465341842
 30
0.0
 10
33.2388729148657
 20
8.442565866739766
 30
0.0
 10
32.22365580247063
 20
8.671133428603646
 30
0.0
 10
31.71741209176154
 20
8.764600556100177
 30
0.0
 10
31.20803109876221
 20
8.836774274263867
 30
0.0
  0
SPLINE
  5
A6
330
1F
100
AcDbEntity
  8
0
  6
Continuous
 62
     4
370
    15
100
AcDbSpline
210
0.0
220
0.0
230
1.0
 70
     8
 71
     3
 72
    10
 73
     6
 74
     0
 42
0.000000001
 43
0.00000001
 40
0.0
 40
0.0
 40
0.0
 40
0.0
 40
0.4999999999999999
 40
0.4999999999999999
 40
1.0
 40
1.0
 40
1.0
 40
1.0
 10
34.25799999999997
 20
-5.0978086296186
 30
0.0
 10
33.74964561326957
 20
-4.798758293115426
 30
0.0
 10
33.23889097307713
 20
-4.486833461421685
 30
0.0
 10
32.22369158484347
 20
-3.844053810499092
 30
0.0
 10
31.71745709196628
 20
-3.512867072162648
 30
0.0
 10
31.20808512733662
 20
-3.173281290048878
 30
0.0
  0
SPLINE
  5
A7
330
1F
100
AcDbEntity
  8
0
  6
Continuous
 62
     4
370
    15
100
AcDbSpline
210
0.0
220
0.0
230
1.0
 70
     8
 71
     3
 72
    10
 73
     6
 74
     0
 42
0.000000001
 43
0.00000001
 40
0.0
 40
0.0
 40
0.0
 40
0.0
 40
0.5
 40
0.5
 40
1.0
 40
1.0
 40
1.0
 40
1.0
 10
34.25799999999998
 20
-7.413002262137564
 30
0.0
 10
33.74963662649629
 20
-7.206589318180805
 30
0.0
 10
33.2388729148657
 20
-6.981811322434488
 30
0.0
 10
32.22365580247063
 20
-6.500466156545117
 30
0.0
 10
31.71741209176154
 20
-6.243688915011988
 30
0.0
 10
31.20803109876221
 20
-5.971861330442328
 30
0.0
  0
LINE
  5
A8
330
1F
100
AcDbEntity
  8
0
  6
Continuous
 62
     4
370
    15
100
AcDbLine
 10
31.20808512733661
 20
-9.016999999999998
 30
0.0
 11
31.2080851273366
 21
-5.971494568594203
 31
0.0
  0
LINE
  5
A9
330
1F
100
AcDbEntity
  8
0
  6
Continuous
 62
     4
370
    15
100
AcDbLine
 10
31.20808512733662
 20
-3.173723885832226
 30
0.0
 11
31.2080851273366
 21
8.836871638892347
 31
0.0
  0
SPLINE
  5
AA
330
1F
100
AcDbEntity
  8
0
  6
Continuous
 62
     1
370
    15
100
AcDbSpline
210
0.0
220
0.0
230
1.0
 70
    24
 71
     3
 72
    14
 73
    10
 74
     0
 42
0.000000001
 43
0.00000001
 40
0.0
 40
0.0
 40
0.0
 40
0.0
 40
0.2499999999999999
 40
0.2499999999999999
 40
0.4999999999999999
 40
0.4999999999999999
 40
0.7499999999999998
 40
0.7499999999999998
 40
1.0
 40
1.0
 40
1.0
 40
1.0
 10
34.258
 20
1.716223657366912
 30
0.0
 10
34.258
 20
1.290889282931917
 30
0.0
 10
34.25799999999999
 20
0.7998061510309129
 30
0.0
 10
34.258
 20
-0.2989867786606404
 30
0.0
 10
34.25799999999999
 20
-0.9072711447617624
 30
0.0
 10
34.258
 20
-2.169900364882907
 30
0.0
 10
34.25800000000001
 20
-2.823087402185744
 30
0.0
 10
34.258
 20
-4.051081251445924
 30
0.0
 10
34.25799999999998
 20
-4.623211877480597
 30
0.0
 10
34.258
 20
-5.097808629618605
 30
0.0
  0
SPLINE
  5
AB
330
1F
100
AcDbEntity
  8
0
  6
Continuous
 62
     4
370
    15
100
AcDbSpline
210
0.0
220
0.0
230
1.0
 70
     8
 71
     3
 72
    10
 73
     6
 74
     0
 42
0.000000001
 43
0.00000001
 40
0.0
 40
0.0
 40
0.0
 40
0.0
 40
0.5
 40
0.5
 40
1.0
 40
1.0
 40
1.0
 40
1.0
 10
34.25799999999971
 20
1.716223657367054
 30
0.0
 10
33.74964561326935
 20
1.971295460806096
 30
0.0
 10
33.23889097307694
 20
2.222589032117411
 30
0.0
 10
32.22369158484339
 20
2.712168006506365
 30
0.0
 10
31.71745709196623
 20
2.95076628203797
 30
0.0
 10
31.20808512733662
 20
3.182120098696628
 30
0.0
  0
LINE
  5
AC
330
1F
100
AcDbEntity
  8
0
  6
Continuous
 62
     4
370
    15
100
AcDbLine
 10
32.31311055124529
 20
-6.525813881445966
 30
0.0
 11
31.20808512733661
 21
-6.570830414119342
 31
0.0
  0
SPLINE
  5
AD
330
1F
100
AcDbEntity
  8
0
  6
Continuous
 62
     4
370
    15
100
AcDbSpline
210
0.0
220
0.0
230
1.0
 70
    24
 71
     3
 72
    14
 73
    10
 74
     0
 42
0.000000001
 43
0.00000001
 40
0.0
 40
0.0
 40
0.0
 40
0.0
 40
0.25
 40
0.25
 40
0.4999999999999999
 40
0.4999999999999999
 40
0.75
 40
0.75
 40
1.0
 40
1.0
 40
1.0
 40
1.0
 10
34.25799999999999
 20
8.152315437375067
 30
0.0
 10
34.25799999999999
 20
7.492405893609531
 30
0.0
 10
34.258
 20
6.789954179350521
 30
0.0
 10
34.25799999999999
 20
5.432975335123864
 30
0.0
 10
34.25799999999998
 20
4.780770105749066
 30
0.0
 10
34.25799999999998
 20
3.626566215138203
 30
0.0
 10
34.258
 20
3.124628822467461
 30
0.0
 10
34.258
 20
2.29666681101347
 30
0.0
 10
34.25799999999999
 20
1.969419285188655
 30
0.0
 10
34.25799999999999
 20
1.716223657366916
 30
0.0
  0
SPLINE
  5
AE
330
1F
100
AcDbEntity
  8
0
  6
Continuous
 62
     1
370
    15
100
AcDbSpline
210
0.0
220
0.0
230
1.0
 70
     8
 71
     3
 72
     8
 73
     4
 74
     0
 42
0.000000001
 43
0.00000001
 40
0.0
 40
0.0
 40
0.0
 40
0.0
 40
1.0
 40
1.0
 40
1.0
 40
1.0
 10
53.53114521520148
 20
-6.258267126938119
 30
0.0
 10
53.22069089685652
 20
-6.035122446528728
 30
0.0
 10
52.90419040664345
 20
-5.812750321822922
 30
0.0
 10
52.57986072414856
 20
-5.591378580050941
 30
0.0
  0
SPLINE
  5
AF
330
1F
100
AcDbEntity
  8
0
  6
Continuous
 62
     1
370
    15
100
AcDbSpline
210
0.0
220
0.0
230
1.0
 70
     8
 71
     3
 72
    36
 73
    32
 74
     0
 42
0.000000001
 43
0.00000001
 40
0.0
 40
0.0
 40
0.0
 40
0.0
 40
0.1250000000000008
 40
0.1250000000000008
 40
0.1875000000000007
 40
0.1875000000000007
 40
0.2500000000000007
 40
0.2500000000000007
 40
0.3125000000000007
 40
0.3125000000000007
 40
0.3750000000000007
 40
0.3750000000000007
 40
0.4375000000000006
 40
0.4375000000000006
 40
0.5000000000000006
 40
0.5000000000000006
 40
0.5625000000000004
 40
0.5625000000000004
 40
0.6250000000000004
 40
0.6250000000000004
 40
0.6875000000000003
 40
0.6875000000000003
 40
0.7500000000000003
 40
0.7500000000000003
 40
0.8125000000000002
 40
0.8125000000000002
 40
0.8750000000000002
 40
0.8750000000000002
 40
0.9375000000000001
 40
0.9375000000000001
 40
1.0
 40
1.0
 40
1.0
 40
1.0
 10
53.53114521514054
 20
-6.258267126928463
 30
0.0
 10
52.72614234903277
 20
-6.130713365592696
 30
0.0
 10
51.92699365804656
 20
-5.965523282743793
 30
0.0
 10
50.71958331984959
 20
-5.66458340693808
 30
0.0
 10
50.31677352218051
 20
-5.555482649139947
 30
0.0
 10
49.51594336404128
 20
-5.321275970434624
 30
0.0
 10
49.11537302306299
 20
-5.195941608730196
 30
0.0
 10
48.31053534073742
 20
-4.929516554258149
 30
0.0
 10
47.90761073395407
 20
-4.788556712525216
 30
0.0
 10
47.10622397143383
 20
-4.493122165813461
 30
0.0
 10
46.70619148261605
 20
-4.338476523552549
 30
0.0
 10
45.90149622898086
 20
-4.015912986686795
 30
0.0
 10
45.49847683902293
 20
-3.848196257073408
 30
0.0
 10
44.69657278896729
 20
-3.502215239571302
 30
0.0
 10
44.29697533027193
 20
-3.323868989469778
 30
0.0
 10
43.49246236734729
 20
-2.956861743885448
 30
0.0
 10
43.08936823590603
 20
-2.768461471047771
 30
0.0
 10
42.28698630021837
 20
-2.384453459661053
 30
0.0
 10
41.88772097804361
 20
-2.188865413865916
 30
0.0
 10
41.0834301377403
 20
-1.790719287547635
 30
0.0
 10
40.68028131893097
 20
-1.588459642684826
 30
0.0
 10
39.87746097815313
 20
-1.180328343191279
 30
0.0
 10
39.47842484424748
 20
-0.9745737417803877
 30
0.0
 10
38.67439592179895
 20
-0.5597204558427028
 30
0.0
 10
38.27121247882921
 20
-0.3509288142597596
 30
0.0
 10
37.46799328569521
 20
0.0665421509252754
 30
0.0
 10
37.06908335409037
 20
0.2750251678261217
 30
0.0
 10
36.26535610149756
 20
0.6915510160301584
 30
0.0
 10
35.86215810333248
 20
0.8993099974825151
 30
0.0
 10
35.05857967629728
 20
1.310993539820278
 30
0.0
 10
34.65969294025408
 20
1.514670281663112
 30
0.0
 10
34.25799999999971
 20
1.716223657367057
 30
0.0
  0
SPLINE
  5
B0
330
1F
100
AcDbEntity
  8
0
  6
Continuous
 62
     4
370
    15
100
AcDbSpline
210
0.0
220
0.0
230
1.0
 70
    24
 71
     3
 72
    14
 73
    10
 74
     0
 42
0.000000001
 43
0.00000001
 40
0.0
 40
0.0
 40
0.0
 40
0.0
 40
0.25
 40
0.25
 40
0.5
 40
0.5
 40
0.75
 40
0.75
 40
1.0
 40
1.0
 40
1.0
 40
1.0
 10
34.258
 20
8.637105080588368
 30
0.0
 10
34.258
 20
7.96227086785016
 30
0.0
 10
34.258
 20
7.221952672963393
 30
0.0
 10
34.258
 20
5.766306961046224
 30
0.0
 10
34.25799999999998
 20
5.054449599994883
 30
0.0
 10
34.25799999999999
 20
3.79112440578008
 30
0.0
 10
34.258
 20
3.240127774649511
 30
0.0
 10
34.258
 20
2.337968872248433
 30
0.0
 10
34.258
 20
1.985200214210187
 30
0.0
 10
34.258
 20
1.716223657366914
 30
0.0
  0
SPLINE
  5
B1
330
1F
100
AcDbEntity
  8
0
  6
Continuous
 62
     1
370
    15
100
AcDbSpline
210
0.0
220
0.0
230
1.0
 70
     8
 71
     3
 72
    30
 73
    26
 74
     0
 42
0.000000001
 43
0.00000001
 40
0.0
 40
0.0
 40
0.0
 40
0.0
 40
0.0624999999999997
 40
0.0624999999999997
 40
0.1249999999999995
 40
0.1249999999999995
 40
0.2499999999999989
 40
0.2499999999999989
 40
0.3124999999999987
 40
0.3124999999999987
 40
0.3749999999999984
 40
0.3749999999999984
 40
0.4999999999999988
 40
0.4999999999999988
 40
0.6249999999999991
 40
0.6249999999999991
 40
0.6874999999999992
 40
0.6874999999999992
 40
0.7499999999999992
 40
0.7499999999999992
 40
0.8749999999999996
 40
0.8749999999999996
 40
0.9374999999999997
 40
0.9374999999999997
 40
1.0
 40
1.0
 40
1.0
 40
1.0
 10
50.13300000000025
 20
-1.14453799902504
 30
0.0
 10
49.80251686770912
 20
-0.897159433292976
 30
0.0
 10
49.47382225026438
 20
-0.6490540352603352
 30
0.0
 10
48.81199883034507
 20
-0.1509104921386571
 30
0.0
 10
48.48007934695326
 20
0.0988253521511298
 30
0.0
 10
47.48589769967622
 20
0.8465635647961977
 30
0.0
 10
46.82823387371286
 20
1.342341139377021
 30
0.0
 10
45.83362685797695
 20
2.076714740504094
 30
0.0
 10
45.50184910375219
 20
2.319677322632664
 30
0.0
 10
44.840871830462
 20
2.799715284594848
 30
0.0
 10
44.51218112508572
 20
3.036677571414253
 30
0.0
 10
43.51945891340624
 20
3.739072863225915
 30
0.0
 10
42.85489226097501
 20
4.194464869822315
 30
0.0
 10
41.53683652425034
 20
5.06469482182771
 30
0.0
 10
40.87070922373668
 20
5.48226992051729
 30
0.0
 10
39.87922684227227
 20
6.07071743796739
 30
0.0
 10
39.55053995837753
 20
6.26049182249604
 30
0.0
 10
38.88873379053023
 20
6.627647090454789
 30
0.0
 10
38.55681640481261
 20
6.804780703440862
 30
0.0
 10
37.56262136889645
 20
7.314363285978785
 30
0.0
 10
36.90496403582229
 20
7.624555875605278
 30
0.0
 10
35.910363330945
 20
8.042271715516053
 30
0.0
 10
35.57858111069096
 20
8.173401815582523
 30
0.0
 10
34.91758190305197
 20
8.418285676318114
 30
0.0
 10
34.58889875005141
 20
8.532005497849694
 30
0.0
 10
34.25799999999964
 20
8.637105080577953
 30
0.0
  0
SPLINE
  5
B2
330
1F
100
AcDbEntity
  8
0
  6
Continuous
 62
     1
370
    15
100
AcDbSpline
210
0.0
220
0.0
230
1.0
 70
     8
 71
     3
 72
    20
 73
    16
 74
     0
 42
0.000000001
 43
0.00000001
 40
0.0
 40
0.0
 40
0.0
 40
0.0
 40
0.1250000000000002
 40
0.1250000000000002
 40
0.2500000000000005
 40
0.2500000000000005
 40
0.3750000000000008
 40
0.3750000000000008
 40
0.500000000000001
 40
0.500000000000001
 40
0.6250000000000012
 40
0.6250000000000012
 40
0.7500000000000016
 40
0.7500000000000016
 40
1.0
 40
1.0
 40
1.0
 40
1.0
 10
56.91154238547024
 20
-4.853692460463546
 30
0.0
 10
56.72069258131359
 20
-4.79540183845041
 30
0.0
 10
56.50584168974866
 20
-4.732488406876548
 30
0.0
 10
56.04199172088171
 20
-4.584631405651946
 30
0.0
 10
55.79500554519805
 20
-4.500430772637912
 30
0.0
 10
55.27671810060406
 20
-4.303341388650391
 30
0.0
 10
55.00537545657194
 20
-4.190530246072766
 30
0.0
 10
54.44074406345477
 20
-3.930547026515087
 30
0.0
 10
54.14941260952343
 20
-3.785100587451145
 30
0.0
 10
53.5598583812699
 20
-3.467591767229109
 30
0.0
 10
53.26020653427705
 20
-3.294840220786999
 30
0.0
 10
52.65108527923134
 20
-2.92145709992133
 30
0.0
 10
52.34036462940186
 20
-2.719513073548997
 30
0.0
 10
51.39957579191388
 20
-2.081464734285665
 30
0.0
 10
50.7718432253192
 20
-1.622735236237834
 30
0.0
 10
50.13299999999997
 20
-1.14453799902484
 30
0.0
  0
SPLINE
  5
B3
330
1F
100
AcDbEntity
  8
0
  6
Continuous
 62
     1
370
    15
100
AcDbSpline
210
0.0
220
0.0
230
1.0
 70
     8
 71
     3
 72
    14
 73
    10
 74
     0
 42
0.000000001
 43
0.00000001
 40
0.0
 40
0.0
 40
0.0
 40
0.0
 40
0.1263072633402736
 40
0.2316929027260725
 40
0.3397558304735123
 40
0.4822943753189368
 40
0.6289168684534058
 40
0.8120822127874725
 40
1.0
 40
1.0
 40
1.0
 40
1.0
 10
56.80737223340418
 20
-4.825680587256883
 30
0.0
 10
56.68338480548509
 20
-4.784540790499592
 30
0.0
 10
56.4559473144303
 20
-4.709075621860962
 30
0.0
 10
56.02186888693865
 20
-4.686817765149735
 30
0.0
 10
55.53276072050666
 20
-4.709147357772686
 30
0.0
 10
54.94530750542083
 20
-4.798048241134695
 30
0.0
 10
54.22377360513794
 20
-4.973232848378697
 30
0.0
 10
53.42257218161713
 20
-5.23171065306976
 30
0.0
 10
52.86315269564955
 20
-5.470470011385872
 30
0.0
 10
52.57986072414857
 20
-5.591378580050934
 30
0.0
  0
SPLINE
  5
B4
330
1F
100
AcDbEntity
  8
0
  6
Continuous
 62
     1
370
    15
100
AcDbSpline
210
0.0
220
0.0
230
1.0
 70
     8
 71
     3
 72
    40
 73
    36
 74
     0
 42
0.000000001
 43
0.00000001
 40
0.0
 40
0.0
 40
0.0
 40
0.0
 40
0.1249999999999994
 40
0.1249999999999994
 40
0.1874999999999997
 40
0.1874999999999997
 40
0.2500000000000001
 40
0.2500000000000001
 40
0.3750000000000006
 40
0.3750000000000006
 40
0.4375000000000009
 40
0.4375000000000009
 40
0.5000000000000012
 40
0.5000000000000012
 40
0.5625000000000013
 40
0.5625000000000013
 40
0.5937500000000014
 40
0.5937500000000014
 40
0.6250000000000014
 40
0.6250000000000014
 40
0.6562500000000016
 40
0.6562500000000016
 40
0.6875000000000016
 40
0.6875000000000016
 40
0.7187500000000017
 40
0.7187500000000017
 40
0.7500000000000017
 40
0.7500000000000017
 40
0.8125000000000013
 40
0.8125000000000013
 40
0.8750000000000009
 40
0.8750000000000009
 40
0.9375000000000004
 40
0.9375000000000004
 40
1.0
 40
1.0
 40
1.0
 40
1.0
 10
50.133
 20
2.182439315449284
 30
0.0
 10
50.5650521647476
 20
1.865338837536627
 30
0.0
 10
50.99258202068248
 20
1.543826658492849
 30
0.0
 10
51.63447330599557
 20
1.064920716830039
 30
0.0
 10
51.84854755403225
 20
0.9058632152082257
 30
0.0
 10
52.27845923754
 20
0.5910223615072633
 30
0.0
 10
52.49541221670869
 20
0.4346326766865167
 30
0.0
 10
53.14530758639669
 20
-0.0178233065858869
 30
0.0
 10
53.57412571813807
 20
-0.2969941789973596
 30
0.0
 10
54.22368905029929
 20
-0.6588159644001308
 30
0.0
 10
54.44278346319098
 20
-0.7704008357735005
 30
0.0
 10
54.87749431865652
 20
-0.9629240153802432
 30
0.0
 10
55.09339389226197
 20
-1.043709235251944
 30
0.0
 10
55.52542131241842
 20
-1.164420285731486
 30
0.0
 10
55.74312200001921
 20
-1.204351076520811
 30
0.0
 10
56.06011861031112
 20
-1.219916144393328
 30
0.0
 10
56.16459593745866
 20
-1.217842477214749
 30
0.0
 10
56.37136648255461
 20
-1.196492787148503
 30
0.0
 10
56.47439079901062
 20
-1.176944504585508
 30
0.0
 10
56.6728619946276
 20
-1.118322364678651
 30
0.0
 10
56.76869196447983
 20
-1.079361864678606
 30
0.0
 10
56.95311956880825
 20
-0.9792178509322851
 30
0.0
 10
57.04249431032682
 20
-0.9171486156619759
 30
0.0
 10
57.20605176768932
 20
-0.772859170873722
 30
0.0
 10
57.28097904506279
 20
-0.6904795170576881
 30
0.0
 10
57.41666966847994
 20
-0.5042372145376767
 30
0.0
 10
57.47783679420253
 20
-0.3990681009822943
 30
0.0
 10
57.63143921209968
 20
-0.0651732958908657
 30
0.0
 10
57.6974959398222
 20
0.1892951404304058
 30
0.0
 10
57.7607770644474
 20
0.7105840387157761
 30
0.0
 10
57.75952720062561
 20
0.9822528724287061
 30
0.0
 10
57.70722334003524
 20
1.518217491535567
 30
0.0
 10
57.65693049406677
 20
1.782204908646689
 30
0.0
 10
57.51972167271396
 20
2.303692799869981
 30
0.0
 10
57.43227053730172
 20
2.561738340115471
 30
0.0
 10
57.33130148905859
 20
2.812736549716877
 30
0.0
  0
SPLINE
  5
B5
330
1F
100
AcDbEntity
  8
0
  6
Continuous
 62
     1
370
    15
100
AcDbSpline
210
0.0
220
0.0
230
1.0
 70
     8
 71
     3
 72
    30
 73
    26
 74
     0
 42
0.000000001
 43
0.00000001
 40
0.0
 40
0.0
 40
0.0
 40
0.0
 40
0.0625000000000004
 40
0.0625000000000004
 40
0.1250000000000008
 40
0.1250000000000008
 40
0.2500000000000016
 40
0.2500000000000016
 40
0.3125000000000019
 40
0.3125000000000019
 40
0.3750000000000024
 40
0.3750000000000024
 40
0.5000000000000024
 40
0.5000000000000024
 40
0.6250000000000024
 40
0.6250000000000024
 40
0.6875000000000026
 40
0.6875000000000026
 40
0.7500000000000026
 40
0.7500000000000026
 40
0.8750000000000018
 40
0.8750000000000018
 40
0.9375000000000009
 40
0.9375000000000009
 40
1.0
 40
1.0
 40
1.0
 40
1.0
 10
50.13300000000024
 20
2.182439315449106
 30
0.0
 10
49.80251686770912
 20
2.424994191323439
 30
0.0
 10
49.4738222502644
 20
2.664876546073686
 30
0.0
 10
48.8119988303451
 20
3.139750665506301
 30
0.0
 10
48.48007934695329
 20
3.374441697754191
 30
0.0
 10
47.48589769967627
 20
4.067009001942379
 30
0.0
 10
46.82823387371293
 20
4.512720530752435
 30
0.0
 10
45.83362685797704
 20
5.152585454704643
 30
0.0
 10
45.5018491037523
 20
5.360835840685817
 30
0.0
 10
44.84087183046211
 20
5.765371278339068
 30
0.0
 10
44.51218112508582
 20
5.961574057764505
 30
0.0
 10
43.51945891340637
 20
6.532535951104697
 30
0.0
 10
42.85489226097515
 20
6.888288551526416
 30
0.0
 10
41.5368365242505
 20
7.538570182233309
 30
0.0
 10
40.8707092237369
 20
7.835124152860657
 30
0.0
 10
39.87922684227246
 20
8.228761509419042
 30
0.0
 10
39.55053995837774
 20
8.351440198759146
 30
0.0
 10
38.88873379053046
 20
8.579949316443361
 30
0.0
 10
38.55681640481289
 20
8.685608763633608
 30
0.0
 10
37.56262136889674
 20
8.975297471696015
 30
0.0
 10
36.90496403582257
 20
9.131847991867167
 30
0.0
 10
35.91036333094529
 20
9.310142564369697
 30
0.0
 10
35.57858111069127
 20
9.360057245069376
 30
0.0
 10
34.91758190305228
 20
9.440451659384806
 30
0.0
 10
34.58889875005173
 20
9.470945880019274
 30
0.0
 10
34.25799999999997
 20
9.491755539397017
 30
0.0
  0
SPLINE
  5
B6
330
1F
100
AcDbEntity
  8
0
  6
Continuous
 62
     1
370
    15
100
AcDbSpline
210
0.0
220
0.0
230
1.0
 70
     8
 71
     3
 72
    12
 73
     8
 74
     0
 42
0.000000001
 43
0.00000001
 40
0.0
 40
0.0
 40
0.0
 40
0.0
 40
0.0981124458514429
 40
0.333847766005141
 40
0.569575211101892
 40
0.8052958729071722
 40
1.0
 40
1.0
 40
1.0
 40
1.0
 10
53.53114521520148
 20
4.866401117319926
 30
0.0
 10
53.20225153119156
 20
4.978177250697423
 30
0.0
 10
52.08312316060572
 20
5.358518522357008
 30
0.0
 10
50.17349335380327
 20
5.889409656712803
 30
0.0
 10
47.80265589159673
 20
6.342182738993837
 30
0.0
 10
45.56934977367279
 20
6.580496601952177
 30
0.0
 10
44.12634363420621
 20
6.55538684446933
 30
0.0
 10
43.47359486596336
 20
6.544028359692638
 30
0.0
  0
SPLINE
  5
B7
330
1F
100
AcDbEntity
  8
0
  6
Continuous
 62
     1
370
    15
100
AcDbSpline
210
0.0
220
0.0
230
1.0
 70
     8
 71
     3
 72
    10
 73
     6
 74
     0
 42
0.000000001
 43
0.00000001
 40
0.0
 40
0.0
 40
0.0
 40
0.0
 40
0.5
 40
0.5
 40
1.0
 40
1.0
 40
1.0
 40
1.0
 10
51.90221163129687
 20
4.386347967396571
 30
0.0
 10
52.16653600447312
 20
4.50189558581951
 30
0.0
 10
52.43906877966601
 20
4.593768574353781
 30
0.0
 10
52.98708827343964
 20
4.750055857160338
 30
0.0
 10
53.25960715222696
 20
4.813171736854609
 30
0.0
 10
53.53114521520146
 20
4.86640111731993
 30
0.0
  0
SPLINE
  5
B8
330
1F
100
AcDbEntity
  8
0
  6
Continuous
 62
     1
370
    15
100
AcDbSpline
210
0.0
220
0.0
230
1.0
 70
     8
 71
     3
 72
    10
 73
     6
 74
     0
 42
0.000000001
 43
0.00000001
 40
0.0
 40
0.0
 40
0.0
 40
0.0
 40
0.5
 40
0.5
 40
1.0
 40
1.0
 40
1.0
 40
1.0
 10
51.90221163129689
 20
4.38634796739658
 30
0.0
 10
52.79994985551945
 20
4.141757695867809
 30
0.0
 10
53.70227310528191
 20
3.885769768980226
 30
0.0
 10
55.51277068586387
 20
3.35924904412757
 30
0.0
 10
56.42146929832364
 20
3.087560142700911
 30
0.0
 10
57.33130148906162
 20
2.812736549728768
 30
0.0
  0
SPLINE
  5
B9
330
1F
100
AcDbEntity
  8
0
  6
Continuous
 62
     1
370
    15
100
AcDbSpline
210
0.0
220
0.0
230
1.0
 70
     8
 71
     3
 72
    13
 73
     9
 74
     0
 42
0.000000001
 43
0.00000001
 40
0.0
 40
0.0
 40
0.0
 40
0.0
 40
0.2194423587758517
 40
0.4446956295920192
 40
0.6147670163004243
 40
0.7888112998530349
 40
0.897317249019145
 40
1.0
 40
1.0
 40
1.0
 40
1.0
 10
50.133
 20
-9.120661588879354
 30
0.0
 10
50.52974887648431
 20
-9.013417730578757
 30
0.0
 10
51.33375268141207
 20
-8.796090158304636
 30
0.0
 10
52.44706700293353
 20
-8.247532768969672
 30
0.0
 10
53.48061728512423
 20
-7.621059016016038
 30
0.0
 10
54.30528526602097
 20
-7.047795727578618
 30
0.0
 10
55.00660950656719
 20
-6.5302053320482
 30
0.0
 10
55.38837143859917
 20
-6.248427049884917
 30
0.0
 10
55.57398916044478
 20
-6.111422706569908
 30
0.0
  0
ARC
  5
BA
330
1F
100
AcDbEntity
  8
0
  6
Continuous
 62
     1
370
    15
100
AcDbCircle
 10
50.01184548321644
 20
0.0620322977639239
 30
0.0
 40
9.650906843887642
100
AcDbArc
 50
319.325244668925
 51
352.5506392771192
  0
ARC
  5
BB
330
1F
100
AcDbEntity
  8
0
  6
Continuous
 62
     1
370
    15
100
AcDbCircle
 10
53.42956781609471
 20
0.4625253490657807
 30
0.0
 40
6.355023107757731
100
AcDbArc
 50
303.2236818646152
 51
346.0915976398798
  0
ARC
  5
BC
330
1F
100
AcDbEntity
  8
0
  6
Continuous
 62
     1
370
    15
100
AcDbCircle
 10
54.4707562505408
 20
-2.100572052505996
 30
0.0
 40
5.685360189329978
100
AcDbArc
 50
25.37471123958909
 51
59.7918880097689
  0
ARC
  5
BD
330
1F
100
AcDbEntity
  8
0
  6
Continuous
 62
     1
370
    15
100
AcDbCircle
 10
50.78786512644158
 20
0.0628834150024001
 30
0.0
 40
8.823975374439994
100
AcDbArc
 50
1.772458519347283
 51
46.05387424666095
  0
SPLINE
  5
BE
330
1F
100
AcDbEntity
  8
0
  6
Continuous
 62
     1
370
    15
100
AcDbSpline
210
0.0
220
0.0
230
1.0
 70
     8
 71
     3
 72
    20
 73
    16
 74
     0
 42
0.000000001
 43
0.00000001
 40
0.0
 40
0.0
 40
0.0
 40
0.0
 40
0.1250000000000002
 40
0.1250000000000002
 40
0.2500000000000004
 40
0.2500000000000004
 40
0.3750000000000007
 40
0.3750000000000007
 40
0.5000000000000009
 40
0.5000000000000009
 40
0.6250000000000011
 40
0.6250000000000011
 40
0.7500000000000013
 40
0.7500000000000013
 40
1.0
 40
1.0
 40
1.0
 40
1.0
 10
56.91154238547023
 20
6.416080896269501
 30
0.0
 10
56.72069258131359
 20
6.683347373106178
 30
0.0
 10
56.50584168974866
 20
6.938597516458685
 30
0.0
 10
56.04199172088171
 20
7.412111782710345
 30
0.0
 10
55.79500554519804
 20
7.628650328208267
 30
0.0
 10
55.27671810060407
 20
8.019316143710375
 30
0.0
 10
55.00537545657194
 20
8.193473287012399
 30
0.0
 10
54.44074406345474
 20
8.496673702196206
 30
0.0
 10
54.1494126095234
 20
8.62436323527837
 30
0.0
 10
53.55985838126991
 20
8.828551674921098
 30
0.0
 10
53.26020653427704
 20
8.90583977078635
 30
0.0
 10
52.65108527923135
 20
9.010857804659635
 30
0.0
 10
52.34036462940186
 20
9.038462551197544
 30
0.0
 10
51.39957579191388
 20
9.045077787550982
 30
0.0
 10
50.7718432253192
 20
8.950365317875173
 30
0.0
 10
50.13299999999997
 20
8.761392476820042
 30
0.0
  0
LINE
  5
BF
330
1F
100
AcDbEntity
  8
0
  6
Continuous
 62
     4
370
    15
100
AcDbLine
 10
34.25799999999968
 20
8.637105080577978
 30
0.0
 11
34.25799999999999
 21
9.491755539397024
 31
0.0
  0
SPLINE
  5
C0
330
1F
100
AcDbEntity
  8
0
  6
Continuous
 62
     1
370
    15
100
AcDbSpline
210
0.0
220
0.0
230
1.0
 70
     8
 71
     3
 72
    30
 73
    26
 74
     0
 42
0.000000001
 43
0.00000001
 40
0.0
 40
0.0
 40
0.0
 40
0.0
 40
0.0625000000000005
 40
0.0625000000000005
 40
0.1250000000000009
 40
0.1250000000000009
 40
0.2500000000000017
 40
0.2500000000000017
 40
0.3125000000000021
 40
0.3125000000000021
 40
0.3750000000000025
 40
0.3750000000000025
 40
0.5000000000000026
 40
0.5000000000000026
 40
0.6250000000000026
 40
0.6250000000000026
 40
0.6875000000000026
 40
0.6875000000000026
 40
0.7500000000000026
 40
0.7500000000000026
 40
0.8750000000000018
 40
0.8750000000000018
 40
0.9375000000000009
 40
0.9375000000000009
 40
1.0
 40
1.0
 40
1.0
 40
1.0
 10
50.13300000000024
 20
-9.120661588879305
 30
0.0
 10
49.80251686770912
 20
-9.19249337712492
 30
0.0
 10
49.47382225026441
 20
-9.25485288273403
 30
0.0
 10
48.81199883034509
 20
-9.36072270779158
 30
0.0
 10
48.48007934695328
 20
-9.404132872262112
 30
0.0
 10
47.48589769967626
 20
-9.505145358565624
 30
0.0
 10
46.82823387371293
 20
-9.533544271110308
 30
0.0
 10
45.83362685797704
 20
-9.517404627486119
 30
0.0
 10
45.50184910375231
 20
-9.502211533957826
 30
0.0
 10
44.84087183046212
 20
-9.452400953170649
 30
0.0
 10
44.51218112508582
 20
-9.417832481842671
 30
0.0
 10
43.51945891340637
 20
-9.285000124285142
 30
0.0
 10
42.85489226097516
 20
-9.157614629090084
 30
0.0
 10
41.5368365242505
 20
-8.829680585622953
 30
0.0
 10
40.8707092237369
 20
-8.628042211508493
 30
0.0
 10
39.87922684227247
 20
-8.274477186414341
 30
0.0
 10
39.55053995837774
 20
-8.148239784362403
 30
0.0
 10
38.88873379053046
 20
-7.878732101698607
 30
0.0
 10
38.55681640481288
 20
-7.735594454597212
 30
0.0
 10
37.56262136889674
 20
-7.282978218660478
 30
0.0
 10
36.90496403582257
 20
-6.950856991905316
 30
0.0
 10
35.91036333094529
 20
-6.410582870621147
 30
0.0
 10
35.57858111069127
 20
-6.22365619942454
 30
0.0
 10
34.91758190305228
 20
-5.837899381978831
 30
0.0
 10
34.58889875005173
 20
-5.639196011085485
 30
0.0
 10
34.25799999999997
 20
-5.434464245926905
 30
0.0
  0
SPLINE
  5
C1
330
1F
100
AcDbEntity
  8
0
  6
Continuous
 62
     1
370
    15
100
AcDbSpline
210
0.0
220
0.0
230
1.0
 70
     8
 71
     3
 72
    12
 73
     8
 74
     0
 42
0.000000001
 43
0.00000001
 40
0.0
 40
0.0
 40
0.0
 40
0.0
 40
0.0510211496211799
 40
0.3466071831655473
 40
0.6426076775125209
 40
0.9386951247737993
 40
1.0
 40
1.0
 40
1.0
 40
1.0
 10
52.96222067594774
 20
-5.856003468719181
 30
0.0
 10
53.03596928436085
 20
-5.865853547669435
 30
0.0
 10
53.53697323300251
 20
-5.932769094344783
 30
0.0
 10
54.47180712100504
 20
-6.022456369377974
 30
0.0
 10
55.76486923234567
 20
-6.131826873475972
 30
0.0
 10
56.71934816341519
 20
-6.192364666227417
 30
0.0
 10
57.24170040627942
 20
-6.222854288270801
 30
0.0
 10
57.33130148906162
 20
-6.228084290029246
 30
0.0
  0
SPLINE
  5
C2
330
1F
100
AcDbEntity
  8
0
  6
Continuous
 62
     4
370
    15
100
AcDbSpline
210
0.0
220
0.0
230
1.0
 70
    24
 71
     3
 72
    14
 73
    10
 74
     0
 42
0.000000001
 43
0.00000001
 40
0.0
 40
0.0
 40
0.0
 40
0.0
 40
0.25
 40
0.25
 40
0.5
 40
0.5
 40
0.75
 40
0.75
 40
1.0
 40
1.0
 40
1.0
 40
1.0
 10
34.258
 20
1.716223657366912
 30
0.0
 10
34.258
 20
1.264379458765718
 30
0.0
 10
34.258
 20
0.7380366043253328
 30
0.0
 10
34.258
 20
-0.4439722938741212
 30
0.0
 10
34.258
 20
-1.100310540604356
 30
0.0
 10
34.25799999999999
 20
-2.450741297816174
 30
0.0
 10
34.258
 20
-3.142908919124905
 30
0.0
 10
34.258
 20
-4.410851246117272
 30
0.0
 10
34.25799999999999
 20
-4.983045158935655
 30
0.0
 10
34.25799999999999
 20
-5.434464245925793
 30
0.0
  0
SPLINE
  5
C3
330
1F
100
AcDbEntity
  8
0
  6
Continuous
 62
     1
370
    15
100
AcDbSpline
210
0.0
220
0.0
230
1.0
 70
     8
 71
     3
 72
    11
 73
     7
 74
     0
 42
0.000000001
 43
0.00000001
 40
0.0
 40
0.0
 40
0.0
 40
0.0
 40
0.2873494075099544
 40
0.5746740560518405
 40
0.8619899946237408
 40
1.0
 40
1.0
 40
1.0
 40
1.0
 10
34.25799999999964
 20
-7.796271709556535
 30
0.0
 10
34.99885036007073
 20
-8.09458991019721
 30
0.0
 10
36.4804872461143
 20
-8.69120060740327
 30
0.0
 10
38.70280213897603
 20
-9.23882447116428
 30
0.0
 10
40.54008397830594
 20
-9.519399288808648
 30
0.0
 10
41.63663130394324
 20
-9.495894062929766
 30
0.0
 10
41.99243960686907
 20
-9.488267073802788
 30
0.0
  0
LINE
  5
C4
330
1F
100
AcDbEntity
  8
0
  6
Continuous
 62
     4
370
    15
100
AcDbLine
 10
34.25799999999968
 20
-7.796271709556509
 30
0.0
 11
34.25799999999999
 21
-5.43446424592692
 31
0.0
  0
SPLINE
  5
C5
330
1F
100
AcDbEntity
  8
0
  6
Continuous
 62
     1
370
    15
100
AcDbSpline
210
0.0
220
0.0
230
1.0
 70
     8
 71
     3
 72
    10
 73
     6
 74
     0
 42
0.000000001
 43
0.00000001
 40
0.0
 40
0.0
 40
0.0
 40
0.0
 40
0.0967558764312217
 40
0.5483668306462829
 40
1.0
 40
1.0
 40
1.0
 40
1.0
 10
44.9768506084775
 20
6.542054587833145
 30
0.0
 10
45.14314338819271
 20
6.638346388490669
 30
0.0
 10
46.08561270308351
 20
7.184083055775418
 30
0.0
 10
47.80432044752713
 20
7.976874483865397
 30
0.0
 10
49.35676075517234
 20
8.499882191406089
 30
0.0
 10
50.13300000000024
 20
8.761392476820133
 30
0.0
  0
SPLINE
  5
C6
330
1F
100
AcDbEntity
  8
0
  6
Continuous
 62
     1
370
    15
100
AcDbSpline
210
0.0
220
0.0
230
1.0
 70
     8
 71
     3
 72
    14
 73
    10
 74
     0
 42
0.000000001
 43
0.00000001
 40
0.0
 40
0.0
 40
0.0
 40
0.0
 40
0.160061854801424
 40
0.2655918816572164
 40
0.3738028649920065
 40
0.5165367000115617
 40
0.6633600786836759
 40
0.8467763754322547
 40
1.0
 40
1.0
 40
1.0
 40
1.0
 10
56.91154238547024
 20
6.416080896269501
 30
0.0
 10
56.75546677287609
 20
6.21210231746605
 30
0.0
 10
56.4964892939439
 20
5.873639073806999
 30
0.0
 10
56.02238471957612
 20
5.520878327751945
 30
0.0
 10
55.53257458291213
 20
5.258031400165011
 30
0.0
 10
54.94534528903367
 20
5.065024142261878
 30
0.0
 10
54.22383912982958
 20
4.961445572625884
 30
0.0
 10
53.47621380402743
 20
4.968839930505906
 30
0.0
 10
52.96919656444842
 20
5.080283424321046
 30
0.0
 10
52.73842470927789
 20
5.131007580832488
 30
0.0
  0
LINE
  5
C7
330
1F
100
AcDbEntity
  8
중심선
100
AcDbLine
 10
-70.342
 20
-0.000000000000014
 30
0.0
 11
62.60761861439268
 21
-0.000000000000014
 31
0.0
  0
CIRCLE
  5
C8
330
1F
100
AcDbEntity
  8
외형선
100
AcDbCircle
 10
0.0
 20
0.0
 30
0.0
 40
3.000000000000004
  0
INSERT
  5
C9
330
1F
100
AcDbEntity
  8
0
  6
Continuous
 62
     7
100
AcDbBlockReference
 66
     1
  2
블럭10
 10
-8.43278629968143
 20
-51.95764267978461
 30
0.0
  0
ATTRIB
  5
CA
330
C9
100
AcDbEntity
  8
FORMAT
 62
     2
100
AcDbText
 10
-17.61408158842271
 20
-49.88227576695243
 30
0.0
 40
4.233333333333333
  1
E5978048 [ 3 FLUTE ]
 41
0.75
  7
SLDTEXTSTYLE0
 11
-17.61408158842271
 21
-51.99894243361909
 31
0.0
100
AcDbAttribute
  2
AUTOATTR0
 70
     0
 74
     1
  0
SEQEND
  5
CB
330
C9
100
AcDbEntity
  8
0
  6
Continuous
 62
     7
  0
HATCH
  5
CC
330
1F
100
AcDbEntity
  8
중심선
100
AcDbHatch
 10
0.0
 20
0.0
 30
0.0
210
0.0
220
0.0
230
1.0
  2
SOLID
 70
     1
 71
     0
 91
        1
 92
        0
 93
        4
 72
     1
 10
-2.71787699530058
 20
-35.71046837814069
 11
-6.164152239137863
 21
-35.71046837814069
 72
     1
 10
-6.164152239137863
 20
-35.71046837814069
 11
-8.292382098341886
 21
-38.24679395871328
 72
     1
 10
-8.292382098341886
 20
-38.24679395871328
 11
-4.846073769391454
 21
-38.24675452941079
 72
     1
 10
-4.846073769391454
 20
-38.24675452941079
 11
-2.71787699530058
 21
-35.71046837814069
 97
        0
 75
     0
 76
     1
 98
        1
 10
-9.65085681430867
 20
-0.0000000000000036
  0
HATCH
  5
CD
330
1F
100
AcDbEntity
  8
중심선
100
AcDbHatch
 10
0.0
 20
0.0
 30
0.0
210
0.0
220
0.0
230
1.0
  2
SOLID
 70
     1
 71
     0
 91
        1
 92
        0
 93
        4
 72
     1
 10
2.294886995735371
 20
-35.71046837814069
 11
-1.151388248101911
 21
-35.71046837814069
 72
     1
 10
-1.151388248101911
 20
-35.71046837814069
 11
-5.682526256459299
 21
-41.1104683781407
 72
     1
 10
-5.682526256459299
 20
-41.11046837814069
 11
-2.236251012622017
 21
-41.11046837814069
 72
     1
 10
-2.236251012622017
 20
-41.11046837814069
 11
2.294886995735371
 21
-35.71046837814068
 97
        0
 75
     0
 76
     1
 98
        1
 10
-9.65085681430867
 20
-0.0000000000000036
  0
HATCH
  5
CE
330
1F
100
AcDbEntity
  8
중심선
100
AcDbHatch
 10
0.0
 20
0.0
 30
0.0
210
0.0
220
0.0
230
1.0
  2
SOLID
 70
     1
 71
     0
 91
        1
 92
        0
 93
        4
 72
     1
 10
7.307650986771266
 20
-35.71046837814072
 11
3.86137574293415
 21
-35.71046837814069
 72
     1
 10
3.86137574293415
 20
-35.71046837814069
 11
-3.187061158955098
 21
-44.11046837814071
 72
     1
 10
-3.187061158955098
 20
-44.11046837814071
 11
0.2592140848821849
 21
-44.11046837814071
 72
     1
 10
0.2592140848821849
 20
-44.11046837814071
 11
7.307650986771266
 21
-35.71046837814072
 97
        0
 75
     0
 76
     1
 98
        1
 10
-9.65085681430867
 20
-0.0000000000000036
  0
HATCH
  5
CF
330
1F
100
AcDbEntity
  8
중심선
100
AcDbHatch
 10
0.0
 20
0.0
 30
0.0
210
0.0
220
0.0
230
1.0
  2
SOLID
 70
     1
 71
     0
 91
        1
 92
        0
 93
        6
 72
     3
 10
12.10754141778346
 20
-39.91046837819196
 11
3.960054785062285
 21
1.540882976769353E-10
 40
0.3939339440162626
 50
17.09539180608438
 51
320.0019657685078
 73
     0
 72
     1
 10
13.79054107348406
 20
-38.49836238277899
 11
16.0958429471851
 21
-36.56403567273107
 72
     3
 10
12.10754141773062
 20
-39.91046837814083
 11
6.600054785286831
 21
-1.278976924368180E-13
 40
0.6363583540795978
 50
39.99873849337418
 51
368.4976242363725
 73
     1
 72
     1
 10
18.53287390963123
 20
-38.95046837807071
 11
10.78760872456654
 21
-38.95046837807068
 72
     1
 10
10.78760872456654
 20
-38.95046837807068
 11
10.78758368012061
 21
-40.8704683780706
 72
     1
 10
10.78758368012061
 20
-40.8704683780706
 11
15.22896344959265
 21
-40.87046837807057
 97
        0
 75
     0
 76
     1
 98
        1
 10
-9.65085681430867
 20
-0.0000000000000036
  0
POINT
  5
D0
330
1F
100
AcDbEntity
  8
치수문자_일반주서
100
AcDbPoint
 10
-67.34200000000001
 20
-0.000000000000014
 30
0.0
  0
DIMENSION
  5
D1
330
1F
100
AcDbEntity
  8
치수문자_일반주서
100
AcDbDimension
  2
_D
 10
-78.83845802161204
 20
-9.525000000000052
 30
0.0
 11
-78.83845802161208
 21
-0.0000000000000062
 31
0.0
 70
   160
  1
%%c<>
 71
     2
 42
19.05
 52
-270.0
  3
SLDDIMSTYLE0
100
AcDbAlignedDimension
 13
-66.34200000000001
 23
9.524999999999995
 33
0.0
 14
-66.34200000000001
 24
-9.525000000000006
 34
0.0
 50
90.0000000000002
100
AcDbRotatedDimension
1001
ACAD
1000
DSTYLE
1002
{
1070
   171
1070
     6
1070
   273
1070
     7
1002
}
  0
DIMENSION
  5
E6
330
1F
100
AcDbEntity
  8
치수문자_일반주서
100
AcDbDimension
  2
_D_1
 10
59.65800000000002
 20
49.52500000000005
 30
0.0
 11
1.005987261005268
 21
49.52500000000005
 31
0.0
 70
   160
  1
<>
 71
     2
 42
127.0
  3
SLDDIMSTYLE1
100
AcDbAlignedDimension
 13
-67.34200000000001
 23
8.524999999999995
 33
0.0
 14
59.65800000000002
 24
0.0000000000000043
 34
0.0
 50
-0.0000000000000064
100
AcDbRotatedDimension
1001
ACAD
1000
DSTYLE
1002
{
1070
   171
1070
     6
1070
   273
1070
     7
1002
}
  0
DIMENSION
  5
FA
330
1F
100
AcDbEntity
  8
치수문자_일반주서
100
AcDbDimension
  2
_D_2
 10
59.65800000000002
 20
36.90471645742494
 30
0.0
 11
28.05593591434266
 21
36.90471645742494
 31
0.0
 70
   160
  1
<>
 71
     2
 42
57.15000000000001
  3
SLDDIMSTYLE1
100
AcDbAlignedDimension
 13
2.508000000000001
 23
9.017000000000005
 33
0.0
 14
59.65800000000002
 24
0.0000000000000043
 34
0.0
 50
-0.0000000000000043
100
AcDbRotatedDimension
1001
ACAD
1000
DSTYLE
1002
{
1070
   171
1070
     6
1070
   273
1070
     7
1002
}
  0
DIMENSION
  5
10D
330
1F
100
AcDbEntity
  8
치수문자_일반주서
100
AcDbDimension
  2
_D_3
 10
59.65800000000002
 20
26.10606911247279
 30
0.0
 11
46.63023841557765
 21
26.10606911247279
 31
0.0
 70
   160
  1
<>
 71
     2
 42
25.40000000000019
  3
SLDDIMSTYLE0
100
AcDbAlignedDimension
 13
34.25799999999999
 23
9.491755539397024
 33
0.0
 14
59.65800000000002
 24
0.0000000000000043
 34
0.0
 50
-0.0000000000010118
100
AcDbRotatedDimension
1001
ACAD
1000
DSTYLE
1002
{
1070
   171
1070
     6
1070
   273
1070
     7
1002
}
  0
INSERT
  5
128
330
1F
100
AcDbEntity
  8
외형선
100
AcDbBlockReference
  2
SW_DOWELSYMBOL_0
 10
0.0
 20
0.0
 30
0.0
  0
DIMENSION
  5
151
102
{ACAD_XDICTIONARY
360
152
102
}
330
1F
100
AcDbEntity
  8
치수문자_일반주서
100
AcDbDimension
  2
*D7
 10
74.75299001246522
 20
-9.524999999999991
 30
0.0
 11
74.75299001246522
 21
29.91025
 31
0.0
 70
   160
  1
{%%C<>[]}
 71
     5
 42
19.05
  3
SLDDIMSTYLE0
100
AcDbAlignedDimension
 13
59.65800000000002
 23
9.525000000000006
 33
0.0
 14
59.65800000000002
 24
-9.524999999999995
 34
0.0
 50
90.0
100
AcDbRotatedDimension
1001
ACAD
1000
DSTYLE
1002
{
1070
   283
1070
     1
1070
   170
1070
     1
1070
   171
1070
     6
1070
   273
1070
     7
1002
}
  0
ENDSEC
  0
SECTION
  2
OBJECTS
  0
DICTIONARY
  5
C
330
0
100
AcDbDictionary
281
     1
  3
ACAD_GROUP
350
D
  3
ACAD_IMAGE_VARS
350
14C
  3
ACAD_LAYOUT
350
1A
  3
ACAD_MLINESTYLE
350
17
  3
ACAD_PLOTSETTINGS
350
19
  3
ACAD_PLOTSTYLENAME
350
E
  3
ACAD_SCALELIST
350
47
  3
APPDATA
350
14A
  3
DWGPROPS
350
165
  0
DICTIONARY
  5
152
330
151
100
AcDbDictionary
280
     1
281
     1
  0
DICTIONARY
  5
D
102
{ACAD_REACTORS
330
C
102
}
330
C
100
AcDbDictionary
281
     1
  0
RASTERVARIABLES
  5
14C
102
{ACAD_REACTORS
330
C
102
}
330
C
100
AcDbRasterVariables
 90
        0
 70
     1
 71
     1
 72
     1
  0
DICTIONARY
  5
1A
102
{ACAD_REACTORS
330
C
102
}
330
C
100
AcDbDictionary
281
     1
  3
Layout1
350
1E
  3
Layout2
350
26
  3
Model
350
22
  0
DICTIONARY
  5
17
102
{ACAD_REACTORS
330
C
102
}
330
C
100
AcDbDictionary
281
     1
  3
Standard
350
18
  0
DICTIONARY
  5
19
102
{ACAD_REACTORS
330
C
102
}
330
C
100
AcDbDictionary
281
     1
  0
ACDBDICTIONARYWDFLT
  5
E
102
{ACAD_REACTORS
330
C
102
}
330
C
100
AcDbDictionary
281
     1
  3
Normal
350
F
100
AcDbDictionaryWithDefault
340
F
  0
DICTIONARY
  5
47
102
{ACAD_REACTORS
330
C
102
}
330
C
100
AcDbDictionary
281
     1
  3
A0
350
48
  3
A1
350
49
  3
A2
350
4A
  3
A3
350
4B
  3
A4
350
4C
  3
A5
350
4D
  3
A6
350
4E
  3
A7
350
4F
  3
A8
350
50
  3
A9
350
51
  3
B0
350
52
  3
B1
350
53
  3
B2
350
54
  3
B3
350
55
  3
B4
350
56
  3
B5
350
57
  3
B6
350
58
  3
B7
350
59
  3
B8
350
5A
  3
B9
350
5B
  3
C0
350
5C
  3
C1
350
5D
  3
C2
350
5E
  3
C3
350
5F
  3
C4
350
60
  3
C5
350
61
  3
C6
350
62
  3
C7
350
63
  3
C8
350
64
  3
C9
350
65
  3
D0
350
66
  3
D1
350
67
  3
D2
350
68
  0
DICTIONARY
  5
14A
102
{ACAD_REACTORS
330
C
102
}
330
C
100
AcDbDictionary
281
     1
  0
XRECORD
  5
165
102
{ACAD_REACTORS
330
C
102
}
330
C
100
AcDbXrecord
280
     1
  1
DWGPROPS COOKIE
  2

  3

  4

  6

  7

  8
12016016
  9

300
=
301
=
302
=
303
=
304
=
305
=
306
=
307
=
308
=
309
=
 40
0.0
 41
2458269.361451181
 42
2458275.055249502
  1

 90
        0
  0
LAYOUT
  5
1E
102
{ACAD_REACTORS
330
1A
102
}
330
1A
100
AcDbPlotSettings
  1

  2
none_device
  4

  6

 40
0.0
 41
0.0
 42
0.0
 43
0.0
 44
0.0
 45
0.0
 46
0.0
 47
0.0
 48
0.0
 49
0.0
140
0.0
141
0.0
142
1.0
143
1.0
 70
   688
 72
     1
 73
     0
 74
     5
  7

 75
    16
147
1.0
148
0.0
149
0.0
100
AcDbLayout
  1
Layout1
 70
     1
 71
     1
 10
0.0
 20
0.0
 11
420.0
 21
297.0
 12
0.0
 22
0.0
 32
0.0
 14
1.000000000000000E+20
 24
1.000000000000000E+20
 34
1.000000000000000E+20
 15
-1.000000000000000E+20
 25
-1.000000000000000E+20
 35
-1.000000000000000E+20
146
0.0
 13
0.0
 23
0.0
 33
0.0
 16
1.0
 26
0.0
 36
0.0
 17
0.0
 27
1.0
 37
0.0
 76
     0
330
1B
  0
LAYOUT
  5
26
102
{ACAD_REACTORS
330
1A
102
}
330
1A
100
AcDbPlotSettings
  1

  2
none_device
  4

  6

 40
0.0
 41
0.0
 42
0.0
 43
0.0
 44
0.0
 45
0.0
 46
0.0
 47
0.0
 48
0.0
 49
0.0
140
0.0
141
0.0
142
1.0
143
1.0
 70
   688
 72
     1
 73
     0
 74
     5
  7

 75
    16
147
1.0
148
0.0
149
0.0
100
AcDbLayout
  1
Layout2
 70
     1
 71
     2
 10
0.0
 20
0.0
 11
0.0
 21
0.0
 12
0.0
 22
0.0
 32
0.0
 14
0.0
 24
0.0
 34
0.0
 15
0.0
 25
0.0
 35
0.0
146
0.0
 13
0.0
 23
0.0
 33
0.0
 16
1.0
 26
0.0
 36
0.0
 17
0.0
 27
1.0
 37
0.0
 76
     0
330
23
  0
LAYOUT
  5
22
102
{ACAD_REACTORS
330
1A
102
}
330
1A
100
AcDbPlotSettings
  1

  2
none_device
  4
ANSI_A_(11.00_x_8.50_Inches)
  6

 40
6.35
 41
19.05
 42
6.35000508
 43
19.05000254
 44
279.4
 45
215.9
 46
137.2362742172723
 47
80.28510130842983
 48
0.0
 49
0.0
140
0.0
141
0.0
142
0.0699921132922517
143
1.0
 70
  1696
 72
     0
 73
     0
 74
     0
  7

 75
     0
147
0.0235690232323232
148
0.0
149
0.0
100
AcDbLayout
  1
Model
 70
     1
 71
     0
 10
0.0
 20
0.0
 11
420.0
 21
297.0
 12
0.0
 22
0.0
 32
0.0
 14
-83.21345802161213
 24
-49.88227576695243
 34
0.0
 15
75.30332334579855
 25
53.90000000000005
 35
0.0
146
0.0
 13
0.0
 23
0.0
 33
0.0
 16
1.0
 26
0.0
 36
0.0
 17
0.0
 27
1.0
 37
0.0
 76
     0
330
1F
331
29
  0
MLINESTYLE
  5
18
102
{ACAD_REACTORS
330
17
102
}
330
17
100
AcDbMlineStyle
  2
Standard
 70
     0
  3

 62
   256
 51
90.0
 52
90.0
 71
     2
 49
0.5
 62
   256
  6
BYLAYER
 49
-0.5
 62
   256
  6
BYLAYER
  0
ACDBPLACEHOLDER
  5
F
102
{ACAD_REACTORS
330
E
102
}
330
E
  0
SCALE
  5
48
102
{ACAD_REACTORS
330
47
102
}
330
47
100
AcDbScale
 70
     0
300
1:1
140
1.0
141
1.0
290
     1
  0
SCALE
  5
49
102
{ACAD_REACTORS
330
47
102
}
330
47
100
AcDbScale
 70
     0
300
1:2
140
1.0
141
2.0
290
     0
  0
SCALE
  5
4A
102
{ACAD_REACTORS
330
47
102
}
330
47
100
AcDbScale
 70
     0
300
1:4
140
1.0
141
4.0
290
     0
  0
SCALE
  5
4B
102
{ACAD_REACTORS
330
47
102
}
330
47
100
AcDbScale
 70
     0
300
1:5
140
1.0
141
5.0
290
     0
  0
SCALE
  5
4C
102
{ACAD_REACTORS
330
47
102
}
330
47
100
AcDbScale
 70
     0
300
1:8
140
1.0
141
8.0
290
     0
  0
SCALE
  5
4D
102
{ACAD_REACTORS
330
47
102
}
330
47
100
AcDbScale
 70
     0
300
1:10
140
1.0
141
10.0
290
     0
  0
SCALE
  5
4E
102
{ACAD_REACTORS
330
47
102
}
330
47
100
AcDbScale
 70
     0
300
1:16
140
1.0
141
16.0
290
     0
  0
SCALE
  5
4F
102
{ACAD_REACTORS
330
47
102
}
330
47
100
AcDbScale
 70
     0
300
1:20
140
1.0
141
20.0
290
     0
  0
SCALE
  5
50
102
{ACAD_REACTORS
330
47
102
}
330
47
100
AcDbScale
 70
     0
300
1:30
140
1.0
141
30.0
290
     0
  0
SCALE
  5
51
102
{ACAD_REACTORS
330
47
102
}
330
47
100
AcDbScale
 70
     0
300
1:40
140
1.0
141
40.0
290
     0
  0
SCALE
  5
52
102
{ACAD_REACTORS
330
47
102
}
330
47
100
AcDbScale
 70
     0
300
1:50
140
1.0
141
50.0
290
     0
  0
SCALE
  5
53
102
{ACAD_REACTORS
330
47
102
}
330
47
100
AcDbScale
 70
     0
300
1:100
140
1.0
141
100.0
290
     0
  0
SCALE
  5
54
102
{ACAD_REACTORS
330
47
102
}
330
47
100
AcDbScale
 70
     0
300
2:1
140
2.0
141
1.0
290
     0
  0
SCALE
  5
55
102
{ACAD_REACTORS
330
47
102
}
330
47
100
AcDbScale
 70
     0
300
4:1
140
4.0
141
1.0
290
     0
  0
SCALE
  5
56
102
{ACAD_REACTORS
330
47
102
}
330
47
100
AcDbScale
 70
     0
300
8:1
140
8.0
141
1.0
290
     0
  0
SCALE
  5
57
102
{ACAD_REACTORS
330
47
102
}
330
47
100
AcDbScale
 70
     0
300
10:1
140
10.0
141
1.0
290
     0
  0
SCALE
  5
58
102
{ACAD_REACTORS
330
47
102
}
330
47
100
AcDbScale
 70
     0
300
100:1
140
100.0
141
1.0
290
     0
  0
SCALE
  5
59
102
{ACAD_REACTORS
330
47
102
}
330
47
100
AcDbScale
 70
     0
300
1/128" = 1'-0"
140
0.0078125
141
12.0
290
     0
  0
SCALE
  5
5A
102
{ACAD_REACTORS
330
47
102
}
330
47
100
AcDbScale
 70
     0
300
1/64" = 1'-0"
140
0.015625
141
12.0
290
     0
  0
SCALE
  5
5B
102
{ACAD_REACTORS
330
47
102
}
330
47
100
AcDbScale
 70
     0
300
1/32" = 1'-0"
140
0.03125
141
12.0
290
     0
  0
SCALE
  5
5C
102
{ACAD_REACTORS
330
47
102
}
330
47
100
AcDbScale
 70
     0
300
1/16" = 1'-0"
140
0.0625
141
12.0
290
     0
  0
SCALE
  5
5D
102
{ACAD_REACTORS
330
47
102
}
330
47
100
AcDbScale
 70
     0
300
3/32" = 1'-0"
140
0.09375
141
12.0
290
     0
  0
SCALE
  5
5E
102
{ACAD_REACTORS
330
47
102
}
330
47
100
AcDbScale
 70
     0
300
1/8" = 1'-0"
140
0.125
141
12.0
290
     0
  0
SCALE
  5
5F
102
{ACAD_REACTORS
330
47
102
}
330
47
100
AcDbScale
 70
     0
300
3/16" = 1'-0"
140
0.1875
141
12.0
290
     0
  0
SCALE
  5
60
102
{ACAD_REACTORS
330
47
102
}
330
47
100
AcDbScale
 70
     0
300
1/4" = 1'-0"
140
0.25
141
12.0
290
     0
  0
SCALE
  5
61
102
{ACAD_REACTORS
330
47
102
}
330
47
100
AcDbScale
 70
     0
300
3/8" = 1'-0"
140
0.375
141
12.0
290
     0
  0
SCALE
  5
62
102
{ACAD_REACTORS
330
47
102
}
330
47
100
AcDbScale
 70
     0
300
1/2" = 1'-0"
140
0.5
141
12.0
290
     0
  0
SCALE
  5
63
102
{ACAD_REACTORS
330
47
102
}
330
47
100
AcDbScale
 70
     0
300
3/4" = 1'-0"
140
0.75
141
12.0
290
     0
  0
SCALE
  5
64
102
{ACAD_REACTORS
330
47
102
}
330
47
100
AcDbScale
 70
     0
300
1" = 1'-0"
140
1.0
141
12.0
290
     0
  0
SCALE
  5
65
102
{ACAD_REACTORS
330
47
102
}
330
47
100
AcDbScale
 70
     0
300
1-1/2" = 1'-0"
140
1.5
141
12.0
290
     0
  0
SCALE
  5
66
102
{ACAD_REACTORS
330
47
102
}
330
47
100
AcDbScale
 70
     0
300
3" = 1'-0"
140
3.0
141
12.0
290
     0
  0
SCALE
  5
67
102
{ACAD_REACTORS
330
47
102
}
330
47
100
AcDbScale
 70
     0
300
6" = 1'-0"
140
6.0
141
12.0
290
     0
  0
SCALE
  5
68
102
{ACAD_REACTORS
330
47
102
}
330
47
100
AcDbScale
 70
     0
300
1'-0" = 1'-0"
140
12.0
141
12.0
290
     0
  0
ENDSEC
  0
EOF
