  0
SECTION
  2
HEADER
  9
$ACADVER
  1
AC1015
  9
$ACADMAINTVER
 70
     6
  9
$DWGCODEPAGE
  3
ANSI_949
  9
$INSBASE
 10
0.0
 20
0.0
 30
0.0
  9
$EXTMIN
 10
-73.56260120730343
 20
-49.88227576695243
 30
0.0
  9
$EXTMAX
 10
90.67281524970525
 20
57.07500000000005
 30
0.0
  9
$LIMMIN
 10
0.0
 20
0.0
  9
$LIMMAX
 10
420.0
 20
297.0
  9
$ORTHOMODE
 70
     1
  9
$REGENMODE
 70
     1
  9
$FILLMODE
 70
     1
  9
$QTEXTMODE
 70
     0
  9
$MIRRTEXT
 70
     1
  9
$LTSCALE
 40
1.0
  9
$ATTMODE
 70
     1
  9
$TEXTSIZE
 40
3.5
  9
$TRACEWID
 40
1.0
  9
$TEXTSTYLE
  7
Standard
  9
$CLAYER
  8
0
  9
$CELTYPE
  6
ByLayer
  9
$CECOLOR
 62
   256
  9
$CELTSCALE
 40
1.0
  9
$DISPSILH
 70
     0
  9
$DIMSCALE
 40
1.0
  9
$DIMASZ
 40
3.302
  9
$DIMEXO
 40
1.0
  9
$DIMDLI
 40
3.75
  9
$DIMRND
 40
0.0
  9
$DIMDLE
 40
0.0
  9
$DIMEXE
 40
1.0
  9
$DIMTP
 40
0.0
  9
$DIMTM
 40
0.0
  9
$DIMTXT
 40
3.5
  9
$DIMCEN
 40
2.5
  9
$DIMTSZ
 40
0.0
  9
$DIMTOL
 70
     0
  9
$DIMLIM
 70
     0
  9
$DIMTIH
 70
     1
  9
$DIMTOH
 70
     1
  9
$DIMSE1
 70
     0
  9
$DIMSE2
 70
     0
  9
$DIMTAD
 70
     1
  9
$DIMZIN
 70
     0
  9
$DIMBLK
  1

  9
$DIMASO
 70
     1
  9
$DIMSHO
 70
     1
  9
$DIMPOST
  1

  9
$DIMAPOST
  1

  9
$DIMALT
 70
     0
  9
$DIMALTD
 70
     3
  9
$DIMALTF
 40
0.0393700787401575
  9
$DIMLFAC
 40
1.0
  9
$DIMTOFL
 70
     1
  9
$DIMTVP
 40
0.0
  9
$DIMTIX
 70
     0
  9
$DIMSOXD
 70
     0
  9
$DIMSAH
 70
     0
  9
$DIMBLK1
  1

  9
$DIMBLK2
  1

  9
$DIMSTYLE
  2
ISO-25
  9
$DIMCLRD
 70
     0
  9
$DIMCLRE
 70
     0
  9
$DIMCLRT
 70
     0
  9
$DIMTFAC
 40
1.0
  9
$DIMGAP
 40
1.524
  9
$DIMJUST
 70
     0
  9
$DIMSD1
 70
     0
  9
$DIMSD2
 70
     0
  9
$DIMTOLJ
 70
     0
  9
$DIMTZIN
 70
     0
  9
$DIMALTZ
 70
     0
  9
$DIMALTTZ
 70
     0
  9
$DIMUPT
 70
     0
  9
$DIMDEC
 70
     2
  9
$DIMTDEC
 70
     2
  9
$DIMALTU
 70
     2
  9
$DIMALTTD
 70
     3
  9
$DIMTXSTY
  7
Standard
  9
$DIMAUNIT
 70
     0
  9
$DIMADEC
 70
     2
  9
$DIMALTRND
 40
0.0
  9
$DIMAZIN
 70
     0
  9
$DIMDSEP
 70
    44
  9
$DIMATFIT
 70
     3
  9
$DIMFRAC
 70
     0
  9
$DIMLDRBLK
  1

  9
$DIMLUNIT
 70
     2
  9
$DIMLWD
 70
    -2
  9
$DIMLWE
 70
    -2
  9
$DIMTMOVE
 70
     0
  9
$LUNITS
 70
     2
  9
$LUPREC
 70
     2
  9
$SKETCHINC
 40
1.0
  9
$FILLETRAD
 40
10.0
  9
$AUNITS
 70
     0
  9
$AUPREC
 70
     2
  9
$MENU
  1
.
  9
$ELEVATION
 40
0.0
  9
$PELEVATION
 40
0.0
  9
$THICKNESS
 40
0.0
  9
$LIMCHECK
 70
     0
  9
$CHAMFERA
 40
0.0
  9
$CHAMFERB
 40
0.0
  9
$CHAMFERC
 40
0.0
  9
$CHAMFERD
 40
0.0
  9
$SKPOLY
 70
     0
  9
$TDCREATE
 40
2458269.736565255
  9
$TDUCREATE
 40
2458269.361565255
  9
$TDUPDATE
 40
2459724.359400799
  9
$TDUUPDATE
 40
2459723.984400799
  9
$TDINDWG
 40
0.0016849306
  9
$TDUSRTIMER
 40
0.000362419
  9
$USRTIMER
 70
     1
  9
$ANGBASE
 50
0.0
  9
$ANGDIR
 70
     0
  9
$PDMODE
 70
     0
  9
$PDSIZE
 40
-1.0
  9
$PLINEWID
 40
0.0
  9
$SPLFRAME
 70
     0
  9
$SPLINETYPE
 70
     6
  9
$SPLINESEGS
 70
     8
  9
$HANDSEED
  5
29E
  9
$SURFTAB1
 70
     6
  9
$SURFTAB2
 70
     6
  9
$SURFTYPE
 70
     6
  9
$SURFU
 70
     6
  9
$SURFV
 70
     6
  9
$UCSBASE
  2

  9
$UCSNAME
  2

  9
$UCSORG
 10
0.0
 20
0.0
 30
0.0
  9
$UCSXDIR
 10
1.0
 20
0.0
 30
0.0
  9
$UCSYDIR
 10
0.0
 20
1.0
 30
0.0
  9
$UCSORTHOREF
  2

  9
$UCSORTHOVIEW
 70
     0
  9
$UCSORGTOP
 10
0.0
 20
0.0
 30
0.0
  9
$UCSORGBOTTOM
 10
0.0
 20
0.0
 30
0.0
  9
$UCSORGLEFT
 10
0.0
 20
0.0
 30
0.0
  9
$UCSORGRIGHT
 10
0.0
 20
0.0
 30
0.0
  9
$UCSORGFRONT
 10
0.0
 20
0.0
 30
0.0
  9
$UCSORGBACK
 10
0.0
 20
0.0
 30
0.0
  9
$PUCSBASE
  2

  9
$PUCSNAME
  2

  9
$PUCSORG
 10
0.0
 20
0.0
 30
0.0
  9
$PUCSXDIR
 10
1.0
 20
0.0
 30
0.0
  9
$PUCSYDIR
 10
0.0
 20
1.0
 30
0.0
  9
$PUCSORTHOREF
  2

  9
$PUCSORTHOVIEW
 70
     0
  9
$PUCSORGTOP
 10
0.0
 20
0.0
 30
0.0
  9
$PUCSORGBOTTOM
 10
0.0
 20
0.0
 30
0.0
  9
$PUCSORGLEFT
 10
0.0
 20
0.0
 30
0.0
  9
$PUCSORGRIGHT
 10
0.0
 20
0.0
 30
0.0
  9
$PUCSORGFRONT
 10
0.0
 20
0.0
 30
0.0
  9
$PUCSORGBACK
 10
0.0
 20
0.0
 30
0.0
  9
$USERI1
 70
     0
  9
$USERI2
 70
     0
  9
$USERI3
 70
     0
  9
$USERI4
 70
     0
  9
$USERI5
 70
     0
  9
$USERR1
 40
0.0
  9
$USERR2
 40
0.0
  9
$USERR3
 40
0.0
  9
$USERR4
 40
0.0
  9
$USERR5
 40
0.0
  9
$WORLDVIEW
 70
     1
  9
$SHADEDGE
 70
     3
  9
$SHADEDIF
 70
    70
  9
$TILEMODE
 70
     1
  9
$MAXACTVP
 70
    64
  9
$PINSBASE
 10
0.0
 20
0.0
 30
0.0
  9
$PLIMCHECK
 70
     0
  9
$PEXTMIN
 10
1.000000000000000E+20
 20
1.000000000000000E+20
 30
1.000000000000000E+20
  9
$PEXTMAX
 10
-1.000000000000000E+20
 20
-1.000000000000000E+20
 30
-1.000000000000000E+20
  9
$PLIMMIN
 10
0.0
 20
0.0
  9
$PLIMMAX
 10
0.0
 20
0.0
  9
$UNITMODE
 70
     0
  9
$VISRETAIN
 70
     1
  9
$PLINEGEN
 70
     0
  9
$PSLTSCALE
 70
     1
  9
$TREEDEPTH
 70
  3020
  9
$CMLSTYLE
  2
Standard
  9
$CMLJUST
 70
     0
  9
$CMLSCALE
 40
20.0
  9
$PROXYGRAPHICS
 70
     1
  9
$MEASUREMENT
 70
     1
  9
$CELWEIGHT
370
    -1
  9
$ENDCAPS
280
     0
  9
$JOINSTYLE
280
     0
  9
$LWDISPLAY
290
     1
  9
$INSUNITS
 70
     4
  9
$HYPERLINKBASE
  1

  9
$STYLESHEET
  1

  9
$XEDIT
290
     1
  9
$CEPSNTYPE
380
     0
  9
$PSTYLEMODE
290
     1
  9
$FINGERPRINTGUID
  2
{07A0AAD1-E9B8-486E-9EEC-27462CCC5D54}
  9
$VERSIONGUID
  2
{FAEB1C32-E019-11D5-929B-00C0DF256EC4}
  9
$EXTNAMES
290
     1
  9
$PSVPSCALE
 40
0.0
  9
$OLESTARTUP
290
     0
  0
ENDSEC
  0
SECTION
  2
CLASSES
  0
CLASS
  1
ACDBDICTIONARYWDFLT
  2
AcDbDictionaryWithDefault
  3
ObjectDBX Classes
 90
        0
280
     0
281
     0
  0
CLASS
  1
VISUALSTYLE
  2
AcDbVisualStyle
  3
ObjectDBX Classes
 90
     4095
280
     0
281
     0
  0
CLASS
  1
MATERIAL
  2
AcDbMaterial
  3
ObjectDBX Classes
 90
     1153
280
     0
281
     0
  0
CLASS
  1
SCALE
  2
AcDbScale
  3
ObjectDBX Classes
 90
     1153
280
     0
281
     0
  0
CLASS
  1
SUN
  2
AcDbSun
  3
SCENEOE
 90
     1153
280
     0
281
     0
  0
CLASS
  1
ACDBPLACEHOLDER
  2
AcDbPlaceHolder
  3
ObjectDBX Classes
 90
        0
280
     0
281
     0
  0
CLASS
  1
LAYOUT
  2
AcDbLayout
  3
ObjectDBX Classes
 90
        0
280
     0
281
     0
  0
CLASS
  1
TABLESTYLE
  2
AcDbTableStyle
  3
ObjectDBX Classes
 90
     4095
280
     0
281
     0
  0
CLASS
  1
MLEADERSTYLE
  2
AcDbMLeaderStyle
  3
ACDB_MLEADERSTYLE_CLASS
 90
     4095
280
     0
281
     0
  0
CLASS
  1
RASTERVARIABLES
  2
AcDbRasterVariables
  3
ISM
 90
        0
280
     0
281
     0
  0
CLASS
  1
DIMASSOC
  2
AcDbDimAssoc
  3
"AcDbDimAssoc|Product Desc:     AcDim ARX App For Dimension|Company:          Autodesk, Inc.|WEB Address:      www.autodesk.com"
 90
        0
280
     0
281
     0
  0
ENDSEC
  0
SECTION
  2
TABLES
  0
TABLE
  2
VPORT
  5
8
330
0
100
AcDbSymbolTable
 70
     1
  0
VPORT
  5
29
330
8
100
AcDbSymbolTableRecord
100
AcDbViewportTableRecord
  2
*Active
 70
     0
 10
0.0
 20
0.0
 11
1.0
 21
1.0
 12
8.55510702120091
 22
3.596362116523807
 13
0.0
 23
0.0
 14
10.0
 24
10.0
 15
10.0
 25
10.0
 16
0.0
 26
0.0
 36
1.0
 17
0.0
 27
0.0
 37
0.0
 40
109.0964212822915
 41
1.913499344692005
 42
50.0
 43
0.0
 44
0.0
 50
0.0
 51
0.0
 71
    16
 72
  2000
 73
     1
 74
     3
 75
     0
 76
     0
 77
     0
 78
     0
281
     0
 65
     1
110
0.0
120
0.0
130
0.0
111
1.0
121
0.0
131
0.0
112
0.0
122
1.0
132
0.0
 79
     0
146
0.0
  0
ENDTAB
  0
TABLE
  2
LTYPE
  5
5
330
0
100
AcDbSymbolTable
 70
     6
  0
LTYPE
  5
14
330
5
100
AcDbSymbolTableRecord
100
AcDbLinetypeTableRecord
  2
ByBlock
 70
     0
  3

 72
    65
 73
     0
 40
0.0
  0
LTYPE
  5
15
330
5
100
AcDbSymbolTableRecord
100
AcDbLinetypeTableRecord
  2
ByLayer
 70
     0
  3

 72
    65
 73
     0
 40
0.0
  0
LTYPE
  5
16
330
5
100
AcDbSymbolTableRecord
100
AcDbLinetypeTableRecord
  2
Continuous
 70
     0
  3
Solid line
 72
    65
 73
     0
 40
0.0
  0
LTYPE
  5
6A
330
5
100
AcDbSymbolTableRecord
100
AcDbLinetypeTableRecord
  2
HIDDEN
 70
     0
  3
Hidden __ __ __ __ __ __ __ __ __ __ __ __ __ __
 72
    65
 73
     2
 40
1.905
 49
1.27
 74
     0
 49
-0.635
 74
     0
  0
LTYPE
  5
6B
330
5
100
AcDbSymbolTableRecord
100
AcDbLinetypeTableRecord
  2
PHANTOM
 70
     0
  3
Phantom ______  __  __  ______  __  __  ______
 72
    65
 73
     6
 40
12.7
 49
6.35
 74
     0
 49
-1.27
 74
     0
 49
1.27
 74
     0
 49
-1.27
 74
     0
 49
1.27
 74
     0
 49
-1.27
 74
     0
  0
LTYPE
  5
6C
330
5
100
AcDbSymbolTableRecord
100
AcDbLinetypeTableRecord
  2
CENTER
 70
     0
  3
Center ____ _ ____ _ ____ _ ____ _ ____ _ ____
 72
    65
 73
     4
 40
10.16
 49
6.35
 74
     0
 49
-1.27
 74
     0
 49
1.27
 74
     0
 49
-1.27
 74
     0
  0
LTYPE
  5
6D
330
5
100
AcDbSymbolTableRecord
100
AcDbLinetypeTableRecord
  2
CENTERX2
 70
     0
  3
Center (2x) ________  __  ________  __  _____
 72
    65
 73
     4
 40
20.32
 49
12.7
 74
     0
 49
-2.54
 74
     0
 49
2.54
 74
     0
 49
-2.54
 74
     0
  0
LTYPE
  5
6E
330
5
100
AcDbSymbolTableRecord
100
AcDbLinetypeTableRecord
  2
DOT2
 70
     0
  3
Dot (.5x) ........................................
 72
    65
 73
     2
 40
0.635
 49
0.0
 74
     0
 49
-0.635
 74
     0
  0
ENDTAB
  0
TABLE
  2
LAYER
  5
2
330
0
100
AcDbSymbolTable
 70
    17
  0
LAYER
  5
10
330
2
100
AcDbSymbolTableRecord
100
AcDbLayerTableRecord
  2
0
 70
     0
 62
     7
  6
Continuous
370
    -3
390
F
  0
LAYER
  5
6F
330
2
100
AcDbSymbolTableRecord
100
AcDbLayerTableRecord
  2
FORMAT
 70
     0
 62
     2
  6
Continuous
370
    -3
390
F
  0
LAYER
  5
70
330
2
100
AcDbSymbolTableRecord
100
AcDbLayerTableRecord
  2
외형선
 70
     0
 62
   100
  6
Continuous
370
    30
390
F
  0
LAYER
  5
71
330
2
100
AcDbSymbolTableRecord
100
AcDbLayerTableRecord
  2
숨은선
 70
     0
 62
     2
  6
HIDDEN
370
    15
390
F
  0
LAYER
  5
72
330
2
100
AcDbSymbolTableRecord
100
AcDbLayerTableRecord
  2
중심선
 70
     0
 62
     1
  6
CENTERX2
370
    -3
390
F
  0
LAYER
  5
73
330
2
100
AcDbSymbolTableRecord
100
AcDbLayerTableRecord
  2
파단선
 70
     0
 62
     4
  6
Continuous
370
    -3
390
F
  0
LAYER
  5
74
330
2
100
AcDbSymbolTableRecord
100
AcDbLayerTableRecord
  2
해칭선
 70
     0
 62
     4
  6
Continuous
370
    -3
390
F
  0
LAYER
  5
75
330
2
100
AcDbSymbolTableRecord
100
AcDbLayerTableRecord
  2
가는실선
 70
     0
 62
     4
  6
Continuous
370
    -3
390
F
  0
LAYER
  5
76
330
2
100
AcDbSymbolTableRecord
100
AcDbLayerTableRecord
  2
치수_보조선
 70
     0
 62
     4
  6
Continuous
370
    -3
390
F
  0
LAYER
  5
77
330
2
100
AcDbSymbolTableRecord
100
AcDbLayerTableRecord
  2
치수문자_일반주서
 70
     0
 62
     7
  6
Continuous
370
    15
390
F
  0
LAYER
  5
78
330
2
100
AcDbSymbolTableRecord
100
AcDbLayerTableRecord
  2
개별주서
 70
     0
 62
   100
  6
Continuous
370
    30
390
F
  0
LAYER
  5
79
330
2
100
AcDbSymbolTableRecord
100
AcDbLayerTableRecord
  2
중간선
 70
     0
 62
     2
  6
Continuous
370
    15
390
F
  0
LAYER
  5
7A
330
2
100
AcDbSymbolTableRecord
100
AcDbLayerTableRecord
  2
윤곽선
 70
     0
 62
     3
  6
Continuous
370
    40
390
F
  0
LAYER
  5
7B
330
2
100
AcDbSymbolTableRecord
100
AcDbLayerTableRecord
  2
중심마크
 70
     0
 62
   100
  6
Continuous
370
    30
390
F
  0
LAYER
  5
7C
330
2
100
AcDbSymbolTableRecord
100
AcDbLayerTableRecord
  2
가상선
 70
     0
 62
     4
  6
PHANTOM
370
    -3
390
F
  0
LAYER
  5
7D
330
2
100
AcDbSymbolTableRecord
100
AcDbLayerTableRecord
  2
특수지정선
 70
     0
 62
     5
  6
CENTERX2
370
    60
390
F
  0
LAYER
  5
150
330
2
100
AcDbSymbolTableRecord
100
AcDbLayerTableRecord
  2
Defpoints
 70
     0
 62
     7
  6
Continuous
290
     0
370
    -3
390
F
  0
ENDTAB
  0
TABLE
  2
STYLE
  5
3
330
0
100
AcDbSymbolTable
 70
     2
  0
STYLE
  5
11
330
3
100
AcDbSymbolTableRecord
100
AcDbTextStyleTableRecord
  2
Standard
 70
     0
 40
0.0
 41
1.0
 50
0.0
 71
     0
 42
3.5
  3
txt
  4

  0
STYLE
  5
93
330
3
100
AcDbSymbolTableRecord
100
AcDbTextStyleTableRecord
  2
SLDTEXTSTYLE0
 70
     0
 40
0.0
 41
0.75
 50
0.0
 71
     0
 42
3.5
  3
TXT
  4

  0
ENDTAB
  0
TABLE
  2
VIEW
  5
6
330
0
100
AcDbSymbolTable
 70
     0
  0
ENDTAB
  0
TABLE
  2
UCS
  5
7
330
0
100
AcDbSymbolTable
 70
     0
  0
ENDTAB
  0
TABLE
  2
APPID
  5
9
330
0
100
AcDbSymbolTable
 70
     3
  0
APPID
  5
12
330
9
100
AcDbSymbolTableRecord
100
AcDbRegAppTableRecord
  2
ACAD
 70
     0
  0
APPID
  5
163
330
9
100
AcDbSymbolTableRecord
100
AcDbRegAppTableRecord
  2
PE_DIMMEASUREMENT
 70
     0
  0
APPID
  5
29A
330
9
100
AcDbSymbolTableRecord
100
AcDbRegAppTableRecord
  2
PE_URL
 70
     0
  0
ENDTAB
  0
TABLE
  2
DIMSTYLE
  5
A
330
0
100
AcDbSymbolTable
 70
     5
100
AcDbDimStyleTable
  0
DIMSTYLE
105
27
330
A
100
AcDbSymbolTableRecord
100
AcDbDimStyleTableRecord
  2
ISO-25
 70
     0
 41
2.5
 42
0.625
 43
3.75
 44
1.25
 73
     0
 74
     0
 77
     1
 78
     8
140
2.5
141
2.5
143
0.03937007874016
147
0.625
171
     3
172
     1
178
     0
271
     2
272
     2
274
     3
278
    44
283
     0
284
     8
340
11
  0
DIMSTYLE
105
D4
102
{ACAD_REACTORS
330
D3
330
1D2
330
1F9
330
20D
330
153
330
E8
330
FC
330
10F
102
}
330
A
100
AcDbSymbolTableRecord
100
AcDbDimStyleTableRecord
  2
SLDDIMSTYLE0
 70
     0
 41
3.302
 44
0.0
 45
0.000000001
 73
     0
 74
     0
 77
     1
 78
     4
 79
     1
140
3.5
143
0.0393700787401575
147
0.875
148
0.000000001
170
     1
172
     1
173
     1
178
     0
271
     2
272
     2
276
     2
284
    12
289
     0
340
93
  0
DIMSTYLE
105
E9
102
{ACAD_REACTORS
330
1DF
330
1EC
102
}
330
A
100
AcDbSymbolTableRecord
100
AcDbDimStyleTableRecord
  2
SLDDIMSTYLE1
 70
     0
 41
3.302
 44
0.0
 45
0.000000001
 73
     0
 74
     0
 77
     1
 78
    12
 79
     3
140
3.5
143
0.0393700787401575
147
0.875
148
0.000000001
170
     1
173
     1
178
     0
271
     2
272
     2
276
     2
284
    12
340
93
  0
DIMSTYLE
105
110
330
A
100
AcDbSymbolTableRecord
100
AcDbDimStyleTableRecord
  2
SLDDIMSTYLE2
 70
     0
 41
3.302
 44
0.0
 45
0.000000001
 73
     0
 74
     0
 77
     1
 78
    12
 79
     3
140
3.5
143
0.0393700787401575
147
0.875
148
0.000000001
170
     1
172
     1
173
     1
178
     0
271
     2
272
     2
276
     2
284
    12
289
     0
340
93
  0
DIMSTYLE
105
195
330
A
100
AcDbSymbolTableRecord
100
AcDbDimStyleTableRecord
  2
SLDDIMSTYLE3
 70
     0
 41
3.302
 44
0.0
 45
0.000000001
 73
     0
 74
     0
 77
     1
 78
    12
 79
     3
140
3.5
143
0.0393700787401575
147
0.875
148
0.000000001
170
     1
172
     1
173
     1
178
     0
271
     2
272
     2
276
     2
284
    12
289
     0
340
93
  0
ENDTAB
  0
TABLE
  2
BLOCK_RECORD
  5
1
330
0
100
AcDbSymbolTable
 70
    18
  0
BLOCK_RECORD
  5
1F
102
{ACAD_XDICTIONARY
360
29B
102
}
330
1
100
AcDbSymbolTableRecord
100
AcDbBlockTableRecord
  2
*Model_Space
340
22
  0
BLOCK_RECORD
  5
1B
330
1
100
AcDbSymbolTableRecord
100
AcDbBlockTableRecord
  2
*Paper_Space
340
1E
  0
BLOCK_RECORD
  5
23
330
1
100
AcDbSymbolTableRecord
100
AcDbBlockTableRecord
  2
*Paper_Space0
340
26
  0
BLOCK_RECORD
  5
7E
330
1
100
AcDbSymbolTableRecord
100
AcDbBlockTableRecord
  2
블럭10
340
0
102
{BLKREFS
331
CB
102
}
  0
BLOCK_RECORD
  5
D5
330
1
100
AcDbSymbolTableRecord
100
AcDbBlockTableRecord
  2
_D
340
0
  0
BLOCK_RECORD
  5
EA
330
1
100
AcDbSymbolTableRecord
100
AcDbBlockTableRecord
  2
_D_1
340
0
  0
BLOCK_RECORD
  5
FD
330
1
100
AcDbSymbolTableRecord
100
AcDbBlockTableRecord
  2
_D_2
340
0
  0
BLOCK_RECORD
  5
111
330
1
100
AcDbSymbolTableRecord
100
AcDbBlockTableRecord
  2
_D_3
340
0
  0
BLOCK_RECORD
  5
125
330
1
100
AcDbSymbolTableRecord
100
AcDbBlockTableRecord
  2
SW_DOWELSYMBOL_0
340
0
102
{BLKREFS
331
12B
331
206
331
0
102
}
  0
BLOCK_RECORD
  5
156
330
1
100
AcDbSymbolTableRecord
100
AcDbBlockTableRecord
  2
*D7
340
0
  0
BLOCK_RECORD
  5
1D3
330
1
100
AcDbSymbolTableRecord
100
AcDbBlockTableRecord
  2
*D9
340
0
  0
BLOCK_RECORD
  5
1E0
330
1
100
AcDbSymbolTableRecord
100
AcDbBlockTableRecord
  2
*D10
340
0
  0
BLOCK_RECORD
  5
1ED
330
1
100
AcDbSymbolTableRecord
100
AcDbBlockTableRecord
  2
*D11
340
0
  0
BLOCK_RECORD
  5
1FA
330
1
100
AcDbSymbolTableRecord
100
AcDbBlockTableRecord
  2
*D12
340
0
  0
BLOCK_RECORD
  5
20E
330
1
100
AcDbSymbolTableRecord
100
AcDbBlockTableRecord
  2
*D13
340
0
  0
BLOCK_RECORD
  5
25B
330
1
100
AcDbSymbolTableRecord
100
AcDbBlockTableRecord
  2
*D14
340
0
  0
BLOCK_RECORD
  5
267
330
1
100
AcDbSymbolTableRecord
100
AcDbBlockTableRecord
  2
*D15
340
0
  0
BLOCK_RECORD
  5
273
330
1
100
AcDbSymbolTableRecord
100
AcDbBlockTableRecord
  2
*D16
340
0
  0
BLOCK_RECORD
  5
27F
330
1
100
AcDbSymbolTableRecord
100
AcDbBlockTableRecord
  2
*D17
340
0
  0
BLOCK_RECORD
  5
28B
330
1
100
AcDbSymbolTableRecord
100
AcDbBlockTableRecord
  2
*D18
340
0
  0
ENDTAB
  0
ENDSEC
  0
SECTION
  2
BLOCKS
  0
BLOCK
  5
20
330
1F
100
AcDbEntity
  8
0
100
AcDbBlockBegin
  2
*Model_Space
 70
     0
 10
0.0
 20
0.0
 30
0.0
  3
*Model_Space
  1
*Model_Space
  0
ENDBLK
  5
21
330
1F
100
AcDbEntity
  8
0
100
AcDbBlockEnd
  0
BLOCK
  5
1C
330
1B
100
AcDbEntity
 67
     1
  8
0
100
AcDbBlockBegin
  2
*Paper_Space
 70
     0
 10
0.0
 20
0.0
 30
0.0
  3
*Paper_Space
  1
*Paper_Space
  0
ENDBLK
  5
1D
330
1B
100
AcDbEntity
 67
     1
  8
0
100
AcDbBlockEnd
  0
BLOCK
  5
24
330
23
100
AcDbEntity
  8
0
100
AcDbBlockBegin
  2
*Paper_Space0
 70
     0
 10
0.0
 20
0.0
 30
0.0
  3
*Paper_Space0
  1
*Paper_Space0
  0
ENDBLK
  5
25
330
23
100
AcDbEntity
  8
0
100
AcDbBlockEnd
  0
BLOCK
  5
7F
330
7E
100
AcDbEntity
  8
0
100
AcDbBlockBegin
  2
블럭10
 70
     2
 10
0.0
 20
0.0
 30
0.0
  3
블럭10
  1
블럭10
  0
ELLIPSE
  5
81
330
7E
100
AcDbEntity
  8
중심선
100
AcDbEllipse
 10
20.54032771741204
 20
12.0471743016438
 30
0.0
 11
6.600054785286829
 21
-1.261213355974178E-13
 31
0.0
210
0.0
220
0.0
230
1.0
 40
0.636358354079598
 41
0.9219305317359503
 42
6.513795318482858
  0
ELLIPSE
  5
82
330
7E
100
AcDbEntity
  8
중심선
100
AcDbEllipse
 10
20.54032771746488
 20
12.04717430159265
 30
0.0
 11
3.960054785062283
 21
1.540847449632565E-10
 31
0.0
210
0.0
220
0.0
230
1.0
 40
0.3939339440162632
 41
1.131841032648279
 42
5.62031148352944
  0
LINE
  5
83
330
7E
100
AcDbEntity
  8
중심선
100
AcDbLine
 10
2.268634060543552
 20
16.24717430164393
 30
0.0
 11
5.714909304380834
 21
16.24717430164393
 31
0.0
  0
LINE
  5
84
330
7E
100
AcDbEntity
  8
중심선
100
AcDbLine
 10
5.245725140726316
 20
7.84717430164391
 30
0.0
 11
8.692000384563599
 21
7.84717430164391
 31
0.0
  0
LINE
  5
85
330
7E
100
AcDbEntity
  8
중심선
100
AcDbLine
 10
15.74043728645272
 20
16.24717430164393
 30
0.0
 11
8.692000384563599
 21
7.84717430164391
 31
0.0
  0
LINE
  5
86
330
7E
100
AcDbEntity
  8
중심선
100
AcDbLine
 10
0.1404042013395286
 20
13.71084872107135
 30
0.0
 11
3.58671253028996
 21
13.71088815037384
 31
0.0
  0
LINE
  5
87
330
7E
100
AcDbEntity
  8
중심선
100
AcDbLine
 10
2.750260043222114
 20
10.84717430164391
 30
0.0
 11
6.196535287059397
 21
10.84717430164391
 31
0.0
  0
LINE
  5
88
330
7E
100
AcDbEntity
  8
중심선
100
AcDbLine
 10
12.29416204261559
 20
16.24717430164393
 30
0.0
 11
5.245725140726316
 21
7.84717430164391
 31
0.0
  0
LINE
  5
89
330
7E
100
AcDbEntity
  8
중심선
100
AcDbLine
 10
10.72767329541681
 20
16.24717430164393
 30
0.0
 11
6.196535287059397
 21
10.84717430164391
 31
0.0
  0
LINE
  5
8A
330
7E
100
AcDbEntity
  8
중심선
100
AcDbLine
 10
7.28139805157953
 20
16.24717430164393
 30
0.0
 11
2.750260043222114
 21
10.84717430164391
 31
0.0
  0
LINE
  5
8B
330
7E
100
AcDbEntity
  8
중심선
100
AcDbLine
 10
5.714909304380834
 20
16.24717430164393
 30
0.0
 11
3.58671253028996
 21
13.71088815037384
 31
0.0
  0
LINE
  5
8C
330
7E
100
AcDbEntity
  8
중심선
100
AcDbLine
 10
2.268634060543552
 20
16.24717430164393
 30
0.0
 11
0.1404042013395286
 21
13.71084872107135
 31
0.0
  0
LINE
  5
8D
330
7E
100
AcDbEntity
  8
중심선
100
AcDbLine
 10
7.28139805157953
 20
16.24717430164393
 30
0.0
 11
10.72767329541681
 21
16.24717430164393
 31
0.0
  0
LINE
  5
8E
330
7E
100
AcDbEntity
  8
중심선
100
AcDbLine
 10
12.29416204261559
 20
16.24717430164393
 30
0.0
 11
15.74043728645272
 21
16.24717430164393
 31
0.0
  0
LINE
  5
8F
330
7E
100
AcDbEntity
  8
중심선
100
AcDbLine
 10
19.22036997980202
 20
11.08717430171403
 30
0.0
 11
23.66174974927406
 21
11.08717430171406
 31
0.0
  0
LINE
  5
90
330
7E
100
AcDbEntity
  8
중심선
100
AcDbLine
 10
19.22039502424796
 20
13.00717430171391
 30
0.0
 11
19.22036997980202
 21
11.08717430171403
 31
0.0
  0
LINE
  5
91
330
7E
100
AcDbEntity
  8
중심선
100
AcDbLine
 10
19.22039502424796
 20
13.00717430171391
 30
0.0
 11
26.96566020931264
 21
13.00717430171391
 31
0.0
  0
LINE
  5
92
330
7E
100
AcDbEntity
  8
중심선
100
AcDbLine
 10
22.22332737316547
 20
13.45928029700563
 30
0.0
 11
24.52862924686651
 21
15.39360700705356
 31
0.0
  0
ATTDEF
  5
94
330
7E
100
AcDbEntity
  8
FORMAT
 62
     2
100
AcDbText
 10
-9.18129528874128
 20
2.075366912832191
 30
0.0
 40
4.233333333333333
  1
E5978064 [ 3 FLUTE ]
 41
0.75
  7
SLDTEXTSTYLE0
 11
-9.18129528874128
 21
-0.0412997538344756
 31
0.0
100
AcDbAttributeDefinition
  3

  2
AUTOATTR0
 70
     0
 74
     1
  0
ENDBLK
  5
80
330
7E
100
AcDbEntity
  8
0
100
AcDbBlockEnd
  0
BLOCK
  5
D6
330
D5
100
AcDbEntity
  8
0
100
AcDbBlockBegin
  2
_D
 70
     0
 10
0.0
 20
0.0
 30
0.0
  3
_D
  1
_D
  0
LINE
  5
D8
330
D5
100
AcDbEntity
  8
치수문자_일반주서
 62
     0
370
    -2
100
AcDbLine
 10
-56.75364318569132
 20
12.7
 30
0.0
 11
-69.18760120730344
 21
12.69999999999995
 31
0.0
  0
LINE
  5
D9
330
D5
100
AcDbEntity
  8
치수문자_일반주서
 62
     0
370
    -2
100
AcDbLine
 10
-56.75364318569132
 20
-12.7
 30
0.0
 11
-69.18760120730336
 21
-12.70000000000004
 31
0.0
  0
LINE
  5
DA
330
D5
100
AcDbEntity
  8
치수문자_일반주서
 62
     0
370
    -2
100
AcDbLine
 10
-69.18760120730343
 20
9.397999999999955
 30
0.0
 11
-69.18760120730337
 21
-9.398000000000044
 31
0.0
  0
SOLID
  5
DB
330
D5
100
AcDbEntity
  8
치수문자_일반주서
 62
     0
100
AcDbTrace
 10
-68.6372678739701
 20
9.397999999999957
 30
0.0
 11
-69.73793454063676
 21
9.397999999999954
 31
0.0
 12
-69.18760120730344
 22
12.69999999999995
 32
0.0
 13
-69.18760120730344
 23
12.69999999999995
 33
0.0
  0
SOLID
  5
DC
330
D5
100
AcDbEntity
  8
치수문자_일반주서
 62
     0
100
AcDbTrace
 10
-69.7379345406367
 20
-9.398000000000046
 30
0.0
 11
-68.63726787397005
 21
-9.398000000000042
 31
0.0
 12
-69.18760120730336
 22
-12.70000000000004
 32
0.0
 13
-69.18760120730336
 23
-12.70000000000004
 33
0.0
  0
MTEXT
  5
DD
330
D5
100
AcDbEntity
  8
치수문자_일반주서
 62
     0
100
AcDbMText
 10
-73.5626012073034
 20
-0.0000000000000171
 30
0.0
 40
3.5
 41
0.0
 71
     2
 72
     1
  1
\A1;%%c25.40 [1]
  7
SLDTEXTSTYLE0
 11
-3.356894814614647E-15
 21
1.0
 31
0.0
 73
     1
 44
1.0
  0
POINT
  5
DE
330
D5
100
AcDbEntity
  8
Defpoints
 62
     0
100
AcDbPoint
 10
-56.69114318569132
 20
12.7
 30
0.0
  0
POINT
  5
DF
330
D5
100
AcDbEntity
  8
Defpoints
 62
     0
100
AcDbPoint
 10
-56.69114318569132
 20
-12.7
 30
0.0
  0
POINT
  5
E0
330
D5
100
AcDbEntity
  8
Defpoints
 62
     0
100
AcDbPoint
 10
-69.1876012073034
 20
-12.70000000000004
 30
0.0
  0
ENDBLK
  5
D7
330
D5
100
AcDbEntity
  8
0
100
AcDbBlockEnd
  0
BLOCK
  5
EB
330
EA
100
AcDbEntity
  8
0
100
AcDbBlockBegin
  2
_D_1
 70
     0
 10
0.0
 20
0.0
 30
0.0
  3
_D_1
  1
_D_1
  0
LINE
  5
ED
330
EA
100
AcDbEntity
  8
치수문자_일반주서
 62
     0
370
    -2
100
AcDbLine
 10
-57.69114318569132
 20
11.7625
 30
0.0
 11
-57.69114318569132
 21
52.70000000000005
 31
0.0
  0
LINE
  5
EE
330
EA
100
AcDbEntity
  8
치수문자_일반주서
 62
     0
370
    -2
100
AcDbLine
 10
69.30885681430868
 20
0.0625000000000078
 30
0.0
 11
69.30885681430868
 21
52.70000000000005
 31
0.0
  0
LINE
  5
EF
330
EA
100
AcDbEntity
  8
치수문자_일반주서
 62
     0
370
    -2
100
AcDbLine
 10
-54.38914318569132
 20
52.70000000000005
 30
0.0
 11
66.00685681430868
 21
52.70000000000005
 31
0.0
  0
SOLID
  5
F0
330
EA
100
AcDbEntity
  8
치수문자_일반주서
 62
     0
100
AcDbTrace
 10
-54.38914318569132
 20
53.25033333333339
 30
0.0
 11
-54.38914318569132
 21
52.14966666666672
 31
0.0
 12
-57.69114318569132
 22
52.70000000000005
 32
0.0
 13
-57.69114318569132
 23
52.70000000000005
 33
0.0
  0
SOLID
  5
F1
330
EA
100
AcDbEntity
  8
치수문자_일반주서
 62
     0
100
AcDbTrace
 10
66.00685681430868
 20
52.14966666666672
 30
0.0
 11
66.00685681430868
 21
53.25033333333339
 31
0.0
 12
69.30885681430868
 22
52.70000000000005
 32
0.0
 13
69.30885681430868
 23
52.70000000000005
 33
0.0
  0
MTEXT
  5
F2
330
EA
100
AcDbEntity
  8
치수문자_일반주서
 62
     0
100
AcDbMText
 10
10.64780251919832
 20
57.07500000000005
 30
0.0
 40
3.5
 41
0.0
 71
     2
 72
     1
  1
\A1;127.00 [5]
  7
SLDTEXTSTYLE0
 73
     1
 44
1.0
  0
POINT
  5
F3
330
EA
100
AcDbEntity
  8
Defpoints
 62
     0
100
AcDbPoint
 10
-57.69114318569132
 20
11.7
 30
0.0
  0
POINT
  5
F4
330
EA
100
AcDbEntity
  8
Defpoints
 62
     0
100
AcDbPoint
 10
69.30885681430868
 20
0.0000000000000078
 30
0.0
  0
POINT
  5
F5
330
EA
100
AcDbEntity
  8
Defpoints
 62
     0
100
AcDbPoint
 10
69.30885681430868
 20
52.70000000000005
 30
0.0
  0
ENDBLK
  5
EC
330
EA
100
AcDbEntity
  8
0
100
AcDbBlockEnd
  0
BLOCK
  5
FE
330
FD
100
AcDbEntity
  8
0
100
AcDbBlockBegin
  2
_D_2
 70
     0
 10
0.0
 20
0.0
 30
0.0
  3
_D_2
  1
_D_2
  0
LINE
  5
100
330
FD
100
AcDbEntity
  8
치수문자_일반주서
 62
     0
370
    -2
100
AcDbLine
 10
12.15885681430867
 20
12.25450000000001
 30
0.0
 11
12.15885681430867
 21
38.78173151374924
 31
0.0
  0
LINE
  5
101
330
FD
100
AcDbEntity
  8
치수문자_일반주서
 62
     0
370
    -2
100
AcDbLine
 10
69.30885681430868
 20
0.0625000000000078
 30
0.0
 11
69.30885681430868
 21
38.78173151374924
 31
0.0
  0
LINE
  5
102
330
FD
100
AcDbEntity
  8
치수문자_일반주서
 62
     0
370
    -2
100
AcDbLine
 10
15.46085681430867
 20
38.78173151374924
 30
0.0
 11
66.00685681430868
 21
38.78173151374924
 31
0.0
  0
SOLID
  5
103
330
FD
100
AcDbEntity
  8
치수문자_일반주서
 62
     0
100
AcDbTrace
 10
15.46085681430867
 20
39.33206484708258
 30
0.0
 11
15.46085681430867
 21
38.23139818041591
 31
0.0
 12
12.15885681430867
 22
38.78173151374924
 32
0.0
 13
12.15885681430867
 23
38.78173151374924
 33
0.0
  0
SOLID
  5
104
330
FD
100
AcDbEntity
  8
치수문자_일반주서
 62
     0
100
AcDbTrace
 10
66.00685681430868
 20
38.23139818041591
 30
0.0
 11
66.00685681430868
 21
39.33206484708258
 31
0.0
 12
69.30885681430868
 22
38.78173151374924
 32
0.0
 13
69.30885681430868
 23
38.78173151374924
 33
0.0
  0
MTEXT
  5
105
330
FD
100
AcDbEntity
  8
치수문자_일반주서
 62
     0
100
AcDbMText
 10
40.73385681430868
 20
43.15673151374924
 30
0.0
 40
3.5
 41
0.0
 71
     2
 72
     1
  1
\A1;57.15 [2 1/4]
  7
SLDTEXTSTYLE0
 73
     1
 44
1.0
  0
POINT
  5
106
330
FD
100
AcDbEntity
  8
Defpoints
 62
     0
100
AcDbPoint
 10
12.15885681430867
 20
12.19200000000001
 30
0.0
  0
POINT
  5
107
330
FD
100
AcDbEntity
  8
Defpoints
 62
     0
100
AcDbPoint
 10
69.30885681430868
 20
0.0000000000000078
 30
0.0
  0
POINT
  5
108
330
FD
100
AcDbEntity
  8
Defpoints
 62
     0
100
AcDbPoint
 10
69.30885681430868
 20
38.78173151374924
 30
0.0
  0
ENDBLK
  5
FF
330
FD
100
AcDbEntity
  8
0
100
AcDbBlockEnd
  0
BLOCK
  5
112
330
111
100
AcDbEntity
  8
0
100
AcDbBlockBegin
  2
_D_3
 70
     0
 10
0.0
 20
0.0
 30
0.0
  3
_D_3
  1
_D_3
  0
LINE
  5
114
330
111
100
AcDbEntity
  8
치수문자_일반주서
 62
     0
370
    -2
100
AcDbLine
 10
40.73385681430867
 20
11.77198182612216
 30
0.0
 11
40.73385681430867
 21
27.86574751690088
 31
0.0
  0
LINE
  5
115
330
111
100
AcDbEntity
  8
치수문자_일반주서
 62
     0
370
    -2
100
AcDbLine
 10
69.30885681430868
 20
0.0625000000000078
 30
0.0
 11
69.30885681430868
 21
27.86574751690088
 31
0.0
  0
LINE
  5
116
330
111
100
AcDbEntity
  8
치수문자_일반주서
 62
     0
370
    -2
100
AcDbLine
 10
44.03585681430867
 20
27.86574751690088
 30
0.0
 11
66.00685681430868
 21
27.86574751690088
 31
0.0
  0
SOLID
  5
117
330
111
100
AcDbEntity
  8
치수문자_일반주서
 62
     0
100
AcDbTrace
 10
44.03585681430867
 20
28.41608085023421
 30
0.0
 11
44.03585681430867
 21
27.31541418356754
 31
0.0
 12
40.73385681430867
 22
27.86574751690088
 32
0.0
 13
40.73385681430867
 23
27.86574751690088
 33
0.0
  0
SOLID
  5
118
330
111
100
AcDbEntity
  8
치수문자_일반주서
 62
     0
100
AcDbTrace
 10
66.00685681430868
 20
27.31541418356754
 30
0.0
 11
66.00685681430868
 21
28.41608085023421
 31
0.0
 12
69.30885681430868
 22
27.86574751690088
 32
0.0
 13
69.30885681430868
 23
27.86574751690088
 33
0.0
  0
MTEXT
  5
119
330
111
100
AcDbEntity
  8
치수문자_일반주서
 62
     0
100
AcDbMText
 10
55.07347106404642
 20
32.24074751690088
 30
0.0
 40
3.5
 41
0.0
 71
     2
 72
     1
  1
\A1;28.58 [1 1/8]
  7
SLDTEXTSTYLE0
 73
     1
 44
1.0
  0
POINT
  5
11A
330
111
100
AcDbEntity
  8
Defpoints
 62
     0
100
AcDbPoint
 10
40.73385681430867
 20
11.70948182612216
 30
0.0
  0
POINT
  5
11B
330
111
100
AcDbEntity
  8
Defpoints
 62
     0
100
AcDbPoint
 10
69.30885681430868
 20
0.0000000000000078
 30
0.0
  0
POINT
  5
11C
330
111
100
AcDbEntity
  8
Defpoints
 62
     0
100
AcDbPoint
 10
69.30885681430868
 20
27.86574751690088
 30
0.0
  0
ENDBLK
  5
113
330
111
100
AcDbEntity
  8
0
100
AcDbBlockEnd
  0
BLOCK
  5
126
330
125
100
AcDbEntity
  8
0
100
AcDbBlockBegin
  2
SW_DOWELSYMBOL_0
 70
     0
 10
0.0
 20
0.0
 30
0.0
  3
SW_DOWELSYMBOL_0
  1
SW_DOWELSYMBOL_0
  0
CIRCLE
  5
128
330
125
100
AcDbEntity
  8
외형선
 62
     0
100
AcDbCircle
 10
0.0
 20
0.0
 30
0.0
 40
3.000000000000004
  0
HATCH
  5
129
330
125
100
AcDbEntity
  8
0
  6
Continuous
 62
     0
370
    30
100
AcDbHatch
 10
0.0
 20
0.0
 30
0.0
210
0.0
220
0.0
230
1.0
  2
SOLID
 70
     1
 71
     0
 91
        1
 92
        0
 93
        3
 72
     2
 10
0.0
 20
0.0
 40
3.000000000000004
 50
0.0
 51
90.0
 73
     1
 72
     1
 10
0.0
 20
3.000000000000004
 11
0.0
 21
0.0
 72
     1
 10
0.0
 20
0.0
 11
3.000000000000006
 21
0.0
 97
        0
 75
     0
 76
     1
 98
        1
 10
0.0
 20
0.0
  0
HATCH
  5
12A
330
125
100
AcDbEntity
  8
0
  6
Continuous
 62
     0
370
    30
100
AcDbHatch
 10
0.0
 20
0.0
 30
0.0
210
0.0
220
0.0
230
1.0
  2
SOLID
 70
     1
 71
     0
 91
        1
 92
        0
 93
        3
 72
     2
 10
0.0
 20
0.0
 40
3.000000000000004
 50
180.0
 51
270.0000000000007
 73
     1
 72
     1
 10
0.0
 20
-3.000000000000004
 11
0.0
 21
0.0
 72
     1
 10
0.0
 20
0.0
 11
-3.000000000000006
 21
0.0
 97
        0
 75
     0
 76
     1
 98
        1
 10
0.0
 20
0.0
  0
ENDBLK
  5
127
330
125
100
AcDbEntity
  8
0
100
AcDbBlockEnd
  0
BLOCK
  5
157
330
156
100
AcDbEntity
  8
0
100
AcDbBlockBegin
  2
*D7
 70
     1
 10
0.0
 20
0.0
 30
0.0
  3
*D7
  1
*D7
  0
LINE
  5
159
330
156
100
AcDbEntity
  8
치수문자_일반주서
 62
     0
370
    -2
100
AcDbLine
 10
69.37135681430868
 20
-12.69999999999999
 30
0.0
 11
90.12248191637192
 21
-12.69999999999999
 31
0.0
  0
LINE
  5
15A
330
156
100
AcDbEntity
  8
치수문자_일반주서
 62
     0
370
    -2
100
AcDbLine
 10
69.37135681430868
 20
12.70000000000001
 30
0.0
 11
90.12248191637192
 21
12.70000000000001
 31
0.0
  0
LINE
  5
15B
330
156
100
AcDbEntity
  8
치수문자_일반주서
 62
     0
370
    -2
100
AcDbLine
 10
90.12248191637192
 20
-9.39799999999999
 30
0.0
 11
90.12248191637192
 21
9.398000000000009
 31
0.0
  0
SOLID
  5
15C
330
156
100
AcDbEntity
  8
치수문자_일반주서
 62
     0
100
AcDbTrace
 10
89.5721485830386
 20
-9.39799999999999
 30
0.0
 11
90.67281524970525
 21
-9.39799999999999
 31
0.0
 12
90.12248191637192
 22
-12.69999999999999
 32
0.0
 13
90.12248191637192
 23
-12.69999999999999
 33
0.0
  0
SOLID
  5
15D
330
156
100
AcDbEntity
  8
치수문자_일반주서
 62
     0
100
AcDbTrace
 10
90.67281524970525
 20
9.398000000000009
 30
0.0
 11
89.5721485830386
 21
9.398000000000009
 31
0.0
 12
90.12248191637192
 22
12.70000000000001
 32
0.0
 13
90.12248191637192
 23
12.70000000000001
 33
0.0
  0
MTEXT
  5
15E
330
156
100
AcDbEntity
  8
치수문자_일반주서
 62
     0
100
AcDbMText
 10
87.49748191637192
 20
0.0000000000000089
 30
0.0
 40
3.5
 41
0.0
 71
     5
 72
     1
  1
\A1;{%%C25.40 [1]}
  7
SLDTEXTSTYLE0
 11
0.0
 21
1.0
 31
0.0
 73
     1
 44
1.0
  0
POINT
  5
15F
330
156
100
AcDbEntity
  8
Defpoints
 62
     0
100
AcDbPoint
 10
69.30885681430868
 20
-12.69999999999999
 30
0.0
  0
POINT
  5
160
330
156
100
AcDbEntity
  8
Defpoints
 62
     0
100
AcDbPoint
 10
69.30885681430868
 20
12.70000000000001
 30
0.0
  0
POINT
  5
161
330
156
100
AcDbEntity
  8
Defpoints
 62
     0
100
AcDbPoint
 10
90.12248191637192
 20
12.70000000000001
 30
0.0
  0
ENDBLK
  5
158
330
156
100
AcDbEntity
  8
0
100
AcDbBlockEnd
  0
BLOCK
  5
1D4
330
1D3
100
AcDbEntity
  8
0
100
AcDbBlockBegin
  2
*D9
 70
     1
 10
0.0
 20
0.0
 30
0.0
  3
*D9
  1

  0
LINE
  5
1D5
330
1D3
100
AcDbEntity
  8
치수문자_일반주서
 62
     0
370
    -2
100
AcDbLine
 10
16.80895802161211
 20
25.65399999999999
 30
0.0
 11
4.37500000000001
 21
25.65399999999994
 31
0.0
  0
LINE
  5
1D6
330
1D3
100
AcDbEntity
  8
치수문자_일반주서
 62
     0
370
    -2
100
AcDbLine
 10
16.80895802161211
 20
6.603999999999985
 30
0.0
 11
4.375000000000076
 21
6.603999999999939
 31
0.0
  0
LINE
  5
1D7
330
1D3
100
AcDbEntity
  8
치수문자_일반주서
 62
     0
370
    -2
100
AcDbLine
 10
4.375000000000021
 20
22.35199999999994
 30
0.0
 11
4.375000000000065
 21
9.905999999999938
 31
0.0
  0
SOLID
  5
1D8
330
1D3
100
AcDbEntity
  8
치수문자_일반주서
 62
     0
100
AcDbTrace
 10
4.925333333333355
 20
22.35199999999994
 30
0.0
 11
3.824666666666688
 21
22.35199999999994
 31
0.0
 12
4.37500000000001
 22
25.65399999999994
 32
0.0
 13
4.37500000000001
 23
25.65399999999994
 33
0.0
  0
SOLID
  5
1D9
330
1D3
100
AcDbEntity
  8
치수문자_일반주서
 62
     0
100
AcDbTrace
 10
3.824666666666731
 20
9.905999999999937
 30
0.0
 11
4.925333333333398
 21
9.90599999999994
 31
0.0
 12
4.375000000000076
 22
6.603999999999939
 32
0.0
 13
4.375000000000076
 23
6.603999999999939
 33
0.0
  0
MTEXT
  5
1DA
330
1D3
100
AcDbEntity
  8
치수문자_일반주서
 62
     0
100
AcDbMText
 10
0.0000000000000426
 20
16.12899999999997
 30
0.0
 40
3.5
 41
0.0
 71
     2
 72
     1
  1
\A1;%%c19.05 [3/4]
  7
SLDTEXTSTYLE0
 11
-3.496765431890257E-15
 21
1.0
 31
0.0
 73
     1
 44
1.0
  0
POINT
  5
1DB
330
1D3
100
AcDbEntity
  8
Defpoints
 62
     0
100
AcDbPoint
 10
16.87145802161211
 20
25.65399999999999
 30
0.0
  0
POINT
  5
1DC
330
1D3
100
AcDbEntity
  8
Defpoints
 62
     0
100
AcDbPoint
 10
16.87145802161211
 20
6.603999999999985
 30
0.0
  0
POINT
  5
1DD
330
1D3
100
AcDbEntity
  8
Defpoints
 62
     0
100
AcDbPoint
 10
4.375000000000085
 20
6.603999999999938
 30
0.0
  0
ENDBLK
  5
1DE
330
1D3
100
AcDbEntity
  8
0
100
AcDbBlockEnd
  0
BLOCK
  5
1E1
330
1E0
100
AcDbEntity
  8
0
100
AcDbBlockBegin
  2
*D10
 70
     1
 10
0.0
 20
0.0
 30
0.0
  3
*D10
  1

  0
LINE
  5
1E2
330
1E0
100
AcDbEntity
  8
치수문자_일반주서
 62
     0
370
    -2
100
AcDbLine
 10
15.87145802161211
 20
24.71649999999999
 30
0.0
 11
15.87145802161211
 21
65.65400000000004
 31
0.0
  0
LINE
  5
1E3
330
1E0
100
AcDbEntity
  8
치수문자_일반주서
 62
     0
370
    -2
100
AcDbLine
 10
142.8714580216122
 20
16.19149999999999
 30
0.0
 11
142.8714580216122
 21
65.65400000000004
 31
0.0
  0
LINE
  5
1E4
330
1E0
100
AcDbEntity
  8
치수문자_일반주서
 62
     0
370
    -2
100
AcDbLine
 10
19.17345802161211
 20
65.65400000000004
 30
0.0
 11
139.5694580216122
 21
65.65400000000004
 31
0.0
  0
SOLID
  5
1E5
330
1E0
100
AcDbEntity
  8
치수문자_일반주서
 62
     0
100
AcDbTrace
 10
19.17345802161211
 20
66.20433333333337
 30
0.0
 11
19.17345802161211
 21
65.10366666666671
 31
0.0
 12
15.87145802161211
 22
65.65400000000004
 32
0.0
 13
15.87145802161211
 23
65.65400000000004
 33
0.0
  0
SOLID
  5
1E6
330
1E0
100
AcDbEntity
  8
치수문자_일반주서
 62
     0
100
AcDbTrace
 10
139.5694580216122
 20
65.10366666666671
 30
0.0
 11
139.5694580216122
 21
66.20433333333337
 31
0.0
 12
142.8714580216122
 22
65.65400000000004
 32
0.0
 13
142.8714580216122
 23
65.65400000000004
 33
0.0
  0
MTEXT
  5
1E7
330
1E0
100
AcDbEntity
  8
치수문자_일반주서
 62
     0
100
AcDbMText
 10
84.2194452826174
 20
70.02900000000004
 30
0.0
 40
3.5
 41
0.0
 71
     2
 72
     1
  1
\A1;127 [5]
  7
SLDTEXTSTYLE0
 73
     1
 44
1.0
  0
POINT
  5
1E8
330
1E0
100
AcDbEntity
  8
Defpoints
 62
     0
100
AcDbPoint
 10
15.87145802161211
 20
24.65399999999999
 30
0.0
  0
POINT
  5
1E9
330
1E0
100
AcDbEntity
  8
Defpoints
 62
     0
100
AcDbPoint
 10
142.8714580216122
 20
16.12899999999999
 30
0.0
  0
POINT
  5
1EA
330
1E0
100
AcDbEntity
  8
Defpoints
 62
     0
100
AcDbPoint
 10
142.8714580216122
 20
65.65400000000004
 30
0.0
  0
ENDBLK
  5
1EB
330
1E0
100
AcDbEntity
  8
0
100
AcDbBlockEnd
  0
BLOCK
  5
1EE
330
1ED
100
AcDbEntity
  8
0
100
AcDbBlockBegin
  2
*D11
 70
     1
 10
0.0
 20
0.0
 30
0.0
  3
*D11
  1

  0
LINE
  5
1EF
330
1ED
100
AcDbEntity
  8
치수문자_일반주서
 62
     0
370
    -2
100
AcDbLine
 10
85.72145802161212
 20
25.20849999999999
 30
0.0
 11
85.72145802161212
 21
53.03371645742493
 31
0.0
  0
LINE
  5
1F0
330
1ED
100
AcDbEntity
  8
치수문자_일반주서
 62
     0
370
    -2
100
AcDbLine
 10
142.8714580216122
 20
16.19149999999999
 30
0.0
 11
142.8714580216122
 21
53.03371645742493
 31
0.0
  0
LINE
  5
1F1
330
1ED
100
AcDbEntity
  8
치수문자_일반주서
 62
     0
370
    -2
100
AcDbLine
 10
89.02345802161213
 20
53.03371645742493
 30
0.0
 11
139.5694580216122
 21
53.03371645742493
 31
0.0
  0
SOLID
  5
1F2
330
1ED
100
AcDbEntity
  8
치수문자_일반주서
 62
     0
100
AcDbTrace
 10
89.02345802161213
 20
53.58404979075826
 30
0.0
 11
89.02345802161213
 21
52.4833831240916
 31
0.0
 12
85.72145802161212
 22
53.03371645742493
 32
0.0
 13
85.72145802161212
 23
53.03371645742493
 33
0.0
  0
SOLID
  5
1F3
330
1ED
100
AcDbEntity
  8
치수문자_일반주서
 62
     0
100
AcDbTrace
 10
139.5694580216122
 20
52.4833831240916
 30
0.0
 11
139.5694580216122
 21
53.58404979075826
 31
0.0
 12
142.8714580216122
 22
53.03371645742493
 32
0.0
 13
142.8714580216122
 23
53.03371645742493
 33
0.0
  0
MTEXT
  5
1F4
330
1ED
100
AcDbEntity
  8
치수문자_일반주서
 62
     0
100
AcDbMText
 10
111.2693939359548
 20
57.40871645742493
 30
0.0
 40
3.5
 41
0.0
 71
     2
 72
     1
  1
\A1;57.15 [2 1/4]
  7
SLDTEXTSTYLE0
 73
     1
 44
1.0
  0
POINT
  5
1F5
330
1ED
100
AcDbEntity
  8
Defpoints
 62
     0
100
AcDbPoint
 10
85.72145802161212
 20
25.14599999999999
 30
0.0
  0
POINT
  5
1F6
330
1ED
100
AcDbEntity
  8
Defpoints
 62
     0
100
AcDbPoint
 10
142.8714580216122
 20
16.12899999999999
 30
0.0
  0
POINT
  5
1F7
330
1ED
100
AcDbEntity
  8
Defpoints
 62
     0
100
AcDbPoint
 10
142.8714580216122
 20
53.03371645742493
 30
0.0
  0
ENDBLK
  5
1F8
330
1ED
100
AcDbEntity
  8
0
100
AcDbBlockEnd
  0
BLOCK
  5
1FB
330
1FA
100
AcDbEntity
  8
0
100
AcDbBlockBegin
  2
*D12
 70
     1
 10
0.0
 20
0.0
 30
0.0
  3
*D12
  1

  0
LINE
  5
1FC
330
1FA
100
AcDbEntity
  8
치수문자_일반주서
 62
     0
370
    -2
100
AcDbLine
 10
117.4714580216121
 20
25.68325553939702
 30
0.0
 11
117.4714580216121
 21
42.23506911247279
 31
0.0
  0
LINE
  5
1FD
330
1FA
100
AcDbEntity
  8
치수문자_일반주서
 62
     0
370
    -2
100
AcDbLine
 10
142.8714580216122
 20
16.19149999999999
 30
0.0
 11
142.8714580216122
 21
42.23506911247279
 31
0.0
  0
LINE
  5
1FE
330
1FA
100
AcDbEntity
  8
치수문자_일반주서
 62
     0
370
    -2
100
AcDbLine
 10
120.7734580216121
 20
42.23506911247279
 30
0.0
 11
139.5694580216122
 21
42.23506911247279
 31
0.0
  0
SOLID
  5
1FF
330
1FA
100
AcDbEntity
  8
치수문자_일반주서
 62
     0
100
AcDbTrace
 10
120.7734580216121
 20
42.78540244580612
 30
0.0
 11
120.7734580216121
 21
41.68473577913945
 31
0.0
 12
117.4714580216121
 22
42.23506911247279
 32
0.0
 13
117.4714580216121
 23
42.23506911247279
 33
0.0
  0
SOLID
  5
200
330
1FA
100
AcDbEntity
  8
치수문자_일반주서
 62
     0
100
AcDbTrace
 10
139.5694580216122
 20
41.68473577913945
 30
0.0
 11
139.5694580216122
 21
42.78540244580612
 31
0.0
 12
142.8714580216122
 22
42.23506911247279
 32
0.0
 13
142.8714580216122
 23
42.23506911247279
 33
0.0
  0
MTEXT
  5
201
330
1FA
100
AcDbEntity
  8
치수문자_일반주서
 62
     0
100
AcDbMText
 10
129.8436964371898
 20
46.61006911247279
 30
0.0
 40
3.5
 41
0.0
 71
     2
 72
     1
  1
\A1;25.40 [1]
  7
SLDTEXTSTYLE0
 73
     1
 44
1.0
  0
POINT
  5
202
330
1FA
100
AcDbEntity
  8
Defpoints
 62
     0
100
AcDbPoint
 10
117.4714580216121
 20
25.62075553939702
 30
0.0
  0
POINT
  5
203
330
1FA
100
AcDbEntity
  8
Defpoints
 62
     0
100
AcDbPoint
 10
142.8714580216122
 20
16.12899999999999
 30
0.0
  0
POINT
  5
204
330
1FA
100
AcDbEntity
  8
Defpoints
 62
     0
100
AcDbPoint
 10
142.8714580216122
 20
42.23506911247279
 30
0.0
  0
ENDBLK
  5
205
330
1FA
100
AcDbEntity
  8
0
100
AcDbBlockEnd
  0
BLOCK
  5
20F
330
20E
100
AcDbEntity
  8
0
100
AcDbBlockBegin
  2
*D13
 70
     1
 10
0.0
 20
0.0
 30
0.0
  3
*D13
  1

  0
LINE
  5
210
330
20E
100
AcDbEntity
  8
치수문자_일반주서
 62
     0
370
    -2
100
AcDbLine
 10
142.9339580216122
 20
25.654
 30
0.0
 11
157.9664480340774
 21
25.654
 31
0.0
  0
LINE
  5
211
330
20E
100
AcDbEntity
  8
치수문자_일반주서
 62
     0
370
    -2
100
AcDbLine
 10
142.9339580216122
 20
6.603999999999999
 30
0.0
 11
157.9664480340774
 21
6.603999999999999
 31
0.0
  0
LINE
  5
212
330
20E
100
AcDbEntity
  8
치수문자_일반주서
 62
     0
370
    -2
100
AcDbLine
 10
157.9664480340774
 20
25.654
 30
0.0
 11
157.9664480340774
 21
59.8205
 31
0.0
  0
LINE
  5
213
330
20E
100
AcDbEntity
  8
치수문자_일반주서
 62
     0
370
    -2
100
AcDbLine
 10
157.9664480340774
 20
25.654
 30
0.0
 11
157.9664480340774
 21
6.603999999999999
 31
0.0
  0
LINE
  5
214
330
20E
100
AcDbEntity
  8
치수문자_일반주서
 62
     0
370
    -2
100
AcDbLine
 10
157.9664480340774
 20
28.956
 30
0.0
 11
157.9664480340774
 21
32.258
 31
0.0
  0
LINE
  5
215
330
20E
100
AcDbEntity
  8
치수문자_일반주서
 62
     0
370
    -2
100
AcDbLine
 10
157.9664480340774
 20
3.301999999999999
 30
0.0
 11
157.9664480340774
 21
-0.0000000000000009
 31
0.0
  0
SOLID
  5
216
330
20E
100
AcDbEntity
  8
치수문자_일반주서
 62
     0
100
AcDbTrace
 10
157.416114700744
 20
28.956
 30
0.0
 11
158.5167813674107
 21
28.956
 31
0.0
 12
157.9664480340774
 22
25.654
 32
0.0
 13
157.9664480340774
 23
25.654
 33
0.0
  0
SOLID
  5
217
330
20E
100
AcDbEntity
  8
치수문자_일반주서
 62
     0
100
AcDbTrace
 10
158.5167813674107
 20
3.301999999999999
 30
0.0
 11
157.416114700744
 21
3.301999999999999
 31
0.0
 12
157.9664480340774
 22
6.603999999999999
 32
0.0
 13
157.9664480340774
 23
6.603999999999999
 33
0.0
  0
MTEXT
  5
218
330
20E
100
AcDbEntity
  8
치수문자_일반주서
 62
     0
100
AcDbMText
 10
155.3414480340774
 20
46.03925
 30
0.0
 40
3.5
 41
0.0
 71
     5
 72
     1
  1
\A1;{%%C19.05 [3/4]}
  7
SLDTEXTSTYLE0
 11
0.0
 21
1.0
 31
0.0
 73
     1
 44
1.0
  0
POINT
  5
219
330
20E
100
AcDbEntity
  8
Defpoints
 62
     0
100
AcDbPoint
 10
142.8714580216122
 20
25.654
 30
0.0
  0
POINT
  5
21A
330
20E
100
AcDbEntity
  8
Defpoints
 62
     0
100
AcDbPoint
 10
142.8714580216122
 20
6.603999999999999
 30
0.0
  0
POINT
  5
21B
330
20E
100
AcDbEntity
  8
Defpoints
 62
     0
100
AcDbPoint
 10
157.9664480340774
 20
6.603999999999998
 30
0.0
  0
ENDBLK
  5
21C
330
20E
100
AcDbEntity
  8
0
100
AcDbBlockEnd
  0
BLOCK
  5
25C
330
25B
100
AcDbEntity
  8
0
100
AcDbBlockBegin
  2
*D14
 70
     1
 10
0.0
 20
0.0
 30
0.0
  3
*D14
  1

  0
LINE
  5
25E
330
25B
100
AcDbEntity
  8
치수문자_일반주서
 62
     0
370
    -2
100
AcDbLine
 10
123.7978086034052
 20
51.08280904882985
 30
0.0
 11
111.3638505817931
 21
51.0828090488298
 31
0.0
  0
LINE
  5
25F
330
25B
100
AcDbEntity
  8
치수문자_일반주서
 62
     0
370
    -2
100
AcDbLine
 10
123.7978086034052
 20
32.03280904882985
 30
0.0
 11
111.3638505817932
 21
32.0328090488298
 31
0.0
  0
LINE
  5
260
330
25B
100
AcDbEntity
  8
치수문자_일반주서
 62
     0
370
    -2
100
AcDbLine
 10
111.3638505817931
 20
47.7808090488298
 30
0.0
 11
111.3638505817932
 21
35.3348090488298
 31
0.0
  0
SOLID
  5
261
330
25B
100
AcDbEntity
  8
치수문자_일반주서
 62
     0
100
AcDbTrace
 10
111.9141839151264
 20
47.7808090488298
 30
0.0
 11
110.8135172484598
 21
47.7808090488298
 31
0.0
 12
111.3638505817931
 22
51.0828090488298
 32
0.0
 13
111.3638505817931
 23
51.0828090488298
 33
0.0
  0
SOLID
  5
262
330
25B
100
AcDbEntity
  8
치수문자_일반주서
 62
     0
100
AcDbTrace
 10
110.8135172484598
 20
35.3348090488298
 30
0.0
 11
111.9141839151265
 21
35.3348090488298
 31
0.0
 12
111.3638505817932
 22
32.0328090488298
 32
0.0
 13
111.3638505817932
 23
32.0328090488298
 33
0.0
  0
MTEXT
  5
263
330
25B
100
AcDbEntity
  8
치수문자_일반주서
 62
     0
100
AcDbMText
 10
106.9888505817931
 20
41.55780904882984
 30
0.0
 40
3.5
 41
0.0
 71
     2
 72
     1
  1
\A1;%%c19.05 [3/4]
  7
SLDTEXTSTYLE0
 11
-3.729883127349606E-15
 21
1.0
 31
0.0
 73
     1
 44
1.0
  0
POINT
  5
264
330
25B
100
AcDbEntity
  8
Defpoints
 62
     0
100
AcDbPoint
 10
123.8603086034052
 20
51.08280904882985
 30
0.0
  0
POINT
  5
265
330
25B
100
AcDbEntity
  8
Defpoints
 62
     0
100
AcDbPoint
 10
123.8603086034052
 20
32.03280904882985
 30
0.0
  0
POINT
  5
266
330
25B
100
AcDbEntity
  8
Defpoints
 62
     0
100
AcDbPoint
 10
111.3638505817932
 20
32.0328090488298
 30
0.0
  0
ENDBLK
  5
25D
330
25B
100
AcDbEntity
  8
0
100
AcDbBlockEnd
  0
BLOCK
  5
268
330
267
100
AcDbEntity
  8
0
100
AcDbBlockBegin
  2
*D15
 70
     1
 10
0.0
 20
0.0
 30
0.0
  3
*D15
  1

  0
LINE
  5
26A
330
267
100
AcDbEntity
  8
치수문자_일반주서
 62
     0
370
    -2
100
AcDbLine
 10
122.8603086034052
 20
50.14530904882985
 30
0.0
 11
122.8603086034052
 21
91.0828090488299
 31
0.0
  0
LINE
  5
26B
330
267
100
AcDbEntity
  8
치수문자_일반주서
 62
     0
370
    -2
100
AcDbLine
 10
249.8603086034053
 20
41.62030904882985
 30
0.0
 11
249.8603086034053
 21
91.0828090488299
 31
0.0
  0
LINE
  5
26C
330
267
100
AcDbEntity
  8
치수문자_일반주서
 62
     0
370
    -2
100
AcDbLine
 10
126.1623086034052
 20
91.0828090488299
 30
0.0
 11
246.5583086034053
 21
91.0828090488299
 31
0.0
  0
SOLID
  5
26D
330
267
100
AcDbEntity
  8
치수문자_일반주서
 62
     0
100
AcDbTrace
 10
126.1623086034052
 20
91.63314238216323
 30
0.0
 11
126.1623086034052
 21
90.53247571549657
 31
0.0
 12
122.8603086034052
 22
91.0828090488299
 32
0.0
 13
122.8603086034052
 23
91.0828090488299
 33
0.0
  0
SOLID
  5
26E
330
267
100
AcDbEntity
  8
치수문자_일반주서
 62
     0
100
AcDbTrace
 10
246.5583086034053
 20
90.53247571549657
 30
0.0
 11
246.5583086034053
 21
91.63314238216323
 31
0.0
 12
249.8603086034053
 22
91.0828090488299
 32
0.0
 13
249.8603086034053
 23
91.0828090488299
 33
0.0
  0
MTEXT
  5
26F
330
267
100
AcDbEntity
  8
치수문자_일반주서
 62
     0
100
AcDbMText
 10
191.2082958644105
 20
95.4578090488299
 30
0.0
 40
3.5
 41
0.0
 71
     2
 72
     1
  1
\A1;127 [5]
  7
SLDTEXTSTYLE0
 73
     1
 44
1.0
  0
POINT
  5
270
330
267
100
AcDbEntity
  8
Defpoints
 62
     0
100
AcDbPoint
 10
122.8603086034052
 20
50.08280904882985
 30
0.0
  0
POINT
  5
271
330
267
100
AcDbEntity
  8
Defpoints
 62
     0
100
AcDbPoint
 10
249.8603086034053
 20
41.55780904882985
 30
0.0
  0
POINT
  5
272
330
267
100
AcDbEntity
  8
Defpoints
 62
     0
100
AcDbPoint
 10
249.8603086034053
 20
91.0828090488299
 30
0.0
  0
ENDBLK
  5
269
330
267
100
AcDbEntity
  8
0
100
AcDbBlockEnd
  0
BLOCK
  5
274
330
273
100
AcDbEntity
  8
0
100
AcDbBlockBegin
  2
*D16
 70
     1
 10
0.0
 20
0.0
 30
0.0
  3
*D16
  1

  0
LINE
  5
276
330
273
100
AcDbEntity
  8
치수문자_일반주서
 62
     0
370
    -2
100
AcDbLine
 10
192.7103086034052
 20
50.63730904882986
 30
0.0
 11
192.7103086034052
 21
78.46252550625479
 31
0.0
  0
LINE
  5
277
330
273
100
AcDbEntity
  8
치수문자_일반주서
 62
     0
370
    -2
100
AcDbLine
 10
249.8603086034053
 20
41.62030904882985
 30
0.0
 11
249.8603086034053
 21
78.46252550625479
 31
0.0
  0
LINE
  5
278
330
273
100
AcDbEntity
  8
치수문자_일반주서
 62
     0
370
    -2
100
AcDbLine
 10
196.0123086034052
 20
78.46252550625479
 30
0.0
 11
246.5583086034053
 21
78.46252550625479
 31
0.0
  0
SOLID
  5
279
330
273
100
AcDbEntity
  8
치수문자_일반주서
 62
     0
100
AcDbTrace
 10
196.0123086034052
 20
79.01285883958812
 30
0.0
 11
196.0123086034052
 21
77.91219217292146
 31
0.0
 12
192.7103086034052
 22
78.46252550625479
 32
0.0
 13
192.7103086034052
 23
78.46252550625479
 33
0.0
  0
SOLID
  5
27A
330
273
100
AcDbEntity
  8
치수문자_일반주서
 62
     0
100
AcDbTrace
 10
246.5583086034053
 20
77.91219217292146
 30
0.0
 11
246.5583086034053
 21
79.01285883958812
 31
0.0
 12
249.8603086034053
 22
78.46252550625479
 32
0.0
 13
249.8603086034053
 23
78.46252550625479
 33
0.0
  0
MTEXT
  5
27B
330
273
100
AcDbEntity
  8
치수문자_일반주서
 62
     0
100
AcDbMText
 10
218.2582445177479
 20
82.83752550625479
 30
0.0
 40
3.5
 41
0.0
 71
     2
 72
     1
  1
\A1;57.15 [2 1/4]
  7
SLDTEXTSTYLE0
 73
     1
 44
1.0
  0
POINT
  5
27C
330
273
100
AcDbEntity
  8
Defpoints
 62
     0
100
AcDbPoint
 10
192.7103086034052
 20
50.57480904882986
 30
0.0
  0
POINT
  5
27D
330
273
100
AcDbEntity
  8
Defpoints
 62
     0
100
AcDbPoint
 10
249.8603086034053
 20
41.55780904882985
 30
0.0
  0
POINT
  5
27E
330
273
100
AcDbEntity
  8
Defpoints
 62
     0
100
AcDbPoint
 10
249.8603086034053
 20
78.46252550625479
 30
0.0
  0
ENDBLK
  5
275
330
273
100
AcDbEntity
  8
0
100
AcDbBlockEnd
  0
BLOCK
  5
280
330
27F
100
AcDbEntity
  8
0
100
AcDbBlockBegin
  2
*D17
 70
     1
 10
0.0
 20
0.0
 30
0.0
  3
*D17
  1

  0
LINE
  5
282
330
27F
100
AcDbEntity
  8
치수문자_일반주서
 62
     0
370
    -2
100
AcDbLine
 10
224.4603086034052
 20
51.11206458822689
 30
0.0
 11
224.4603086034052
 21
67.66387816130265
 31
0.0
  0
LINE
  5
283
330
27F
100
AcDbEntity
  8
치수문자_일반주서
 62
     0
370
    -2
100
AcDbLine
 10
249.8603086034053
 20
41.62030904882985
 30
0.0
 11
249.8603086034053
 21
67.66387816130265
 31
0.0
  0
LINE
  5
284
330
27F
100
AcDbEntity
  8
치수문자_일반주서
 62
     0
370
    -2
100
AcDbLine
 10
227.7623086034052
 20
67.66387816130265
 30
0.0
 11
246.5583086034053
 21
67.66387816130265
 31
0.0
  0
SOLID
  5
285
330
27F
100
AcDbEntity
  8
치수문자_일반주서
 62
     0
100
AcDbTrace
 10
227.7623086034052
 20
68.21421149463598
 30
0.0
 11
227.7623086034052
 21
67.11354482796932
 31
0.0
 12
224.4603086034052
 22
67.66387816130265
 32
0.0
 13
224.4603086034052
 23
67.66387816130265
 33
0.0
  0
SOLID
  5
286
330
27F
100
AcDbEntity
  8
치수문자_일반주서
 62
     0
100
AcDbTrace
 10
246.5583086034053
 20
67.11354482796932
 30
0.0
 11
246.5583086034053
 21
68.21421149463598
 31
0.0
 12
249.8603086034053
 22
67.66387816130265
 32
0.0
 13
249.8603086034053
 23
67.66387816130265
 33
0.0
  0
MTEXT
  5
287
330
27F
100
AcDbEntity
  8
치수문자_일반주서
 62
     0
100
AcDbMText
 10
236.8325470189829
 20
72.03887816130265
 30
0.0
 40
3.5
 41
0.0
 71
     2
 72
     1
  1
\A1;25.40 [1]
  7
SLDTEXTSTYLE0
 73
     1
 44
1.0
  0
POINT
  5
288
330
27F
100
AcDbEntity
  8
Defpoints
 62
     0
100
AcDbPoint
 10
224.4603086034052
 20
51.04956458822689
 30
0.0
  0
POINT
  5
289
330
27F
100
AcDbEntity
  8
Defpoints
 62
     0
100
AcDbPoint
 10
249.8603086034053
 20
41.55780904882985
 30
0.0
  0
POINT
  5
28A
330
27F
100
AcDbEntity
  8
Defpoints
 62
     0
100
AcDbPoint
 10
249.8603086034053
 20
67.66387816130265
 30
0.0
  0
ENDBLK
  5
281
330
27F
100
AcDbEntity
  8
0
100
AcDbBlockEnd
  0
BLOCK
  5
28C
330
28B
100
AcDbEntity
  8
0
100
AcDbBlockBegin
  2
*D18
 70
     1
 10
0.0
 20
0.0
 30
0.0
  3
*D18
  1

  0
LINE
  5
28E
330
28B
100
AcDbEntity
  8
치수문자_일반주서
 62
     0
370
    -2
100
AcDbLine
 10
249.9228086034053
 20
51.08280904882986
 30
0.0
 11
264.9552986158704
 21
51.08280904882986
 31
0.0
  0
LINE
  5
28F
330
28B
100
AcDbEntity
  8
치수문자_일반주서
 62
     0
370
    -2
100
AcDbLine
 10
249.9228086034053
 20
32.03280904882986
 30
0.0
 11
264.9552986158704
 21
32.03280904882986
 31
0.0
  0
LINE
  5
290
330
28B
100
AcDbEntity
  8
치수문자_일반주서
 62
     0
370
    -2
100
AcDbLine
 10
264.9552986158704
 20
51.08280904882986
 30
0.0
 11
264.9552986158704
 21
85.24930904882986
 31
0.0
  0
LINE
  5
291
330
28B
100
AcDbEntity
  8
치수문자_일반주서
 62
     0
370
    -2
100
AcDbLine
 10
264.9552986158704
 20
51.08280904882986
 30
0.0
 11
264.9552986158704
 21
32.03280904882986
 31
0.0
  0
LINE
  5
292
330
28B
100
AcDbEntity
  8
치수문자_일반주서
 62
     0
370
    -2
100
AcDbLine
 10
264.9552986158704
 20
54.38480904882986
 30
0.0
 11
264.9552986158704
 21
57.68680904882986
 31
0.0
  0
LINE
  5
293
330
28B
100
AcDbEntity
  8
치수문자_일반주서
 62
     0
370
    -2
100
AcDbLine
 10
264.9552986158704
 20
28.73080904882986
 30
0.0
 11
264.9552986158704
 21
25.42880904882986
 31
0.0
  0
SOLID
  5
294
330
28B
100
AcDbEntity
  8
치수문자_일반주서
 62
     0
100
AcDbTrace
 10
264.4049652825371
 20
54.38480904882986
 30
0.0
 11
265.5056319492038
 21
54.38480904882986
 31
0.0
 12
264.9552986158704
 22
51.08280904882986
 32
0.0
 13
264.9552986158704
 23
51.08280904882986
 33
0.0
  0
SOLID
  5
295
330
28B
100
AcDbEntity
  8
치수문자_일반주서
 62
     0
100
AcDbTrace
 10
265.5056319492038
 20
28.73080904882986
 30
0.0
 11
264.4049652825371
 21
28.73080904882986
 31
0.0
 12
264.9552986158704
 22
32.03280904882986
 32
0.0
 13
264.9552986158704
 23
32.03280904882986
 33
0.0
  0
MTEXT
  5
296
330
28B
100
AcDbEntity
  8
치수문자_일반주서
 62
     0
100
AcDbMText
 10
262.3302986158704
 20
71.46805904882986
 30
0.0
 40
3.5
 41
0.0
 71
     5
 72
     1
  1
\A1;{%%C19.05 [3/4]}
  7
SLDTEXTSTYLE0
 11
0.0
 21
1.0
 31
0.0
 73
     1
 44
1.0
  0
POINT
  5
297
330
28B
100
AcDbEntity
  8
Defpoints
 62
     0
100
AcDbPoint
 10
249.8603086034053
 20
51.08280904882986
 30
0.0
  0
POINT
  5
298
330
28B
100
AcDbEntity
  8
Defpoints
 62
     0
100
AcDbPoint
 10
249.8603086034053
 20
32.03280904882986
 30
0.0
  0
POINT
  5
299
330
28B
100
AcDbEntity
  8
Defpoints
 62
     0
100
AcDbPoint
 10
264.9552986158704
 20
32.03280904882986
 30
0.0
  0
ENDBLK
  5
28D
330
28B
100
AcDbEntity
  8
0
100
AcDbBlockEnd
  0
ENDSEC
  0
SECTION
  2
ENTITIES
  0
LINE
  5
95
330
1F
100
AcDbEntity
  8
0
  6
Continuous
 62
     4
370
    15
100
AcDbLine
 10
11.65085681430867
 20
12.7
 30
0.0
 11
-56.69114318569132
 21
12.7
 31
0.0
  0
LINE
  5
96
330
1F
100
AcDbEntity
  8
0
  6
Continuous
 62
     4
370
    15
100
AcDbLine
 10
-56.69114318569132
 20
-12.7
 30
0.0
 11
11.65085681430867
 21
-12.7
 31
0.0
  0
LINE
  5
97
330
1F
100
AcDbEntity
  8
0
  6
Continuous
 62
     4
370
    15
100
AcDbLine
 10
11.65085681430867
 20
-12.7
 30
0.0
 11
12.15885681430867
 21
-12.192
 31
0.0
  0
LINE
  5
98
330
1F
100
AcDbEntity
  8
0
  6
Continuous
 62
     4
370
    15
100
AcDbLine
 10
12.15885681430867
 20
12.19200000000001
 30
0.0
 11
11.65085681430867
 21
12.70000000000001
 31
0.0
  0
LINE
  5
99
330
1F
100
AcDbEntity
  8
0
  6
Continuous
 62
     4
370
    15
100
AcDbLine
 10
-56.69114318569132
 20
12.7
 30
0.0
 11
-57.69114318569132
 21
11.7
 31
0.0
  0
LINE
  5
9A
330
1F
100
AcDbEntity
  8
0
  6
Continuous
 62
     4
370
    15
100
AcDbLine
 10
-57.69114318569132
 20
-11.7
 30
0.0
 11
-56.69114318569132
 21
-12.7
 31
0.0
  0
LINE
  5
9B
330
1F
100
AcDbEntity
  8
0
  6
Continuous
 62
     4
370
    15
100
AcDbLine
 10
37.68432244463667
 20
12.19200000000001
 30
0.0
 11
12.15885681430867
 21
12.19200000000001
 31
0.0
  0
LINE
  5
9C
330
1F
100
AcDbEntity
  8
0
  6
Continuous
 62
     4
370
    15
100
AcDbLine
 10
12.15885681430867
 20
-12.192
 30
0.0
 11
37.68432244463668
 21
-12.19199999999999
 31
0.0
  0
ARC
  5
9D
330
1F
100
AcDbEntity
  8
0
  6
Continuous
 62
     1
370
    15
100
AcDbCircle
 10
56.60885681430867
 20
0.0000000000000078
 30
0.0
 40
12.70000000000001
100
AcDbArc
 50
353.5800701243586
 51
0.0
  0
ARC
  5
9E
330
1F
100
AcDbEntity
  8
0
  6
Continuous
 62
     1
370
    15
100
AcDbCircle
 10
56.60885681430867
 20
0.0000000000000078
 30
0.0
 40
12.70000000000001
100
AcDbArc
 50
0.0
 51
60.08650399730673
  0
LINE
  5
9F
330
1F
100
AcDbEntity
  8
0
  6
Continuous
 62
     1
370
    15
100
AcDbLine
 10
45.75449476699309
 20
-12.69999999999999
 30
0.0
 11
51.68248585737635
 21
-12.69999999999999
 31
0.0
  0
LINE
  5
A0
330
1F
100
AcDbEntity
  8
0
  6
Continuous
 62
     4
370
    15
100
AcDbLine
 10
11.65085681430867
 20
12.70000000000001
 30
0.0
 11
11.65085681430867
 21
-12.70000000000001
 31
0.0
  0
LINE
  5
A1
330
1F
100
AcDbEntity
  8
0
  6
Continuous
 62
     4
370
    15
100
AcDbLine
 10
-56.69114318569132
 20
12.7
 30
0.0
 11
-56.69114318569132
 21
-12.70000000000002
 31
0.0
  0
LINE
  5
A2
330
1F
100
AcDbEntity
  8
0
  6
Continuous
 62
     4
370
    15
100
AcDbLine
 10
12.15885681430867
 20
12.19200000000001
 30
0.0
 11
12.15885681430867
 21
-12.19200000000001
 31
0.0
  0
LINE
  5
A3
330
1F
100
AcDbEntity
  8
0
  6
Continuous
 62
     4
370
    15
100
AcDbLine
 10
-57.69114318569132
 20
11.7
 30
0.0
 11
-57.69114318569132
 21
-11.7
 31
0.0
  0
LINE
  5
A4
330
1F
100
AcDbEntity
  8
0
  6
Continuous
 62
     4
370
    15
100
AcDbLine
 10
37.68432244463667
 20
11.91779454355318
 30
0.0
 11
37.68432244463667
 21
12.19200000000001
 31
0.0
  0
SPLINE
  5
A5
330
1F
100
AcDbEntity
  8
0
  6
Continuous
 62
     4
370
    15
100
AcDbSpline
210
0.0
220
0.0
230
1.0
 70
     8
 71
     3
 72
    10
 73
     6
 74
     0
 42
0.000000001
 43
0.00000001
 40
0.0
 40
0.0
 40
0.0
 40
0.0
 40
0.5
 40
0.5
 40
1.0
 40
1.0
 40
1.0
 40
1.0
 10
40.73385681430869
 20
11.26078816558965
 30
0.0
 10
40.22589907494611
 20
11.40169274165316
 30
0.0
 10
39.71586734589
 20
11.52740161796275
 30
0.0
 10
38.69790827397247
 20
11.74682389580094
 30
0.0
 10
38.19209787661418
 20
11.84044187188428
 30
0.0
 10
37.68432244463667
 20
11.91793708176816
 30
0.0
  0
LINE
  5
A6
330
1F
100
AcDbEntity
  8
0
  6
Continuous
 62
     1
370
    15
100
AcDbLine
 10
40.73385681430867
 20
9.299380665688611
 30
0.0
 11
40.73385681430866
 21
8.892525732408211
 31
0.0
  0
SPLINE
  5
A7
330
1F
100
AcDbEntity
  8
0
  6
Continuous
 62
     4
370
    15
100
AcDbSpline
210
0.0
220
0.0
230
1.0
 70
     8
 71
     3
 72
    10
 73
     6
 74
     0
 42
0.000000001
 43
0.00000001
 40
0.0
 40
0.0
 40
0.0
 40
0.0
 40
0.5
 40
0.5
 40
1.0
 40
1.0
 40
1.0
 40
1.0
 10
40.73385681430855
 20
8.892525732408275
 30
0.0
 10
40.22584984888167
 20
9.144032682266173
 30
0.0
 10
39.71576849163083
 20
9.38372790322279
 30
0.0
 10
38.69771117777245
 20
9.836504640928334
 30
0.0
 10
38.19185268848563
 20
10.04931827245237
 30
0.0
 10
37.68402719400655
 20
10.2484356282684
 30
0.0
  0
SPLINE
  5
A8
330
1F
100
AcDbEntity
  8
0
  6
Continuous
 62
     4
370
    15
100
AcDbSpline
210
0.0
220
0.0
230
1.0
 70
     8
 71
     3
 72
    10
 73
     6
 74
     0
 42
0.000000001
 43
0.00000001
 40
0.0
 40
0.0
 40
0.0
 40
0.0
 40
0.5
 40
0.5
 40
1.0
 40
1.0
 40
1.0
 40
1.0
 10
40.73385681430869
 20
-9.67757031039937
 30
0.0
 10
40.22589907494611
 20
-9.45398488669441
 30
0.0
 10
39.71586734589
 20
-9.216872035729638
 30
0.0
 10
38.69790827397247
 20
-8.718447771643236
 30
0.0
 10
38.19209787661421
 20
-8.45752752443982
 30
0.0
 10
37.68432244463668
 20
-8.185115388300488
 30
0.0
  0
LINE
  5
A9
330
1F
100
AcDbEntity
  8
0
  6
Continuous
 62
     1
370
    15
100
AcDbLine
 10
40.73385681430869
 20
-9.677570310399373
 30
0.0
 11
40.73385681430867
 21
-10.11308877614048
 31
0.0
  0
SPLINE
  5
AA
330
1F
100
AcDbEntity
  8
0
  6
Continuous
 62
     4
370
    15
100
AcDbSpline
210
0.0
220
0.0
230
1.0
 70
     8
 71
     3
 72
    10
 73
     6
 74
     0
 42
0.000000001
 43
0.00000001
 40
0.0
 40
0.0
 40
0.0
 40
0.0
 40
0.5
 40
0.5
 40
1.0
 40
1.0
 40
1.0
 40
1.0
 10
40.73385681430855
 20
-11.66955073073249
 30
0.0
 10
40.22584984888167
 20
-11.56308322138427
 30
0.0
 10
39.71576849163083
 20
-11.44052235086538
 30
0.0
 10
38.69771117777245
 20
-11.16465404848802
 30
0.0
 10
38.19185268848563
 20
-11.01159440917923
 30
0.0
 10
37.68402719400655
 20
-10.84355548382371
 30
0.0
  0
LINE
  5
AB
330
1F
100
AcDbEntity
  8
0
  6
Continuous
 62
     4
370
    15
100
AcDbLine
 10
37.68432244463668
 20
-12.19199999999999
 30
0.0
 11
37.68432244463668
 21
-10.84324442198845
 31
0.0
  0
LINE
  5
AC
330
1F
100
AcDbEntity
  8
0
  6
Continuous
 62
     4
370
    15
100
AcDbLine
 10
37.68432244463668
 20
-8.185616363454034
 30
0.0
 11
37.68432244463668
 21
10.24880418433671
 31
0.0
  0
SPLINE
  5
AD
330
1F
100
AcDbEntity
  8
0
  6
Continuous
 62
     4
370
    15
100
AcDbSpline
210
0.0
220
0.0
230
1.0
 70
     8
 71
     3
 72
    10
 73
     6
 74
     0
 42
0.000000001
 43
0.00000001
 40
0.0
 40
0.0
 40
0.0
 40
0.0
 40
0.5
 40
0.5
 40
1.0
 40
1.0
 40
1.0
 40
1.0
 10
40.73385681430854
 20
-0.4360479933384065
 30
0.0
 10
40.225899074946
 20
-0.1721745077131485
 30
0.0
 10
39.7158673458899
 20
0.0926532258047888
 30
0.0
 10
38.69790827397242
 20
0.6209702320866427
 30
0.0
 10
38.19209787661418
 20
0.8840934649320505
 30
0.0
 10
37.68432244463668
 20
1.145993736806498
 30
0.0
  0
SPLINE
  5
AE
330
1F
100
AcDbEntity
  8
0
  6
Continuous
 62
     4
370
    15
100
AcDbSpline
210
0.0
220
0.0
230
1.0
 70
    24
 71
     3
 72
    16
 73
    12
 74
     0
 42
0.000000001
 43
0.00000001
 40
0.0
 40
0.0
 40
0.0
 40
0.0
 40
0.2500000000000001
 40
0.2500000000000001
 40
0.5
 40
0.5
 40
0.7499999999999999
 40
0.7499999999999999
 40
0.875
 40
0.875
 40
1.0
 40
1.0
 40
1.0
 40
1.0
 10
40.73385681430868
 20
-0.43604799333848
 30
0.0
 10
40.73385681430869
 20
-0.8891767077145781
 30
0.0
 10
40.73385681430868
 20
-1.442935050903719
 30
0.0
 10
40.73385681430869
 20
-2.76418000789978
 30
0.0
 10
40.73385681430867
 20
-3.533076641323812
 30
0.0
 10
40.73385681430867
 20
-5.2210088859161
 30
0.0
 10
40.73385681430869
 20
-6.139183354311411
 30
0.0
 10
40.73385681430869
 20
-7.509077995947294
 30
0.0
 10
40.73385681430869
 20
-7.963823483450049
 30
0.0
 10
40.73385681430868
 20
-8.846319899079306
 30
0.0
 10
40.73385681430869
 20
-9.273944964920782
 30
0.0
 10
40.73385681430869
 20
-9.677570310399366
 30
0.0
  0
SPLINE
  5
AF
330
1F
100
AcDbEntity
  8
0
  6
Continuous
 62
     4
370
    15
100
AcDbSpline
210
0.0
220
0.0
230
1.0
 70
    24
 71
     3
 72
    16
 73
    12
 74
     0
 42
0.000000001
 43
0.00000001
 40
0.0
 40
0.0
 40
0.0
 40
0.0
 40
0.125
 40
0.125
 40
0.2499999999999999
 40
0.2499999999999999
 40
0.5
 40
0.5
 40
0.7500000000000001
 40
0.7500000000000001
 40
1.0
 40
1.0
 40
1.0
 40
1.0
 10
40.73385681430868
 20
8.892525732408192
 30
0.0
 10
40.73385681430867
 20
8.513652641328969
 30
0.0
 10
40.73385681430867
 20
8.107367272687704
 30
0.0
 10
40.73385681430867
 20
7.259523840161951
 30
0.0
 10
40.73385681430867
 20
6.818087421695878
 30
0.0
 10
40.73385681430867
 20
5.475467906108038
 30
0.0
 10
40.73385681430869
 20
4.558281465978347
 30
0.0
 10
40.73385681430869
 20
2.844049459475301
 30
0.0
 10
40.73385681430867
 20
2.048165151821436
 30
0.0
 10
40.73385681430867
 20
0.6575046034272393
 30
0.0
 10
40.73385681430868
 20
0.0614992583511221
 30
0.0
 10
40.73385681430868
 20
-0.4360479933384813
 30
0.0
  0
SPLINE
  5
B0
330
1F
100
AcDbEntity
  8
0
  6
Continuous
 62
     1
370
    15
100
AcDbSpline
210
0.0
220
0.0
230
1.0
 70
     8
 71
     3
 72
     8
 73
     4
 74
     0
 42
0.000000001
 43
0.00000001
 40
0.0
 40
0.0
 40
0.0
 40
0.0
 40
1.0
 40
1.0
 40
1.0
 40
1.0
 10
61.13965203777343
 20
-8.344453410387139
 30
0.0
 10
60.72575603465157
 20
-8.04691190065477
 30
0.0
 10
60.30398499631264
 20
-7.750376475571772
 30
0.0
 10
59.87165662198466
 20
-7.455189815717637
 30
0.0
  0
SPLINE
  5
B1
330
1F
100
AcDbEntity
  8
0
  6
Continuous
 62
     1
370
    15
100
AcDbSpline
210
0.0
220
0.0
230
1.0
 70
     8
 71
     3
 72
    32
 73
    28
 74
     0
 42
0.000000001
 43
0.00000001
 40
0.0
 40
0.0
 40
0.0
 40
0.0
 40
0.1249999999999995
 40
0.1249999999999995
 40
0.1874999999999996
 40
0.1874999999999996
 40
0.2499999999999997
 40
0.2499999999999997
 40
0.3124999999999998
 40
0.3124999999999998
 40
0.3749999999999999
 40
0.3749999999999999
 40
0.5000000000000002
 40
0.5000000000000002
 40
0.5625000000000004
 40
0.5625000000000004
 40
0.6250000000000006
 40
0.6250000000000006
 40
0.6875000000000008
 40
0.6875000000000008
 40
0.7500000000000009
 40
0.7500000000000009
 40
0.8750000000000006
 40
0.8750000000000006
 40
0.9375000000000002
 40
0.9375000000000002
 40
1.0
 40
1.0
 40
1.0
 40
1.0
 10
61.13965203786442
 20
-8.34445341040155
 30
0.0
 10
60.28783801338304
 20
-8.209440694673258
 30
0.0
 10
59.44189448305823
 20
-8.042877471885243
 30
0.0
 10
58.1637911434877
 20
-7.74737921868731
 30
0.0
 10
57.73749719743598
 20
-7.641349370732843
 30
0.0
 10
56.88804674406277
 20
-7.41518406471917
 30
0.0
 10
56.46514087031242
 20
-7.29509394660891
 30
0.0
 10
55.61424718906967
 20
-7.040740677505473
 30
0.0
 10
55.1877308261066
 20
-6.906602268710555
 30
0.0
 10
54.3362218374109
 20
-6.625544273060387
 30
0.0
 10
53.91245881125354
 20
-6.478774787895262
 30
0.0
 10
52.64001637789821
 20
-6.020255365239564
 30
0.0
 10
51.7842222975764
 20
-5.689427642956163
 30
0.0
 10
50.51121401367567
 20
-5.163927312629076
 30
0.0
 10
50.08778408329138
 20
-4.983800547830614
 30
0.0
 10
49.23644240623673
 20
-4.613738415793731
 30
0.0
 10
48.80991497790034
 20
-4.423992388040014
 30
0.0
 10
47.95881003925211
 20
-4.036702389862237
 30
0.0
 10
47.53570989664163
 20
-3.839395188434982
 30
0.0
 10
46.68659313177096
 20
-3.437392666489195
 30
0.0
 10
46.26037210220441
 20
-3.232654365167735
 30
0.0
 10
44.98220261034203
 20
-2.609830387564341
 30
0.0
 10
44.13615362433182
 20
-2.184046844825097
 30
0.0
 10
42.85861753908357
 20
-1.533909575275907
 30
0.0
 10
42.43212885238442
 20
-1.315413086047635
 30
0.0
 10
41.58152682135578
 20
-0.876731780696395
 30
0.0
 10
41.15877705745076
 20
-0.6567852259502734
 30
0.0
 10
40.73385681430854
 20
-0.4360479933384072
 30
0.0
  0
SPLINE
  5
B2
330
1F
100
AcDbEntity
  8
0
  6
Continuous
 62
     4
370
    15
100
AcDbSpline
210
0.0
220
0.0
230
1.0
 70
    24
 71
     3
 72
    18
 73
    14
 74
     0
 42
0.000000001
 43
0.00000001
 40
0.0
 40
0.0
 40
0.0
 40
0.0
 40
0.1250000000000001
 40
0.1250000000000001
 40
0.2500000000000001
 40
0.2500000000000001
 40
0.3750000000000002
 40
0.3750000000000002
 40
0.5000000000000002
 40
0.5000000000000002
 40
0.7500000000000001
 40
0.7500000000000001
 40
1.0
 40
1.0
 40
1.0
 40
1.0
 10
40.73385681430867
 20
9.29938066568666
 30
0.0
 10
40.73385681430867
 20
8.925140260537596
 30
0.0
 10
40.73385681430867
 20
8.517715413153587
 30
0.0
 10
40.73385681430867
 20
7.656682197901247
 30
0.0
 10
40.73385681430867
 20
7.203212867756407
 30
0.0
 10
40.73385681430867
 20
6.275802299587759
 30
0.0
 10
40.73385681430869
 20
5.802021804207651
 30
0.0
 10
40.73385681430868
 20
4.860379100765391
 30
0.0
 10
40.73385681430867
 20
4.39264209324553
 30
0.0
 10
40.73385681430867
 20
3.03216272812977
 30
0.0
 10
40.73385681430867
 20
2.185989480866989
 30
0.0
 10
40.73385681430867
 20
0.712828652961193
 30
0.0
 10
40.73385681430867
 20
0.0843880311251361
 30
0.0
 10
40.73385681430868
 20
-0.4360479933384813
 30
0.0
  0
SPLINE
  5
B3
330
1F
100
AcDbEntity
  8
0
  6
Continuous
 62
     1
370
    15
100
AcDbSpline
210
0.0
220
0.0
230
1.0
 70
     8
 71
     3
 72
    24
 73
    20
 74
     0
 42
0.000000001
 43
0.00000001
 40
0.0
 40
0.0
 40
0.0
 40
0.0
 40
0.125
 40
0.125
 40
0.25
 40
0.25
 40
0.375
 40
0.375
 40
0.5
 40
0.5
 40
0.625
 40
0.625
 40
0.75
 40
0.75
 40
0.875
 40
0.875
 40
0.9375
 40
0.9375
 40
1.0
 40
1.0
 40
1.0
 40
1.0
 10
56.6088568143084
 20
-1.524917199992025
 30
0.0
 10
55.94898727737725
 20
-1.030465658626241
 30
0.0
 10
55.28455807858494
 20
-0.5313489540659064
 30
0.0
 10
53.96034909754813
 20
0.4658801207398891
 30
0.0
 10
53.30260691860838
 20
0.9634761322149926
 30
0.0
 10
51.97756771221218
 20
1.95431389981702
 30
0.0
 10
51.31345517709764
 20
2.446737446310744
 30
0.0
 10
49.9957912816382
 20
3.415447063369094
 30
0.0
 10
49.33215911290757
 20
3.894199491811456
 30
0.0
 10
48.00692242415405
 20
4.83099096372721
 30
0.0
 10
47.34906223754826
 20
5.288191046285502
 30
0.0
 10
46.0251779147952
 20
6.177958738671531
 30
0.0
 10
45.36068124588518
 20
6.610110734902064
 30
0.0
 10
44.04035225874858
 20
7.440070582133711
 30
0.0
 10
43.37965274826425
 20
7.838942134096294
 30
0.0
 10
42.38535366908155
 20
8.409330407046875
 30
0.0
 10
42.0540242896454
 20
8.594681033008065
 30
0.0
 10
41.39329200066545
 20
8.954893310588544
 30
0.0
 10
41.06440655388782
 20
9.129674708104194
 30
0.0
 10
40.73385681430847
 20
9.299380665688643
 30
0.0
  0
SPLINE
  5
B4
330
1F
100
AcDbEntity
  8
0
  6
Continuous
 62
     1
370
    15
100
AcDbSpline
210
0.0
220
0.0
230
1.0
 70
     8
 71
     3
 72
    20
 73
    16
 74
     0
 42
0.000000001
 43
0.00000001
 40
0.0
 40
0.0
 40
0.0
 40
0.0
 40
0.1249999999999999
 40
0.1249999999999999
 40
0.2499999999999997
 40
0.2499999999999997
 40
0.3749999999999996
 40
0.3749999999999996
 40
0.4999999999999994
 40
0.4999999999999994
 40
0.6249999999999993
 40
0.6249999999999993
 40
0.7499999999999991
 40
0.7499999999999991
 40
1.0
 40
1.0
 40
1.0
 40
1.0
 10
65.64692506727984
 20
-6.471580678673584
 30
0.0
 10
65.39238372659877
 20
-6.393929264882022
 30
0.0
 10
65.10584596252737
 20
-6.31011383105774
 30
0.0
 10
64.4872658495568
 20
-6.112987033407216
 30
0.0
 10
64.15792381167395
 20
-6.000670712973506
 30
0.0
 10
63.4669347428291
 20
-5.737587222014946
 30
0.0
 10
63.10544522966654
 20
-5.586563176675954
 30
0.0
 10
62.35215190531953
 20
-5.240481646661361
 30
0.0
 10
61.96346121594378
 20
-5.04684163956484
 30
0.0
 10
61.17725457455783
 20
-4.623568277998911
 30
0.0
 10
60.77777889155982
 20
-4.393088305273466
 30
0.0
 10
59.96604124595414
 20
-3.894522724657765
 30
0.0
 10
59.55186170319688
 20
-3.625091404885425
 30
0.0
 10
58.29640862108121
 20
-2.775728148488541
 30
0.0
 10
57.46030654432564
 20
-2.162923059999526
 30
0.0
 10
56.60885681430868
 20
-1.524917199992232
 30
0.0
  0
SPLINE
  5
B5
330
1F
100
AcDbEntity
  8
0
  6
Continuous
 62
     1
370
    15
100
AcDbSpline
210
0.0
220
0.0
230
1.0
 70
     8
 71
     3
 72
    14
 73
    10
 74
     0
 42
0.000000001
 43
0.00000001
 40
0.0
 40
0.0
 40
0.0
 40
0.0
 40
0.1248328426745084
 40
0.2304650993927776
 40
0.3387831465033209
 40
0.4814936099870522
 40
0.6282945014769614
 40
0.8117560704612437
 40
1.0
 40
1.0
 40
1.0
 40
1.0
 10
65.50198613160036
 20
-6.43260287859079
 30
0.0
 10
65.33878372121366
 20
-6.378528393006189
 30
0.0
 10
65.03748112387568
 20
-6.278696638574683
 30
0.0
 10
64.46118908014174
 20
-6.249169635520659
 30
0.0
 10
63.80891468848821
 20
-6.278807298506361
 30
0.0
 10
63.02563119243898
 20
-6.397314256570666
 30
0.0
 10
62.06374292675029
 20
-6.630844183058825
 30
0.0
 10
60.99540567732745
 20
-6.97531567585253
 30
0.0
 10
60.24943884193515
 20
-7.29386561527168
 30
0.0
 10
59.87165662198464
 20
-7.45518981571763
 30
0.0
  0
SPLINE
  5
B6
330
1F
100
AcDbEntity
  8
0
  6
Continuous
 62
     1
370
    15
100
AcDbSpline
210
0.0
220
0.0
230
1.0
 70
     8
 71
     3
 72
    44
 73
    40
 74
     0
 42
0.000000001
 43
0.00000001
 40
0.0
 40
0.0
 40
0.0
 40
0.0
 40
0.1249999999999993
 40
0.1249999999999993
 40
0.1874999999999989
 40
0.1874999999999989
 40
0.2499999999999986
 40
0.2499999999999986
 40
0.3749999999999988
 40
0.3749999999999988
 40
0.4374999999999983
 40
0.4374999999999983
 40
0.4999999999999979
 40
0.4999999999999979
 40
0.5624999999999974
 40
0.5624999999999974
 40
0.5937499999999976
 40
0.5937499999999976
 40
0.6249999999999978
 40
0.6249999999999978
 40
0.6562499999999979
 40
0.6562499999999979
 40
0.6874999999999981
 40
0.6874999999999981
 40
0.7187499999999982
 40
0.7187499999999982
 40
0.7499999999999983
 40
0.7499999999999983
 40
0.7812499999999986
 40
0.7812499999999986
 40
0.8124999999999988
 40
0.8124999999999988
 40
0.8437499999999991
 40
0.8437499999999991
 40
0.8749999999999993
 40
0.8749999999999993
 40
0.9374999999999997
 40
0.9374999999999997
 40
1.0
 40
1.0
 40
1.0
 40
1.0
 10
56.60885681430867
 20
2.911030433140099
 30
0.0
 10
57.18470111309013
 20
2.487967717382769
 30
0.0
 10
57.75397600283237
 20
2.058288959970883
 30
0.0
 10
58.60992202326097
 20
1.419949078211501
 30
0.0
 10
58.89548571387505
 20
1.208078148102363
 30
0.0
 10
59.46917340671769
 20
0.7889889841849139
 30
0.0
 10
59.75857376046307
 20
0.5807022558584117
 30
0.0
 10
60.62446476683125
 20
-0.0236043794108822
 30
0.0
 10
61.1960402306087
 20
-0.3960700506445219
 30
0.0
 10
62.06220509239879
 20
-0.8782253048104578
 30
0.0
 10
62.35443071743272
 20
-1.026810931482247
 30
0.0
 10
62.93435483709531
 20
-1.282887379502966
 30
0.0
 10
63.22213250246156
 20
-1.391044277157709
 30
0.0
 10
63.79809417935692
 20
-1.552486793511216
 30
0.0
 10
64.08837733371509
 20
-1.605909455314283
 30
0.0
 10
64.51109301251095
 20
-1.626817048903947
 30
0.0
 10
64.65041339494093
 20
-1.624084578474658
 30
0.0
 10
64.92614043992762
 20
-1.595652581078369
 30
0.0
 10
65.06352408724308
 20
-1.569589497429965
 30
0.0
 10
65.32818501238532
 20
-1.49140710090086
 30
0.0
 10
65.45597055008554
 20
-1.439440039252699
 30
0.0
 10
65.70189250060116
 20
-1.305871601217756
 30
0.0
 10
65.82106810654497
 20
-1.223088070906445
 30
0.0
 10
66.03917372031496
 20
-1.030652185203844
 30
0.0
 10
66.13910735063018
 20
-0.9208259795275263
 30
0.0
 10
66.32011470075065
 20
-0.6725903827071831
 30
0.0
 10
66.40171306584716
 20
-0.5323943874616125
 30
0.0
 10
66.53832245212087
 20
-0.2356368152062577
 30
0.0
 10
66.59436232310817
 20
-0.0782009441652213
 30
0.0
 10
66.683439481411
 20
0.2532184456379794
 30
0.0
 10
66.71587157376302
 20
0.4257972792453122
 30
0.0
 10
66.75810076355593
 20
0.7733465053881173
 30
0.0
 10
66.768278207839
 20
0.9497569891374614
 30
0.0
 10
66.76938765571178
 20
1.306862406627274
 30
0.0
 10
66.76015093102826
 20
1.48802486936665
 30
0.0
 10
66.70787545016056
 20
2.024054870470729
 30
0.0
 10
66.64083025800845
 20
2.376068262624619
 30
0.0
 10
66.45791692650087
 20
3.07142948622762
 30
0.0
 10
66.34133023101835
 20
3.415520845003181
 30
0.0
 10
66.20671894472228
 20
3.750225728611679
 30
0.0
  0
SPLINE
  5
B7
330
1F
100
AcDbEntity
  8
0
  6
Continuous
 62
     1
370
    15
100
AcDbSpline
210
0.0
220
0.0
230
1.0
 70
     8
 71
     3
 72
    24
 73
    20
 74
     0
 42
0.000000001
 43
0.00000001
 40
0.0
 40
0.0
 40
0.0
 40
0.0
 40
0.125
 40
0.125
 40
0.25
 40
0.25
 40
0.375
 40
0.375
 40
0.5
 40
0.5
 40
0.625
 40
0.625
 40
0.75
 40
0.75
 40
0.875
 40
0.875
 40
0.9375
 40
0.9375
 40
1.0
 40
1.0
 40
1.0
 40
1.0
 10
56.60885681430862
 20
2.911030433140138
 30
0.0
 10
55.94898727737749
 20
3.395825018986298
 30
0.0
 10
55.28455807858516
 20
3.874993556164158
 30
0.0
 10
53.96034909754836
 20
4.812088748942632
 30
0.0
 10
53.30260691860862
 20
5.269584517090698
 30
0.0
 10
51.97756771221241
 20
6.160329260523627
 30
0.0
 10
51.31345517709786
 20
6.592788022989777
 30
0.0
 10
49.99579128163842
 20
7.423081146878217
 30
0.0
 10
49.33215911290776
 20
7.823033148440534
 30
0.0
 10
48.00692242415425
 20
8.584484112281466
 30
0.0
 10
47.34906223754847
 20
8.945354047083482
 30
0.0
 10
46.02517791479541
 20
9.62563632634185
 30
0.0
 10
45.3606812458854
 20
9.944671145865877
 30
0.0
 10
44.04035225874879
 20
10.53403480842465
 30
0.0
 10
43.37965274826445
 20
10.80515367657517
 30
0.0
 10
42.38535366908177
 20
11.17385695224182
 30
0.0
 10
42.05402428964562
 20
11.29034679515262
 30
0.0
 10
41.39329200066566
 20
11.50994054012472
 30
0.0
 10
41.06440655388804
 20
11.61300492267197
 30
0.0
 10
40.73385681430869
 20
11.70948182611244
 30
0.0
  0
SPLINE
  5
B8
330
1F
100
AcDbEntity
  8
0
  6
Continuous
 62
     1
370
    15
100
AcDbSpline
210
0.0
220
0.0
230
1.0
 70
     8
 71
     3
 72
    13
 73
     9
 74
     0
 42
0.000000001
 43
0.00000001
 40
0.0
 40
0.0
 40
0.0
 40
0.0
 40
0.1897958269101569
 40
0.3796116668254845
 40
0.5695089286549315
 40
0.7659855828853316
 40
0.962390501921004
 40
1.0
 40
1.0
 40
1.0
 40
1.0
 10
61.13965203801208
 20
6.488320703794237
 30
0.0
 10
60.29065723562457
 20
6.770857050786032
 30
0.0
 10
58.59257810866333
 20
7.335959536791216
 30
0.0
 10
56.04503164622525
 20
7.975500084791149
 30
0.0
 10
53.46740654976576
 20
8.453850589666242
 30
0.0
 10
50.85999366401626
 20
8.71540948934758
 30
0.0
 10
48.93411759199509
 20
8.80542318025123
 30
0.0
 10
47.88727457561451
 20
8.741013070841062
 30
0.0
 10
47.71903177716214
 20
8.730661435604237
 30
0.0
  0
SPLINE
  5
B9
330
1F
100
AcDbEntity
  8
0
  6
Continuous
 62
     1
370
    15
100
AcDbSpline
210
0.0
220
0.0
230
1.0
 70
     8
 71
     3
 72
    10
 73
     6
 74
     0
 42
0.000000001
 43
0.00000001
 40
0.0
 40
0.0
 40
0.0
 40
0.0
 40
0.5
 40
0.5
 40
1.0
 40
1.0
 40
1.0
 40
1.0
 10
58.96788436329672
 20
5.848454059930805
 30
0.0
 10
59.32021472055921
 20
6.002635824941897
 30
0.0
 10
59.68352208691155
 20
6.125447575502818
 30
0.0
 10
60.41423310304885
 20
6.33338503634991
 30
0.0
 10
60.77759571335553
 20
6.4173942939216
 30
0.0
 10
61.13965203777342
 20
6.488320703877539
 30
0.0
  0
SPLINE
  5
BA
330
1F
100
AcDbEntity
  8
0
  6
Continuous
 62
     1
370
    15
100
AcDbSpline
210
0.0
220
0.0
230
1.0
 70
     8
 71
     3
 72
    10
 73
     6
 74
     0
 42
0.000000001
 43
0.00000001
 40
0.0
 40
0.0
 40
0.0
 40
0.0
 40
0.5
 40
0.5
 40
1.0
 40
1.0
 40
1.0
 40
1.0
 10
58.96788436329675
 20
5.848454059930805
 30
0.0
 10
60.16494281969139
 20
5.522161472606824
 30
0.0
 10
61.36791158442568
 20
5.181172825612831
 30
0.0
 10
63.78208614571995
 20
4.478714043307042
 30
0.0
 10
64.99361768674572
 20
4.116575611653527
 30
0.0
 10
66.20671894472619
 20
3.750225728627083
 30
0.0
  0
SPLINE
  5
BB
330
1F
100
AcDbEntity
  8
0
  6
Continuous
 62
     1
370
    15
100
AcDbSpline
210
0.0
220
0.0
230
1.0
 70
     8
 71
     3
 72
    14
 73
    10
 74
     0
 42
0.000000001
 43
0.00000001
 40
0.0
 40
0.0
 40
0.0
 40
0.0
 40
0.2194958482959196
 40
0.3322654579481723
 40
0.4450252755620217
 40
0.6150449434712175
 40
0.7890579689228964
 40
0.8976287357667053
 40
1.0
 40
1.0
 40
1.0
 40
1.0
 10
56.60885681430867
 20
-12.16121119408587
 30
0.0
 10
57.13772249207335
 20
-12.01915408557338
 30
0.0
 10
57.93830162821554
 20
-11.80411279626816
 30
0.0
 10
59.01282936578587
 20
-11.32688871685644
 30
0.0
 10
59.96793622769404
 20
-10.83398417284701
 30
0.0
 10
61.07324892356234
 20
-10.15946452535064
 30
0.0
 10
62.17334658947104
 20
-9.39606063585574
 30
0.0
 10
63.1083019960808
 20
-8.706407107583106
 30
0.0
 10
63.61670518722878
 20
-8.330854276582508
 30
0.0
 10
63.86343589875318
 20
-8.148596535440957
 30
0.0
  0
ARC
  5
BC
330
1F
100
AcDbEntity
  8
0
  6
Continuous
 62
     1
370
    15
100
AcDbCircle
 10
56.44731793821274
 20
0.0827095497981141
 30
0.0
 40
12.867875292874
100
AcDbArc
 50
319.3261103174586
 51
352.5506397972748
  0
ARC
  5
BD
330
1F
100
AcDbEntity
  8
0
  6
Continuous
 62
     1
370
    15
100
AcDbCircle
 10
61.0774063289843
 20
0.5648456234875848
 30
0.0
 40
8.389981919252225
100
AcDbArc
 50
303.0000576668599
 51
346.3152998153124
  0
ARC
  5
BE
330
1F
100
AcDbEntity
  8
0
  6
Continuous
 62
     1
370
    15
100
AcDbCircle
 10
62.39269905528077
 20
-2.800640463135347
 30
0.0
 40
7.580276748210515
100
AcDbArc
 50
25.37441790339867
 51
59.79134606481161
  0
ARC
  5
BF
330
1F
100
AcDbEntity
  8
0
  6
Continuous
 62
     1
370
    15
100
AcDbCircle
 10
57.47602192428027
 20
0.0811894079640313
 30
0.0
 40
11.77136840933011
100
AcDbArc
 50
1.784474399709756
 51
46.04177803262179
  0
SPLINE
  5
C0
330
1F
100
AcDbEntity
  8
0
  6
Continuous
 62
     1
370
    15
100
AcDbSpline
210
0.0
220
0.0
230
1.0
 70
     8
 71
     3
 72
    20
 73
    16
 74
     0
 42
0.000000001
 43
0.00000001
 40
0.0
 40
0.0
 40
0.0
 40
0.0
 40
0.1250000000000002
 40
0.1250000000000002
 40
0.2500000000000003
 40
0.2500000000000003
 40
0.3750000000000005
 40
0.3750000000000005
 40
0.5000000000000007
 40
0.5000000000000007
 40
0.6250000000000009
 40
0.6250000000000009
 40
0.750000000000001
 40
0.750000000000001
 40
1.0
 40
1.0
 40
1.0
 40
1.0
 10
65.64692506727981
 20
8.554763391584821
 30
0.0
 10
65.3923837265987
 20
8.911186359373373
 30
0.0
 10
65.10584596252733
 20
9.25157113277389
 30
0.0
 10
64.4872658495568
 20
9.883008140762984
 30
0.0
 10
64.15792381167397
 20
10.17174069677449
 30
0.0
 10
63.46693474282909
 20
10.6925743916772
 30
0.0
 10
63.10544522966657
 20
10.92459289889653
 30
0.0
 10
62.35215190531953
 20
11.32906799521869
 30
0.0
 10
61.96346121594379
 20
11.49942939710071
 30
0.0
 10
61.17725457455779
 20
11.77168888571111
 30
0.0
 10
60.77777889155981
 20
11.87467058518149
 30
0.0
 10
59.96604124595413
 20
12.01438545174461
 30
0.0
 10
59.55186170319688
 20
12.05109863823748
 30
0.0
 10
58.29640862108121
 20
12.06038429650335
 30
0.0
 10
57.46030654432563
 20
11.93358470106542
 30
0.0
 10
56.60885681430868
 20
11.68140867085346
 30
0.0
  0
LINE
  5
C1
330
1F
100
AcDbEntity
  8
0
  6
Continuous
 62
     4
370
    15
100
AcDbLine
 10
40.7338568143086
 20
9.299380665688611
 30
0.0
 11
40.73385681430867
 21
11.70948182612216
 31
0.0
  0
SPLINE
  5
C2
330
1F
100
AcDbEntity
  8
0
  6
Continuous
 62
     1
370
    15
100
AcDbSpline
210
0.0
220
0.0
230
1.0
 70
     8
 71
     3
 72
    24
 73
    20
 74
     0
 42
0.000000001
 43
0.00000001
 40
0.0
 40
0.0
 40
0.0
 40
0.0
 40
0.125
 40
0.125
 40
0.25
 40
0.25
 40
0.375
 40
0.375
 40
0.5
 40
0.5
 40
0.625
 40
0.625
 40
0.75
 40
0.75
 40
0.875
 40
0.875
 40
0.9375
 40
0.9375
 40
1.0
 40
1.0
 40
1.0
 40
1.0
 10
56.60885681430862
 20
-12.16121119408588
 30
0.0
 10
55.94898727737748
 20
-12.3047415990329
 30
0.0
 10
55.28455807858516
 20
-12.42044876148021
 30
0.0
 10
53.96034909754835
 20
-12.5936257844867
 30
0.0
 10
53.3026069186086
 20
-12.65116139900056
 30
0.0
 10
51.9775677122124
 20
-12.70782265526392
 30
0.0
 10
51.31345517709785
 20
-12.7067451591794
 30
0.0
 10
49.99579128163842
 20
-12.64612220186084
 30
0.0
 10
49.33215911290775
 20
-12.58643295974811
 30
0.0
 10
48.00692242415426
 20
-12.40914013493841
 30
0.0
 10
47.34906223754847
 20
-12.29184666240364
 30
0.0
 10
46.02517791479539
 20
-12.00060482505861
 30
0.0
 10
45.36068124588539
 20
-11.82662154867786
 30
0.0
 10
44.04035225874877
 20
-11.42568466085397
 30
0.0
 10
43.37965274826445
 20
-11.19831639730083
 30
0.0
 10
42.38535366908175
 20
-10.81883465239231
 30
0.0
 10
42.05402428964562
 20
-10.68601692139885
 30
0.0
 10
41.39329200066566
 20
-10.40846391138911
 30
0.0
 10
41.06440655388802
 20
-10.26381737403943
 30
0.0
 10
40.73385681430868
 20
-10.11308877613141
 30
0.0
  0
SPLINE
  5
C3
330
1F
100
AcDbEntity
  8
0
  6
Continuous
 62
     1
370
    15
100
AcDbSpline
210
0.0
220
0.0
230
1.0
 70
     8
 71
     3
 72
    12
 73
     8
 74
     0
 42
0.000000001
 43
0.00000001
 40
0.0
 40
0.0
 40
0.0
 40
0.0
 40
0.0511713363353345
 40
0.3469169045494521
 40
0.6430747864459088
 40
0.9393186978562021
 40
1.0
 40
1.0
 40
1.0
 40
1.0
 10
60.38128410255599
 20
-7.808067427201546
 30
0.0
 10
60.47990415864836
 20
-7.821241398776674
 30
0.0
 10
61.14850042828358
 20
-7.91055455271731
 30
0.0
 10
62.39587838908158
 20
-8.030006363352431
 30
0.0
 10
64.12084023727749
 20
-8.17612561853073
 30
0.0
 10
65.39288923375578
 20
-8.256652085186285
 30
0.0
 10
66.08846349437128
 20
-8.29708990889581
 30
0.0
 10
66.20671894472618
 20
-8.303964793900768
 30
0.0
  0
SPLINE
  5
C4
330
1F
100
AcDbEntity
  8
0
  6
Continuous
 62
     4
370
    15
100
AcDbSpline
210
0.0
220
0.0
230
1.0
 70
    24
 71
     3
 72
    18
 73
    14
 74
     0
 42
0.000000001
 43
0.00000001
 40
0.0
 40
0.0
 40
0.0
 40
0.0
 40
0.2500000000000001
 40
0.2500000000000001
 40
0.5000000000000002
 40
0.5000000000000002
 40
0.6250000000000002
 40
0.6250000000000002
 40
0.7500000000000001
 40
0.7500000000000001
 40
0.875
 40
0.875
 40
1.0
 40
1.0
 40
1.0
 40
1.0
 10
40.73385681430868
 20
-0.4360479933384805
 30
0.0
 10
40.73385681430868
 20
-0.910022085004345
 30
0.0
 10
40.73385681430869
 20
-1.494361997873501
 30
0.0
 10
40.73385681430869
 20
-2.896420187974654
 30
0.0
 10
40.73385681430868
 20
-3.715828858313684
 30
0.0
 10
40.73385681430867
 20
-5.059709772323788
 30
0.0
 10
40.73385681430868
 20
-5.525827254656161
 30
0.0
 10
40.73385681430867
 20
-6.473161806461426
 30
0.0
 10
40.73385681430869
 20
-6.954262457157348
 30
0.0
 10
40.73385681430868
 20
-7.90551831028916
 30
0.0
 10
40.73385681430867
 20
-8.375513830030643
 30
0.0
 10
40.73385681430867
 20
-9.278061327247823
 30
0.0
 10
40.73385681430868
 20
-9.710466371695377
 30
0.0
 10
40.73385681430868
 20
-10.11308877613848
 30
0.0
  0
SPLINE
  5
C5
330
1F
100
AcDbEntity
  8
0
  6
Continuous
 62
     1
370
    15
100
AcDbSpline
210
0.0
220
0.0
230
1.0
 70
     8
 71
     3
 72
    10
 73
     6
 74
     0
 42
0.000000001
 43
0.00000001
 40
0.0
 40
0.0
 40
0.0
 40
0.0
 40
0.4424910175870795
 40
0.8849059062449137
 40
1.0
 40
1.0
 40
1.0
 40
1.0
 10
40.73385681430847
 20
-12.14026036629052
 30
0.0
 10
41.47441852856208
 20
-12.28057276413007
 30
0.0
 10
42.9554145461884
 20
-12.56117341958443
 30
0.0
 10
44.62850277287168
 20
-12.7152241096545
 30
0.0
 10
45.56181793762558
 20
-12.6850011979356
 30
0.0
 10
45.7544947669931
 20
-12.67876187490286
 30
0.0
  0
LINE
  5
C6
330
1F
100
AcDbEntity
  8
0
  6
Continuous
 62
     4
370
    15
100
AcDbLine
 10
40.7338568143086
 20
-12.14026036629055
 30
0.0
 11
40.73385681430867
 21
-10.11308877614048
 31
0.0
  0
SPLINE
  5
C7
330
1F
100
AcDbEntity
  8
0
  6
Continuous
 62
     1
370
    15
100
AcDbSpline
210
0.0
220
0.0
230
1.0
 70
     8
 71
     3
 72
    10
 73
     6
 74
     0
 42
0.000000001
 43
0.00000001
 40
0.0
 40
0.0
 40
0.0
 40
0.0
 40
0.3264216699263003
 40
0.6630558855137
 40
0.9999999999999999
 40
0.9999999999999999
 40
0.9999999999999999
 40
0.9999999999999999
 10
49.69393867100842
 20
8.721475494875747
 30
0.0
 10
50.44621745533208
 20
9.118769549514495
 30
0.0
 10
51.97431108834826
 20
9.925787543348369
 30
0.0
 10
54.27894937486258
 20
10.92653629503445
 30
0.0
 10
55.83198282873263
 20
11.42970737951668
 30
0.0
 10
56.60885681430841
 20
11.68140867085338
 30
0.0
  0
SPLINE
  5
C8
330
1F
100
AcDbEntity
  8
0
  6
Continuous
 62
     1
370
    15
100
AcDbSpline
210
0.0
220
0.0
230
1.0
 70
     8
 71
     3
 72
    14
 73
    10
 74
     0
 42
0.000000001
 43
0.00000001
 40
0.0
 40
0.0
 40
0.0
 40
0.0
 40
0.1567228167765857
 40
0.2602680929204814
 40
0.366446096192175
 40
0.5063370235389003
 40
0.6502375641477628
 40
0.8300744758302928
 40
0.9999999999999999
 40
0.9999999999999999
 40
0.9999999999999999
 40
0.9999999999999999
 10
65.64692506727981
 20
8.554763391584823
 30
0.0
 10
65.43906477676238
 20
8.283166722309678
 30
0.0
 10
65.09387316701745
 20
7.832128713871091
 30
0.0
 10
64.46191344491675
 20
7.361614722247012
 30
0.0
 10
63.80865050090632
 20
7.01082420827267
 30
0.0
 10
63.02570165966939
 20
6.753550973364698
 30
0.0
 10
62.06376061331714
 20
6.614789639970943
 30
0.0
 10
61.02588587573209
 20
6.62772093676967
 30
0.0
 10
60.30968265090311
 20
6.786926106811602
 30
0.0
 10
59.96172873728583
 20
6.864272954834274
 30
0.0
  0
LINE
  5
C9
330
1F
100
AcDbEntity
  8
중심선
100
AcDbLine
 10
-60.69114318569132
 20
-0.0000000000000104
 30
0.0
 11
72.24168163349893
 21
-0.0000000000000104
 31
0.0
  0
CIRCLE
  5
CA
330
1F
100
AcDbEntity
  8
외형선
100
AcDbCircle
 10
0.0
 20
0.0
 30
0.0
 40
3.000000000000004
  0
INSERT
  5
CB
330
1F
100
AcDbEntity
  8
0
  6
Continuous
 62
     7
100
AcDbBlockReference
 66
     1
  2
블럭10
 10
1.21807051462724
 20
-51.95764267978461
 30
0.0
  0
ATTRIB
  5
CC
330
CB
100
AcDbEntity
  8
FORMAT
 62
     2
100
AcDbText
 10
-7.96322477411404
 20
-49.88227576695243
 30
0.0
 40
4.233333333333333
  1
E5978064 [ 3 FLUTE ]
 41
0.75
  7
SLDTEXTSTYLE0
 11
-7.96322477411404
 21
-51.99894243361909
 31
0.0
100
AcDbAttribute
  2
AUTOATTR0
 70
     0
 74
     1
  0
SEQEND
  5
CD
330
CB
100
AcDbEntity
  8
0
  6
Continuous
 62
     7
  0
HATCH
  5
CE
330
1F
100
AcDbEntity
  8
중심선
100
AcDbHatch
 10
0.0
 20
0.0
 30
0.0
210
0.0
220
0.0
230
1.0
  2
SOLID
 70
     1
 71
     0
 91
        1
 92
        0
 93
        4
 72
     1
 10
6.932979819008089
 20
-35.71046837814068
 11
3.486704575170807
 21
-35.71046837814068
 72
     1
 10
3.486704575170807
 20
-35.71046837814068
 11
1.358474715966784
 21
-38.24679395871328
 72
     1
 10
1.358474715966784
 20
-38.24679395871328
 11
4.804783044917215
 21
-38.24675452941079
 72
     1
 10
4.804783044917215
 20
-38.24675452941079
 11
6.932979819008089
 21
-35.71046837814068
 97
        0
 75
     0
 76
     1
 98
        1
 10
0.0
 20
0.0
  0
HATCH
  5
CF
330
1F
100
AcDbEntity
  8
중심선
100
AcDbHatch
 10
0.0
 20
0.0
 30
0.0
210
0.0
220
0.0
230
1.0
  2
SOLID
 70
     1
 71
     0
 91
        1
 92
        0
 93
        4
 72
     1
 10
11.94574381004404
 20
-35.71046837814068
 11
8.499468566206758
 21
-35.71046837814068
 72
     1
 10
8.499468566206758
 20
-35.71046837814068
 11
3.96833055784937
 21
-41.11046837814069
 72
     1
 10
3.96833055784937
 20
-41.11046837814069
 11
7.414605801686652
 21
-41.11046837814069
 72
     1
 10
7.414605801686652
 20
-41.11046837814069
 11
11.94574381004404
 21
-35.71046837814068
 97
        0
 75
     0
 76
     1
 98
        1
 10
0.0
 20
0.0
  0
HATCH
  5
D0
330
1F
100
AcDbEntity
  8
중심선
100
AcDbHatch
 10
0.0
 20
0.0
 30
0.0
210
0.0
220
0.0
230
1.0
  2
SOLID
 70
     1
 71
     0
 91
        1
 92
        0
 93
        4
 72
     1
 10
16.95850780107994
 20
-35.71046837814071
 11
13.51223255724282
 21
-35.71046837814068
 72
     1
 10
13.51223255724282
 20
-35.71046837814068
 11
6.463795655353572
 21
-44.1104683781407
 72
     1
 10
6.463795655353572
 20
-44.1104683781407
 11
9.910070899190854
 21
-44.1104683781407
 72
     1
 10
9.910070899190854
 20
-44.1104683781407
 11
16.95850780107994
 21
-35.71046837814071
 97
        0
 75
     0
 76
     1
 98
        1
 10
0.0
 20
0.0
  0
HATCH
  5
D1
330
1F
100
AcDbEntity
  8
중심선
100
AcDbHatch
 10
0.0
 20
0.0
 30
0.0
210
0.0
220
0.0
230
1.0
  2
SOLID
 70
     1
 71
     0
 91
        1
 92
        0
 93
        6
 72
     3
 10
21.75839823209213
 20
-39.91046837819196
 11
3.960054785062284
 21
1.540850780301639E-10
 40
0.3939339440162633
 50
17.09539180608432
 51
320.0019657685081
 73
     0
 72
     1
 10
23.44139788779273
 20
-38.49836238277899
 11
25.74669976149377
 21
-36.56403567273106
 72
     3
 10
21.75839823203929
 20
-39.91046837814083
 11
6.600054785286829
 21
-1.249000902703301E-13
 40
0.6363583540795982
 50
39.99873849337411
 51
368.4976242363725
 73
     1
 72
     1
 10
28.1837307239399
 20
-38.9504683780707
 11
20.43846553887521
 21
-38.95046837807067
 72
     1
 10
20.43846553887521
 20
-38.95046837807067
 11
20.43844049442928
 21
-40.8704683780706
 72
     1
 10
20.43844049442928
 20
-40.8704683780706
 11
24.87982026390132
 21
-40.87046837807057
 97
        0
 75
     0
 76
     1
 98
        1
 10
0.0
 20
0.0
  0
POINT
  5
D2
330
1F
100
AcDbEntity
  8
치수문자_일반주서
100
AcDbPoint
 10
-57.69114318569134
 20
-0.0000000000000104
 30
0.0
  0
DIMENSION
  5
D3
330
1F
100
AcDbEntity
  8
치수문자_일반주서
100
AcDbDimension
  2
_D
 10
-69.18760120730336
 20
-12.70000000000004
 30
0.0
 11
-69.1876012073034
 21
-0.0000000000000026
 31
0.0
 70
   160
  1
%%c<>
 71
     2
 42
25.4
  3
SLDDIMSTYLE0
100
AcDbAlignedDimension
 13
-56.69114318569132
 23
12.7
 33
0.0
 14
-56.69114318569132
 24
-12.7
 34
0.0
 50
90.0000000000002
100
AcDbRotatedDimension
1001
PE_URL
1000

1001
ACAD
1000
DSTYLE
1002
{
1070
   171
1070
     6
1070
   273
1070
     7
1002
}
  0
DIMENSION
  5
E8
330
1F
100
AcDbEntity
  8
치수문자_일반주서
100
AcDbDimension
  2
_D_1
 10
69.30885681430868
 20
52.70000000000005
 30
0.0
 11
10.64780251919832
 21
52.70000000000005
 31
0.0
 70
   160
  1
<>
 71
     2
 42
127.0
  3
SLDDIMSTYLE0
100
AcDbAlignedDimension
 13
-57.69114318569132
 23
11.7
 33
0.0
 14
69.30885681430868
 24
0.0000000000000078
 34
0.0
 50
-0.0000000000000064
100
AcDbRotatedDimension
1001
PE_URL
1000

1001
ACAD
1000
DSTYLE
1002
{
1070
   171
1070
     6
1070
   273
1070
     7
1002
}
  0
DIMENSION
  5
FC
330
1F
100
AcDbEntity
  8
치수문자_일반주서
100
AcDbDimension
  2
_D_2
 10
69.30885681430868
 20
38.78173151374924
 30
0.0
 11
40.73385681430868
 21
38.78173151374924
 31
0.0
 70
   160
  1
<>
 71
     2
 42
57.15000000000001
  3
SLDDIMSTYLE0
100
AcDbAlignedDimension
 13
12.15885681430867
 23
12.19200000000001
 33
0.0
 14
69.30885681430868
 24
0.0000000000000078
 34
0.0
100
AcDbRotatedDimension
1001
PE_URL
1000

1001
ACAD
1000
DSTYLE
1002
{
1070
   171
1070
     6
1070
   273
1070
     7
1002
}
  0
DIMENSION
  5
10F
330
1F
100
AcDbEntity
  8
치수문자_일반주서
100
AcDbDimension
  2
_D_3
 10
69.30885681430868
 20
27.86574751690088
 30
0.0
 11
55.07347106404642
 21
27.86574751690088
 31
0.0
 70
   160
  1
<>
 71
     2
 42
28.57500000000005
  3
SLDDIMSTYLE0
100
AcDbAlignedDimension
 13
40.73385681430867
 23
11.70948182612216
 33
0.0
 14
69.30885681430868
 24
0.0000000000000078
 34
0.0
 50
-0.0000000000002142
100
AcDbRotatedDimension
1001
PE_URL
1000

1001
ACAD
1000
DSTYLE
1002
{
1070
   171
1070
     6
1070
   273
1070
     7
1002
}
  0
INSERT
  5
12B
330
1F
100
AcDbEntity
  8
외형선
100
AcDbBlockReference
  2
SW_DOWELSYMBOL_0
 10
0.0
 20
0.0
 30
0.0
  0
DIMENSION
  5
153
330
1F
100
AcDbEntity
  8
치수문자_일반주서
100
AcDbDimension
  2
*D7
 10
90.12248191637192
 20
12.70000000000001
 30
0.0
 11
87.49748191637192
 21
0.0000000000000089
 31
0.0
 70
    32
  1
{%%C<>[]}
 71
     5
 42
25.4
  3
SLDDIMSTYLE0
100
AcDbAlignedDimension
 13
69.30885681430868
 23
-12.69999999999999
 33
0.0
 14
69.30885681430868
 24
12.70000000000001
 34
0.0
 50
90.0
100
AcDbRotatedDimension
1001
ACAD
1000
DSTYLE
1002
{
1070
   171
1070
     6
1070
   273
1070
     7
1002
}
1001
PE_URL
1000

  0
ENDSEC
  0
SECTION
  2
OBJECTS
  0
DICTIONARY
  5
C
330
0
100
AcDbDictionary
281
     1
  3
ACAD_GROUP
350
D
  3
ACAD_IMAGE_VARS
350
14F
  3
ACAD_LAYOUT
350
1A
  3
ACAD_MLINESTYLE
350
17
  3
ACAD_PLOTSETTINGS
350
19
  3
ACAD_PLOTSTYLENAME
350
E
  3
ACAD_SCALELIST
350
47
  3
APPDATA
350
14D
  3
DWGPROPS
350
29D
  0
DICTIONARY
  5
29B
330
1F
100
AcDbDictionary
280
     1
281
     1
  3
DIM_BOUNDING_BOXES_V1
360
29C
  0
DICTIONARY
  5
D
102
{ACAD_REACTORS
330
C
102
}
330
C
100
AcDbDictionary
281
     1
  0
RASTERVARIABLES
  5
14F
102
{ACAD_REACTORS
330
C
102
}
330
C
100
AcDbRasterVariables
 90
        0
 70
     1
 71
     1
 72
     1
  0
DICTIONARY
  5
1A
102
{ACAD_REACTORS
330
C
102
}
330
C
100
AcDbDictionary
281
     1
  3
Layout1
350
1E
  3
Layout2
350
26
  3
Model
350
22
  0
DICTIONARY
  5
17
102
{ACAD_REACTORS
330
C
102
}
330
C
100
AcDbDictionary
281
     1
  3
Standard
350
18
  0
DICTIONARY
  5
19
102
{ACAD_REACTORS
330
C
102
}
330
C
100
AcDbDictionary
281
     1
  0
ACDBDICTIONARYWDFLT
  5
E
102
{ACAD_REACTORS
330
C
102
}
330
C
100
AcDbDictionary
281
     1
  3
Normal
350
F
100
AcDbDictionaryWithDefault
340
F
  0
DICTIONARY
  5
47
102
{ACAD_REACTORS
330
C
102
}
330
C
100
AcDbDictionary
281
     1
  3
A0
350
48
  3
A1
350
49
  3
A2
350
4A
  3
A3
350
4B
  3
A4
350
4C
  3
A5
350
4D
  3
A6
350
4E
  3
A7
350
4F
  3
A8
350
50
  3
A9
350
51
  3
B0
350
52
  3
B1
350
53
  3
B2
350
54
  3
B3
350
55
  3
B4
350
56
  3
B5
350
57
  3
B6
350
58
  3
B7
350
59
  3
B8
350
5A
  3
B9
350
5B
  3
C0
350
5C
  3
C1
350
5D
  3
C2
350
5E
  3
C3
350
5F
  3
C4
350
60
  3
C5
350
61
  3
C6
350
62
  3
C7
350
63
  3
C8
350
64
  3
C9
350
65
  3
D0
350
66
  3
D1
350
67
  3
D2
350
68
  0
DICTIONARY
  5
14D
102
{ACAD_REACTORS
330
C
102
}
330
C
100
AcDbDictionary
281
     1
  0
XRECORD
  5
29D
102
{ACAD_REACTORS
330
C
102
}
330
C
100
AcDbXrecord
280
     1
  1
DWGPROPS COOKIE
  2

  3

  4

  6

  7

  8
12014102
  9

300
=
301
=
302
=
303
=
304
=
305
=
306
=
307
=
308
=
309
=
 40
0.0
 41
2458269.361565255
 42
2459723.984400799
  1

 90
        0
  0
DICTIONARY
  5
29C
102
{ACAD_REACTORS
330
29B
102
}
330
29B
100
AcDbDictionary
281
     1
  0
LAYOUT
  5
1E
102
{ACAD_REACTORS
330
1A
102
}
330
1A
100
AcDbPlotSettings
  1

  2
none_device
  4

  6

 40
0.0
 41
0.0
 42
0.0
 43
0.0
 44
0.0
 45
0.0
 46
0.0
 47
0.0
 48
0.0
 49
0.0
140
0.0
141
0.0
142
1.0
143
1.0
 70
   688
 72
     1
 73
     0
 74
     5
  7

 75
    16
147
1.0
148
0.0
149
0.0
100
AcDbLayout
  1
Layout1
 70
     1
 71
     1
 10
0.0
 20
0.0
 11
420.0
 21
297.0
 12
0.0
 22
0.0
 32
0.0
 14
1.000000000000000E+20
 24
1.000000000000000E+20
 34
1.000000000000000E+20
 15
-1.000000000000000E+20
 25
-1.000000000000000E+20
 35
-1.000000000000000E+20
146
0.0
 13
0.0
 23
0.0
 33
0.0
 16
1.0
 26
0.0
 36
0.0
 17
0.0
 27
1.0
 37
0.0
 76
     0
330
1B
  0
LAYOUT
  5
26
102
{ACAD_REACTORS
330
1A
102
}
330
1A
100
AcDbPlotSettings
  1

  2
none_device
  4

  6

 40
0.0
 41
0.0
 42
0.0
 43
0.0
 44
0.0
 45
0.0
 46
0.0
 47
0.0
 48
0.0
 49
0.0
140
0.0
141
0.0
142
1.0
143
1.0
 70
   688
 72
     1
 73
     0
 74
     5
  7

 75
    16
147
1.0
148
0.0
149
0.0
100
AcDbLayout
  1
Layout2
 70
     1
 71
     2
 10
0.0
 20
0.0
 11
0.0
 21
0.0
 12
0.0
 22
0.0
 32
0.0
 14
0.0
 24
0.0
 34
0.0
 15
0.0
 25
0.0
 35
0.0
146
0.0
 13
0.0
 23
0.0
 33
0.0
 16
1.0
 26
0.0
 36
0.0
 17
0.0
 27
1.0
 37
0.0
 76
     0
330
23
  0
LAYOUT
  5
22
102
{ACAD_REACTORS
330
1A
102
}
330
1A
100
AcDbPlotSettings
  1

  2
none_device
  4
ANSI_A_(11.00_x_8.50_Inches)
  6

 40
6.35
 41
19.05
 42
6.35000508
 43
19.05000254
 44
279.4
 45
215.9
 46
137.2516233486592
 47
77.46160969555528
 48
0.0
 49
0.0
140
0.0
141
0.0
142
0.0699996688419209
143
1.0
 70
  1696
 72
     0
 73
     0
 74
     0
  7

 75
     0
147
0.0235690232323232
148
0.0
149
0.0
100
AcDbLayout
  1
Model
 70
     1
 71
     0
 10
0.0
 20
0.0
 11
420.0
 21
297.0
 12
0.0
 22
0.0
 32
0.0
 14
-73.56260120730343
 24
-49.88227576695243
 34
0.0
 15
90.67281524970525
 25
57.07500000000005
 35
0.0
146
0.0
 13
0.0
 23
0.0
 33
0.0
 16
1.0
 26
0.0
 36
0.0
 17
0.0
 27
1.0
 37
0.0
 76
     0
330
1F
331
29
  0
MLINESTYLE
  5
18
102
{ACAD_REACTORS
330
17
102
}
330
17
100
AcDbMlineStyle
  2
Standard
 70
     0
  3

 62
   256
 51
90.0
 52
90.0
 71
     2
 49
0.5
 62
   256
  6
BYLAYER
 49
-0.5
 62
   256
  6
BYLAYER
  0
ACDBPLACEHOLDER
  5
F
102
{ACAD_REACTORS
330
E
102
}
330
E
  0
SCALE
  5
48
102
{ACAD_REACTORS
330
47
102
}
330
47
100
AcDbScale
 70
     0
300
1:1
140
1.0
141
1.0
290
     1
  0
SCALE
  5
49
102
{ACAD_REACTORS
330
47
102
}
330
47
100
AcDbScale
 70
     0
300
1:2
140
1.0
141
2.0
290
     0
  0
SCALE
  5
4A
102
{ACAD_REACTORS
330
47
102
}
330
47
100
AcDbScale
 70
     0
300
1:4
140
1.0
141
4.0
290
     0
  0
SCALE
  5
4B
102
{ACAD_REACTORS
330
47
102
}
330
47
100
AcDbScale
 70
     0
300
1:5
140
1.0
141
5.0
290
     0
  0
SCALE
  5
4C
102
{ACAD_REACTORS
330
47
102
}
330
47
100
AcDbScale
 70
     0
300
1:8
140
1.0
141
8.0
290
     0
  0
SCALE
  5
4D
102
{ACAD_REACTORS
330
47
102
}
330
47
100
AcDbScale
 70
     0
300
1:10
140
1.0
141
10.0
290
     0
  0
SCALE
  5
4E
102
{ACAD_REACTORS
330
47
102
}
330
47
100
AcDbScale
 70
     0
300
1:16
140
1.0
141
16.0
290
     0
  0
SCALE
  5
4F
102
{ACAD_REACTORS
330
47
102
}
330
47
100
AcDbScale
 70
     0
300
1:20
140
1.0
141
20.0
290
     0
  0
SCALE
  5
50
102
{ACAD_REACTORS
330
47
102
}
330
47
100
AcDbScale
 70
     0
300
1:30
140
1.0
141
30.0
290
     0
  0
SCALE
  5
51
102
{ACAD_REACTORS
330
47
102
}
330
47
100
AcDbScale
 70
     0
300
1:40
140
1.0
141
40.0
290
     0
  0
SCALE
  5
52
102
{ACAD_REACTORS
330
47
102
}
330
47
100
AcDbScale
 70
     0
300
1:50
140
1.0
141
50.0
290
     0
  0
SCALE
  5
53
102
{ACAD_REACTORS
330
47
102
}
330
47
100
AcDbScale
 70
     0
300
1:100
140
1.0
141
100.0
290
     0
  0
SCALE
  5
54
102
{ACAD_REACTORS
330
47
102
}
330
47
100
AcDbScale
 70
     0
300
2:1
140
2.0
141
1.0
290
     0
  0
SCALE
  5
55
102
{ACAD_REACTORS
330
47
102
}
330
47
100
AcDbScale
 70
     0
300
4:1
140
4.0
141
1.0
290
     0
  0
SCALE
  5
56
102
{ACAD_REACTORS
330
47
102
}
330
47
100
AcDbScale
 70
     0
300
8:1
140
8.0
141
1.0
290
     0
  0
SCALE
  5
57
102
{ACAD_REACTORS
330
47
102
}
330
47
100
AcDbScale
 70
     0
300
10:1
140
10.0
141
1.0
290
     0
  0
SCALE
  5
58
102
{ACAD_REACTORS
330
47
102
}
330
47
100
AcDbScale
 70
     0
300
100:1
140
100.0
141
1.0
290
     0
  0
SCALE
  5
59
102
{ACAD_REACTORS
330
47
102
}
330
47
100
AcDbScale
 70
     0
300
1/128" = 1'-0"
140
0.0078125
141
12.0
290
     0
  0
SCALE
  5
5A
102
{ACAD_REACTORS
330
47
102
}
330
47
100
AcDbScale
 70
     0
300
1/64" = 1'-0"
140
0.015625
141
12.0
290
     0
  0
SCALE
  5
5B
102
{ACAD_REACTORS
330
47
102
}
330
47
100
AcDbScale
 70
     0
300
1/32" = 1'-0"
140
0.03125
141
12.0
290
     0
  0
SCALE
  5
5C
102
{ACAD_REACTORS
330
47
102
}
330
47
100
AcDbScale
 70
     0
300
1/16" = 1'-0"
140
0.0625
141
12.0
290
     0
  0
SCALE
  5
5D
102
{ACAD_REACTORS
330
47
102
}
330
47
100
AcDbScale
 70
     0
300
3/32" = 1'-0"
140
0.09375
141
12.0
290
     0
  0
SCALE
  5
5E
102
{ACAD_REACTORS
330
47
102
}
330
47
100
AcDbScale
 70
     0
300
1/8" = 1'-0"
140
0.125
141
12.0
290
     0
  0
SCALE
  5
5F
102
{ACAD_REACTORS
330
47
102
}
330
47
100
AcDbScale
 70
     0
300
3/16" = 1'-0"
140
0.1875
141
12.0
290
     0
  0
SCALE
  5
60
102
{ACAD_REACTORS
330
47
102
}
330
47
100
AcDbScale
 70
     0
300
1/4" = 1'-0"
140
0.25
141
12.0
290
     0
  0
SCALE
  5
61
102
{ACAD_REACTORS
330
47
102
}
330
47
100
AcDbScale
 70
     0
300
3/8" = 1'-0"
140
0.375
141
12.0
290
     0
  0
SCALE
  5
62
102
{ACAD_REACTORS
330
47
102
}
330
47
100
AcDbScale
 70
     0
300
1/2" = 1'-0"
140
0.5
141
12.0
290
     0
  0
SCALE
  5
63
102
{ACAD_REACTORS
330
47
102
}
330
47
100
AcDbScale
 70
     0
300
3/4" = 1'-0"
140
0.75
141
12.0
290
     0
  0
SCALE
  5
64
102
{ACAD_REACTORS
330
47
102
}
330
47
100
AcDbScale
 70
     0
300
1" = 1'-0"
140
1.0
141
12.0
290
     0
  0
SCALE
  5
65
102
{ACAD_REACTORS
330
47
102
}
330
47
100
AcDbScale
 70
     0
300
1-1/2" = 1'-0"
140
1.5
141
12.0
290
     0
  0
SCALE
  5
66
102
{ACAD_REACTORS
330
47
102
}
330
47
100
AcDbScale
 70
     0
300
3" = 1'-0"
140
3.0
141
12.0
290
     0
  0
SCALE
  5
67
102
{ACAD_REACTORS
330
47
102
}
330
47
100
AcDbScale
 70
     0
300
6" = 1'-0"
140
6.0
141
12.0
290
     0
  0
SCALE
  5
68
102
{ACAD_REACTORS
330
47
102
}
330
47
100
AcDbScale
 70
     0
300
1'-0" = 1'-0"
140
12.0
141
12.0
290
     0
  0
ENDSEC
  0
EOF
