  0
SECTION
  2
HEADER
  9
$ACADVER
  1
AC1015
  9
$ACADMAINTVER
 70
     6
  9
$DWGCODEPAGE
  3
ANSI_949
  9
$INSBASE
 10
0.0
 20
0.0
 30
0.0
  9
$EXTMIN
 10
-83.21345802161211
 20
-49.88227576695243
 30
0.0
  9
$EXTMAX
 10
103.7843810676628
 20
53.90000000000005
 30
0.0
  9
$LIMMIN
 10
0.0
 20
0.0
  9
$LIMMAX
 10
420.0
 20
297.0
  9
$ORTHOMODE
 70
     1
  9
$REGENMODE
 70
     1
  9
$FILLMODE
 70
     1
  9
$QTEXTMODE
 70
     0
  9
$MIRRTEXT
 70
     1
  9
$LTSCALE
 40
1.0
  9
$ATTMODE
 70
     1
  9
$TEXTSIZE
 40
3.5
  9
$TRACEWID
 40
1.0
  9
$TEXTSTYLE
  7
Standard
  9
$CLAYER
  8
0
  9
$CELTYPE
  6
ByLayer
  9
$CECOLOR
 62
   256
  9
$CELTSCALE
 40
1.0
  9
$DISPSILH
 70
     0
  9
$DIMSCALE
 40
1.0
  9
$DIMASZ
 40
3.302
  9
$DIMEXO
 40
1.0
  9
$DIMDLI
 40
3.75
  9
$DIMRND
 40
0.0
  9
$DIMDLE
 40
0.0
  9
$DIMEXE
 40
1.0
  9
$DIMTP
 40
0.0
  9
$DIMTM
 40
0.0
  9
$DIMTXT
 40
3.5
  9
$DIMCEN
 40
2.5
  9
$DIMTSZ
 40
0.0
  9
$DIMTOL
 70
     0
  9
$DIMLIM
 70
     0
  9
$DIMTIH
 70
     1
  9
$DIMTOH
 70
     1
  9
$DIMSE1
 70
     0
  9
$DIMSE2
 70
     0
  9
$DIMTAD
 70
     1
  9
$DIMZIN
 70
     0
  9
$DIMBLK
  1

  9
$DIMASO
 70
     1
  9
$DIMSHO
 70
     1
  9
$DIMPOST
  1

  9
$DIMAPOST
  1

  9
$DIMALT
 70
     0
  9
$DIMALTD
 70
     3
  9
$DIMALTF
 40
0.0393700787401575
  9
$DIMLFAC
 40
1.0
  9
$DIMTOFL
 70
     1
  9
$DIMTVP
 40
0.0
  9
$DIMTIX
 70
     0
  9
$DIMSOXD
 70
     0
  9
$DIMSAH
 70
     0
  9
$DIMBLK1
  1

  9
$DIMBLK2
  1

  9
$DIMSTYLE
  2
ISO-25
  9
$DIMCLRD
 70
     0
  9
$DIMCLRE
 70
     0
  9
$DIMCLRT
 70
     0
  9
$DIMTFAC
 40
1.0
  9
$DIMGAP
 40
1.524
  9
$DIMJUST
 70
     0
  9
$DIMSD1
 70
     0
  9
$DIMSD2
 70
     0
  9
$DIMTOLJ
 70
     0
  9
$DIMTZIN
 70
     0
  9
$DIMALTZ
 70
     0
  9
$DIMALTTZ
 70
     0
  9
$DIMUPT
 70
     0
  9
$DIMDEC
 70
     2
  9
$DIMTDEC
 70
     2
  9
$DIMALTU
 70
     2
  9
$DIMALTTD
 70
     3
  9
$DIMTXSTY
  7
Standard
  9
$DIMAUNIT
 70
     0
  9
$DIMADEC
 70
     2
  9
$DIMALTRND
 40
0.0
  9
$DIMAZIN
 70
     0
  9
$DIMDSEP
 70
    44
  9
$DIMATFIT
 70
     3
  9
$DIMFRAC
 70
     0
  9
$DIMLDRBLK
  1

  9
$DIMLUNIT
 70
     2
  9
$DIMLWD
 70
    -2
  9
$DIMLWE
 70
    -2
  9
$DIMTMOVE
 70
     0
  9
$LUNITS
 70
     2
  9
$LUPREC
 70
     2
  9
$SKETCHINC
 40
1.0
  9
$FILLETRAD
 40
10.0
  9
$AUNITS
 70
     0
  9
$AUPREC
 70
     2
  9
$MENU
  1
.
  9
$ELEVATION
 40
0.0
  9
$PELEVATION
 40
0.0
  9
$THICKNESS
 40
0.0
  9
$LIMCHECK
 70
     0
  9
$CHAMFERA
 40
0.0
  9
$CHAMFERB
 40
0.0
  9
$CHAMFERC
 40
0.0
  9
$CHAMFERD
 40
0.0
  9
$SKPOLY
 70
     0
  9
$TDCREATE
 40
2458269.737132581
  9
$TDUCREATE
 40
2458269.362132581
  9
$TDUPDATE
 40
2458275.411213472
  9
$TDUUPDATE
 40
2458275.036213472
  9
$TDINDWG
 40
0.0013500231
  9
$TDUSRTIMER
 40
2458275.034863738
  9
$USRTIMER
 70
     1
  9
$ANGBASE
 50
0.0
  9
$ANGDIR
 70
     0
  9
$PDMODE
 70
     0
  9
$PDSIZE
 40
-1.0
  9
$PLINEWID
 40
0.0
  9
$SPLFRAME
 70
     0
  9
$SPLINETYPE
 70
     6
  9
$SPLINESEGS
 70
     8
  9
$HANDSEED
  5
165
  9
$SURFTAB1
 70
     6
  9
$SURFTAB2
 70
     6
  9
$SURFTYPE
 70
     6
  9
$SURFU
 70
     6
  9
$SURFV
 70
     6
  9
$UCSBASE
  2

  9
$UCSNAME
  2

  9
$UCSORG
 10
0.0
 20
0.0
 30
0.0
  9
$UCSXDIR
 10
1.0
 20
0.0
 30
0.0
  9
$UCSYDIR
 10
0.0
 20
1.0
 30
0.0
  9
$UCSORTHOREF
  2

  9
$UCSORTHOVIEW
 70
     0
  9
$UCSORGTOP
 10
0.0
 20
0.0
 30
0.0
  9
$UCSORGBOTTOM
 10
0.0
 20
0.0
 30
0.0
  9
$UCSORGLEFT
 10
0.0
 20
0.0
 30
0.0
  9
$UCSORGRIGHT
 10
0.0
 20
0.0
 30
0.0
  9
$UCSORGFRONT
 10
0.0
 20
0.0
 30
0.0
  9
$UCSORGBACK
 10
0.0
 20
0.0
 30
0.0
  9
$PUCSBASE
  2

  9
$PUCSNAME
  2

  9
$PUCSORG
 10
0.0
 20
0.0
 30
0.0
  9
$PUCSXDIR
 10
1.0
 20
0.0
 30
0.0
  9
$PUCSYDIR
 10
0.0
 20
1.0
 30
0.0
  9
$PUCSORTHOREF
  2

  9
$PUCSORTHOVIEW
 70
     0
  9
$PUCSORGTOP
 10
0.0
 20
0.0
 30
0.0
  9
$PUCSORGBOTTOM
 10
0.0
 20
0.0
 30
0.0
  9
$PUCSORGLEFT
 10
0.0
 20
0.0
 30
0.0
  9
$PUCSORGRIGHT
 10
0.0
 20
0.0
 30
0.0
  9
$PUCSORGFRONT
 10
0.0
 20
0.0
 30
0.0
  9
$PUCSORGBACK
 10
0.0
 20
0.0
 30
0.0
  9
$USERI1
 70
     0
  9
$USERI2
 70
     0
  9
$USERI3
 70
     0
  9
$USERI4
 70
     0
  9
$USERI5
 70
     0
  9
$USERR1
 40
0.0
  9
$USERR2
 40
0.0
  9
$USERR3
 40
0.0
  9
$USERR4
 40
0.0
  9
$USERR5
 40
0.0
  9
$WORLDVIEW
 70
     1
  9
$SHADEDGE
 70
     3
  9
$SHADEDIF
 70
    70
  9
$TILEMODE
 70
     1
  9
$MAXACTVP
 70
    64
  9
$PINSBASE
 10
0.0
 20
0.0
 30
0.0
  9
$PLIMCHECK
 70
     0
  9
$PEXTMIN
 10
1.000000000000000E+20
 20
1.000000000000000E+20
 30
1.000000000000000E+20
  9
$PEXTMAX
 10
-1.000000000000000E+20
 20
-1.000000000000000E+20
 30
-1.000000000000000E+20
  9
$PLIMMIN
 10
0.0
 20
0.0
  9
$PLIMMAX
 10
0.0
 20
0.0
  9
$UNITMODE
 70
     0
  9
$VISRETAIN
 70
     1
  9
$PLINEGEN
 70
     0
  9
$PSLTSCALE
 70
     1
  9
$TREEDEPTH
 70
  3020
  9
$CMLSTYLE
  2
Standard
  9
$CMLJUST
 70
     0
  9
$CMLSCALE
 40
20.0
  9
$PROXYGRAPHICS
 70
     1
  9
$MEASUREMENT
 70
     1
  9
$CELWEIGHT
370
    -1
  9
$ENDCAPS
280
     0
  9
$JOINSTYLE
280
     0
  9
$LWDISPLAY
290
     1
  9
$INSUNITS
 70
     4
  9
$HYPERLINKBASE
  1

  9
$STYLESHEET
  1

  9
$XEDIT
290
     1
  9
$CEPSNTYPE
380
     0
  9
$PSTYLEMODE
290
     1
  9
$FINGERPRINTGUID
  2
{407156EA-F06E-41B8-8939-8C6A6E4CAEC0}
  9
$VERSIONGUID
  2
{FAEB1C32-E019-11D5-929B-00C0DF256EC4}
  9
$EXTNAMES
290
     1
  9
$PSVPSCALE
 40
0.0
  9
$OLESTARTUP
290
     0
  0
ENDSEC
  0
SECTION
  2
CLASSES
  0
CLASS
  1
ACDBDICTIONARYWDFLT
  2
AcDbDictionaryWithDefault
  3
ObjectDBX Classes
 90
        0
280
     0
281
     0
  0
CLASS
  1
VISUALSTYLE
  2
AcDbVisualStyle
  3
ObjectDBX Classes
 90
     4095
280
     0
281
     0
  0
CLASS
  1
MATERIAL
  2
AcDbMaterial
  3
ObjectDBX Classes
 90
     1153
280
     0
281
     0
  0
CLASS
  1
SCALE
  2
AcDbScale
  3
ObjectDBX Classes
 90
     1153
280
     0
281
     0
  0
CLASS
  1
SUN
  2
AcDbSun
  3
SCENEOE
 90
     1153
280
     0
281
     0
  0
CLASS
  1
ACDBPLACEHOLDER
  2
AcDbPlaceHolder
  3
ObjectDBX Classes
 90
        0
280
     0
281
     0
  0
CLASS
  1
LAYOUT
  2
AcDbLayout
  3
ObjectDBX Classes
 90
        0
280
     0
281
     0
  0
CLASS
  1
TABLESTYLE
  2
AcDbTableStyle
  3
ObjectDBX Classes
 90
     4095
280
     0
281
     0
  0
CLASS
  1
MLEADERSTYLE
  2
AcDbMLeaderStyle
  3
ACDB_MLEADERSTYLE_CLASS
 90
     4095
280
     0
281
     0
  0
CLASS
  1
RASTERVARIABLES
  2
AcDbRasterVariables
  3
ISM
 90
        0
280
     0
281
     0
  0
CLASS
  1
DIMASSOC
  2
AcDbDimAssoc
  3
"AcDbDimAssoc|Product Desc:     AcDim ARX App For Dimension|Company:          Autodesk, Inc.|WEB Address:      www.autodesk.com"
 90
        0
280
     0
281
     0
  0
ENDSEC
  0
SECTION
  2
TABLES
  0
TABLE
  2
VPORT
  5
8
330
0
100
AcDbSymbolTable
 70
     1
  0
VPORT
  5
29
330
8
100
AcDbSymbolTableRecord
100
AcDbViewportTableRecord
  2
*Active
 70
     0
 10
0.0
 20
0.0
 11
1.0
 21
1.0
 12
14.66821560914918
 22
-3.455148282431772
 13
0.0
 23
0.0
 14
10.0
 24
10.0
 15
10.0
 25
10.0
 16
0.0
 26
0.0
 36
1.0
 17
0.0
 27
0.0
 37
0.0
 40
20.43771088394579
 41
1.515444015444015
 42
50.0
 43
0.0
 44
0.0
 50
0.0
 51
0.0
 71
    16
 72
  2000
 73
     1
 74
     3
 75
     0
 76
     0
 77
     0
 78
     0
281
     0
 65
     1
110
0.0
120
0.0
130
0.0
111
1.0
121
0.0
131
0.0
112
0.0
122
1.0
132
0.0
 79
     0
146
0.0
  0
ENDTAB
  0
TABLE
  2
LTYPE
  5
5
330
0
100
AcDbSymbolTable
 70
     6
  0
LTYPE
  5
14
330
5
100
AcDbSymbolTableRecord
100
AcDbLinetypeTableRecord
  2
ByBlock
 70
     0
  3

 72
    65
 73
     0
 40
0.0
  0
LTYPE
  5
15
330
5
100
AcDbSymbolTableRecord
100
AcDbLinetypeTableRecord
  2
ByLayer
 70
     0
  3

 72
    65
 73
     0
 40
0.0
  0
LTYPE
  5
16
330
5
100
AcDbSymbolTableRecord
100
AcDbLinetypeTableRecord
  2
Continuous
 70
     0
  3
Solid line
 72
    65
 73
     0
 40
0.0
  0
LTYPE
  5
6A
330
5
100
AcDbSymbolTableRecord
100
AcDbLinetypeTableRecord
  2
HIDDEN
 70
     0
  3
Hidden __ __ __ __ __ __ __ __ __ __ __ __ __ __
 72
    65
 73
     2
 40
1.905
 49
1.27
 74
     0
 49
-0.635
 74
     0
  0
LTYPE
  5
6B
330
5
100
AcDbSymbolTableRecord
100
AcDbLinetypeTableRecord
  2
PHANTOM
 70
     0
  3
Phantom ______  __  __  ______  __  __  ______
 72
    65
 73
     6
 40
12.7
 49
6.35
 74
     0
 49
-1.27
 74
     0
 49
1.27
 74
     0
 49
-1.27
 74
     0
 49
1.27
 74
     0
 49
-1.27
 74
     0
  0
LTYPE
  5
6C
330
5
100
AcDbSymbolTableRecord
100
AcDbLinetypeTableRecord
  2
CENTER
 70
     0
  3
Center ____ _ ____ _ ____ _ ____ _ ____ _ ____
 72
    65
 73
     4
 40
10.16
 49
6.35
 74
     0
 49
-1.27
 74
     0
 49
1.27
 74
     0
 49
-1.27
 74
     0
  0
LTYPE
  5
6D
330
5
100
AcDbSymbolTableRecord
100
AcDbLinetypeTableRecord
  2
CENTERX2
 70
     0
  3
Center (2x) ________  __  ________  __  _____
 72
    65
 73
     4
 40
20.32
 49
12.7
 74
     0
 49
-2.54
 74
     0
 49
2.54
 74
     0
 49
-2.54
 74
     0
  0
LTYPE
  5
6E
330
5
100
AcDbSymbolTableRecord
100
AcDbLinetypeTableRecord
  2
DOT2
 70
     0
  3
Dot (.5x) ........................................
 72
    65
 73
     2
 40
0.635
 49
0.0
 74
     0
 49
-0.635
 74
     0
  0
ENDTAB
  0
TABLE
  2
LAYER
  5
2
330
0
100
AcDbSymbolTable
 70
    17
  0
LAYER
  5
10
330
2
100
AcDbSymbolTableRecord
100
AcDbLayerTableRecord
  2
0
 70
     0
 62
     7
  6
Continuous
370
    -3
390
F
  0
LAYER
  5
6F
330
2
100
AcDbSymbolTableRecord
100
AcDbLayerTableRecord
  2
FORMAT
 70
     0
 62
     2
  6
Continuous
370
    -3
390
F
  0
LAYER
  5
70
330
2
100
AcDbSymbolTableRecord
100
AcDbLayerTableRecord
  2
외형선
 70
     0
 62
   100
  6
Continuous
370
    30
390
F
  0
LAYER
  5
71
330
2
100
AcDbSymbolTableRecord
100
AcDbLayerTableRecord
  2
숨은선
 70
     0
 62
     2
  6
HIDDEN
370
    15
390
F
  0
LAYER
  5
72
330
2
100
AcDbSymbolTableRecord
100
AcDbLayerTableRecord
  2
중심선
 70
     0
 62
     1
  6
CENTERX2
370
    -3
390
F
  0
LAYER
  5
73
330
2
100
AcDbSymbolTableRecord
100
AcDbLayerTableRecord
  2
파단선
 70
     0
 62
     4
  6
Continuous
370
    -3
390
F
  0
LAYER
  5
74
330
2
100
AcDbSymbolTableRecord
100
AcDbLayerTableRecord
  2
해칭선
 70
     0
 62
     4
  6
Continuous
370
    -3
390
F
  0
LAYER
  5
75
330
2
100
AcDbSymbolTableRecord
100
AcDbLayerTableRecord
  2
가는실선
 70
     0
 62
     4
  6
Continuous
370
    -3
390
F
  0
LAYER
  5
76
330
2
100
AcDbSymbolTableRecord
100
AcDbLayerTableRecord
  2
치수_보조선
 70
     0
 62
     4
  6
Continuous
370
    -3
390
F
  0
LAYER
  5
77
330
2
100
AcDbSymbolTableRecord
100
AcDbLayerTableRecord
  2
치수문자_일반주서
 70
     0
 62
     7
  6
Continuous
370
    15
390
F
  0
LAYER
  5
78
330
2
100
AcDbSymbolTableRecord
100
AcDbLayerTableRecord
  2
개별주서
 70
     0
 62
   100
  6
Continuous
370
    30
390
F
  0
LAYER
  5
79
330
2
100
AcDbSymbolTableRecord
100
AcDbLayerTableRecord
  2
중간선
 70
     0
 62
     2
  6
Continuous
370
    15
390
F
  0
LAYER
  5
7A
330
2
100
AcDbSymbolTableRecord
100
AcDbLayerTableRecord
  2
윤곽선
 70
     0
 62
     3
  6
Continuous
370
    40
390
F
  0
LAYER
  5
7B
330
2
100
AcDbSymbolTableRecord
100
AcDbLayerTableRecord
  2
중심마크
 70
     0
 62
   100
  6
Continuous
370
    30
390
F
  0
LAYER
  5
7C
330
2
100
AcDbSymbolTableRecord
100
AcDbLayerTableRecord
  2
가상선
 70
     0
 62
     4
  6
PHANTOM
370
    -3
390
F
  0
LAYER
  5
7D
330
2
100
AcDbSymbolTableRecord
100
AcDbLayerTableRecord
  2
특수지정선
 70
     0
 62
     5
  6
CENTERX2
370
    60
390
F
  0
LAYER
  5
14D
330
2
100
AcDbSymbolTableRecord
100
AcDbLayerTableRecord
  2
Defpoints
 70
     0
 62
     7
  6
Continuous
290
     0
370
    -3
390
F
  0
ENDTAB
  0
TABLE
  2
STYLE
  5
3
330
0
100
AcDbSymbolTable
 70
     2
  0
STYLE
  5
11
330
3
100
AcDbSymbolTableRecord
100
AcDbTextStyleTableRecord
  2
Standard
 70
     0
 40
0.0
 41
1.0
 50
0.0
 71
     0
 42
3.5
  3
txt
  4

  0
STYLE
  5
93
330
3
100
AcDbSymbolTableRecord
100
AcDbTextStyleTableRecord
  2
SLDTEXTSTYLE0
 70
     0
 40
0.0
 41
0.75
 50
0.0
 71
     0
 42
3.5
  3
TXT
  4

  0
ENDTAB
  0
TABLE
  2
VIEW
  5
6
330
0
100
AcDbSymbolTable
 70
     0
  0
ENDTAB
  0
TABLE
  2
UCS
  5
7
330
0
100
AcDbSymbolTable
 70
     0
  0
ENDTAB
  0
TABLE
  2
APPID
  5
9
330
0
100
AcDbSymbolTable
 70
     2
  0
APPID
  5
12
330
9
100
AcDbSymbolTableRecord
100
AcDbRegAppTableRecord
  2
ACAD
 70
     0
  0
APPID
  5
160
330
9
100
AcDbSymbolTableRecord
100
AcDbRegAppTableRecord
  2
PE_DIMMEASUREMENT
 70
     0
  0
ENDTAB
  0
TABLE
  2
DIMSTYLE
  5
A
330
0
100
AcDbSymbolTable
 70
     3
100
AcDbDimStyleTable
  0
DIMSTYLE
105
27
330
A
100
AcDbSymbolTableRecord
100
AcDbDimStyleTableRecord
  2
ISO-25
 70
     0
 41
2.5
 42
0.625
 43
3.75
 44
1.25
 73
     0
 74
     0
 77
     1
 78
     8
140
2.5
141
2.5
143
0.03937007874016
147
0.625
171
     3
172
     1
178
     0
271
     2
272
     2
274
     3
278
    44
283
     0
284
     8
340
11
  0
DIMSTYLE
105
D2
102
{ACAD_REACTORS
330
D1
330
10D
330
14F
102
}
330
A
100
AcDbSymbolTableRecord
100
AcDbDimStyleTableRecord
  2
SLDDIMSTYLE0
 70
     0
 41
3.302
 44
0.0
 45
0.000000001
 73
     0
 74
     0
 77
     1
 78
    12
 79
     3
140
3.5
143
0.0393700787401575
147
0.875
148
0.000000001
170
     1
172
     1
173
     1
178
     0
271
     2
272
     2
276
     2
284
    12
289
     0
340
93
  0
DIMSTYLE
105
E7
102
{ACAD_REACTORS
330
E6
330
FA
102
}
330
A
100
AcDbSymbolTableRecord
100
AcDbDimStyleTableRecord
  2
SLDDIMSTYLE1
 70
     0
 41
3.302
 44
0.0
 45
0.000000001
 73
     0
 74
     0
 77
     1
 78
    12
 79
     3
140
3.5
143
0.0393700787401575
147
0.875
148
0.000000001
170
     1
173
     1
178
     0
271
     2
272
     2
276
     2
284
    12
340
93
  0
ENDTAB
  0
TABLE
  2
BLOCK_RECORD
  5
1
330
0
100
AcDbSymbolTable
 70
     8
  0
BLOCK_RECORD
  5
1F
330
1
100
AcDbSymbolTableRecord
100
AcDbBlockTableRecord
  2
*Model_Space
340
22
  0
BLOCK_RECORD
  5
1B
330
1
100
AcDbSymbolTableRecord
100
AcDbBlockTableRecord
  2
*Paper_Space
340
1E
  0
BLOCK_RECORD
  5
23
330
1
100
AcDbSymbolTableRecord
100
AcDbBlockTableRecord
  2
*Paper_Space0
340
26
  0
BLOCK_RECORD
  5
7E
330
1
100
AcDbSymbolTableRecord
100
AcDbBlockTableRecord
  2
블럭10
340
0
102
{BLKREFS
331
C9
102
}
  0
BLOCK_RECORD
  5
D3
330
1
100
AcDbSymbolTableRecord
100
AcDbBlockTableRecord
  2
_D
340
0
  0
BLOCK_RECORD
  5
E8
330
1
100
AcDbSymbolTableRecord
100
AcDbBlockTableRecord
  2
_D_1
340
0
  0
BLOCK_RECORD
  5
FB
330
1
100
AcDbSymbolTableRecord
100
AcDbBlockTableRecord
  2
_D_2
340
0
  0
BLOCK_RECORD
  5
10E
330
1
100
AcDbSymbolTableRecord
100
AcDbBlockTableRecord
  2
_D_3
340
0
  0
BLOCK_RECORD
  5
122
330
1
100
AcDbSymbolTableRecord
100
AcDbBlockTableRecord
  2
SW_DOWELSYMBOL_0
340
0
102
{BLKREFS
331
128
102
}
  0
BLOCK_RECORD
  5
152
330
1
100
AcDbSymbolTableRecord
100
AcDbBlockTableRecord
  2
*D7
340
0
  0
ENDTAB
  0
ENDSEC
  0
SECTION
  2
BLOCKS
  0
BLOCK
  5
20
330
1F
100
AcDbEntity
  8
0
100
AcDbBlockBegin
  2
*Model_Space
 70
     0
 10
0.0
 20
0.0
 30
0.0
  3
*Model_Space
  1
*Model_Space
  0
ENDBLK
  5
21
330
1F
100
AcDbEntity
  8
0
100
AcDbBlockEnd
  0
BLOCK
  5
1C
330
1B
100
AcDbEntity
 67
     1
  8
0
100
AcDbBlockBegin
  2
*Paper_Space
 70
     0
 10
0.0
 20
0.0
 30
0.0
  3
*Paper_Space
  1
*Paper_Space
  0
ENDBLK
  5
1D
330
1B
100
AcDbEntity
 67
     1
  8
0
100
AcDbBlockEnd
  0
BLOCK
  5
24
330
23
100
AcDbEntity
  8
0
100
AcDbBlockBegin
  2
*Paper_Space0
 70
     0
 10
0.0
 20
0.0
 30
0.0
  3
*Paper_Space0
  1
*Paper_Space0
  0
ENDBLK
  5
25
330
23
100
AcDbEntity
  8
0
100
AcDbBlockEnd
  0
BLOCK
  5
7F
330
7E
100
AcDbEntity
  8
0
100
AcDbBlockBegin
  2
블럭10
 70
     2
 10
0.0
 20
0.0
 30
0.0
  3
블럭10
  1
블럭10
  0
ELLIPSE
  5
81
330
7E
100
AcDbEntity
  8
중심선
100
AcDbEllipse
 10
20.54032771741204
 20
12.0471743016438
 30
0.0
 11
6.600054785286829
 21
-1.261213355974178E-13
 31
0.0
210
0.0
220
0.0
230
1.0
 40
0.636358354079598
 41
0.9219305317359503
 42
6.513795318482858
  0
ELLIPSE
  5
82
330
7E
100
AcDbEntity
  8
중심선
100
AcDbEllipse
 10
20.54032771746488
 20
12.04717430159265
 30
0.0
 11
3.960054785062283
 21
1.540847449632565E-10
 31
0.0
210
0.0
220
0.0
230
1.0
 40
0.3939339440162632
 41
1.131841032648279
 42
5.62031148352944
  0
LINE
  5
83
330
7E
100
AcDbEntity
  8
중심선
100
AcDbLine
 10
2.268634060543552
 20
16.24717430164393
 30
0.0
 11
5.714909304380834
 21
16.24717430164393
 31
0.0
  0
LINE
  5
84
330
7E
100
AcDbEntity
  8
중심선
100
AcDbLine
 10
5.245725140726316
 20
7.84717430164391
 30
0.0
 11
8.692000384563599
 21
7.84717430164391
 31
0.0
  0
LINE
  5
85
330
7E
100
AcDbEntity
  8
중심선
100
AcDbLine
 10
15.74043728645272
 20
16.24717430164393
 30
0.0
 11
8.692000384563599
 21
7.84717430164391
 31
0.0
  0
LINE
  5
86
330
7E
100
AcDbEntity
  8
중심선
100
AcDbLine
 10
0.1404042013395286
 20
13.71084872107135
 30
0.0
 11
3.58671253028996
 21
13.71088815037384
 31
0.0
  0
LINE
  5
87
330
7E
100
AcDbEntity
  8
중심선
100
AcDbLine
 10
2.750260043222114
 20
10.84717430164391
 30
0.0
 11
6.196535287059397
 21
10.84717430164391
 31
0.0
  0
LINE
  5
88
330
7E
100
AcDbEntity
  8
중심선
100
AcDbLine
 10
12.29416204261559
 20
16.24717430164393
 30
0.0
 11
5.245725140726316
 21
7.84717430164391
 31
0.0
  0
LINE
  5
89
330
7E
100
AcDbEntity
  8
중심선
100
AcDbLine
 10
10.72767329541681
 20
16.24717430164393
 30
0.0
 11
6.196535287059397
 21
10.84717430164391
 31
0.0
  0
LINE
  5
8A
330
7E
100
AcDbEntity
  8
중심선
100
AcDbLine
 10
7.28139805157953
 20
16.24717430164393
 30
0.0
 11
2.750260043222114
 21
10.84717430164391
 31
0.0
  0
LINE
  5
8B
330
7E
100
AcDbEntity
  8
중심선
100
AcDbLine
 10
5.714909304380834
 20
16.24717430164393
 30
0.0
 11
3.58671253028996
 21
13.71088815037384
 31
0.0
  0
LINE
  5
8C
330
7E
100
AcDbEntity
  8
중심선
100
AcDbLine
 10
2.268634060543552
 20
16.24717430164393
 30
0.0
 11
0.1404042013395286
 21
13.71084872107135
 31
0.0
  0
LINE
  5
8D
330
7E
100
AcDbEntity
  8
중심선
100
AcDbLine
 10
7.28139805157953
 20
16.24717430164393
 30
0.0
 11
10.72767329541681
 21
16.24717430164393
 31
0.0
  0
LINE
  5
8E
330
7E
100
AcDbEntity
  8
중심선
100
AcDbLine
 10
12.29416204261559
 20
16.24717430164393
 30
0.0
 11
15.74043728645272
 21
16.24717430164393
 31
0.0
  0
LINE
  5
8F
330
7E
100
AcDbEntity
  8
중심선
100
AcDbLine
 10
19.22036997980202
 20
11.08717430171403
 30
0.0
 11
23.66174974927406
 21
11.08717430171406
 31
0.0
  0
LINE
  5
90
330
7E
100
AcDbEntity
  8
중심선
100
AcDbLine
 10
19.22039502424796
 20
13.00717430171391
 30
0.0
 11
19.22036997980202
 21
11.08717430171403
 31
0.0
  0
LINE
  5
91
330
7E
100
AcDbEntity
  8
중심선
100
AcDbLine
 10
19.22039502424796
 20
13.00717430171391
 30
0.0
 11
26.96566020931264
 21
13.00717430171391
 31
0.0
  0
LINE
  5
92
330
7E
100
AcDbEntity
  8
중심선
100
AcDbLine
 10
22.22332737316547
 20
13.45928029700563
 30
0.0
 11
24.52862924686651
 21
15.39360700705356
 31
0.0
  0
ATTDEF
  5
94
330
7E
100
AcDbEntity
  8
FORMAT
 62
     2
100
AcDbText
 10
-9.18129528874128
 20
2.075366912832191
 30
0.0
 40
4.233333333333333
  1
E5978905 [ 3 FLUTE ]
 41
0.75
  7
SLDTEXTSTYLE0
 11
-9.18129528874128
 21
-0.0412997538344756
 31
0.0
100
AcDbAttributeDefinition
  3

  2
AUTOATTR0
 70
     0
 74
     1
  0
ENDBLK
  5
80
330
7E
100
AcDbEntity
  8
0
100
AcDbBlockEnd
  0
BLOCK
  5
D4
330
D3
100
AcDbEntity
  8
0
100
AcDbBlockBegin
  2
_D
 70
     0
 10
0.0
 20
0.0
 30
0.0
  3
_D
  1
_D
  0
LINE
  5
D6
330
D3
100
AcDbEntity
  8
치수문자_일반주서
 62
     0
370
    -2
100
AcDbLine
 10
-66.4045
 20
9.524999999999995
 30
0.0
 11
-78.8384580216121
 21
9.524999999999949
 31
0.0
  0
LINE
  5
D7
330
D3
100
AcDbEntity
  8
치수문자_일반주서
 62
     0
370
    -2
100
AcDbLine
 10
-66.4045
 20
-9.525000000000006
 30
0.0
 11
-78.83845802161203
 21
-9.525000000000052
 31
0.0
  0
LINE
  5
D8
330
D3
100
AcDbEntity
  8
치수문자_일반주서
 62
     0
370
    -2
100
AcDbLine
 10
-78.83845802161208
 20
6.222999999999949
 30
0.0
 11
-78.83845802161204
 21
-6.223000000000052
 31
0.0
  0
SOLID
  5
D9
330
D3
100
AcDbEntity
  8
치수문자_일반주서
 62
     0
100
AcDbTrace
 10
-78.28812468827876
 20
6.222999999999951
 30
0.0
 11
-79.38879135494541
 21
6.222999999999947
 31
0.0
 12
-78.8384580216121
 22
9.524999999999949
 32
0.0
 13
-78.8384580216121
 23
9.524999999999949
 33
0.0
  0
SOLID
  5
DA
330
D3
100
AcDbEntity
  8
치수문자_일반주서
 62
     0
100
AcDbTrace
 10
-79.38879135494537
 20
-6.223000000000054
 30
0.0
 11
-78.28812468827871
 21
-6.22300000000005
 31
0.0
 12
-78.83845802161203
 22
-9.525000000000052
 32
0.0
 13
-78.83845802161203
 23
-9.525000000000052
 33
0.0
  0
MTEXT
  5
DB
330
D3
100
AcDbEntity
  8
치수문자_일반주서
 62
     0
100
AcDbMText
 10
-83.21345802161207
 20
-0.0000000000000224
 30
0.0
 40
3.5
 41
0.0
 71
     2
 72
     1
  1
\A1;%%c19.05 [3/4]
  7
SLDTEXTSTYLE0
 11
-3.729883127349607E-15
 21
1.0
 31
0.0
 73
     1
 44
1.0
  0
POINT
  5
DC
330
D3
100
AcDbEntity
  8
Defpoints
 62
     0
100
AcDbPoint
 10
-66.342
 20
9.524999999999995
 30
0.0
  0
POINT
  5
DD
330
D3
100
AcDbEntity
  8
Defpoints
 62
     0
100
AcDbPoint
 10
-66.342
 20
-9.525000000000006
 30
0.0
  0
POINT
  5
DE
330
D3
100
AcDbEntity
  8
Defpoints
 62
     0
100
AcDbPoint
 10
-78.83845802161203
 20
-9.525000000000052
 30
0.0
  0
ENDBLK
  5
D5
330
D3
100
AcDbEntity
  8
0
100
AcDbBlockEnd
  0
BLOCK
  5
E9
330
E8
100
AcDbEntity
  8
0
100
AcDbBlockBegin
  2
_D_1
 70
     0
 10
0.0
 20
0.0
 30
0.0
  3
_D_1
  1
_D_1
  0
LINE
  5
EB
330
E8
100
AcDbEntity
  8
치수문자_일반주서
 62
     0
370
    -2
100
AcDbLine
 10
-67.342
 20
8.587499999999995
 30
0.0
 11
-67.34200000000001
 21
49.52500000000005
 31
0.0
  0
LINE
  5
EC
330
E8
100
AcDbEntity
  8
치수문자_일반주서
 62
     0
370
    -2
100
AcDbLine
 10
85.05800000000002
 20
0.0625000000000043
 30
0.0
 11
85.058
 21
49.52500000000005
 31
0.0
  0
LINE
  5
ED
330
E8
100
AcDbEntity
  8
치수문자_일반주서
 62
     0
370
    -2
100
AcDbLine
 10
-64.04000000000002
 20
49.52500000000005
 30
0.0
 11
81.756
 21
49.52500000000005
 31
0.0
  0
SOLID
  5
EE
330
E8
100
AcDbEntity
  8
치수문자_일반주서
 62
     0
100
AcDbTrace
 10
-64.04000000000002
 20
50.07533333333338
 30
0.0
 11
-64.04000000000002
 21
48.97466666666671
 31
0.0
 12
-67.34200000000001
 22
49.52500000000005
 32
0.0
 13
-67.34200000000001
 23
49.52500000000005
 33
0.0
  0
SOLID
  5
EF
330
E8
100
AcDbEntity
  8
치수문자_일반주서
 62
     0
100
AcDbTrace
 10
81.756
 20
48.97466666666671
 30
0.0
 11
81.756
 21
50.07533333333338
 31
0.0
 12
85.058
 22
49.52500000000005
 32
0.0
 13
85.058
 23
49.52500000000005
 33
0.0
  0
MTEXT
  5
F0
330
E8
100
AcDbEntity
  8
치수문자_일반주서
 62
     0
100
AcDbMText
 10
14.68100964687571
 20
53.90000000000005
 30
0.0
 40
3.5
 41
0.0
 71
     2
 72
     1
  1
\A1;152.4 [6]
  7
SLDTEXTSTYLE0
 73
     1
 44
1.0
  0
POINT
  5
F1
330
E8
100
AcDbEntity
  8
Defpoints
 62
     0
100
AcDbPoint
 10
-67.342
 20
8.524999999999995
 30
0.0
  0
POINT
  5
F2
330
E8
100
AcDbEntity
  8
Defpoints
 62
     0
100
AcDbPoint
 10
85.05800000000002
 20
0.0000000000000043
 30
0.0
  0
POINT
  5
F3
330
E8
100
AcDbEntity
  8
Defpoints
 62
     0
100
AcDbPoint
 10
85.05800000000002
 20
49.52500000000005
 30
0.0
  0
ENDBLK
  5
EA
330
E8
100
AcDbEntity
  8
0
100
AcDbBlockEnd
  0
BLOCK
  5
FC
330
FB
100
AcDbEntity
  8
0
100
AcDbBlockBegin
  2
_D_2
 70
     0
 10
0.0
 20
0.0
 30
0.0
  3
_D_2
  1
_D_2
  0
LINE
  5
FE
330
FB
100
AcDbEntity
  8
치수문자_일반주서
 62
     0
370
    -2
100
AcDbLine
 10
2.508000000000003
 20
9.079500000000005
 30
0.0
 11
2.50800000000001
 21
35.61151117911993
 31
0.0
  0
LINE
  5
FF
330
FB
100
AcDbEntity
  8
치수문자_일반주서
 62
     0
370
    -2
100
AcDbLine
 10
85.05800000000002
 20
0.0625000000000042
 30
0.0
 11
85.05800000000002
 21
35.61151117911993
 31
0.0
  0
LINE
  5
100
330
FB
100
AcDbEntity
  8
치수문자_일반주서
 62
     0
370
    -2
100
AcDbLine
 10
5.810000000000009
 20
35.61151117911993
 30
0.0
 11
81.75600000000003
 21
35.61151117911993
 31
0.0
  0
SOLID
  5
101
330
FB
100
AcDbEntity
  8
치수문자_일반주서
 62
     0
100
AcDbTrace
 10
5.810000000000009
 20
36.16184451245326
 30
0.0
 11
5.810000000000009
 21
35.0611778457866
 31
0.0
 12
2.50800000000001
 22
35.61151117911993
 32
0.0
 13
2.50800000000001
 23
35.61151117911993
 33
0.0
  0
SOLID
  5
102
330
FB
100
AcDbEntity
  8
치수문자_일반주서
 62
     0
100
AcDbTrace
 10
81.75600000000003
 20
35.0611778457866
 30
0.0
 11
81.75600000000003
 21
36.16184451245326
 31
0.0
 12
85.05800000000002
 22
35.61151117911993
 32
0.0
 13
85.05800000000002
 23
35.61151117911993
 33
0.0
  0
MTEXT
  5
103
330
FB
100
AcDbEntity
  8
치수문자_일반주서
 62
     0
100
AcDbMText
 10
43.60983467860868
 20
39.98651117911993
 30
0.0
 40
3.5
 41
0.0
 71
     2
 72
     1
  1
\A1;82.55 [3 1/4]
  7
SLDTEXTSTYLE0
 73
     1
 44
1.0
  0
POINT
  5
104
330
FB
100
AcDbEntity
  8
Defpoints
 62
     0
100
AcDbPoint
 10
2.508000000000003
 20
9.017000000000005
 30
0.0
  0
POINT
  5
105
330
FB
100
AcDbEntity
  8
Defpoints
 62
     0
100
AcDbPoint
 10
85.05800000000002
 20
0.0000000000000043
 30
0.0
  0
POINT
  5
106
330
FB
100
AcDbEntity
  8
Defpoints
 62
     0
100
AcDbPoint
 10
85.05800000000002
 20
35.61151117911993
 30
0.0
  0
ENDBLK
  5
FD
330
FB
100
AcDbEntity
  8
0
100
AcDbBlockEnd
  0
BLOCK
  5
10F
330
10E
100
AcDbEntity
  8
0
100
AcDbBlockBegin
  2
_D_3
 70
     0
 10
0.0
 20
0.0
 30
0.0
  3
_D_3
  1
_D_3
  0
LINE
  5
111
330
10E
100
AcDbEntity
  8
치수문자_일반주서
 62
     0
370
    -2
100
AcDbLine
 10
59.65800000000004
 20
9.554255539397017
 30
0.0
 11
59.65800000000004
 21
22.98676822005956
 31
0.0
  0
LINE
  5
112
330
10E
100
AcDbEntity
  8
치수문자_일반주서
 62
     0
370
    -2
100
AcDbLine
 10
85.05800000000002
 20
0.0625000000000043
 30
0.0
 11
85.05800000000002
 21
22.98676822005956
 31
0.0
  0
LINE
  5
113
330
10E
100
AcDbEntity
  8
치수문자_일반주서
 62
     0
370
    -2
100
AcDbLine
 10
62.96000000000004
 20
22.98676822005956
 30
0.0
 11
81.75600000000003
 21
22.98676822005956
 31
0.0
  0
SOLID
  5
114
330
10E
100
AcDbEntity
  8
치수문자_일반주서
 62
     0
100
AcDbTrace
 10
62.96000000000004
 20
23.5371015533929
 30
0.0
 11
62.96000000000004
 21
22.43643488672623
 31
0.0
 12
59.65800000000004
 22
22.98676822005956
 32
0.0
 13
59.65800000000004
 23
22.98676822005956
 33
0.0
  0
SOLID
  5
115
330
10E
100
AcDbEntity
  8
치수문자_일반주서
 62
     0
100
AcDbTrace
 10
81.75600000000003
 20
22.43643488672623
 30
0.0
 11
81.75600000000003
 21
23.5371015533929
 31
0.0
 12
85.05800000000002
 22
22.98676822005956
 32
0.0
 13
85.05800000000002
 23
22.98676822005956
 33
0.0
  0
MTEXT
  5
116
330
10E
100
AcDbEntity
  8
치수문자_일반주서
 62
     0
100
AcDbMText
 10
72.15056185579685
 20
27.36176822005956
 30
0.0
 40
3.5
 41
0.0
 71
     2
 72
     1
  1
\A1;25.4 [1]
  7
SLDTEXTSTYLE0
 73
     1
 44
1.0
  0
POINT
  5
117
330
10E
100
AcDbEntity
  8
Defpoints
 62
     0
100
AcDbPoint
 10
59.65800000000004
 20
9.491755539397017
 30
0.0
  0
POINT
  5
118
330
10E
100
AcDbEntity
  8
Defpoints
 62
     0
100
AcDbPoint
 10
85.05800000000002
 20
0.0000000000000043
 30
0.0
  0
POINT
  5
119
330
10E
100
AcDbEntity
  8
Defpoints
 62
     0
100
AcDbPoint
 10
85.05800000000002
 20
22.98676822005956
 30
0.0
  0
ENDBLK
  5
110
330
10E
100
AcDbEntity
  8
0
100
AcDbBlockEnd
  0
BLOCK
  5
123
330
122
100
AcDbEntity
  8
0
100
AcDbBlockBegin
  2
SW_DOWELSYMBOL_0
 70
     0
 10
0.0
 20
0.0
 30
0.0
  3
SW_DOWELSYMBOL_0
  1
SW_DOWELSYMBOL_0
  0
CIRCLE
  5
125
330
122
100
AcDbEntity
  8
외형선
 62
     0
100
AcDbCircle
 10
0.0
 20
0.0
 30
0.0
 40
3.000000000000004
  0
HATCH
  5
126
330
122
100
AcDbEntity
  8
0
  6
Continuous
 62
     0
370
    30
100
AcDbHatch
 10
0.0
 20
0.0
 30
0.0
210
0.0
220
0.0
230
1.0
  2
SOLID
 70
     1
 71
     0
 91
        1
 92
        0
 93
        3
 72
     2
 10
0.0
 20
0.0
 40
3.000000000000004
 50
0.0
 51
90.0
 73
     1
 72
     1
 10
0.0
 20
3.000000000000004
 11
0.0
 21
0.0
 72
     1
 10
0.0
 20
0.0
 11
3.000000000000006
 21
0.0
 97
        0
 75
     0
 76
     1
 98
        1
 10
0.0
 20
0.0
  0
HATCH
  5
127
330
122
100
AcDbEntity
  8
0
  6
Continuous
 62
     0
370
    30
100
AcDbHatch
 10
0.0
 20
0.0
 30
0.0
210
0.0
220
0.0
230
1.0
  2
SOLID
 70
     1
 71
     0
 91
        1
 92
        0
 93
        3
 72
     2
 10
0.0
 20
0.0
 40
3.000000000000004
 50
180.0
 51
270.0000000000008
 73
     1
 72
     1
 10
0.0
 20
-3.000000000000004
 11
0.0
 21
0.0
 72
     1
 10
0.0
 20
0.0
 11
-3.000000000000006
 21
0.0
 97
        0
 75
     0
 76
     1
 98
        1
 10
0.0
 20
0.0
  0
ENDBLK
  5
124
330
122
100
AcDbEntity
  8
0
100
AcDbBlockEnd
  0
BLOCK
  5
153
330
152
100
AcDbEntity
  8
0
100
AcDbBlockBegin
  2
*D7
 70
     1
 10
0.0
 20
0.0
 30
0.0
  3
*D7
  1
*D7
  0
LINE
  5
155
330
152
100
AcDbEntity
  8
치수문자_일반주서
 62
     0
370
    -2
100
AcDbLine
 10
85.12050000000002
 20
9.525000000000006
 30
0.0
 11
103.2340477343295
 21
9.52500000000001
 31
0.0
  0
LINE
  5
156
330
152
100
AcDbEntity
  8
치수문자_일반주서
 62
     0
370
    -2
100
AcDbLine
 10
85.12050000000002
 20
-9.524999999999995
 30
0.0
 11
103.2340477343295
 21
-9.524999999999995
 31
0.0
  0
LINE
  5
157
330
152
100
AcDbEntity
  8
치수문자_일반주서
 62
     0
370
    -2
100
AcDbLine
 10
103.2340477343295
 20
9.52500000000001
 30
0.0
 11
103.2340477343295
 21
43.6915
 31
0.0
  0
LINE
  5
158
330
152
100
AcDbEntity
  8
치수문자_일반주서
 62
     0
370
    -2
100
AcDbLine
 10
103.2340477343295
 20
9.52500000000001
 30
0.0
 11
103.2340477343295
 21
-9.524999999999995
 31
0.0
  0
LINE
  5
159
330
152
100
AcDbEntity
  8
치수문자_일반주서
 62
     0
370
    -2
100
AcDbLine
 10
103.2340477343295
 20
12.82700000000001
 30
0.0
 11
103.2340477343295
 21
16.12900000000001
 31
0.0
  0
LINE
  5
15A
330
152
100
AcDbEntity
  8
치수문자_일반주서
 62
     0
370
    -2
100
AcDbLine
 10
103.2340477343295
 20
-12.82699999999999
 30
0.0
 11
103.2340477343295
 21
-16.12899999999999
 31
0.0
  0
SOLID
  5
15B
330
152
100
AcDbEntity
  8
치수문자_일반주서
 62
     0
100
AcDbTrace
 10
102.6837144009962
 20
12.82700000000001
 30
0.0
 11
103.7843810676628
 21
12.82700000000001
 31
0.0
 12
103.2340477343295
 22
9.52500000000001
 32
0.0
 13
103.2340477343295
 23
9.52500000000001
 33
0.0
  0
SOLID
  5
15C
330
152
100
AcDbEntity
  8
치수문자_일반주서
 62
     0
100
AcDbTrace
 10
103.7843810676628
 20
-12.82699999999999
 30
0.0
 11
102.6837144009962
 21
-12.82699999999999
 31
0.0
 12
103.2340477343295
 22
-9.524999999999995
 32
0.0
 13
103.2340477343295
 23
-9.524999999999995
 33
0.0
  0
MTEXT
  5
15D
330
152
100
AcDbEntity
  8
치수문자_일반주서
 62
     0
100
AcDbMText
 10
100.6090477343295
 20
29.91025000000001
 30
0.0
 40
3.5
 41
0.0
 71
     5
 72
     1
  1
\A1;{%%C19.05 [3/4]}
  7
SLDTEXTSTYLE0
 11
0.0
 21
1.0
 31
0.0
 73
     1
 44
1.0
  0
POINT
  5
15E
330
152
100
AcDbEntity
  8
Defpoints
 62
     0
100
AcDbPoint
 10
85.05800000000002
 20
9.525000000000006
 30
0.0
  0
POINT
  5
15F
330
152
100
AcDbEntity
  8
Defpoints
 62
     0
100
AcDbPoint
 10
85.05800000000002
 20
-9.524999999999995
 30
0.0
  0
POINT
  5
161
330
152
100
AcDbEntity
  8
Defpoints
 62
     0
100
AcDbPoint
 10
103.2340477343295
 20
-9.524999999999997
 30
0.0
  0
ENDBLK
  5
154
330
152
100
AcDbEntity
  8
0
100
AcDbBlockEnd
  0
ENDSEC
  0
SECTION
  2
ENTITIES
  0
LINE
  5
95
330
1F
100
AcDbEntity
  8
0
  6
Continuous
 62
     4
370
    15
100
AcDbLine
 10
2.0
 20
9.525000000000002
 30
0.0
 11
-66.342
 21
9.524999999999995
 31
0.0
  0
LINE
  5
96
330
1F
100
AcDbEntity
  8
0
  6
Continuous
 62
     4
370
    15
100
AcDbLine
 10
-66.342
 20
-9.52500000000001
 30
0.0
 11
2.0
 21
-9.525000000000002
 31
0.0
  0
LINE
  5
97
330
1F
100
AcDbEntity
  8
0
  6
Continuous
 62
     4
370
    15
100
AcDbLine
 10
2.0
 20
-9.525000000000006
 30
0.0
 11
2.508000000000003
 21
-9.017000000000005
 31
0.0
  0
LINE
  5
98
330
1F
100
AcDbEntity
  8
0
  6
Continuous
 62
     4
370
    15
100
AcDbLine
 10
2.508000000000003
 20
9.017000000000005
 30
0.0
 11
2.0
 21
9.525000000000002
 31
0.0
  0
LINE
  5
99
330
1F
100
AcDbEntity
  8
0
  6
Continuous
 62
     4
370
    15
100
AcDbLine
 10
-66.342
 20
9.524999999999995
 30
0.0
 11
-67.342
 21
8.524999999999995
 31
0.0
  0
LINE
  5
9A
330
1F
100
AcDbEntity
  8
0
  6
Continuous
 62
     4
370
    15
100
AcDbLine
 10
-67.342
 20
-8.52500000000001
 30
0.0
 11
-66.342
 21
-9.525000000000006
 31
0.0
  0
LINE
  5
9B
330
1F
100
AcDbEntity
  8
0
  6
Continuous
 62
     4
370
    15
100
AcDbLine
 10
58.68030031093762
 20
9.017000000000005
 30
0.0
 11
2.508000000000003
 21
9.017000000000001
 31
0.0
  0
LINE
  5
9C
330
1F
100
AcDbEntity
  8
0
  6
Continuous
 62
     4
370
    15
100
AcDbLine
 10
2.508000000000003
 20
-9.017000000000001
 30
0.0
 11
56.60808512733647
 21
-9.016999999999998
 31
0.0
  0
ARC
  5
9D
330
1F
100
AcDbEntity
  8
0
  6
Continuous
 62
     1
370
    15
100
AcDbCircle
 10
75.53300000000002
 20
0.0000000000000043
 30
0.0
 40
9.525000000000006
100
AcDbArc
 50
353.5800701243586
 51
0.0
  0
ARC
  5
9E
330
1F
100
AcDbEntity
  8
0
  6
Continuous
 62
     1
370
    15
100
AcDbCircle
 10
75.53300000000002
 20
0.0000000000000043
 30
0.0
 40
9.525000000000006
100
AcDbArc
 50
0.0
 51
60.06162966648287
  0
LINE
  5
9F
330
1F
100
AcDbEntity
  8
0
  6
Continuous
 62
     1
370
    15
100
AcDbLine
 10
67.39243960686908
 20
-9.524999999999999
 30
0.0
 11
71.83659994685401
 21
-9.524999999999999
 31
0.0
  0
LINE
  5
A0
330
1F
100
AcDbEntity
  8
0
  6
Continuous
 62
     4
370
    15
100
AcDbLine
 10
2.0
 20
9.525000000000002
 30
0.0
 11
2.0
 21
-9.525000000000002
 31
0.0
  0
LINE
  5
A1
330
1F
100
AcDbEntity
  8
0
  6
Continuous
 62
     4
370
    15
100
AcDbLine
 10
-66.342
 20
9.524999999999995
 30
0.0
 11
-66.342
 21
-9.52500000000001
 31
0.0
  0
LINE
  5
A2
330
1F
100
AcDbEntity
  8
0
  6
Continuous
 62
     4
370
    15
100
AcDbLine
 10
2.508000000000003
 20
9.017000000000005
 30
0.0
 11
2.508000000000003
 21
-9.017000000000005
 31
0.0
  0
LINE
  5
A3
330
1F
100
AcDbEntity
  8
0
  6
Continuous
 62
     4
370
    15
100
AcDbLine
 10
-67.342
 20
8.524999999999995
 30
0.0
 11
-67.342
 21
-8.525000000000022
 31
0.0
  0
SPLINE
  5
A4
330
1F
100
AcDbEntity
  8
0
  6
Continuous
 62
     4
370
    15
100
AcDbSpline
210
0.0
220
0.0
230
1.0
 70
     8
 71
     3
 72
     9
 73
     5
 74
     0
 42
0.000000001
 43
0.00000001
 40
0.0
 40
0.0
 40
0.0
 40
0.0
 40
0.7777217264092144
 40
1.0
 40
1.0
 40
1.0
 40
1.0
 10
59.65800000000002
 20
8.990098080862273
 30
0.0
 10
59.40451554531153
 20
9.002843082097826
 30
0.0
 10
59.0785834720765
 20
9.019230693248153
 30
0.0
 10
58.75273037483637
 20
9.014681375525239
 30
0.0
 10
58.68030031093762
 20
9.013670161035773
 30
0.0
  0
SPLINE
  5
A5
330
1F
100
AcDbEntity
  8
0
  6
Continuous
 62
     4
370
    15
100
AcDbSpline
210
0.0
220
0.0
230
1.0
 70
     8
 71
     3
 72
    10
 73
     6
 74
     0
 42
0.000000001
 43
0.00000001
 40
0.0
 40
0.0
 40
0.0
 40
0.0
 40
0.5
 40
0.5
 40
1.0
 40
1.0
 40
1.0
 40
1.0
 10
59.65800000000002
 20
8.152315437375071
 30
0.0
 10
59.14963662649633
 20
8.307240465341842
 30
0.0
 10
58.63887291486574
 20
8.442565866739766
 30
0.0
 10
57.62365580247064
 20
8.67113342860365
 30
0.0
 10
57.11741209176154
 20
8.764600556100177
 30
0.0
 10
56.60803109876221
 20
8.836774274263867
 30
0.0
  0
SPLINE
  5
A6
330
1F
100
AcDbEntity
  8
0
  6
Continuous
 62
     4
370
    15
100
AcDbSpline
210
0.0
220
0.0
230
1.0
 70
     8
 71
     3
 72
    10
 73
     6
 74
     0
 42
0.000000001
 43
0.00000001
 40
0.0
 40
0.0
 40
0.0
 40
0.0
 40
0.5
 40
0.5
 40
1.0
 40
1.0
 40
1.0
 40
1.0
 10
59.658
 20
-5.097808629618594
 30
0.0
 10
59.14964561326954
 20
-4.798758293115406
 30
0.0
 10
58.63889097307708
 20
-4.486833461421645
 30
0.0
 10
57.6236915848434
 20
-3.844053810499021
 30
0.0
 10
57.11745709196616
 20
-3.512867072162549
 30
0.0
 10
56.60808512733647
 20
-3.173281290048771
 30
0.0
  0
SPLINE
  5
A7
330
1F
100
AcDbEntity
  8
0
  6
Continuous
 62
     4
370
    15
100
AcDbSpline
210
0.0
220
0.0
230
1.0
 70
     8
 71
     3
 72
    10
 73
     6
 74
     0
 42
0.000000001
 43
0.00000001
 40
0.0
 40
0.0
 40
0.0
 40
0.0
 40
0.5
 40
0.5
 40
1.0
 40
1.0
 40
1.0
 40
1.0
 10
59.65800000000002
 20
-7.413002262137563
 30
0.0
 10
59.14963662649633
 20
-7.206589318180804
 30
0.0
 10
58.63887291486574
 20
-6.981811322434486
 30
0.0
 10
57.62365580247064
 20
-6.500466156545116
 30
0.0
 10
57.11741209176154
 20
-6.243688915011985
 30
0.0
 10
56.60803109876221
 20
-5.971861330442326
 30
0.0
  0
LINE
  5
A8
330
1F
100
AcDbEntity
  8
0
  6
Continuous
 62
     4
370
    15
100
AcDbLine
 10
56.60808512733647
 20
-9.016999999999998
 30
0.0
 11
56.60808512733647
 21
-5.971494568593644
 31
0.0
  0
LINE
  5
A9
330
1F
100
AcDbEntity
  8
0
  6
Continuous
 62
     4
370
    15
100
AcDbLine
 10
56.60808512733647
 20
-3.173723885832199
 30
0.0
 11
56.60808512733647
 21
8.836871638892497
 31
0.0
  0
SPLINE
  5
AA
330
1F
100
AcDbEntity
  8
0
  6
Continuous
 62
     4
370
    15
100
AcDbSpline
210
0.0
220
0.0
230
1.0
 70
    24
 71
     3
 72
    14
 73
    10
 74
     0
 42
0.000000001
 43
0.00000001
 40
0.0
 40
0.0
 40
0.0
 40
0.0
 40
0.2500000000000001
 40
0.2500000000000001
 40
0.5
 40
0.5
 40
0.75
 40
0.75
 40
1.0
 40
1.0
 40
1.0
 40
1.0
 10
59.65800000000003
 20
1.716223657366906
 30
0.0
 10
59.65800000000004
 20
1.29088928293191
 30
0.0
 10
59.65800000000004
 20
0.7998061510309071
 30
0.0
 10
59.65800000000004
 20
-0.2989867786606466
 30
0.0
 10
59.65800000000004
 20
-0.9072711447617685
 30
0.0
 10
59.65800000000002
 20
-2.169900364882912
 30
0.0
 10
59.65800000000004
 20
-2.82308740218575
 30
0.0
 10
59.65800000000003
 20
-4.051081251445931
 30
0.0
 10
59.65800000000004
 20
-4.623211877480603
 30
0.0
 10
59.65800000000003
 20
-5.097808629618611
 30
0.0
  0
SPLINE
  5
AB
330
1F
100
AcDbEntity
  8
0
  6
Continuous
 62
     4
370
    15
100
AcDbSpline
210
0.0
220
0.0
230
1.0
 70
     8
 71
     3
 72
    10
 73
     6
 74
     0
 42
0.000000001
 43
0.00000001
 40
0.0
 40
0.0
 40
0.0
 40
0.0
 40
0.5
 40
0.5
 40
1.0
 40
1.0
 40
1.0
 40
1.0
 10
59.65799999999973
 20
1.716223657367051
 30
0.0
 10
59.14964561326933
 20
1.971295460806107
 30
0.0
 10
58.63889097307691
 20
2.222589032117435
 30
0.0
 10
57.62369158484331
 20
2.712168006506413
 30
0.0
 10
57.1174570919661
 20
2.950766282038036
 30
0.0
 10
56.60808512733647
 20
3.1821200986967
 30
0.0
  0
LINE
  5
AC
330
1F
100
AcDbEntity
  8
0
  6
Continuous
 62
     4
370
    15
100
AcDbLine
 10
57.65334336024983
 20
-6.495853874639326
 30
0.0
 11
56.60808512733647
 21
-6.570830414119341
 31
0.0
  0
SPLINE
  5
AD
330
1F
100
AcDbEntity
  8
0
  6
Continuous
 62
     4
370
    15
100
AcDbSpline
210
0.0
220
0.0
230
1.0
 70
    24
 71
     3
 72
    14
 73
    10
 74
     0
 42
0.000000001
 43
0.00000001
 40
0.0
 40
0.0
 40
0.0
 40
0.0
 40
0.2500000000000001
 40
0.2500000000000001
 40
0.5000000000000002
 40
0.5000000000000002
 40
0.7500000000000001
 40
0.7500000000000001
 40
1.0
 40
1.0
 40
1.0
 40
1.0
 10
59.65800000000003
 20
8.152315437375071
 30
0.0
 10
59.65800000000003
 20
7.492405893609532
 30
0.0
 10
59.65800000000003
 20
6.789954179350525
 30
0.0
 10
59.65800000000004
 20
5.432975335123867
 30
0.0
 10
59.65800000000003
 20
4.78077010574907
 30
0.0
 10
59.65800000000002
 20
3.626566215138203
 30
0.0
 10
59.65799999999999
 20
3.124628822467458
 30
0.0
 10
59.65800000000002
 20
2.296666811013466
 30
0.0
 10
59.65800000000002
 20
1.969419285188651
 30
0.0
 10
59.65800000000002
 20
1.716223657366911
 30
0.0
  0
SPLINE
  5
AE
330
1F
100
AcDbEntity
  8
0
  6
Continuous
 62
     1
370
    15
100
AcDbSpline
210
0.0
220
0.0
230
1.0
 70
     8
 71
     3
 72
     8
 73
     4
 74
     0
 42
0.000000001
 43
0.00000001
 40
0.0
 40
0.0
 40
0.0
 40
0.0
 40
1.0
 40
1.0
 40
1.0
 40
1.0
 10
78.93114521520148
 20
-6.258267126938115
 30
0.0
 10
78.62069089685984
 20
-6.035122446531113
 30
0.0
 10
78.30419040665026
 20
-5.812750321827678
 30
0.0
 10
77.979860724159
 20
-5.591378580058045
 30
0.0
  0
SPLINE
  5
AF
330
1F
100
AcDbEntity
  8
0
  6
Continuous
 62
     1
370
    15
100
AcDbSpline
210
0.0
220
0.0
230
1.0
 70
     8
 71
     3
 72
    36
 73
    32
 74
     0
 42
0.000000001
 43
0.00000001
 40
0.0
 40
0.0
 40
0.0
 40
0.0
 40
0.1250000000000004
 40
0.1250000000000004
 40
0.1875000000000007
 40
0.1875000000000007
 40
0.2500000000000009
 40
0.2500000000000009
 40
0.3125000000000011
 40
0.3125000000000011
 40
0.3750000000000013
 40
0.3750000000000013
 40
0.4375000000000016
 40
0.4375000000000016
 40
0.5000000000000018
 40
0.5000000000000018
 40
0.562500000000002
 40
0.562500000000002
 40
0.6250000000000022
 40
0.6250000000000022
 40
0.6875000000000024
 40
0.6875000000000024
 40
0.7500000000000027
 40
0.7500000000000027
 40
0.812500000000002
 40
0.812500000000002
 40
0.8750000000000013
 40
0.8750000000000013
 40
0.9375000000000007
 40
0.9375000000000007
 40
1.0
 40
1.0
 40
1.0
 40
1.0
 10
78.93114521514056
 20
-6.25826712692846
 30
0.0
 10
78.12614234903282
 20
-6.130713365592693
 30
0.0
 10
77.32699365804659
 20
-5.965523282743788
 30
0.0
 10
76.11958331984962
 20
-5.664583406938081
 30
0.0
 10
75.71677352218052
 20
-5.555482649139947
 30
0.0
 10
74.9159433640413
 20
-5.321275970434627
 30
0.0
 10
74.51537302306299
 20
-5.195941608730199
 30
0.0
 10
73.71053534073742
 20
-4.929516554258148
 30
0.0
 10
73.30761073395408
 20
-4.788556712525213
 30
0.0
 10
72.50622397143384
 20
-4.493122165813459
 30
0.0
 10
72.10619148261605
 20
-4.338476523552552
 30
0.0
 10
71.30149622898085
 20
-4.015912986686797
 30
0.0
 10
70.89847683902293
 20
-3.848196257073409
 30
0.0
 10
70.0965727889673
 20
-3.502215239571304
 30
0.0
 10
69.69697533027194
 20
-3.32386898946978
 30
0.0
 10
68.8924623673473
 20
-2.956861743885453
 30
0.0
 10
68.48936823590606
 20
-2.768461471047774
 30
0.0
 10
67.6869863002184
 20
-2.384453459661056
 30
0.0
 10
67.28772097804364
 20
-2.18886541386592
 30
0.0
 10
66.48343013774034
 20
-1.790719287547641
 30
0.0
 10
66.080281318931
 20
-1.588459642684831
 30
0.0
 10
65.27746097815316
 20
-1.180328343191285
 30
0.0
 10
64.87842484424752
 20
-0.974573741780394
 30
0.0
 10
64.074395921799
 20
-0.5597204558427102
 30
0.0
 10
63.67121247882925
 20
-0.3509288142597694
 30
0.0
 10
62.86799328569525
 20
0.0665421509252654
 30
0.0
 10
62.4690833540904
 20
0.2750251678261123
 30
0.0
 10
61.66535610149759
 20
0.6915510160301489
 30
0.0
 10
61.26215810333252
 20
0.8993099974825055
 30
0.0
 10
60.45857967629733
 20
1.310993539820269
 30
0.0
 10
60.05969294025411
 20
1.514670281663101
 30
0.0
 10
59.65799999999976
 20
1.716223657367045
 30
0.0
  0
SPLINE
  5
B0
330
1F
100
AcDbEntity
  8
0
  6
Continuous
 62
     4
370
    15
100
AcDbSpline
210
0.0
220
0.0
230
1.0
 70
    24
 71
     3
 72
    14
 73
    10
 74
     0
 42
0.000000001
 43
0.00000001
 40
0.0
 40
0.0
 40
0.0
 40
0.0
 40
0.25
 40
0.25
 40
0.5
 40
0.5
 40
0.75
 40
0.75
 40
1.0
 40
1.0
 40
1.0
 40
1.0
 10
59.65800000000002
 20
8.637105080588345
 30
0.0
 10
59.65800000000002
 20
7.962270867850136
 30
0.0
 10
59.65800000000002
 20
7.221952672963374
 30
0.0
 10
59.65800000000002
 20
5.76630696104621
 30
0.0
 10
59.65800000000002
 20
5.054449599994869
 30
0.0
 10
59.65800000000002
 20
3.791124405780071
 30
0.0
 10
59.65800000000002
 20
3.240127774649503
 30
0.0
 10
59.65800000000002
 20
2.337968872248429
 30
0.0
 10
59.65800000000002
 20
1.985200214210183
 30
0.0
 10
59.65800000000002
 20
1.716223657366911
 30
0.0
  0
SPLINE
  5
B1
330
1F
100
AcDbEntity
  8
0
  6
Continuous
 62
     1
370
    15
100
AcDbSpline
210
0.0
220
0.0
230
1.0
 70
     8
 71
     3
 72
    30
 73
    26
 74
     0
 42
0.000000001
 43
0.00000001
 40
0.0
 40
0.0
 40
0.0
 40
0.0
 40
0.0624999999999995
 40
0.0624999999999995
 40
0.124999999999999
 40
0.124999999999999
 40
0.249999999999998
 40
0.249999999999998
 40
0.3124999999999984
 40
0.3124999999999984
 40
0.3749999999999988
 40
0.3749999999999988
 40
0.4999999999999996
 40
0.4999999999999996
 40
0.6250000000000003
 40
0.6250000000000003
 40
0.6874999999999998
 40
0.6874999999999998
 40
0.7499999999999993
 40
0.7499999999999993
 40
0.8749999999999992
 40
0.8749999999999992
 40
0.9374999999999996
 40
0.9374999999999996
 40
1.0
 40
1.0
 40
1.0
 40
1.0
 10
75.53300000000023
 20
-1.144537999025014
 30
0.0
 10
75.20251686770911
 20
-0.8971594332929504
 30
0.0
 10
74.87382225026442
 20
-0.6490540352603097
 30
0.0
 10
74.21199883034502
 20
-0.1509104921386331
 30
0.0
 10
73.88007934695322
 20
0.0988253521511515
 30
0.0
 10
72.88589769967618
 20
0.846563564796216
 30
0.0
 10
72.22823387371287
 20
1.34234113937704
 30
0.0
 10
71.23362685797692
 20
2.07671474050411
 30
0.0
 10
70.9018491037522
 20
2.319677322632681
 30
0.0
 10
70.240871830462
 20
2.799715284594863
 30
0.0
 10
69.91218112508568
 20
3.036677571414262
 30
0.0
 10
68.91945891340623
 20
3.739072863225924
 30
0.0
 10
68.25489226097501
 20
4.194464869822325
 30
0.0
 10
66.93683652425032
 20
5.064694821827718
 30
0.0
 10
66.2707092237367
 20
5.482269920517295
 30
0.0
 10
65.27922684227228
 20
6.070717437967395
 30
0.0
 10
64.95053995837753
 20
6.260491822496044
 30
0.0
 10
64.28873379053023
 20
6.627647090454787
 30
0.0
 10
63.95681640481261
 20
6.804780703440863
 30
0.0
 10
62.96262136889646
 20
7.314363285978784
 30
0.0
 10
62.30496403582231
 20
7.624555875605273
 30
0.0
 10
61.31036333094499
 20
8.042271715516046
 30
0.0
 10
60.97858111069097
 20
8.173401815582515
 30
0.0
 10
60.317581903052
 20
8.418285676318114
 30
0.0
 10
59.98889875005145
 20
8.532005497849697
 30
0.0
 10
59.65799999999967
 20
8.637105080577953
 30
0.0
  0
SPLINE
  5
B2
330
1F
100
AcDbEntity
  8
0
  6
Continuous
 62
     1
370
    15
100
AcDbSpline
210
0.0
220
0.0
230
1.0
 70
     8
 71
     3
 72
    20
 73
    16
 74
     0
 42
0.000000001
 43
0.00000001
 40
0.0
 40
0.0
 40
0.0
 40
0.0
 40
0.125
 40
0.125
 40
0.25
 40
0.25
 40
0.375
 40
0.375
 40
0.5
 40
0.5
 40
0.625
 40
0.625
 40
0.75
 40
0.75
 40
1.0
 40
1.0
 40
1.0
 40
1.0
 10
82.31154238547028
 20
-4.853692460463557
 30
0.0
 10
82.12069258131362
 20
-4.795401838450419
 30
0.0
 10
81.9058416897487
 20
-4.732488406876548
 30
0.0
 10
81.44199172088173
 20
-4.584631405651944
 30
0.0
 10
81.19500554519807
 20
-4.500430772637913
 30
0.0
 10
80.6767181006041
 20
-4.303341388650393
 30
0.0
 10
80.405375456572
 20
-4.190530246072776
 30
0.0
 10
79.84074406345482
 20
-3.930547026515085
 30
0.0
 10
79.54941260952342
 20
-3.785100587451131
 30
0.0
 10
78.9598583812699
 20
-3.467591767229095
 30
0.0
 10
78.66020653427705
 20
-3.294840220786996
 30
0.0
 10
78.05108527923136
 20
-2.921457099921327
 30
0.0
 10
77.74036462940187
 20
-2.719513073549001
 30
0.0
 10
76.79957579191388
 20
-2.081464734285677
 30
0.0
 10
76.17184322531921
 20
-1.622735236237844
 30
0.0
 10
75.533
 20
-1.144537999024844
 30
0.0
  0
SPLINE
  5
B3
330
1F
100
AcDbEntity
  8
0
  6
Continuous
 62
     1
370
    15
100
AcDbSpline
210
0.0
220
0.0
230
1.0
 70
     8
 71
     3
 72
    13
 73
     9
 74
     0
 42
0.000000001
 43
0.00000001
 40
0.0
 40
0.0
 40
0.0
 40
0.0
 40
0.1263891798825053
 40
0.339327629292041
 40
0.4819586174730182
 40
0.6286762025866173
 40
0.8119603387562986
 40
0.9999999999999999
 40
0.9999999999999999
 40
0.9999999999999999
 40
0.9999999999999999
 10
82.2073722334042
 20
-4.825680587256887
 30
0.0
 10
82.08276228039348
 20
-4.785077553034329
 30
0.0
 10
81.748211490677
 20
-4.676067182386998
 30
0.0
 10
81.08350516850673
 20
-4.688176422028936
 30
0.0
 10
80.34625098135061
 20
-4.797486932130011
 30
0.0
 10
79.62344760390835
 20
-4.97342679866393
 30
0.0
 10
78.82266374553676
 20
-5.231656178280339
 30
0.0
 10
78.26318347643827
 20
-5.470451698747125
 30
0.0
 10
77.9798607241486
 20
-5.591378580050932
 30
0.0
  0
SPLINE
  5
B4
330
1F
100
AcDbEntity
  8
0
  6
Continuous
 62
     1
370
    15
100
AcDbSpline
210
0.0
220
0.0
230
1.0
 70
     8
 71
     3
 72
    40
 73
    36
 74
     0
 42
0.000000001
 43
0.00000001
 40
0.0
 40
0.0
 40
0.0
 40
0.0
 40
0.1249999999999962
 40
0.1249999999999962
 40
0.1874999999999955
 40
0.1874999999999955
 40
0.2499999999999949
 40
0.2499999999999949
 40
0.3749999999999936
 40
0.3749999999999936
 40
0.4374999999999929
 40
0.4374999999999929
 40
0.4999999999999922
 40
0.4999999999999922
 40
0.5624999999999916
 40
0.5624999999999916
 40
0.5937499999999925
 40
0.5937499999999925
 40
0.6249999999999933
 40
0.6249999999999933
 40
0.6562499999999943
 40
0.6562499999999943
 40
0.6874999999999952
 40
0.6874999999999952
 40
0.7187499999999962
 40
0.7187499999999962
 40
0.7499999999999971
 40
0.7499999999999971
 40
0.8124999999999979
 40
0.8124999999999979
 40
0.8749999999999986
 40
0.8749999999999986
 40
0.9374999999999993
 40
0.9374999999999993
 40
1.0
 40
1.0
 40
1.0
 40
1.0
 10
75.53300000000002
 20
2.182439315449286
 30
0.0
 10
75.9650521647476
 20
1.86533883753663
 30
0.0
 10
76.39258202068247
 20
1.543826658492856
 30
0.0
 10
77.03447330599556
 20
1.064920716830047
 30
0.0
 10
77.24854755403227
 20
0.9058632152082331
 30
0.0
 10
77.67845923754
 20
0.591022361507273
 30
0.0
 10
77.8954122167087
 20
0.4346326766865163
 30
0.0
 10
78.54530758639672
 20
-0.0178233065858848
 30
0.0
 10
78.97412571813808
 20
-0.2969941789973415
 30
0.0
 10
79.62368905029929
 20
-0.6588159644001165
 30
0.0
 10
79.84278346319098
 20
-0.7704008357734875
 30
0.0
 10
80.2774943186565
 20
-0.9629240153802298
 30
0.0
 10
80.49339389226198
 20
-1.043709235251941
 30
0.0
 10
80.92542131241842
 20
-1.164420285731488
 30
0.0
 10
81.14312200001918
 20
-1.204351076520798
 30
0.0
 10
81.46011861031113
 20
-1.219916144393319
 30
0.0
 10
81.56459593745869
 20
-1.217842477214765
 30
0.0
 10
81.77136648255463
 20
-1.196492787148519
 30
0.0
 10
81.8743907990106
 20
-1.176944504585516
 30
0.0
 10
82.07286199462757
 20
-1.118322364678662
 30
0.0
 10
82.16869196447983
 20
-1.079361864678622
 30
0.0
 10
82.35311956880828
 20
-0.979217850932306
 30
0.0
 10
82.44249431032688
 20
-0.917148615662003
 30
0.0
 10
82.60605176768938
 20
-0.772859170873751
 30
0.0
 10
82.68097904506281
 20
-0.6904795170577135
 30
0.0
 10
82.81666966847997
 20
-0.504237214537705
 30
0.0
 10
82.87783679420251
 20
-0.399068100982325
 30
0.0
 10
83.03143921209967
 20
-0.065173295890898
 30
0.0
 10
83.09749593982214
 20
0.1892951404303732
 30
0.0
 10
83.16077706444733
 20
0.7105840387157445
 30
0.0
 10
83.1595272006257
 20
0.9822528724286692
 30
0.0
 10
83.10722334003533
 20
1.518217491535536
 30
0.0
 10
83.05693049406678
 20
1.782204908646654
 30
0.0
 10
82.91972167271396
 20
2.303692799869948
 30
0.0
 10
82.83227053730174
 20
2.561738340115439
 30
0.0
 10
82.73130148905861
 20
2.812736549716848
 30
0.0
  0
SPLINE
  5
B5
330
1F
100
AcDbEntity
  8
0
  6
Continuous
 62
     1
370
    15
100
AcDbSpline
210
0.0
220
0.0
230
1.0
 70
     8
 71
     3
 72
    30
 73
    26
 74
     0
 42
0.000000001
 43
0.00000001
 40
0.0
 40
0.0
 40
0.0
 40
0.0
 40
0.0625000000000022
 40
0.0625000000000022
 40
0.1250000000000043
 40
0.1250000000000043
 40
0.2500000000000069
 40
0.2500000000000069
 40
0.3125000000000073
 40
0.3125000000000073
 40
0.3750000000000077
 40
0.3750000000000077
 40
0.5000000000000069
 40
0.5000000000000069
 40
0.625000000000006
 40
0.625000000000006
 40
0.6875000000000047
 40
0.6875000000000047
 40
0.7500000000000034
 40
0.7500000000000034
 40
0.8750000000000017
 40
0.8750000000000017
 40
0.9375000000000008
 40
0.9375000000000008
 40
1.0
 40
1.0
 40
1.0
 40
1.0
 10
75.53300000000027
 20
2.182439315449112
 30
0.0
 10
75.20251686770915
 20
2.424994191323443
 30
0.0
 10
74.87382225026444
 20
2.664876546073689
 30
0.0
 10
74.21199883034511
 20
3.139750665506304
 30
0.0
 10
73.88007934695332
 20
3.374441697754196
 30
0.0
 10
72.88589769967628
 20
4.067009001942383
 30
0.0
 10
72.22823387371297
 20
4.512720530752437
 30
0.0
 10
71.23362685797707
 20
5.152585454704647
 30
0.0
 10
70.90184910375233
 20
5.360835840685817
 30
0.0
 10
70.2408718304621
 20
5.765371278339066
 30
0.0
 10
69.91218112508587
 20
5.961574057764504
 30
0.0
 10
68.91945891340639
 20
6.532535951104696
 30
0.0
 10
68.25489226097514
 20
6.888288551526412
 30
0.0
 10
66.9368365242505
 20
7.538570182233307
 30
0.0
 10
66.27070922373693
 20
7.835124152860653
 30
0.0
 10
65.27922684227251
 20
8.228761509419039
 30
0.0
 10
64.95053995837779
 20
8.351440198759146
 30
0.0
 10
64.28873379053049
 20
8.579949316443365
 30
0.0
 10
63.95681640481294
 20
8.685608763633608
 30
0.0
 10
62.96262136889676
 20
8.975297471696011
 30
0.0
 10
62.30496403582261
 20
9.13184799186716
 30
0.0
 10
61.31036333094532
 20
9.310142564369693
 30
0.0
 10
60.97858111069129
 20
9.360057245069376
 30
0.0
 10
60.31758190305231
 20
9.440451659384806
 30
0.0
 10
59.98889875005175
 20
9.470945880019267
 30
0.0
 10
59.65800000000002
 20
9.491755539397017
 30
0.0
  0
SPLINE
  5
B6
330
1F
100
AcDbEntity
  8
0
  6
Continuous
 62
     1
370
    15
100
AcDbSpline
210
0.0
220
0.0
230
1.0
 70
     8
 71
     3
 72
    12
 73
     8
 74
     0
 42
0.000000001
 43
0.00000001
 40
0.0
 40
0.0
 40
0.0
 40
0.0
 40
0.0981124458514463
 40
0.3338477660051467
 40
0.5695752111019017
 40
0.8052958729071809
 40
1.0
 40
1.0
 40
1.0
 40
1.0
 10
78.9311452152015
 20
4.866401117319923
 30
0.0
 10
78.60225153119156
 20
4.978177250697427
 30
0.0
 10
77.48312316060573
 20
5.358518522357029
 30
0.0
 10
75.57349335380324
 20
5.889409656712817
 30
0.0
 10
73.20265589159668
 20
6.342182738993838
 30
0.0
 10
70.96934977367276
 20
6.580496601952183
 30
0.0
 10
69.52634363420624
 20
6.555386844469333
 30
0.0
 10
68.87359486596341
 20
6.544028359692637
 30
0.0
  0
SPLINE
  5
B7
330
1F
100
AcDbEntity
  8
0
  6
Continuous
 62
     1
370
    15
100
AcDbSpline
210
0.0
220
0.0
230
1.0
 70
     8
 71
     3
 72
    10
 73
     6
 74
     0
 42
0.000000001
 43
0.00000001
 40
0.0
 40
0.0
 40
0.0
 40
0.0
 40
0.5
 40
0.5
 40
1.0
 40
1.0
 40
1.0
 40
1.0
 10
77.30221163129691
 20
4.386347967396571
 30
0.0
 10
77.56653600447316
 20
4.50189558581951
 30
0.0
 10
77.83906877966602
 20
4.593768574353781
 30
0.0
 10
78.38708827343964
 20
4.750055857160337
 30
0.0
 10
78.659607152227
 20
4.813171736854606
 30
0.0
 10
78.9311452152015
 20
4.866401117319927
 30
0.0
  0
SPLINE
  5
B8
330
1F
100
AcDbEntity
  8
0
  6
Continuous
 62
     1
370
    15
100
AcDbSpline
210
0.0
220
0.0
230
1.0
 70
     8
 71
     3
 72
    10
 73
     6
 74
     0
 42
0.000000001
 43
0.00000001
 40
0.0
 40
0.0
 40
0.0
 40
0.0
 40
0.5
 40
0.5
 40
1.0
 40
1.0
 40
1.0
 40
1.0
 10
77.30221163129687
 20
4.386347967396578
 30
0.0
 10
78.19994985551949
 20
4.141757695867807
 30
0.0
 10
79.10227310528197
 20
3.885769768980237
 30
0.0
 10
80.9127706858639
 20
3.359249044127573
 30
0.0
 10
81.82146929832366
 20
3.087560142700907
 30
0.0
 10
82.73130148906165
 20
2.81273654972876
 30
0.0
  0
SPLINE
  5
B9
330
1F
100
AcDbEntity
  8
0
  6
Continuous
 62
     1
370
    15
100
AcDbSpline
210
0.0
220
0.0
230
1.0
 70
     8
 71
     3
 72
    13
 73
     9
 74
     0
 42
0.000000001
 43
0.00000001
 40
0.0
 40
0.0
 40
0.0
 40
0.0
 40
0.219442358775853
 40
0.4446956295920177
 40
0.6147670163004162
 40
0.7888112998530266
 40
0.8973172490191398
 40
1.0
 40
1.0
 40
1.0
 40
1.0
 10
75.53300000000002
 20
-9.120661588879361
 30
0.0
 10
75.92974887648431
 20
-9.013417730578764
 30
0.0
 10
76.73375268141208
 20
-8.796090158304654
 30
0.0
 10
77.84706700293357
 20
-8.24753276896972
 30
0.0
 10
78.8806172851242
 20
-7.621059016016028
 30
0.0
 10
79.70528526602094
 20
-7.047795727578608
 30
0.0
 10
80.40660950656716
 20
-6.530205332048224
 30
0.0
 10
80.7883714385992
 20
-6.248427049884923
 30
0.0
 10
80.9739891604448
 20
-6.111422706569904
 30
0.0
  0
ARC
  5
BA
330
1F
100
AcDbEntity
  8
0
  6
Continuous
 62
     1
370
    15
100
AcDbCircle
 10
75.4118454832175
 20
0.06203229776328
 30
0.0
 40
9.650906843886434
100
AcDbArc
 50
319.325244668924
 51
352.5506392774269
  0
ARC
  5
BB
330
1F
100
AcDbEntity
  8
0
  6
Continuous
 62
     1
370
    15
100
AcDbCircle
 10
78.82956781609492
 20
0.4625253490656347
 30
0.0
 40
6.3550231077575
100
AcDbArc
 50
303.2236818646145
 51
346.0915976398807
  0
ARC
  5
BC
330
1F
100
AcDbEntity
  8
0
  6
Continuous
 62
     1
370
    15
100
AcDbCircle
 10
79.87075625054064
 20
-2.100572052506138
 30
0.0
 40
5.685360189330203
100
AcDbArc
 50
25.3747112395896
 51
59.7918880097679
  0
ARC
  5
BD
330
1F
100
AcDbEntity
  8
0
  6
Continuous
 62
     1
370
    15
100
AcDbCircle
 10
76.18786512644189
 20
0.0628834150025564
 30
0.0
 40
8.823975374439703
100
AcDbArc
 50
1.772458519346342
 51
46.05387424666164
  0
SPLINE
  5
BE
330
1F
100
AcDbEntity
  8
0
  6
Continuous
 62
     1
370
    15
100
AcDbSpline
210
0.0
220
0.0
230
1.0
 70
     8
 71
     3
 72
    20
 73
    16
 74
     0
 42
0.000000001
 43
0.00000001
 40
0.0
 40
0.0
 40
0.0
 40
0.0
 40
0.125
 40
0.125
 40
0.25
 40
0.25
 40
0.375
 40
0.375
 40
0.5
 40
0.5
 40
0.625
 40
0.625
 40
0.75
 40
0.75
 40
1.0
 40
1.0
 40
1.0
 40
1.0
 10
82.31154238547025
 20
6.416080896269501
 30
0.0
 10
82.1206925813136
 20
6.683347373106178
 30
0.0
 10
81.90584168974868
 20
6.938597516458695
 30
0.0
 10
81.44199172088173
 20
7.412111782710354
 30
0.0
 10
81.19500554519807
 20
7.628650328208271
 30
0.0
 10
80.67671810060409
 20
8.019316143710382
 30
0.0
 10
80.40537545657197
 20
8.193473287012406
 30
0.0
 10
79.84074406345479
 20
8.496673702196214
 30
0.0
 10
79.54941260952342
 20
8.624363235278363
 30
0.0
 10
78.95985838126991
 20
8.828551674921092
 30
0.0
 10
78.66020653427705
 20
8.905839770786347
 30
0.0
 10
78.05108527923137
 20
9.010857804659631
 30
0.0
 10
77.74036462940187
 20
9.03846255119755
 30
0.0
 10
76.79957579191388
 20
9.045077787550996
 30
0.0
 10
76.17184322531921
 20
8.950365317875182
 30
0.0
 10
75.533
 20
8.761392476820053
 30
0.0
  0
LINE
  5
BF
330
1F
100
AcDbEntity
  8
0
  6
Continuous
 62
     4
370
    15
100
AcDbLine
 10
59.6579999999997
 20
8.637105080577975
 30
0.0
 11
59.65800000000004
 21
9.491755539397017
 31
0.0
  0
SPLINE
  5
C0
330
1F
100
AcDbEntity
  8
0
  6
Continuous
 62
     1
370
    15
100
AcDbSpline
210
0.0
220
0.0
230
1.0
 70
     8
 71
     3
 72
    30
 73
    26
 74
     0
 42
0.000000001
 43
0.00000001
 40
0.0
 40
0.0
 40
0.0
 40
0.0
 40
0.0625000000000021
 40
0.0625000000000021
 40
0.1250000000000042
 40
0.1250000000000042
 40
0.2500000000000067
 40
0.2500000000000067
 40
0.3125000000000071
 40
0.3125000000000071
 40
0.3750000000000075
 40
0.3750000000000075
 40
0.5000000000000067
 40
0.5000000000000067
 40
0.625000000000006
 40
0.625000000000006
 40
0.6875000000000048
 40
0.6875000000000048
 40
0.7500000000000036
 40
0.7500000000000036
 40
0.8750000000000019
 40
0.8750000000000019
 40
0.937500000000001
 40
0.937500000000001
 40
1.0
 40
1.0
 40
1.0
 40
1.0
 10
75.53300000000027
 20
-9.120661588879305
 30
0.0
 10
75.20251686770916
 20
-9.19249337712492
 30
0.0
 10
74.87382225026444
 20
-9.25485288273403
 30
0.0
 10
74.21199883034514
 20
-9.36072270779158
 30
0.0
 10
73.88007934695334
 20
-9.404132872262116
 30
0.0
 10
72.88589769967628
 20
-9.505145358565624
 30
0.0
 10
72.22823387371297
 20
-9.533544271110307
 30
0.0
 10
71.23362685797706
 20
-9.517404627486119
 30
0.0
 10
70.90184910375233
 20
-9.502211533957823
 30
0.0
 10
70.24087183046211
 20
-9.452400953170644
 30
0.0
 10
69.91218112508588
 20
-9.417832481842675
 30
0.0
 10
68.9194589134064
 20
-9.285000124285142
 30
0.0
 10
68.25489226097511
 20
-9.157614629090073
 30
0.0
 10
66.93683652425052
 20
-8.829680585622953
 30
0.0
 10
66.27070922373693
 20
-8.628042211508493
 30
0.0
 10
65.27922684227252
 20
-8.274477186414348
 30
0.0
 10
64.9505399583778
 20
-8.14823978436241
 30
0.0
 10
64.28873379053051
 20
-7.878732101698614
 30
0.0
 10
63.95681640481293
 20
-7.735594454597216
 30
0.0
 10
62.96262136889673
 20
-7.282978218660482
 30
0.0
 10
62.30496403582261
 20
-6.950856991905319
 30
0.0
 10
61.31036333094532
 20
-6.410582870621151
 30
0.0
 10
60.97858111069131
 20
-6.223656199424544
 30
0.0
 10
60.31758190305231
 20
-5.837899381978836
 30
0.0
 10
59.98889875005177
 20
-5.639196011085489
 30
0.0
 10
59.65800000000002
 20
-5.434464245926911
 30
0.0
  0
SPLINE
  5
C1
330
1F
100
AcDbEntity
  8
0
  6
Continuous
 62
     1
370
    15
100
AcDbSpline
210
0.0
220
0.0
230
1.0
 70
     8
 71
     3
 72
    12
 73
     8
 74
     0
 42
0.000000001
 43
0.00000001
 40
0.0
 40
0.0
 40
0.0
 40
0.0
 40
0.0510211496211807
 40
0.3466071831655437
 40
0.6426076775125074
 40
0.9386951247737823
 40
1.0
 40
1.0
 40
1.0
 40
1.0
 10
78.36222067594774
 20
-5.856003468719178
 30
0.0
 10
78.43596928436084
 20
-5.865853547669431
 30
0.0
 10
78.93697323300245
 20
-5.932769094344772
 30
0.0
 10
79.87180712100503
 20
-6.022456369377974
 30
0.0
 10
81.16486923234564
 20
-6.131826873475965
 30
0.0
 10
82.11934816341525
 20
-6.192364666227403
 30
0.0
 10
82.64170040627947
 20
-6.222854288270806
 30
0.0
 10
82.73130148906168
 20
-6.228084290029253
 30
0.0
  0
SPLINE
  5
C2
330
1F
100
AcDbEntity
  8
0
  6
Continuous
 62
     4
370
    15
100
AcDbSpline
210
0.0
220
0.0
230
1.0
 70
    24
 71
     3
 72
    14
 73
    10
 74
     0
 42
0.000000001
 43
0.00000001
 40
0.0
 40
0.0
 40
0.0
 40
0.0
 40
0.25
 40
0.25
 40
0.5
 40
0.5
 40
0.75
 40
0.75
 40
1.0
 40
1.0
 40
1.0
 40
1.0
 10
59.65800000000002
 20
1.716223657366912
 30
0.0
 10
59.65800000000002
 20
1.264379458765718
 30
0.0
 10
59.65800000000004
 20
0.7380366043253325
 30
0.0
 10
59.65800000000003
 20
-0.4439722938741212
 30
0.0
 10
59.65800000000002
 20
-1.100310540604357
 30
0.0
 10
59.65800000000003
 20
-2.450741297816175
 30
0.0
 10
59.65800000000002
 20
-3.142908919124905
 30
0.0
 10
59.65800000000004
 20
-4.410851246117272
 30
0.0
 10
59.65800000000002
 20
-4.983045158935655
 30
0.0
 10
59.65800000000002
 20
-5.434464245925793
 30
0.0
  0
SPLINE
  5
C3
330
1F
100
AcDbEntity
  8
0
  6
Continuous
 62
     1
370
    15
100
AcDbSpline
210
0.0
220
0.0
230
1.0
 70
     8
 71
     3
 72
    11
 73
     7
 74
     0
 42
0.000000001
 43
0.00000001
 40
0.0
 40
0.0
 40
0.0
 40
0.0
 40
0.2873494075099536
 40
0.5746740560518419
 40
0.8619899946237426
 40
1.0
 40
1.0
 40
1.0
 40
1.0
 10
59.65799999999966
 20
-7.796271709556535
 30
0.0
 10
60.39885036007074
 20
-8.09458991019721
 30
0.0
 10
61.8804872461143
 20
-8.69120060740327
 30
0.0
 10
64.10280213897605
 20
-9.238824471164277
 30
0.0
 10
65.94008397830598
 20
-9.519399288808641
 30
0.0
 10
67.03663130394322
 20
-9.49589406292976
 30
0.0
 10
67.39243960686908
 20
-9.488267073802785
 30
0.0
  0
LINE
  5
C4
330
1F
100
AcDbEntity
  8
0
  6
Continuous
 62
     4
370
    15
100
AcDbLine
 10
59.6579999999997
 20
-7.796271709556509
 30
0.0
 11
59.65800000000004
 21
-5.434464245926925
 31
0.0
  0
SPLINE
  5
C5
330
1F
100
AcDbEntity
  8
0
  6
Continuous
 62
     1
370
    15
100
AcDbSpline
210
0.0
220
0.0
230
1.0
 70
     8
 71
     3
 72
    10
 73
     6
 74
     0
 42
0.000000001
 43
0.00000001
 40
0.0
 40
0.0
 40
0.0
 40
0.0
 40
0.0967558764312183
 40
0.5483668306462811
 40
1.0
 40
1.0
 40
1.0
 40
1.0
 10
70.3768506084775
 20
6.542054587833148
 30
0.0
 10
70.54314338819272
 20
6.638346388490669
 30
0.0
 10
71.48561270308355
 20
7.184083055775425
 30
0.0
 10
73.20432044752707
 20
7.97687448386538
 30
0.0
 10
74.75676075517232
 20
8.499882191406082
 30
0.0
 10
75.53300000000023
 20
8.761392476820122
 30
0.0
  0
SPLINE
  5
C6
330
1F
100
AcDbEntity
  8
0
  6
Continuous
 62
     1
370
    15
100
AcDbSpline
210
0.0
220
0.0
230
1.0
 70
     8
 71
     3
 72
    13
 73
     9
 74
     0
 42
0.000000001
 43
0.00000001
 40
0.0
 40
0.0
 40
0.0
 40
0.0
 40
0.1601658051934555
 40
0.3733961882247858
 40
0.5162227201465678
 40
0.6631414516295665
 40
0.8466768660528281
 40
1.0
 40
1.0
 40
1.0
 40
1.0
 10
82.31154238547028
 20
6.416080896269523
 30
0.0
 10
82.15494282177167
 20
6.21265711768315
 30
0.0
 10
81.78986064900639
 20
5.738413171375825
 30
0.0
 10
81.0844032634908
 20
5.309933468002849
 30
0.0
 10
80.34602925855765
 20
5.064794245722592
 30
0.0
 10
79.62360141547589
 20
4.961525473418751
 30
0.0
 10
78.87626641782953
 20
4.968822245900674
 30
0.0
 10
78.36921302143432
 20
5.080277892782045
 30
0.0
 10
78.13842470927788
 20
5.1310075808325
 30
0.0
  0
LINE
  5
C7
330
1F
100
AcDbEntity
  8
중심선
100
AcDbLine
 10
-70.34200000000003
 20
-0.000000000000014
 30
0.0
 11
88.0076186143927
 21
-0.000000000000014
 31
0.0
  0
CIRCLE
  5
C8
330
1F
100
AcDbEntity
  8
외형선
100
AcDbCircle
 10
0.0
 20
0.0
 30
0.0
 40
3.000000000000004
  0
INSERT
  5
C9
330
1F
100
AcDbEntity
  8
0
  6
Continuous
 62
     7
100
AcDbBlockReference
 66
     1
  2
블럭10
 10
-8.43278629968143
 20
-51.95764267978461
 30
0.0
  0
ATTRIB
  5
CA
330
C9
100
AcDbEntity
  8
FORMAT
 62
     2
100
AcDbText
 10
-17.61408158842271
 20
-49.88227576695243
 30
0.0
 40
4.233333333333333
  1
E5978905 [ 3 FLUTE ]
 41
0.75
  7
SLDTEXTSTYLE0
 11
-17.61408158842271
 21
-51.99894243361909
 31
0.0
100
AcDbAttribute
  2
AUTOATTR0
 70
     0
 74
     1
  0
SEQEND
  5
CB
330
C9
100
AcDbEntity
  8
0
  6
Continuous
 62
     7
  0
HATCH
  5
CC
330
1F
100
AcDbEntity
  8
중심선
100
AcDbHatch
 10
0.0
 20
0.0
 30
0.0
210
0.0
220
0.0
230
1.0
  2
SOLID
 70
     1
 71
     0
 91
        1
 92
        0
 93
        4
 72
     1
 10
-2.71787699530058
 20
-35.71046837814069
 11
-6.164152239137863
 21
-35.71046837814069
 72
     1
 10
-6.164152239137863
 20
-35.71046837814069
 11
-8.292382098341886
 21
-38.24679395871328
 72
     1
 10
-8.292382098341886
 20
-38.24679395871328
 11
-4.846073769391454
 21
-38.24675452941079
 72
     1
 10
-4.846073769391454
 20
-38.24675452941079
 11
-2.71787699530058
 21
-35.71046837814069
 97
        0
 75
     0
 76
     1
 98
        1
 10
-9.65085681430867
 20
-0.0000000000000036
  0
HATCH
  5
CD
330
1F
100
AcDbEntity
  8
중심선
100
AcDbHatch
 10
0.0
 20
0.0
 30
0.0
210
0.0
220
0.0
230
1.0
  2
SOLID
 70
     1
 71
     0
 91
        1
 92
        0
 93
        4
 72
     1
 10
2.294886995735371
 20
-35.71046837814069
 11
-1.151388248101911
 21
-35.71046837814069
 72
     1
 10
-1.151388248101911
 20
-35.71046837814069
 11
-5.682526256459299
 21
-41.1104683781407
 72
     1
 10
-5.682526256459299
 20
-41.11046837814069
 11
-2.236251012622017
 21
-41.11046837814069
 72
     1
 10
-2.236251012622017
 20
-41.11046837814069
 11
2.294886995735371
 21
-35.71046837814068
 97
        0
 75
     0
 76
     1
 98
        1
 10
-9.65085681430867
 20
-0.0000000000000036
  0
HATCH
  5
CE
330
1F
100
AcDbEntity
  8
중심선
100
AcDbHatch
 10
0.0
 20
0.0
 30
0.0
210
0.0
220
0.0
230
1.0
  2
SOLID
 70
     1
 71
     0
 91
        1
 92
        0
 93
        4
 72
     1
 10
7.307650986771266
 20
-35.71046837814072
 11
3.86137574293415
 21
-35.71046837814069
 72
     1
 10
3.86137574293415
 20
-35.71046837814069
 11
-3.187061158955098
 21
-44.11046837814071
 72
     1
 10
-3.187061158955098
 20
-44.11046837814071
 11
0.2592140848821849
 21
-44.11046837814071
 72
     1
 10
0.2592140848821849
 20
-44.11046837814071
 11
7.307650986771266
 21
-35.71046837814072
 97
        0
 75
     0
 76
     1
 98
        1
 10
-9.65085681430867
 20
-0.0000000000000036
  0
HATCH
  5
CF
330
1F
100
AcDbEntity
  8
중심선
100
AcDbHatch
 10
0.0
 20
0.0
 30
0.0
210
0.0
220
0.0
230
1.0
  2
SOLID
 70
     1
 71
     0
 91
        1
 92
        0
 93
        6
 72
     3
 10
12.10754141778346
 20
-39.91046837819196
 11
3.960054785062285
 21
1.540882976769353E-10
 40
0.3939339440162626
 50
17.09539180608438
 51
320.0019657685078
 73
     0
 72
     1
 10
13.79054107348406
 20
-38.49836238277899
 11
16.0958429471851
 21
-36.56403567273107
 72
     3
 10
12.10754141773062
 20
-39.91046837814083
 11
6.600054785286831
 21
-1.278976924368180E-13
 40
0.6363583540795978
 50
39.99873849337418
 51
368.4976242363725
 73
     1
 72
     1
 10
18.53287390963123
 20
-38.95046837807071
 11
10.78760872456654
 21
-38.95046837807068
 72
     1
 10
10.78760872456654
 20
-38.95046837807068
 11
10.78758368012061
 21
-40.8704683780706
 72
     1
 10
10.78758368012061
 20
-40.8704683780706
 11
15.22896344959265
 21
-40.87046837807057
 97
        0
 75
     0
 76
     1
 98
        1
 10
-9.65085681430867
 20
-0.0000000000000036
  0
POINT
  5
D0
330
1F
100
AcDbEntity
  8
치수문자_일반주서
100
AcDbPoint
 10
-67.34200000000003
 20
-0.000000000000014
 30
0.0
  0
DIMENSION
  5
D1
330
1F
100
AcDbEntity
  8
치수문자_일반주서
100
AcDbDimension
  2
_D
 10
-78.83845802161203
 20
-9.525000000000052
 30
0.0
 11
-78.83845802161207
 21
-0.0000000000000062
 31
0.0
 70
   160
  1
%%c<>
 71
     2
 42
19.05
 52
-270.0
  3
SLDDIMSTYLE0
100
AcDbAlignedDimension
 13
-66.342
 23
9.524999999999995
 33
0.0
 14
-66.342
 24
-9.525000000000006
 34
0.0
 50
90.0000000000002
100
AcDbRotatedDimension
1001
ACAD
1000
DSTYLE
1002
{
1070
   171
1070
     6
1070
   273
1070
     7
1002
}
  0
DIMENSION
  5
E6
330
1F
100
AcDbEntity
  8
치수문자_일반주서
100
AcDbDimension
  2
_D_1
 10
85.058
 20
49.52500000000005
 30
0.0
 11
14.68100964687571
 21
49.52500000000005
 31
0.0
 70
   160
  1
<>
 71
     2
 42
152.4
  3
SLDDIMSTYLE1
100
AcDbAlignedDimension
 13
-67.342
 23
8.524999999999995
 33
0.0
 14
85.05800000000002
 24
0.0000000000000043
 34
0.0
 50
-0.0000000000000053
100
AcDbRotatedDimension
1001
ACAD
1000
DSTYLE
1002
{
1070
   171
1070
     6
1070
   273
1070
     7
1002
}
  0
DIMENSION
  5
FA
330
1F
100
AcDbEntity
  8
치수문자_일반주서
100
AcDbDimension
  2
_D_2
 10
85.05800000000002
 20
35.61151117911993
 30
0.0
 11
43.60983467860868
 21
35.61151117911993
 31
0.0
 70
   160
  1
<>
 71
     2
 42
82.55000000000001
  3
SLDDIMSTYLE1
100
AcDbAlignedDimension
 13
2.508000000000003
 23
9.017000000000005
 33
0.0
 14
85.05800000000002
 24
0.0000000000000043
 34
0.0
100
AcDbRotatedDimension
1001
ACAD
1000
DSTYLE
1002
{
1070
   171
1070
     6
1070
   273
1070
     7
1002
}
  0
DIMENSION
  5
10D
330
1F
100
AcDbEntity
  8
치수문자_일반주서
100
AcDbDimension
  2
_D_3
 10
85.05800000000002
 20
22.98676822005956
 30
0.0
 11
72.15056185579685
 21
22.98676822005956
 31
0.0
 70
   160
  1
<>
 71
     2
 42
25.40000000000016
  3
SLDDIMSTYLE0
100
AcDbAlignedDimension
 13
59.65800000000004
 23
9.491755539397017
 33
0.0
 14
85.05800000000002
 24
0.0000000000000043
 34
0.0
 50
-0.0000000000010921
100
AcDbRotatedDimension
1001
ACAD
1000
DSTYLE
1002
{
1070
   171
1070
     6
1070
   273
1070
     7
1002
}
  0
INSERT
  5
128
330
1F
100
AcDbEntity
  8
외형선
100
AcDbBlockReference
  2
SW_DOWELSYMBOL_0
 10
0.0
 20
0.0
 30
0.0
  0
DIMENSION
  5
14F
102
{ACAD_XDICTIONARY
360
150
102
}
330
1F
100
AcDbEntity
  8
치수문자_일반주서
100
AcDbDimension
  2
*D7
 10
103.2340477343295
 20
-9.524999999999995
 30
0.0
 11
103.2340477343295
 21
29.91025000000001
 31
0.0
 70
   160
  1
{%%C<>[]}
 71
     5
 42
19.05
  3
SLDDIMSTYLE0
100
AcDbAlignedDimension
 13
85.05800000000002
 23
9.525000000000006
 33
0.0
 14
85.05800000000002
 24
-9.524999999999995
 34
0.0
 50
90.0
100
AcDbRotatedDimension
1001
ACAD
1000
DSTYLE
1002
{
1070
   283
1070
     1
1070
   170
1070
     1
1070
   171
1070
     6
1070
   273
1070
     7
1002
}
  0
ENDSEC
  0
SECTION
  2
OBJECTS
  0
DICTIONARY
  5
C
330
0
100
AcDbDictionary
281
     1
  3
ACAD_GROUP
350
D
  3
ACAD_IMAGE_VARS
350
14C
  3
ACAD_LAYOUT
350
1A
  3
ACAD_MLINESTYLE
350
17
  3
ACAD_PLOTSETTINGS
350
19
  3
ACAD_PLOTSTYLENAME
350
E
  3
ACAD_SCALELIST
350
47
  3
APPDATA
350
14A
  3
DWGPROPS
350
164
  0
DICTIONARY
  5
150
330
14F
100
AcDbDictionary
280
     1
281
     1
  0
DICTIONARY
  5
D
102
{ACAD_REACTORS
330
C
102
}
330
C
100
AcDbDictionary
281
     1
  0
RASTERVARIABLES
  5
14C
102
{ACAD_REACTORS
330
C
102
}
330
C
100
AcDbRasterVariables
 90
        0
 70
     1
 71
     1
 72
     1
  0
DICTIONARY
  5
1A
102
{ACAD_REACTORS
330
C
102
}
330
C
100
AcDbDictionary
281
     1
  3
Layout1
350
1E
  3
Layout2
350
26
  3
Model
350
22
  0
DICTIONARY
  5
17
102
{ACAD_REACTORS
330
C
102
}
330
C
100
AcDbDictionary
281
     1
  3
Standard
350
18
  0
DICTIONARY
  5
19
102
{ACAD_REACTORS
330
C
102
}
330
C
100
AcDbDictionary
281
     1
  0
ACDBDICTIONARYWDFLT
  5
E
102
{ACAD_REACTORS
330
C
102
}
330
C
100
AcDbDictionary
281
     1
  3
Normal
350
F
100
AcDbDictionaryWithDefault
340
F
  0
DICTIONARY
  5
47
102
{ACAD_REACTORS
330
C
102
}
330
C
100
AcDbDictionary
281
     1
  3
A0
350
48
  3
A1
350
49
  3
A2
350
4A
  3
A3
350
4B
  3
A4
350
4C
  3
A5
350
4D
  3
A6
350
4E
  3
A7
350
4F
  3
A8
350
50
  3
A9
350
51
  3
B0
350
52
  3
B1
350
53
  3
B2
350
54
  3
B3
350
55
  3
B4
350
56
  3
B5
350
57
  3
B6
350
58
  3
B7
350
59
  3
B8
350
5A
  3
B9
350
5B
  3
C0
350
5C
  3
C1
350
5D
  3
C2
350
5E
  3
C3
350
5F
  3
C4
350
60
  3
C5
350
61
  3
C6
350
62
  3
C7
350
63
  3
C8
350
64
  3
C9
350
65
  3
D0
350
66
  3
D1
350
67
  3
D2
350
68
  0
DICTIONARY
  5
14A
102
{ACAD_REACTORS
330
C
102
}
330
C
100
AcDbDictionary
281
     1
  0
XRECORD
  5
164
102
{ACAD_REACTORS
330
C
102
}
330
C
100
AcDbXrecord
280
     1
  1
DWGPROPS COOKIE
  2

  3

  4

  6

  7

  8
12016016
  9

300
=
301
=
302
=
303
=
304
=
305
=
306
=
307
=
308
=
309
=
 40
0.0
 41
2458269.362132581
 42
2458275.036213472
  1

 90
        0
  0
LAYOUT
  5
1E
102
{ACAD_REACTORS
330
1A
102
}
330
1A
100
AcDbPlotSettings
  1

  2
none_device
  4

  6

 40
0.0
 41
0.0
 42
0.0
 43
0.0
 44
0.0
 45
0.0
 46
0.0
 47
0.0
 48
0.0
 49
0.0
140
0.0
141
0.0
142
1.0
143
1.0
 70
   688
 72
     1
 73
     0
 74
     5
  7

 75
    16
147
1.0
148
0.0
149
0.0
100
AcDbLayout
  1
Layout1
 70
     1
 71
     1
 10
0.0
 20
0.0
 11
420.0
 21
297.0
 12
0.0
 22
0.0
 32
0.0
 14
1.000000000000000E+20
 24
1.000000000000000E+20
 34
1.000000000000000E+20
 15
-1.000000000000000E+20
 25
-1.000000000000000E+20
 35
-1.000000000000000E+20
146
0.0
 13
0.0
 23
0.0
 33
0.0
 16
1.0
 26
0.0
 36
0.0
 17
0.0
 27
1.0
 37
0.0
 76
     0
330
1B
  0
LAYOUT
  5
26
102
{ACAD_REACTORS
330
1A
102
}
330
1A
100
AcDbPlotSettings
  1

  2
none_device
  4

  6

 40
0.0
 41
0.0
 42
0.0
 43
0.0
 44
0.0
 45
0.0
 46
0.0
 47
0.0
 48
0.0
 49
0.0
140
0.0
141
0.0
142
1.0
143
1.0
 70
   688
 72
     1
 73
     0
 74
     5
  7

 75
    16
147
1.0
148
0.0
149
0.0
100
AcDbLayout
  1
Layout2
 70
     1
 71
     2
 10
0.0
 20
0.0
 11
0.0
 21
0.0
 12
0.0
 22
0.0
 32
0.0
 14
0.0
 24
0.0
 34
0.0
 15
0.0
 25
0.0
 35
0.0
146
0.0
 13
0.0
 23
0.0
 33
0.0
 16
1.0
 26
0.0
 36
0.0
 17
0.0
 27
1.0
 37
0.0
 76
     0
330
23
  0
LAYOUT
  5
22
102
{ACAD_REACTORS
330
1A
102
}
330
1A
100
AcDbPlotSettings
  1

  2
none_device
  4
ANSI_A_(11.00_x_8.50_Inches)
  6

 40
6.35
 41
19.05
 42
6.35000508
 43
19.05000254
 44
279.4
 45
215.9
 46
117.2814235870496
 47
81.4941164688036
 48
0.0
 49
0.0
140
0.0
141
0.0
142
0.0601694164061515
143
1.0
 70
  1696
 72
     0
 73
     0
 74
     0
  7

 75
     0
147
0.0235690232323232
148
0.0
149
0.0
100
AcDbLayout
  1
Model
 70
     1
 71
     0
 10
0.0
 20
0.0
 11
420.0
 21
297.0
 12
0.0
 22
0.0
 32
0.0
 14
-83.21345802161211
 24
-49.88227576695243
 34
0.0
 15
103.7843810676628
 25
53.90000000000005
 35
0.0
146
0.0
 13
0.0
 23
0.0
 33
0.0
 16
1.0
 26
0.0
 36
0.0
 17
0.0
 27
1.0
 37
0.0
 76
     0
330
1F
331
29
  0
MLINESTYLE
  5
18
102
{ACAD_REACTORS
330
17
102
}
330
17
100
AcDbMlineStyle
  2
Standard
 70
     0
  3

 62
   256
 51
90.0
 52
90.0
 71
     2
 49
0.5
 62
   256
  6
BYLAYER
 49
-0.5
 62
   256
  6
BYLAYER
  0
ACDBPLACEHOLDER
  5
F
102
{ACAD_REACTORS
330
E
102
}
330
E
  0
SCALE
  5
48
102
{ACAD_REACTORS
330
47
102
}
330
47
100
AcDbScale
 70
     0
300
1:1
140
1.0
141
1.0
290
     1
  0
SCALE
  5
49
102
{ACAD_REACTORS
330
47
102
}
330
47
100
AcDbScale
 70
     0
300
1:2
140
1.0
141
2.0
290
     0
  0
SCALE
  5
4A
102
{ACAD_REACTORS
330
47
102
}
330
47
100
AcDbScale
 70
     0
300
1:4
140
1.0
141
4.0
290
     0
  0
SCALE
  5
4B
102
{ACAD_REACTORS
330
47
102
}
330
47
100
AcDbScale
 70
     0
300
1:5
140
1.0
141
5.0
290
     0
  0
SCALE
  5
4C
102
{ACAD_REACTORS
330
47
102
}
330
47
100
AcDbScale
 70
     0
300
1:8
140
1.0
141
8.0
290
     0
  0
SCALE
  5
4D
102
{ACAD_REACTORS
330
47
102
}
330
47
100
AcDbScale
 70
     0
300
1:10
140
1.0
141
10.0
290
     0
  0
SCALE
  5
4E
102
{ACAD_REACTORS
330
47
102
}
330
47
100
AcDbScale
 70
     0
300
1:16
140
1.0
141
16.0
290
     0
  0
SCALE
  5
4F
102
{ACAD_REACTORS
330
47
102
}
330
47
100
AcDbScale
 70
     0
300
1:20
140
1.0
141
20.0
290
     0
  0
SCALE
  5
50
102
{ACAD_REACTORS
330
47
102
}
330
47
100
AcDbScale
 70
     0
300
1:30
140
1.0
141
30.0
290
     0
  0
SCALE
  5
51
102
{ACAD_REACTORS
330
47
102
}
330
47
100
AcDbScale
 70
     0
300
1:40
140
1.0
141
40.0
290
     0
  0
SCALE
  5
52
102
{ACAD_REACTORS
330
47
102
}
330
47
100
AcDbScale
 70
     0
300
1:50
140
1.0
141
50.0
290
     0
  0
SCALE
  5
53
102
{ACAD_REACTORS
330
47
102
}
330
47
100
AcDbScale
 70
     0
300
1:100
140
1.0
141
100.0
290
     0
  0
SCALE
  5
54
102
{ACAD_REACTORS
330
47
102
}
330
47
100
AcDbScale
 70
     0
300
2:1
140
2.0
141
1.0
290
     0
  0
SCALE
  5
55
102
{ACAD_REACTORS
330
47
102
}
330
47
100
AcDbScale
 70
     0
300
4:1
140
4.0
141
1.0
290
     0
  0
SCALE
  5
56
102
{ACAD_REACTORS
330
47
102
}
330
47
100
AcDbScale
 70
     0
300
8:1
140
8.0
141
1.0
290
     0
  0
SCALE
  5
57
102
{ACAD_REACTORS
330
47
102
}
330
47
100
AcDbScale
 70
     0
300
10:1
140
10.0
141
1.0
290
     0
  0
SCALE
  5
58
102
{ACAD_REACTORS
330
47
102
}
330
47
100
AcDbScale
 70
     0
300
100:1
140
100.0
141
1.0
290
     0
  0
SCALE
  5
59
102
{ACAD_REACTORS
330
47
102
}
330
47
100
AcDbScale
 70
     0
300
1/128" = 1'-0"
140
0.0078125
141
12.0
290
     0
  0
SCALE
  5
5A
102
{ACAD_REACTORS
330
47
102
}
330
47
100
AcDbScale
 70
     0
300
1/64" = 1'-0"
140
0.015625
141
12.0
290
     0
  0
SCALE
  5
5B
102
{ACAD_REACTORS
330
47
102
}
330
47
100
AcDbScale
 70
     0
300
1/32" = 1'-0"
140
0.03125
141
12.0
290
     0
  0
SCALE
  5
5C
102
{ACAD_REACTORS
330
47
102
}
330
47
100
AcDbScale
 70
     0
300
1/16" = 1'-0"
140
0.0625
141
12.0
290
     0
  0
SCALE
  5
5D
102
{ACAD_REACTORS
330
47
102
}
330
47
100
AcDbScale
 70
     0
300
3/32" = 1'-0"
140
0.09375
141
12.0
290
     0
  0
SCALE
  5
5E
102
{ACAD_REACTORS
330
47
102
}
330
47
100
AcDbScale
 70
     0
300
1/8" = 1'-0"
140
0.125
141
12.0
290
     0
  0
SCALE
  5
5F
102
{ACAD_REACTORS
330
47
102
}
330
47
100
AcDbScale
 70
     0
300
3/16" = 1'-0"
140
0.1875
141
12.0
290
     0
  0
SCALE
  5
60
102
{ACAD_REACTORS
330
47
102
}
330
47
100
AcDbScale
 70
     0
300
1/4" = 1'-0"
140
0.25
141
12.0
290
     0
  0
SCALE
  5
61
102
{ACAD_REACTORS
330
47
102
}
330
47
100
AcDbScale
 70
     0
300
3/8" = 1'-0"
140
0.375
141
12.0
290
     0
  0
SCALE
  5
62
102
{ACAD_REACTORS
330
47
102
}
330
47
100
AcDbScale
 70
     0
300
1/2" = 1'-0"
140
0.5
141
12.0
290
     0
  0
SCALE
  5
63
102
{ACAD_REACTORS
330
47
102
}
330
47
100
AcDbScale
 70
     0
300
3/4" = 1'-0"
140
0.75
141
12.0
290
     0
  0
SCALE
  5
64
102
{ACAD_REACTORS
330
47
102
}
330
47
100
AcDbScale
 70
     0
300
1" = 1'-0"
140
1.0
141
12.0
290
     0
  0
SCALE
  5
65
102
{ACAD_REACTORS
330
47
102
}
330
47
100
AcDbScale
 70
     0
300
1-1/2" = 1'-0"
140
1.5
141
12.0
290
     0
  0
SCALE
  5
66
102
{ACAD_REACTORS
330
47
102
}
330
47
100
AcDbScale
 70
     0
300
3" = 1'-0"
140
3.0
141
12.0
290
     0
  0
SCALE
  5
67
102
{ACAD_REACTORS
330
47
102
}
330
47
100
AcDbScale
 70
     0
300
6" = 1'-0"
140
6.0
141
12.0
290
     0
  0
SCALE
  5
68
102
{ACAD_REACTORS
330
47
102
}
330
47
100
AcDbScale
 70
     0
300
1'-0" = 1'-0"
140
12.0
141
12.0
290
     0
  0
ENDSEC
  0
EOF
