  0
SECTION
  2
HEADER
  9
$ACADVER
  1
AC1015
  9
$ACADMAINTVER
 70
     6
  9
$DWGCODEPAGE
  3
ANSI_949
  9
$INSBASE
 10
0.0
 20
0.0
 30
0.0
  9
$EXTMIN
 10
-83.21345802161215
 20
-49.88227576695243
 30
0.0
  9
$EXTMAX
 10
127.6101936434844
 20
53.90000000000005
 30
0.0
  9
$LIMMIN
 10
0.0
 20
0.0
  9
$LIMMAX
 10
420.0
 20
297.0
  9
$ORTHOMODE
 70
     1
  9
$REGENMODE
 70
     1
  9
$FILLMODE
 70
     1
  9
$QTEXTMODE
 70
     0
  9
$MIRRTEXT
 70
     1
  9
$LTSCALE
 40
1.0
  9
$ATTMODE
 70
     1
  9
$TEXTSIZE
 40
3.5
  9
$TRACEWID
 40
1.0
  9
$TEXTSTYLE
  7
Standard
  9
$CLAYER
  8
0
  9
$CELTYPE
  6
ByLayer
  9
$CECOLOR
 62
   256
  9
$CELTSCALE
 40
1.0
  9
$DISPSILH
 70
     0
  9
$DIMSCALE
 40
1.0
  9
$DIMASZ
 40
3.302
  9
$DIMEXO
 40
1.0
  9
$DIMDLI
 40
3.75
  9
$DIMRND
 40
0.0
  9
$DIMDLE
 40
0.0
  9
$DIMEXE
 40
1.0
  9
$DIMTP
 40
0.0
  9
$DIMTM
 40
0.0
  9
$DIMTXT
 40
3.5
  9
$DIMCEN
 40
2.5
  9
$DIMTSZ
 40
0.0
  9
$DIMTOL
 70
     0
  9
$DIMLIM
 70
     0
  9
$DIMTIH
 70
     1
  9
$DIMTOH
 70
     1
  9
$DIMSE1
 70
     0
  9
$DIMSE2
 70
     0
  9
$DIMTAD
 70
     1
  9
$DIMZIN
 70
     0
  9
$DIMBLK
  1

  9
$DIMASO
 70
     1
  9
$DIMSHO
 70
     1
  9
$DIMPOST
  1

  9
$DIMAPOST
  1

  9
$DIMALT
 70
     0
  9
$DIMALTD
 70
     3
  9
$DIMALTF
 40
0.0393700787401575
  9
$DIMLFAC
 40
1.0
  9
$DIMTOFL
 70
     1
  9
$DIMTVP
 40
0.0
  9
$DIMTIX
 70
     0
  9
$DIMSOXD
 70
     0
  9
$DIMSAH
 70
     0
  9
$DIMBLK1
  1

  9
$DIMBLK2
  1

  9
$DIMSTYLE
  2
ISO-25
  9
$DIMCLRD
 70
     0
  9
$DIMCLRE
 70
     0
  9
$DIMCLRT
 70
     0
  9
$DIMTFAC
 40
1.0
  9
$DIMGAP
 40
1.524
  9
$DIMJUST
 70
     0
  9
$DIMSD1
 70
     0
  9
$DIMSD2
 70
     0
  9
$DIMTOLJ
 70
     0
  9
$DIMTZIN
 70
     0
  9
$DIMALTZ
 70
     0
  9
$DIMALTTZ
 70
     0
  9
$DIMUPT
 70
     0
  9
$DIMDEC
 70
     2
  9
$DIMTDEC
 70
     2
  9
$DIMALTU
 70
     2
  9
$DIMALTTD
 70
     3
  9
$DIMTXSTY
  7
Standard
  9
$DIMAUNIT
 70
     0
  9
$DIMADEC
 70
     2
  9
$DIMALTRND
 40
0.0
  9
$DIMAZIN
 70
     0
  9
$DIMDSEP
 70
    44
  9
$DIMATFIT
 70
     3
  9
$DIMFRAC
 70
     0
  9
$DIMLDRBLK
  1

  9
$DIMLUNIT
 70
     2
  9
$DIMLWD
 70
    -2
  9
$DIMLWE
 70
    -2
  9
$DIMTMOVE
 70
     0
  9
$LUNITS
 70
     2
  9
$LUPREC
 70
     2
  9
$SKETCHINC
 40
1.0
  9
$FILLETRAD
 40
10.0
  9
$AUNITS
 70
     0
  9
$AUPREC
 70
     2
  9
$MENU
  1
.
  9
$ELEVATION
 40
0.0
  9
$PELEVATION
 40
0.0
  9
$THICKNESS
 40
0.0
  9
$LIMCHECK
 70
     0
  9
$CHAMFERA
 40
0.0
  9
$CHAMFERB
 40
0.0
  9
$CHAMFERC
 40
0.0
  9
$CHAMFERD
 40
0.0
  9
$SKPOLY
 70
     0
  9
$TDCREATE
 40
2458269.737239676
  9
$TDUCREATE
 40
2458269.362239676
  9
$TDUPDATE
 40
2458275.409850613
  9
$TDUUPDATE
 40
2458275.034850613
  9
$TDINDWG
 40
0.0012666667
  9
$TDUSRTIMER
 40
2458275.033584167
  9
$USRTIMER
 70
     1
  9
$ANGBASE
 50
0.0
  9
$ANGDIR
 70
     0
  9
$PDMODE
 70
     0
  9
$PDSIZE
 40
-1.0
  9
$PLINEWID
 40
0.0
  9
$SPLFRAME
 70
     0
  9
$SPLINETYPE
 70
     6
  9
$SPLINESEGS
 70
     8
  9
$HANDSEED
  5
167
  9
$SURFTAB1
 70
     6
  9
$SURFTAB2
 70
     6
  9
$SURFTYPE
 70
     6
  9
$SURFU
 70
     6
  9
$SURFV
 70
     6
  9
$UCSBASE
  2

  9
$UCSNAME
  2

  9
$UCSORG
 10
0.0
 20
0.0
 30
0.0
  9
$UCSXDIR
 10
1.0
 20
0.0
 30
0.0
  9
$UCSYDIR
 10
0.0
 20
1.0
 30
0.0
  9
$UCSORTHOREF
  2

  9
$UCSORTHOVIEW
 70
     0
  9
$UCSORGTOP
 10
0.0
 20
0.0
 30
0.0
  9
$UCSORGBOTTOM
 10
0.0
 20
0.0
 30
0.0
  9
$UCSORGLEFT
 10
0.0
 20
0.0
 30
0.0
  9
$UCSORGRIGHT
 10
0.0
 20
0.0
 30
0.0
  9
$UCSORGFRONT
 10
0.0
 20
0.0
 30
0.0
  9
$UCSORGBACK
 10
0.0
 20
0.0
 30
0.0
  9
$PUCSBASE
  2

  9
$PUCSNAME
  2

  9
$PUCSORG
 10
0.0
 20
0.0
 30
0.0
  9
$PUCSXDIR
 10
1.0
 20
0.0
 30
0.0
  9
$PUCSYDIR
 10
0.0
 20
1.0
 30
0.0
  9
$PUCSORTHOREF
  2

  9
$PUCSORTHOVIEW
 70
     0
  9
$PUCSORGTOP
 10
0.0
 20
0.0
 30
0.0
  9
$PUCSORGBOTTOM
 10
0.0
 20
0.0
 30
0.0
  9
$PUCSORGLEFT
 10
0.0
 20
0.0
 30
0.0
  9
$PUCSORGRIGHT
 10
0.0
 20
0.0
 30
0.0
  9
$PUCSORGFRONT
 10
0.0
 20
0.0
 30
0.0
  9
$PUCSORGBACK
 10
0.0
 20
0.0
 30
0.0
  9
$USERI1
 70
     0
  9
$USERI2
 70
     0
  9
$USERI3
 70
     0
  9
$USERI4
 70
     0
  9
$USERI5
 70
     0
  9
$USERR1
 40
0.0
  9
$USERR2
 40
0.0
  9
$USERR3
 40
0.0
  9
$USERR4
 40
0.0
  9
$USERR5
 40
0.0
  9
$WORLDVIEW
 70
     1
  9
$SHADEDGE
 70
     3
  9
$SHADEDIF
 70
    70
  9
$TILEMODE
 70
     1
  9
$MAXACTVP
 70
    64
  9
$PINSBASE
 10
0.0
 20
0.0
 30
0.0
  9
$PLIMCHECK
 70
     0
  9
$PEXTMIN
 10
1.000000000000000E+20
 20
1.000000000000000E+20
 30
1.000000000000000E+20
  9
$PEXTMAX
 10
-1.000000000000000E+20
 20
-1.000000000000000E+20
 30
-1.000000000000000E+20
  9
$PLIMMIN
 10
0.0
 20
0.0
  9
$PLIMMAX
 10
0.0
 20
0.0
  9
$UNITMODE
 70
     0
  9
$VISRETAIN
 70
     1
  9
$PLINEGEN
 70
     0
  9
$PSLTSCALE
 70
     1
  9
$TREEDEPTH
 70
  3020
  9
$CMLSTYLE
  2
Standard
  9
$CMLJUST
 70
     0
  9
$CMLSCALE
 40
20.0
  9
$PROXYGRAPHICS
 70
     1
  9
$MEASUREMENT
 70
     1
  9
$CELWEIGHT
370
    -1
  9
$ENDCAPS
280
     0
  9
$JOINSTYLE
280
     0
  9
$LWDISPLAY
290
     1
  9
$INSUNITS
 70
     4
  9
$HYPERLINKBASE
  1

  9
$STYLESHEET
  1

  9
$XEDIT
290
     1
  9
$CEPSNTYPE
380
     0
  9
$PSTYLEMODE
290
     1
  9
$FINGERPRINTGUID
  2
{9EEDFC9C-440B-44F1-BFFD-7C731613DC35}
  9
$VERSIONGUID
  2
{FAEB1C32-E019-11D5-929B-00C0DF256EC4}
  9
$EXTNAMES
290
     1
  9
$PSVPSCALE
 40
0.0
  9
$OLESTARTUP
290
     0
  0
ENDSEC
  0
SECTION
  2
CLASSES
  0
CLASS
  1
ACDBDICTIONARYWDFLT
  2
AcDbDictionaryWithDefault
  3
ObjectDBX Classes
 90
        0
280
     0
281
     0
  0
CLASS
  1
VISUALSTYLE
  2
AcDbVisualStyle
  3
ObjectDBX Classes
 90
     4095
280
     0
281
     0
  0
CLASS
  1
MATERIAL
  2
AcDbMaterial
  3
ObjectDBX Classes
 90
     1153
280
     0
281
     0
  0
CLASS
  1
SCALE
  2
AcDbScale
  3
ObjectDBX Classes
 90
     1153
280
     0
281
     0
  0
CLASS
  1
SUN
  2
AcDbSun
  3
SCENEOE
 90
     1153
280
     0
281
     0
  0
CLASS
  1
ACDBPLACEHOLDER
  2
AcDbPlaceHolder
  3
ObjectDBX Classes
 90
        0
280
     0
281
     0
  0
CLASS
  1
LAYOUT
  2
AcDbLayout
  3
ObjectDBX Classes
 90
        0
280
     0
281
     0
  0
CLASS
  1
TABLESTYLE
  2
AcDbTableStyle
  3
ObjectDBX Classes
 90
     4095
280
     0
281
     0
  0
CLASS
  1
MLEADERSTYLE
  2
AcDbMLeaderStyle
  3
ACDB_MLEADERSTYLE_CLASS
 90
     4095
280
     0
281
     0
  0
CLASS
  1
RASTERVARIABLES
  2
AcDbRasterVariables
  3
ISM
 90
        0
280
     0
281
     0
  0
CLASS
  1
DIMASSOC
  2
AcDbDimAssoc
  3
"AcDbDimAssoc|Product Desc:     AcDim ARX App For Dimension|Company:          Autodesk, Inc.|WEB Address:      www.autodesk.com"
 90
        0
280
     0
281
     0
  0
ENDSEC
  0
SECTION
  2
TABLES
  0
TABLE
  2
VPORT
  5
8
330
0
100
AcDbSymbolTable
 70
     1
  0
VPORT
  5
29
330
8
100
AcDbSymbolTableRecord
100
AcDbViewportTableRecord
  2
*Active
 70
     0
 10
0.0
 20
0.0
 11
1.0
 21
1.0
 12
59.96837851898012
 22
18.1753495753538
 13
0.0
 23
0.0
 14
10.0
 24
10.0
 15
10.0
 25
10.0
 16
0.0
 26
0.0
 36
1.0
 17
0.0
 27
0.0
 37
0.0
 40
138.9142293438065
 41
1.515444015444016
 42
50.0
 43
0.0
 44
0.0
 50
0.0
 51
0.0
 71
    16
 72
  2000
 73
     1
 74
     3
 75
     0
 76
     0
 77
     0
 78
     0
281
     0
 65
     1
110
0.0
120
0.0
130
0.0
111
1.0
121
0.0
131
0.0
112
0.0
122
1.0
132
0.0
 79
     0
146
0.0
  0
ENDTAB
  0
TABLE
  2
LTYPE
  5
5
330
0
100
AcDbSymbolTable
 70
     6
  0
LTYPE
  5
14
330
5
100
AcDbSymbolTableRecord
100
AcDbLinetypeTableRecord
  2
ByBlock
 70
     0
  3

 72
    65
 73
     0
 40
0.0
  0
LTYPE
  5
15
330
5
100
AcDbSymbolTableRecord
100
AcDbLinetypeTableRecord
  2
ByLayer
 70
     0
  3

 72
    65
 73
     0
 40
0.0
  0
LTYPE
  5
16
330
5
100
AcDbSymbolTableRecord
100
AcDbLinetypeTableRecord
  2
Continuous
 70
     0
  3
Solid line
 72
    65
 73
     0
 40
0.0
  0
LTYPE
  5
6A
330
5
100
AcDbSymbolTableRecord
100
AcDbLinetypeTableRecord
  2
HIDDEN
 70
     0
  3
Hidden __ __ __ __ __ __ __ __ __ __ __ __ __ __
 72
    65
 73
     2
 40
1.905
 49
1.27
 74
     0
 49
-0.635
 74
     0
  0
LTYPE
  5
6B
330
5
100
AcDbSymbolTableRecord
100
AcDbLinetypeTableRecord
  2
PHANTOM
 70
     0
  3
Phantom ______  __  __  ______  __  __  ______
 72
    65
 73
     6
 40
12.7
 49
6.35
 74
     0
 49
-1.27
 74
     0
 49
1.27
 74
     0
 49
-1.27
 74
     0
 49
1.27
 74
     0
 49
-1.27
 74
     0
  0
LTYPE
  5
6C
330
5
100
AcDbSymbolTableRecord
100
AcDbLinetypeTableRecord
  2
CENTER
 70
     0
  3
Center ____ _ ____ _ ____ _ ____ _ ____ _ ____
 72
    65
 73
     4
 40
10.16
 49
6.35
 74
     0
 49
-1.27
 74
     0
 49
1.27
 74
     0
 49
-1.27
 74
     0
  0
LTYPE
  5
6D
330
5
100
AcDbSymbolTableRecord
100
AcDbLinetypeTableRecord
  2
CENTERX2
 70
     0
  3
Center (2x) ________  __  ________  __  _____
 72
    65
 73
     4
 40
20.32
 49
12.7
 74
     0
 49
-2.54
 74
     0
 49
2.54
 74
     0
 49
-2.54
 74
     0
  0
LTYPE
  5
6E
330
5
100
AcDbSymbolTableRecord
100
AcDbLinetypeTableRecord
  2
DOT2
 70
     0
  3
Dot (.5x) ........................................
 72
    65
 73
     2
 40
0.635
 49
0.0
 74
     0
 49
-0.635
 74
     0
  0
ENDTAB
  0
TABLE
  2
LAYER
  5
2
330
0
100
AcDbSymbolTable
 70
    17
  0
LAYER
  5
10
330
2
100
AcDbSymbolTableRecord
100
AcDbLayerTableRecord
  2
0
 70
     0
 62
     7
  6
Continuous
370
    -3
390
F
  0
LAYER
  5
6F
330
2
100
AcDbSymbolTableRecord
100
AcDbLayerTableRecord
  2
FORMAT
 70
     0
 62
     2
  6
Continuous
370
    -3
390
F
  0
LAYER
  5
70
330
2
100
AcDbSymbolTableRecord
100
AcDbLayerTableRecord
  2
외형선
 70
     0
 62
   100
  6
Continuous
370
    30
390
F
  0
LAYER
  5
71
330
2
100
AcDbSymbolTableRecord
100
AcDbLayerTableRecord
  2
숨은선
 70
     0
 62
     2
  6
HIDDEN
370
    15
390
F
  0
LAYER
  5
72
330
2
100
AcDbSymbolTableRecord
100
AcDbLayerTableRecord
  2
중심선
 70
     0
 62
     1
  6
CENTERX2
370
    -3
390
F
  0
LAYER
  5
73
330
2
100
AcDbSymbolTableRecord
100
AcDbLayerTableRecord
  2
파단선
 70
     0
 62
     4
  6
Continuous
370
    -3
390
F
  0
LAYER
  5
74
330
2
100
AcDbSymbolTableRecord
100
AcDbLayerTableRecord
  2
해칭선
 70
     0
 62
     4
  6
Continuous
370
    -3
390
F
  0
LAYER
  5
75
330
2
100
AcDbSymbolTableRecord
100
AcDbLayerTableRecord
  2
가는실선
 70
     0
 62
     4
  6
Continuous
370
    -3
390
F
  0
LAYER
  5
76
330
2
100
AcDbSymbolTableRecord
100
AcDbLayerTableRecord
  2
치수_보조선
 70
     0
 62
     4
  6
Continuous
370
    -3
390
F
  0
LAYER
  5
77
330
2
100
AcDbSymbolTableRecord
100
AcDbLayerTableRecord
  2
치수문자_일반주서
 70
     0
 62
     7
  6
Continuous
370
    15
390
F
  0
LAYER
  5
78
330
2
100
AcDbSymbolTableRecord
100
AcDbLayerTableRecord
  2
개별주서
 70
     0
 62
   100
  6
Continuous
370
    30
390
F
  0
LAYER
  5
79
330
2
100
AcDbSymbolTableRecord
100
AcDbLayerTableRecord
  2
중간선
 70
     0
 62
     2
  6
Continuous
370
    15
390
F
  0
LAYER
  5
7A
330
2
100
AcDbSymbolTableRecord
100
AcDbLayerTableRecord
  2
윤곽선
 70
     0
 62
     3
  6
Continuous
370
    40
390
F
  0
LAYER
  5
7B
330
2
100
AcDbSymbolTableRecord
100
AcDbLayerTableRecord
  2
중심마크
 70
     0
 62
   100
  6
Continuous
370
    30
390
F
  0
LAYER
  5
7C
330
2
100
AcDbSymbolTableRecord
100
AcDbLayerTableRecord
  2
가상선
 70
     0
 62
     4
  6
PHANTOM
370
    -3
390
F
  0
LAYER
  5
7D
330
2
100
AcDbSymbolTableRecord
100
AcDbLayerTableRecord
  2
특수지정선
 70
     0
 62
     5
  6
CENTERX2
370
    60
390
F
  0
LAYER
  5
14E
330
2
100
AcDbSymbolTableRecord
100
AcDbLayerTableRecord
  2
Defpoints
 70
     0
 62
     7
  6
Continuous
290
     0
370
    -3
390
F
  0
ENDTAB
  0
TABLE
  2
STYLE
  5
3
330
0
100
AcDbSymbolTable
 70
     2
  0
STYLE
  5
11
330
3
100
AcDbSymbolTableRecord
100
AcDbTextStyleTableRecord
  2
Standard
 70
     0
 40
0.0
 41
1.0
 50
0.0
 71
     0
 42
3.5
  3
txt
  4

  0
STYLE
  5
93
330
3
100
AcDbSymbolTableRecord
100
AcDbTextStyleTableRecord
  2
SLDTEXTSTYLE0
 70
     0
 40
0.0
 41
0.75
 50
0.0
 71
     0
 42
3.5
  3
TXT
  4

  0
ENDTAB
  0
TABLE
  2
VIEW
  5
6
330
0
100
AcDbSymbolTable
 70
     0
  0
ENDTAB
  0
TABLE
  2
UCS
  5
7
330
0
100
AcDbSymbolTable
 70
     0
  0
ENDTAB
  0
TABLE
  2
APPID
  5
9
330
0
100
AcDbSymbolTable
 70
     2
  0
APPID
  5
12
330
9
100
AcDbSymbolTableRecord
100
AcDbRegAppTableRecord
  2
ACAD
 70
     0
  0
APPID
  5
162
330
9
100
AcDbSymbolTableRecord
100
AcDbRegAppTableRecord
  2
PE_DIMMEASUREMENT
 70
     0
  0
ENDTAB
  0
TABLE
  2
DIMSTYLE
  5
A
330
0
100
AcDbSymbolTable
 70
     3
100
AcDbDimStyleTable
  0
DIMSTYLE
105
27
330
A
100
AcDbSymbolTableRecord
100
AcDbDimStyleTableRecord
  2
ISO-25
 70
     0
 41
2.5
 42
0.625
 43
3.75
 44
1.25
 73
     0
 74
     0
 77
     1
 78
     8
140
2.5
141
2.5
143
0.03937007874016
147
0.625
171
     3
172
     1
178
     0
271
     2
272
     2
274
     3
278
    44
283
     0
284
     8
340
11
  0
DIMSTYLE
105
D3
102
{ACAD_REACTORS
330
D2
330
10E
330
151
102
}
330
A
100
AcDbSymbolTableRecord
100
AcDbDimStyleTableRecord
  2
SLDDIMSTYLE0
 70
     0
 41
3.302
 44
0.0
 45
0.000000001
 73
     0
 74
     0
 77
     1
 78
    12
 79
     3
140
3.5
143
0.0393700787401575
147
0.875
148
0.000000001
170
     1
172
     1
173
     1
178
     0
271
     2
272
     2
276
     2
284
    12
289
     0
340
93
  0
DIMSTYLE
105
E8
102
{ACAD_REACTORS
330
E7
330
FB
102
}
330
A
100
AcDbSymbolTableRecord
100
AcDbDimStyleTableRecord
  2
SLDDIMSTYLE1
 70
     0
 41
3.302
 44
0.0
 45
0.000000001
 73
     0
 74
     0
 77
     1
 78
    12
 79
     3
140
3.5
143
0.0393700787401575
147
0.875
148
0.000000001
170
     1
173
     1
178
     0
271
     2
272
     2
276
     2
284
    12
340
93
  0
ENDTAB
  0
TABLE
  2
BLOCK_RECORD
  5
1
330
0
100
AcDbSymbolTable
 70
     8
  0
BLOCK_RECORD
  5
1F
330
1
100
AcDbSymbolTableRecord
100
AcDbBlockTableRecord
  2
*Model_Space
340
22
  0
BLOCK_RECORD
  5
1B
330
1
100
AcDbSymbolTableRecord
100
AcDbBlockTableRecord
  2
*Paper_Space
340
1E
  0
BLOCK_RECORD
  5
23
330
1
100
AcDbSymbolTableRecord
100
AcDbBlockTableRecord
  2
*Paper_Space0
340
26
  0
BLOCK_RECORD
  5
7E
330
1
100
AcDbSymbolTableRecord
100
AcDbBlockTableRecord
  2
블럭10
340
0
102
{BLKREFS
331
CA
102
}
  0
BLOCK_RECORD
  5
D4
330
1
100
AcDbSymbolTableRecord
100
AcDbBlockTableRecord
  2
_D
340
0
  0
BLOCK_RECORD
  5
E9
330
1
100
AcDbSymbolTableRecord
100
AcDbBlockTableRecord
  2
_D_1
340
0
  0
BLOCK_RECORD
  5
FC
330
1
100
AcDbSymbolTableRecord
100
AcDbBlockTableRecord
  2
_D_2
340
0
  0
BLOCK_RECORD
  5
10F
330
1
100
AcDbSymbolTableRecord
100
AcDbBlockTableRecord
  2
_D_3
340
0
  0
BLOCK_RECORD
  5
123
330
1
100
AcDbSymbolTableRecord
100
AcDbBlockTableRecord
  2
SW_DOWELSYMBOL_0
340
0
102
{BLKREFS
331
129
102
}
  0
BLOCK_RECORD
  5
154
330
1
100
AcDbSymbolTableRecord
100
AcDbBlockTableRecord
  2
*D7
340
0
  0
ENDTAB
  0
ENDSEC
  0
SECTION
  2
BLOCKS
  0
BLOCK
  5
20
330
1F
100
AcDbEntity
  8
0
100
AcDbBlockBegin
  2
*Model_Space
 70
     0
 10
0.0
 20
0.0
 30
0.0
  3
*Model_Space
  1
*Model_Space
  0
ENDBLK
  5
21
330
1F
100
AcDbEntity
  8
0
100
AcDbBlockEnd
  0
BLOCK
  5
1C
330
1B
100
AcDbEntity
 67
     1
  8
0
100
AcDbBlockBegin
  2
*Paper_Space
 70
     0
 10
0.0
 20
0.0
 30
0.0
  3
*Paper_Space
  1
*Paper_Space
  0
ENDBLK
  5
1D
330
1B
100
AcDbEntity
 67
     1
  8
0
100
AcDbBlockEnd
  0
BLOCK
  5
24
330
23
100
AcDbEntity
  8
0
100
AcDbBlockBegin
  2
*Paper_Space0
 70
     0
 10
0.0
 20
0.0
 30
0.0
  3
*Paper_Space0
  1
*Paper_Space0
  0
ENDBLK
  5
25
330
23
100
AcDbEntity
  8
0
100
AcDbBlockEnd
  0
BLOCK
  5
7F
330
7E
100
AcDbEntity
  8
0
100
AcDbBlockBegin
  2
블럭10
 70
     2
 10
0.0
 20
0.0
 30
0.0
  3
블럭10
  1
블럭10
  0
ELLIPSE
  5
81
330
7E
100
AcDbEntity
  8
중심선
100
AcDbEllipse
 10
20.54032771741204
 20
12.0471743016438
 30
0.0
 11
6.600054785286829
 21
-1.261213355974178E-13
 31
0.0
210
0.0
220
0.0
230
1.0
 40
0.636358354079598
 41
0.9219305317359503
 42
6.513795318482858
  0
ELLIPSE
  5
82
330
7E
100
AcDbEntity
  8
중심선
100
AcDbEllipse
 10
20.54032771746488
 20
12.04717430159265
 30
0.0
 11
3.960054785062283
 21
1.540847449632565E-10
 31
0.0
210
0.0
220
0.0
230
1.0
 40
0.3939339440162632
 41
1.131841032648279
 42
5.62031148352944
  0
LINE
  5
83
330
7E
100
AcDbEntity
  8
중심선
100
AcDbLine
 10
2.268634060543552
 20
16.24717430164393
 30
0.0
 11
5.714909304380834
 21
16.24717430164393
 31
0.0
  0
LINE
  5
84
330
7E
100
AcDbEntity
  8
중심선
100
AcDbLine
 10
5.245725140726316
 20
7.84717430164391
 30
0.0
 11
8.692000384563599
 21
7.84717430164391
 31
0.0
  0
LINE
  5
85
330
7E
100
AcDbEntity
  8
중심선
100
AcDbLine
 10
15.74043728645272
 20
16.24717430164393
 30
0.0
 11
8.692000384563599
 21
7.84717430164391
 31
0.0
  0
LINE
  5
86
330
7E
100
AcDbEntity
  8
중심선
100
AcDbLine
 10
0.1404042013395286
 20
13.71084872107135
 30
0.0
 11
3.58671253028996
 21
13.71088815037384
 31
0.0
  0
LINE
  5
87
330
7E
100
AcDbEntity
  8
중심선
100
AcDbLine
 10
2.750260043222114
 20
10.84717430164391
 30
0.0
 11
6.196535287059397
 21
10.84717430164391
 31
0.0
  0
LINE
  5
88
330
7E
100
AcDbEntity
  8
중심선
100
AcDbLine
 10
12.29416204261559
 20
16.24717430164393
 30
0.0
 11
5.245725140726316
 21
7.84717430164391
 31
0.0
  0
LINE
  5
89
330
7E
100
AcDbEntity
  8
중심선
100
AcDbLine
 10
10.72767329541681
 20
16.24717430164393
 30
0.0
 11
6.196535287059397
 21
10.84717430164391
 31
0.0
  0
LINE
  5
8A
330
7E
100
AcDbEntity
  8
중심선
100
AcDbLine
 10
7.28139805157953
 20
16.24717430164393
 30
0.0
 11
2.750260043222114
 21
10.84717430164391
 31
0.0
  0
LINE
  5
8B
330
7E
100
AcDbEntity
  8
중심선
100
AcDbLine
 10
5.714909304380834
 20
16.24717430164393
 30
0.0
 11
3.58671253028996
 21
13.71088815037384
 31
0.0
  0
LINE
  5
8C
330
7E
100
AcDbEntity
  8
중심선
100
AcDbLine
 10
2.268634060543552
 20
16.24717430164393
 30
0.0
 11
0.1404042013395286
 21
13.71084872107135
 31
0.0
  0
LINE
  5
8D
330
7E
100
AcDbEntity
  8
중심선
100
AcDbLine
 10
7.28139805157953
 20
16.24717430164393
 30
0.0
 11
10.72767329541681
 21
16.24717430164393
 31
0.0
  0
LINE
  5
8E
330
7E
100
AcDbEntity
  8
중심선
100
AcDbLine
 10
12.29416204261559
 20
16.24717430164393
 30
0.0
 11
15.74043728645272
 21
16.24717430164393
 31
0.0
  0
LINE
  5
8F
330
7E
100
AcDbEntity
  8
중심선
100
AcDbLine
 10
19.22036997980202
 20
11.08717430171403
 30
0.0
 11
23.66174974927406
 21
11.08717430171406
 31
0.0
  0
LINE
  5
90
330
7E
100
AcDbEntity
  8
중심선
100
AcDbLine
 10
19.22039502424796
 20
13.00717430171391
 30
0.0
 11
19.22036997980202
 21
11.08717430171403
 31
0.0
  0
LINE
  5
91
330
7E
100
AcDbEntity
  8
중심선
100
AcDbLine
 10
19.22039502424796
 20
13.00717430171391
 30
0.0
 11
26.96566020931264
 21
13.00717430171391
 31
0.0
  0
LINE
  5
92
330
7E
100
AcDbEntity
  8
중심선
100
AcDbLine
 10
22.22332737316547
 20
13.45928029700563
 30
0.0
 11
24.52862924686651
 21
15.39360700705356
 31
0.0
  0
ATTDEF
  5
94
330
7E
100
AcDbEntity
  8
FORMAT
 62
     2
100
AcDbText
 10
-9.18129528874128
 20
2.075366912832191
 30
0.0
 40
4.233333333333333
  1
E5978906 [ 3 FLUTE ]
 41
0.75
  7
SLDTEXTSTYLE0
 11
-9.18129528874128
 21
-0.0412997538344756
 31
0.0
100
AcDbAttributeDefinition
  3

  2
AUTOATTR0
 70
     0
 74
     1
  0
ENDBLK
  5
80
330
7E
100
AcDbEntity
  8
0
100
AcDbBlockEnd
  0
BLOCK
  5
D5
330
D4
100
AcDbEntity
  8
0
100
AcDbBlockBegin
  2
_D
 70
     0
 10
0.0
 20
0.0
 30
0.0
  3
_D
  1
_D
  0
LINE
  5
D7
330
D4
100
AcDbEntity
  8
치수문자_일반주서
 62
     0
370
    -2
100
AcDbLine
 10
-66.40450000000003
 20
9.524999999999995
 30
0.0
 11
-78.83845802161214
 21
9.524999999999949
 31
0.0
  0
LINE
  5
D8
330
D4
100
AcDbEntity
  8
치수문자_일반주서
 62
     0
370
    -2
100
AcDbLine
 10
-66.40450000000003
 20
-9.525000000000006
 30
0.0
 11
-78.83845802161207
 21
-9.525000000000052
 31
0.0
  0
LINE
  5
D9
330
D4
100
AcDbEntity
  8
치수문자_일반주서
 62
     0
370
    -2
100
AcDbLine
 10
-78.83845802161213
 20
6.222999999999949
 30
0.0
 11
-78.83845802161208
 21
-6.223000000000052
 31
0.0
  0
SOLID
  5
DA
330
D4
100
AcDbEntity
  8
치수문자_일반주서
 62
     0
100
AcDbTrace
 10
-78.2881246882788
 20
6.222999999999951
 30
0.0
 11
-79.38879135494545
 21
6.222999999999947
 31
0.0
 12
-78.83845802161214
 22
9.524999999999949
 32
0.0
 13
-78.83845802161214
 23
9.524999999999949
 33
0.0
  0
SOLID
  5
DB
330
D4
100
AcDbEntity
  8
치수문자_일반주서
 62
     0
100
AcDbTrace
 10
-79.38879135494541
 20
-6.223000000000054
 30
0.0
 11
-78.28812468827876
 21
-6.22300000000005
 31
0.0
 12
-78.83845802161207
 22
-9.525000000000052
 32
0.0
 13
-78.83845802161207
 23
-9.525000000000052
 33
0.0
  0
MTEXT
  5
DC
330
D4
100
AcDbEntity
  8
치수문자_일반주서
 62
     0
100
AcDbMText
 10
-83.21345802161211
 20
-0.0000000000000224
 30
0.0
 40
3.5
 41
0.0
 71
     2
 72
     1
  1
\A1;%%c19.05 [3/4]
  7
SLDTEXTSTYLE0
 11
-3.729883127349607E-15
 21
1.0
 31
0.0
 73
     1
 44
1.0
  0
POINT
  5
DD
330
D4
100
AcDbEntity
  8
Defpoints
 62
     0
100
AcDbPoint
 10
-66.34200000000003
 20
9.524999999999995
 30
0.0
  0
POINT
  5
DE
330
D4
100
AcDbEntity
  8
Defpoints
 62
     0
100
AcDbPoint
 10
-66.34200000000003
 20
-9.525000000000006
 30
0.0
  0
POINT
  5
DF
330
D4
100
AcDbEntity
  8
Defpoints
 62
     0
100
AcDbPoint
 10
-78.83845802161207
 20
-9.525000000000052
 30
0.0
  0
ENDBLK
  5
D6
330
D4
100
AcDbEntity
  8
0
100
AcDbBlockEnd
  0
BLOCK
  5
EA
330
E9
100
AcDbEntity
  8
0
100
AcDbBlockBegin
  2
_D_1
 70
     0
 10
0.0
 20
0.0
 30
0.0
  3
_D_1
  1
_D_1
  0
LINE
  5
EC
330
E9
100
AcDbEntity
  8
치수문자_일반주서
 62
     0
370
    -2
100
AcDbLine
 10
-67.34200000000003
 20
8.587499999999995
 30
0.0
 11
-67.34200000000003
 21
49.52500000000005
 31
0.0
  0
LINE
  5
ED
330
E9
100
AcDbEntity
  8
치수문자_일반주서
 62
     0
370
    -2
100
AcDbLine
 10
110.458
 20
0.0625000000000043
 30
0.0
 11
110.458
 21
49.52500000000005
 31
0.0
  0
LINE
  5
EE
330
E9
100
AcDbEntity
  8
치수문자_일반주서
 62
     0
370
    -2
100
AcDbLine
 10
-64.04000000000002
 20
49.52500000000005
 30
0.0
 11
107.156
 21
49.52500000000005
 31
0.0
  0
SOLID
  5
EF
330
E9
100
AcDbEntity
  8
치수문자_일반주서
 62
     0
100
AcDbTrace
 10
-64.04000000000002
 20
50.07533333333338
 30
0.0
 11
-64.04000000000002
 21
48.97466666666671
 31
0.0
 12
-67.34200000000003
 22
49.52500000000005
 32
0.0
 13
-67.34200000000003
 23
49.52500000000005
 33
0.0
  0
SOLID
  5
F0
330
E9
100
AcDbEntity
  8
치수문자_일반주서
 62
     0
100
AcDbTrace
 10
107.156
 20
48.97466666666671
 30
0.0
 11
107.156
 21
50.07533333333338
 31
0.0
 12
110.458
 22
49.52500000000005
 32
0.0
 13
110.458
 23
49.52500000000005
 33
0.0
  0
MTEXT
  5
F1
330
E9
100
AcDbEntity
  8
치수문자_일반주서
 62
     0
100
AcDbMText
 10
28.35603203274613
 20
53.90000000000005
 30
0.0
 40
3.5
 41
0.0
 71
     2
 72
     1
  1
\A1;177.8 [7]
  7
SLDTEXTSTYLE0
 73
     1
 44
1.0
  0
POINT
  5
F2
330
E9
100
AcDbEntity
  8
Defpoints
 62
     0
100
AcDbPoint
 10
-67.34200000000003
 20
8.524999999999995
 30
0.0
  0
POINT
  5
F3
330
E9
100
AcDbEntity
  8
Defpoints
 62
     0
100
AcDbPoint
 10
110.458
 20
0.0000000000000043
 30
0.0
  0
POINT
  5
F4
330
E9
100
AcDbEntity
  8
Defpoints
 62
     0
100
AcDbPoint
 10
110.458
 20
49.52500000000005
 30
0.0
  0
ENDBLK
  5
EB
330
E9
100
AcDbEntity
  8
0
100
AcDbBlockEnd
  0
BLOCK
  5
FD
330
FC
100
AcDbEntity
  8
0
100
AcDbBlockBegin
  2
_D_2
 70
     0
 10
0.0
 20
0.0
 30
0.0
  3
_D_2
  1
_D_2
  0
LINE
  5
FF
330
FC
100
AcDbEntity
  8
치수문자_일반주서
 62
     0
370
    -2
100
AcDbLine
 10
2.507999999999996
 20
9.079500000000005
 30
0.0
 11
2.507999999999996
 21
33.89566299829283
 31
0.0
  0
LINE
  5
100
330
FC
100
AcDbEntity
  8
치수문자_일반주서
 62
     0
370
    -2
100
AcDbLine
 10
110.458
 20
0.0625000000000042
 30
0.0
 11
110.458
 21
33.89566299829283
 31
0.0
  0
LINE
  5
101
330
FC
100
AcDbEntity
  8
치수문자_일반주서
 62
     0
370
    -2
100
AcDbLine
 10
5.809999999999995
 20
33.89566299829283
 30
0.0
 11
107.156
 21
33.89566299829283
 31
0.0
  0
SOLID
  5
102
330
FC
100
AcDbEntity
  8
치수문자_일반주서
 62
     0
100
AcDbTrace
 10
5.809999999999995
 20
34.44599633162617
 30
0.0
 11
5.809999999999995
 21
33.3453296649595
 31
0.0
 12
2.507999999999996
 22
33.89566299829283
 32
0.0
 13
2.507999999999996
 23
33.89566299829283
 33
0.0
  0
SOLID
  5
103
330
FC
100
AcDbEntity
  8
치수문자_일반주서
 62
     0
100
AcDbTrace
 10
107.156
 20
33.3453296649595
 30
0.0
 11
107.156
 21
34.44599633162617
 31
0.0
 12
110.458
 22
33.89566299829283
 32
0.0
 13
110.458
 23
33.89566299829283
 33
0.0
  0
MTEXT
  5
104
330
FC
100
AcDbEntity
  8
치수문자_일반주서
 62
     0
100
AcDbMText
 10
56.80506907162846
 20
38.27066299829283
 30
0.0
 40
3.5
 41
0.0
 71
     2
 72
     1
  1
\A1;107.95 [4 1/4]
  7
SLDTEXTSTYLE0
 73
     1
 44
1.0
  0
POINT
  5
105
330
FC
100
AcDbEntity
  8
Defpoints
 62
     0
100
AcDbPoint
 10
2.507999999999996
 20
9.017000000000005
 30
0.0
  0
POINT
  5
106
330
FC
100
AcDbEntity
  8
Defpoints
 62
     0
100
AcDbPoint
 10
110.458
 20
0.0000000000000043
 30
0.0
  0
POINT
  5
107
330
FC
100
AcDbEntity
  8
Defpoints
 62
     0
100
AcDbPoint
 10
110.458
 20
33.89566299829283
 30
0.0
  0
ENDBLK
  5
FE
330
FC
100
AcDbEntity
  8
0
100
AcDbBlockEnd
  0
BLOCK
  5
110
330
10F
100
AcDbEntity
  8
0
100
AcDbBlockBegin
  2
_D_3
 70
     0
 10
0.0
 20
0.0
 30
0.0
  3
_D_3
  1
_D_3
  0
LINE
  5
112
330
10F
100
AcDbEntity
  8
치수문자_일반주서
 62
     0
370
    -2
100
AcDbLine
 10
85.05800000000004
 20
9.55425553939702
 30
0.0
 11
85.05800000000004
 21
25.39830197801731
 31
0.0
  0
LINE
  5
113
330
10F
100
AcDbEntity
  8
치수문자_일반주서
 62
     0
370
    -2
100
AcDbLine
 10
110.458
 20
0.0625000000000043
 30
0.0
 11
110.458
 21
25.39830197801731
 31
0.0
  0
LINE
  5
114
330
10F
100
AcDbEntity
  8
치수문자_일반주서
 62
     0
370
    -2
100
AcDbLine
 10
88.36000000000004
 20
25.39830197801731
 30
0.0
 11
107.156
 21
25.39830197801731
 31
0.0
  0
SOLID
  5
115
330
10F
100
AcDbEntity
  8
치수문자_일반주서
 62
     0
100
AcDbTrace
 10
88.36000000000004
 20
25.94863531135065
 30
0.0
 11
88.36000000000004
 21
24.84796864468398
 31
0.0
 12
85.05800000000004
 22
25.39830197801731
 32
0.0
 13
85.05800000000004
 23
25.39830197801731
 33
0.0
  0
SOLID
  5
116
330
10F
100
AcDbEntity
  8
치수문자_일반주서
 62
     0
100
AcDbTrace
 10
107.156
 20
24.84796864468398
 30
0.0
 11
107.156
 21
25.94863531135065
 31
0.0
 12
110.458
 22
25.39830197801731
 32
0.0
 13
110.458
 23
25.39830197801731
 33
0.0
  0
MTEXT
  5
117
330
10F
100
AcDbEntity
  8
치수문자_일반주서
 62
     0
100
AcDbMText
 10
97.56754563583426
 20
29.77330197801731
 30
0.0
 40
3.5
 41
0.0
 71
     2
 72
     1
  1
\A1;25.4 [1]
  7
SLDTEXTSTYLE0
 73
     1
 44
1.0
  0
POINT
  5
118
330
10F
100
AcDbEntity
  8
Defpoints
 62
     0
100
AcDbPoint
 10
85.05800000000004
 20
9.49175553939702
 30
0.0
  0
POINT
  5
119
330
10F
100
AcDbEntity
  8
Defpoints
 62
     0
100
AcDbPoint
 10
110.458
 20
0.0000000000000043
 30
0.0
  0
POINT
  5
11A
330
10F
100
AcDbEntity
  8
Defpoints
 62
     0
100
AcDbPoint
 10
110.458
 20
25.39830197801731
 30
0.0
  0
ENDBLK
  5
111
330
10F
100
AcDbEntity
  8
0
100
AcDbBlockEnd
  0
BLOCK
  5
124
330
123
100
AcDbEntity
  8
0
100
AcDbBlockBegin
  2
SW_DOWELSYMBOL_0
 70
     0
 10
0.0
 20
0.0
 30
0.0
  3
SW_DOWELSYMBOL_0
  1
SW_DOWELSYMBOL_0
  0
CIRCLE
  5
126
330
123
100
AcDbEntity
  8
외형선
 62
     0
100
AcDbCircle
 10
0.0
 20
0.0
 30
0.0
 40
3.000000000000004
  0
HATCH
  5
127
330
123
100
AcDbEntity
  8
0
  6
Continuous
 62
     0
370
    30
100
AcDbHatch
 10
0.0
 20
0.0
 30
0.0
210
0.0
220
0.0
230
1.0
  2
SOLID
 70
     1
 71
     0
 91
        1
 92
        0
 93
        3
 72
     2
 10
0.0
 20
0.0
 40
3.000000000000004
 50
0.0
 51
90.0
 73
     1
 72
     1
 10
0.0
 20
3.000000000000004
 11
0.0
 21
0.0
 72
     1
 10
0.0
 20
0.0
 11
3.000000000000006
 21
0.0
 97
        0
 75
     0
 76
     1
 98
        1
 10
0.0
 20
0.0
  0
HATCH
  5
128
330
123
100
AcDbEntity
  8
0
  6
Continuous
 62
     0
370
    30
100
AcDbHatch
 10
0.0
 20
0.0
 30
0.0
210
0.0
220
0.0
230
1.0
  2
SOLID
 70
     1
 71
     0
 91
        1
 92
        0
 93
        3
 72
     2
 10
0.0
 20
0.0
 40
3.000000000000004
 50
180.0
 51
270.0000000000008
 73
     1
 72
     1
 10
0.0
 20
-3.000000000000004
 11
0.0
 21
0.0
 72
     1
 10
0.0
 20
0.0
 11
-3.000000000000006
 21
0.0
 97
        0
 75
     0
 76
     1
 98
        1
 10
0.0
 20
0.0
  0
ENDBLK
  5
125
330
123
100
AcDbEntity
  8
0
100
AcDbBlockEnd
  0
BLOCK
  5
155
330
154
100
AcDbEntity
  8
0
100
AcDbBlockBegin
  2
*D7
 70
     1
 10
0.0
 20
0.0
 30
0.0
  3
*D7
  1
*D7
  0
LINE
  5
157
330
154
100
AcDbEntity
  8
치수문자_일반주서
 62
     0
370
    -2
100
AcDbLine
 10
110.5205
 20
9.587500000000004
 30
0.0
 11
127.0598603101511
 21
9.587500000000006
 31
0.0
  0
LINE
  5
158
330
154
100
AcDbEntity
  8
치수문자_일반주서
 62
     0
370
    -2
100
AcDbLine
 10
110.5205
 20
-9.462499999999997
 30
0.0
 11
127.0598603101511
 21
-9.462499999999999
 31
0.0
  0
LINE
  5
159
330
154
100
AcDbEntity
  8
치수문자_일반주서
 62
     0
370
    -2
100
AcDbLine
 10
127.0598603101511
 20
9.587500000000006
 30
0.0
 11
127.0598603101511
 21
43.754
 31
0.0
  0
LINE
  5
15A
330
154
100
AcDbEntity
  8
치수문자_일반주서
 62
     0
370
    -2
100
AcDbLine
 10
127.0598603101511
 20
9.587500000000006
 30
0.0
 11
127.0598603101511
 21
-9.462499999999999
 31
0.0
  0
LINE
  5
15B
330
154
100
AcDbEntity
  8
치수문자_일반주서
 62
     0
370
    -2
100
AcDbLine
 10
127.0598603101511
 20
12.88950000000001
 30
0.0
 11
127.0598603101511
 21
16.1915
 31
0.0
  0
LINE
  5
15C
330
154
100
AcDbEntity
  8
치수문자_일반주서
 62
     0
370
    -2
100
AcDbLine
 10
127.0598603101511
 20
-12.7645
 30
0.0
 11
127.0598603101511
 21
-16.0665
 31
0.0
  0
SOLID
  5
15D
330
154
100
AcDbEntity
  8
치수문자_일반주서
 62
     0
100
AcDbTrace
 10
126.5095269768178
 20
12.88950000000001
 30
0.0
 11
127.6101936434844
 21
12.88950000000001
 31
0.0
 12
127.0598603101511
 22
9.587500000000006
 32
0.0
 13
127.0598603101511
 23
9.587500000000006
 33
0.0
  0
SOLID
  5
15E
330
154
100
AcDbEntity
  8
치수문자_일반주서
 62
     0
100
AcDbTrace
 10
127.6101936434844
 20
-12.7645
 30
0.0
 11
126.5095269768178
 21
-12.7645
 31
0.0
 12
127.0598603101511
 22
-9.462499999999999
 32
0.0
 13
127.0598603101511
 23
-9.462499999999999
 33
0.0
  0
MTEXT
  5
15F
330
154
100
AcDbEntity
  8
치수문자_일반주서
 62
     0
100
AcDbMText
 10
124.4348603101511
 20
29.97275
 30
0.0
 40
3.5
 41
0.0
 71
     5
 72
     1
  1
\A1;{%%C19.05 [3/4]}
  7
SLDTEXTSTYLE0
 11
0.0
 21
1.0
 31
0.0
 73
     1
 44
1.0
  0
POINT
  5
160
330
154
100
AcDbEntity
  8
Defpoints
 62
     0
100
AcDbPoint
 10
110.458
 20
9.587500000000004
 30
0.0
  0
POINT
  5
161
330
154
100
AcDbEntity
  8
Defpoints
 62
     0
100
AcDbPoint
 10
110.458
 20
-9.462499999999997
 30
0.0
  0
POINT
  5
163
330
154
100
AcDbEntity
  8
Defpoints
 62
     0
100
AcDbPoint
 10
127.0598603101511
 20
-9.462499999999999
 30
0.0
  0
ENDBLK
  5
156
330
154
100
AcDbEntity
  8
0
100
AcDbBlockEnd
  0
ENDSEC
  0
SECTION
  2
ENTITIES
  0
LINE
  5
95
330
1F
100
AcDbEntity
  8
0
  6
Continuous
 62
     4
370
    15
100
AcDbLine
 10
2.0
 20
9.525000000000002
 30
0.0
 11
-66.34200000000003
 21
9.524999999999995
 31
0.0
  0
LINE
  5
96
330
1F
100
AcDbEntity
  8
0
  6
Continuous
 62
     4
370
    15
100
AcDbLine
 10
-66.34200000000003
 20
-9.52500000000001
 30
0.0
 11
2.0
 21
-9.525000000000002
 31
0.0
  0
LINE
  5
97
330
1F
100
AcDbEntity
  8
0
  6
Continuous
 62
     4
370
    15
100
AcDbLine
 10
2.0
 20
-9.525000000000006
 30
0.0
 11
2.507999999999996
 21
-9.017000000000005
 31
0.0
  0
LINE
  5
98
330
1F
100
AcDbEntity
  8
0
  6
Continuous
 62
     4
370
    15
100
AcDbLine
 10
2.507999999999996
 20
9.017000000000005
 30
0.0
 11
2.0
 21
9.525000000000002
 31
0.0
  0
LINE
  5
99
330
1F
100
AcDbEntity
  8
0
  6
Continuous
 62
     4
370
    15
100
AcDbLine
 10
-66.34200000000003
 20
9.524999999999995
 30
0.0
 11
-67.34200000000003
 21
8.524999999999995
 31
0.0
  0
LINE
  5
9A
330
1F
100
AcDbEntity
  8
0
  6
Continuous
 62
     4
370
    15
100
AcDbLine
 10
-67.34200000000003
 20
-8.52500000000001
 30
0.0
 11
-66.34200000000003
 21
-9.525000000000006
 31
0.0
  0
LINE
  5
9B
330
1F
100
AcDbEntity
  8
0
  6
Continuous
 62
     4
370
    15
100
AcDbLine
 10
84.08030031093759
 20
9.017000000000005
 30
0.0
 11
2.507999999999996
 21
9.017000000000001
 31
0.0
  0
LINE
  5
9C
330
1F
100
AcDbEntity
  8
0
  6
Continuous
 62
     4
370
    15
100
AcDbLine
 10
2.507999999999996
 20
-9.017000000000001
 30
0.0
 11
82.00808512733661
 21
-9.016999999999998
 31
0.0
  0
ARC
  5
9D
330
1F
100
AcDbEntity
  8
0
  6
Continuous
 62
     1
370
    15
100
AcDbCircle
 10
100.933
 20
0.0000000000000043
 30
0.0
 40
9.525000000000013
100
AcDbArc
 50
353.5800701243587
 51
0.0
  0
ARC
  5
9E
330
1F
100
AcDbEntity
  8
0
  6
Continuous
 62
     1
370
    15
100
AcDbCircle
 10
100.933
 20
0.0000000000000043
 30
0.0
 40
9.525000000000006
100
AcDbArc
 50
0.0
 51
60.08055487800705
  0
LINE
  5
9F
330
1F
100
AcDbEntity
  8
0
  6
Continuous
 62
     1
370
    15
100
AcDbLine
 10
92.7924396068691
 20
-9.524999999999999
 30
0.0
 11
97.236599946854
 21
-9.524999999999999
 31
0.0
  0
LINE
  5
A0
330
1F
100
AcDbEntity
  8
0
  6
Continuous
 62
     4
370
    15
100
AcDbLine
 10
2.0
 20
9.525000000000002
 30
0.0
 11
2.0
 21
-9.525000000000002
 31
0.0
  0
LINE
  5
A1
330
1F
100
AcDbEntity
  8
0
  6
Continuous
 62
     4
370
    15
100
AcDbLine
 10
-66.34200000000003
 20
9.524999999999995
 30
0.0
 11
-66.34200000000003
 21
-9.52500000000001
 31
0.0
  0
LINE
  5
A2
330
1F
100
AcDbEntity
  8
0
  6
Continuous
 62
     4
370
    15
100
AcDbLine
 10
2.507999999999996
 20
9.017000000000005
 30
0.0
 11
2.507999999999996
 21
-9.017000000000005
 31
0.0
  0
LINE
  5
A3
330
1F
100
AcDbEntity
  8
0
  6
Continuous
 62
     4
370
    15
100
AcDbLine
 10
-67.34200000000003
 20
8.524999999999995
 30
0.0
 11
-67.34200000000003
 21
-8.525000000000011
 31
0.0
  0
SPLINE
  5
A4
330
1F
100
AcDbEntity
  8
0
  6
Continuous
 62
     4
370
    15
100
AcDbSpline
210
0.0
220
0.0
230
1.0
 70
     8
 71
     3
 72
     9
 73
     5
 74
     0
 42
0.000000001
 43
0.00000001
 40
0.0
 40
0.0
 40
0.0
 40
0.0
 40
0.7777217264091769
 40
1.0
 40
1.0
 40
1.0
 40
1.0
 10
85.058
 20
8.990098080862273
 30
0.0
 10
84.80451554531153
 20
9.002843082097826
 30
0.0
 10
84.4785834720765
 20
9.019230693248149
 30
0.0
 10
84.15273037483634
 20
9.014681375525239
 30
0.0
 10
84.08030031093759
 20
9.013670161035776
 30
0.0
  0
LINE
  5
A5
330
1F
100
AcDbEntity
  8
0
  6
Continuous
 62
     1
370
    15
100
AcDbLine
 10
85.058
 20
8.637105080577967
 30
0.0
 11
85.058
 21
8.152315437375075
 31
0.0
  0
SPLINE
  5
A6
330
1F
100
AcDbEntity
  8
0
  6
Continuous
 62
     4
370
    15
100
AcDbSpline
210
0.0
220
0.0
230
1.0
 70
     8
 71
     3
 72
    10
 73
     6
 74
     0
 42
0.000000001
 43
0.00000001
 40
0.0
 40
0.0
 40
0.0
 40
0.0
 40
0.5
 40
0.5
 40
1.0
 40
1.0
 40
1.0
 40
1.0
 10
85.05799999999999
 20
8.152315437375071
 30
0.0
 10
84.54963662649631
 20
8.307240465341838
 30
0.0
 10
84.03887291486572
 20
8.442565866739756
 30
0.0
 10
83.02365580247067
 20
8.671133428603646
 30
0.0
 10
82.5174120917616
 20
8.764600556100167
 30
0.0
 10
82.00803109876229
 20
8.836774274263856
 30
0.0
  0
SPLINE
  5
A7
330
1F
100
AcDbEntity
  8
0
  6
Continuous
 62
     4
370
    15
100
AcDbSpline
210
0.0
220
0.0
230
1.0
 70
     8
 71
     3
 72
    10
 73
     6
 74
     0
 42
0.000000001
 43
0.00000001
 40
0.0
 40
0.0
 40
0.0
 40
0.0
 40
0.5
 40
0.5
 40
1.0
 40
1.0
 40
1.0
 40
1.0
 10
85.05799999999998
 20
-5.097808629618584
 30
0.0
 10
84.54964561326955
 20
-4.798758293115408
 30
0.0
 10
84.03889097307713
 20
-4.486833461421667
 30
0.0
 10
83.0236915848435
 20
-3.84405381049908
 30
0.0
 10
82.51745709196634
 20
-3.512867072162665
 30
0.0
 10
82.00808512733661
 20
-3.173281290048874
 30
0.0
  0
SPLINE
  5
A8
330
1F
100
AcDbEntity
  8
0
  6
Continuous
 62
     4
370
    15
100
AcDbSpline
210
0.0
220
0.0
230
1.0
 70
     8
 71
     3
 72
    10
 73
     6
 74
     0
 42
0.000000001
 43
0.00000001
 40
0.0
 40
0.0
 40
0.0
 40
0.0
 40
0.5
 40
0.5
 40
1.0
 40
1.0
 40
1.0
 40
1.0
 10
85.05799999999999
 20
-7.41300226213756
 30
0.0
 10
84.54963662649631
 20
-7.206589318180804
 30
0.0
 10
84.03887291486572
 20
-6.981811322434495
 30
0.0
 10
83.02365580247067
 20
-6.500466156545137
 30
0.0
 10
82.5174120917616
 20
-6.243688915012018
 30
0.0
 10
82.00803109876229
 20
-5.971861330442364
 30
0.0
  0
LINE
  5
A9
330
1F
100
AcDbEntity
  8
0
  6
Continuous
 62
     4
370
    15
100
AcDbLine
 10
82.00808512733661
 20
-9.016999999999998
 30
0.0
 11
82.0080851273366
 21
-5.971494568594294
 31
0.0
  0
LINE
  5
AA
330
1F
100
AcDbEntity
  8
0
  6
Continuous
 62
     4
370
    15
100
AcDbLine
 10
82.00808512733663
 20
-3.173723885832123
 30
0.0
 11
82.0080851273366
 21
8.836871638892328
 31
0.0
  0
SPLINE
  5
AB
330
1F
100
AcDbEntity
  8
0
  6
Continuous
 62
     4
370
    15
100
AcDbSpline
210
0.0
220
0.0
230
1.0
 70
    24
 71
     3
 72
    14
 73
    10
 74
     0
 42
0.000000001
 43
0.00000001
 40
0.0
 40
0.0
 40
0.0
 40
0.0
 40
0.25
 40
0.25
 40
0.5
 40
0.5
 40
0.75
 40
0.75
 40
1.0
 40
1.0
 40
1.0
 40
1.0
 10
85.058
 20
1.716223657366906
 30
0.0
 10
85.05800000000002
 20
1.290889282931911
 30
0.0
 10
85.05800000000002
 20
0.7998061510309097
 30
0.0
 10
85.05800000000005
 20
-0.2989867786606429
 30
0.0
 10
85.05799999999996
 20
-0.9072711447617651
 30
0.0
 10
85.05799999999998
 20
-2.169900364882909
 30
0.0
 10
85.05800000000002
 20
-2.823087402185749
 30
0.0
 10
85.05800000000002
 20
-4.051081251445932
 30
0.0
 10
85.05799999999999
 20
-4.623211877480601
 30
0.0
 10
85.058
 20
-5.097808629618609
 30
0.0
  0
SPLINE
  5
AC
330
1F
100
AcDbEntity
  8
0
  6
Continuous
 62
     4
370
    15
100
AcDbSpline
210
0.0
220
0.0
230
1.0
 70
     8
 71
     3
 72
    10
 73
     6
 74
     0
 42
0.000000001
 43
0.00000001
 40
0.0
 40
0.0
 40
0.0
 40
0.0
 40
0.5
 40
0.5
 40
1.0
 40
1.0
 40
1.0
 40
1.0
 10
85.05799999999971
 20
1.716223657367054
 30
0.0
 10
84.54964561326935
 20
1.971295460806095
 30
0.0
 10
84.03889097307695
 20
2.222589032117411
 30
0.0
 10
83.0236915848434
 20
2.712168006506362
 30
0.0
 10
82.51745709196621
 20
2.95076628203798
 30
0.0
 10
82.00808512733661
 20
3.182120098696627
 30
0.0
  0
LINE
  5
AD
330
1F
100
AcDbEntity
  8
0
  6
Continuous
 62
     4
370
    15
100
AcDbLine
 10
83.05334336024983
 20
-6.49585387463933
 30
0.0
 11
82.00808512733661
 21
-6.57083041411934
 31
0.0
  0
SPLINE
  5
AE
330
1F
100
AcDbEntity
  8
0
  6
Continuous
 62
     4
370
    15
100
AcDbSpline
210
0.0
220
0.0
230
1.0
 70
    24
 71
     3
 72
    14
 73
    10
 74
     0
 42
0.000000001
 43
0.00000001
 40
0.0
 40
0.0
 40
0.0
 40
0.0
 40
0.2499999999999999
 40
0.2499999999999999
 40
0.4999999999999998
 40
0.4999999999999998
 40
0.7499999999999999
 40
0.7499999999999999
 40
1.0
 40
1.0
 40
1.0
 40
1.0
 10
85.05800000000002
 20
8.152315437375075
 30
0.0
 10
85.05799999999999
 20
7.492405893609532
 30
0.0
 10
85.05799999999999
 20
6.789954179350525
 30
0.0
 10
85.05799999999999
 20
5.432975335123868
 30
0.0
 10
85.058
 20
4.780770105749068
 30
0.0
 10
85.058
 20
3.626566215138204
 30
0.0
 10
85.05800000000004
 20
3.124628822467461
 30
0.0
 10
85.05799999999999
 20
2.296666811013468
 30
0.0
 10
85.05799999999998
 20
1.969419285188652
 30
0.0
 10
85.05799999999999
 20
1.716223657366913
 30
0.0
  0
SPLINE
  5
AF
330
1F
100
AcDbEntity
  8
0
  6
Continuous
 62
     1
370
    15
100
AcDbSpline
210
0.0
220
0.0
230
1.0
 70
     8
 71
     3
 72
     8
 73
     4
 74
     0
 42
0.000000001
 43
0.00000001
 40
0.0
 40
0.0
 40
0.0
 40
0.0
 40
1.0
 40
1.0
 40
1.0
 40
1.0
 10
104.3311452152015
 20
-6.258267126938116
 30
0.0
 10
104.0206908968565
 20
-6.035122446528725
 30
0.0
 10
103.7041904066435
 20
-5.81275032182292
 30
0.0
 10
103.3798607241486
 20
-5.591378580050939
 30
0.0
  0
SPLINE
  5
B0
330
1F
100
AcDbEntity
  8
0
  6
Continuous
 62
     1
370
    15
100
AcDbSpline
210
0.0
220
0.0
230
1.0
 70
     8
 71
     3
 72
    36
 73
    32
 74
     0
 42
0.000000001
 43
0.00000001
 40
0.0
 40
0.0
 40
0.0
 40
0.0
 40
0.125
 40
0.125
 40
0.1875
 40
0.1875
 40
0.25
 40
0.25
 40
0.3125
 40
0.3125
 40
0.375
 40
0.375
 40
0.4375
 40
0.4375
 40
0.5
 40
0.5
 40
0.5625
 40
0.5625
 40
0.625
 40
0.625
 40
0.6875
 40
0.6875
 40
0.75
 40
0.75
 40
0.8125
 40
0.8125
 40
0.875
 40
0.875
 40
0.9375
 40
0.9375
 40
1.0
 40
1.0
 40
1.0
 40
1.0
 10
104.3311452151406
 20
-6.258267126928462
 30
0.0
 10
103.5261423490328
 20
-6.130713365592692
 30
0.0
 10
102.7269936580465
 20
-5.96552328274379
 30
0.0
 10
101.5195833198496
 20
-5.664583406938084
 30
0.0
 10
101.1167735221805
 20
-5.555482649139949
 30
0.0
 10
100.3159433640413
 20
-5.321275970434629
 30
0.0
 10
99.91537302306301
 20
-5.195941608730201
 30
0.0
 10
99.11053534073743
 20
-4.92951655425815
 30
0.0
 10
98.70761073395406
 20
-4.788556712525217
 30
0.0
 10
97.90622397143382
 20
-4.493122165813464
 30
0.0
 10
97.50619148261605
 20
-4.33847652355255
 30
0.0
 10
96.70149622898087
 20
-4.015912986686796
 30
0.0
 10
96.2984768390229
 20
-3.848196257073408
 30
0.0
 10
95.49657278896724
 20
-3.502215239571304
 30
0.0
 10
95.09697533027193
 20
-3.323868989469779
 30
0.0
 10
94.29246236734728
 20
-2.956861743885451
 30
0.0
 10
93.889368235906
 20
-2.768461471047773
 30
0.0
 10
93.08698630021833
 20
-2.384453459661055
 30
0.0
 10
92.68772097804363
 20
-2.188865413865917
 30
0.0
 10
91.88343013774033
 20
-1.790719287547636
 30
0.0
 10
91.48028131893096
 20
-1.588459642684827
 30
0.0
 10
90.67746097815314
 20
-1.180328343191279
 30
0.0
 10
90.27842484424748
 20
-0.9745737417803897
 30
0.0
 10
89.47439592179897
 20
-0.5597204558427051
 30
0.0
 10
89.0712124788292
 20
-0.3509288142597626
 30
0.0
 10
88.26799328569521
 20
0.0665421509252726
 30
0.0
 10
87.86908335409035
 20
0.2750251678261189
 30
0.0
 10
87.06535610149756
 20
0.6915510160301558
 30
0.0
 10
86.66215810333247
 20
0.8993099974825141
 30
0.0
 10
85.85857967629731
 20
1.310993539820278
 30
0.0
 10
85.45969294025407
 20
1.514670281663111
 30
0.0
 10
85.05799999999971
 20
1.716223657367054
 30
0.0
  0
SPLINE
  5
B1
330
1F
100
AcDbEntity
  8
0
  6
Continuous
 62
     4
370
    15
100
AcDbSpline
210
0.0
220
0.0
230
1.0
 70
    24
 71
     3
 72
    14
 73
    10
 74
     0
 42
0.000000001
 43
0.00000001
 40
0.0
 40
0.0
 40
0.0
 40
0.0
 40
0.25
 40
0.25
 40
0.5
 40
0.5
 40
0.75
 40
0.75
 40
1.0
 40
1.0
 40
1.0
 40
1.0
 10
85.05800000000002
 20
8.637105080588372
 30
0.0
 10
85.05800000000002
 20
7.962270867850163
 30
0.0
 10
85.058
 20
7.221952672963397
 30
0.0
 10
85.058
 20
5.766306961046227
 30
0.0
 10
85.05800000000002
 20
5.054449599994885
 30
0.0
 10
85.058
 20
3.791124405780083
 30
0.0
 10
85.05800000000002
 20
3.240127774649512
 30
0.0
 10
85.05800000000004
 20
2.337968872248432
 30
0.0
 10
85.05799999999999
 20
1.985200214210185
 30
0.0
 10
85.05799999999999
 20
1.716223657366913
 30
0.0
  0
SPLINE
  5
B2
330
1F
100
AcDbEntity
  8
0
  6
Continuous
 62
     1
370
    15
100
AcDbSpline
210
0.0
220
0.0
230
1.0
 70
     8
 71
     3
 72
    30
 73
    26
 74
     0
 42
0.000000001
 43
0.00000001
 40
0.0
 40
0.0
 40
0.0
 40
0.0
 40
0.0625000000000008
 40
0.0625000000000008
 40
0.1250000000000017
 40
0.1250000000000017
 40
0.2500000000000034
 40
0.2500000000000034
 40
0.3125000000000042
 40
0.3125000000000042
 40
0.3750000000000051
 40
0.3750000000000051
 40
0.500000000000005
 40
0.500000000000005
 40
0.625000000000005
 40
0.625000000000005
 40
0.6875000000000042
 40
0.6875000000000042
 40
0.7500000000000033
 40
0.7500000000000033
 40
0.8750000000000017
 40
0.8750000000000017
 40
0.9375000000000008
 40
0.9375000000000008
 40
1.0
 40
1.0
 40
1.0
 40
1.0
 10
100.9330000000002
 20
-1.144537999024984
 30
0.0
 10
100.6025168677091
 20
-0.897159433292922
 30
0.0
 10
100.2738222502643
 20
-0.6490540352602808
 30
0.0
 10
99.61199883034499
 20
-0.1509104921386055
 30
0.0
 10
99.2800793469532
 20
0.0988253521511795
 30
0.0
 10
98.28589769967613
 20
0.8465635647962421
 30
0.0
 10
97.62823387371279
 20
1.342341139377061
 30
0.0
 10
96.63362685797685
 20
2.076714740504128
 30
0.0
 10
96.30184910375218
 20
2.319677322632697
 30
0.0
 10
95.64087183046196
 20
2.799715284594878
 30
0.0
 10
95.31218112508569
 20
3.03667757141428
 30
0.0
 10
94.31945891340621
 20
3.739072863225939
 30
0.0
 10
93.65489226097506
 20
4.194464869822339
 30
0.0
 10
92.33683652425032
 20
5.064694821827723
 30
0.0
 10
91.67070922373668
 20
5.482269920517303
 30
0.0
 10
90.67922684227223
 20
6.070717437967397
 30
0.0
 10
90.3505399583775
 20
6.260491822496046
 30
0.0
 10
89.68873379053022
 20
6.627647090454794
 30
0.0
 10
89.35681640481265
 20
6.804780703440866
 30
0.0
 10
88.36262136889646
 20
7.314363285978779
 30
0.0
 10
87.7049640358223
 20
7.62455587560527
 30
0.0
 10
86.710363330945
 20
8.042271715516042
 30
0.0
 10
86.37858111069099
 20
8.173401815582515
 30
0.0
 10
85.71758190305195
 20
8.418285676318103
 30
0.0
 10
85.38889875005144
 20
8.532005497849687
 30
0.0
 10
85.05799999999968
 20
8.63710508057795
 30
0.0
  0
SPLINE
  5
B3
330
1F
100
AcDbEntity
  8
0
  6
Continuous
 62
     1
370
    15
100
AcDbSpline
210
0.0
220
0.0
230
1.0
 70
     8
 71
     3
 72
    20
 73
    16
 74
     0
 42
0.000000001
 43
0.00000001
 40
0.0
 40
0.0
 40
0.0
 40
0.0
 40
0.1249999999999999
 40
0.1249999999999999
 40
0.2499999999999998
 40
0.2499999999999998
 40
0.3749999999999998
 40
0.3749999999999998
 40
0.4999999999999997
 40
0.4999999999999997
 40
0.6249999999999997
 40
0.6249999999999997
 40
0.7499999999999997
 40
0.7499999999999997
 40
1.0
 40
1.0
 40
1.0
 40
1.0
 10
107.7115423854702
 20
-4.853692460463523
 30
0.0
 10
107.5206925813136
 20
-4.795401838450382
 30
0.0
 10
107.3058416897487
 20
-4.73248840687654
 30
0.0
 10
106.8419917208817
 20
-4.584631405651936
 30
0.0
 10
106.5950055451981
 20
-4.500430772637907
 30
0.0
 10
106.0767181006041
 20
-4.303341388650388
 30
0.0
 10
105.8053754565719
 20
-4.190530246072758
 30
0.0
 10
105.2407440634548
 20
-3.930547026515066
 30
0.0
 10
104.9494126095234
 20
-3.78510058745111
 30
0.0
 10
104.3598583812699
 20
-3.467591767229064
 30
0.0
 10
104.0602065342771
 20
-3.294840220786996
 30
0.0
 10
103.4510852792313
 20
-2.921457099921325
 30
0.0
 10
103.1403646294018
 20
-2.719513073548981
 30
0.0
 10
102.1995757919138
 20
-2.081464734285646
 30
0.0
 10
101.5718432253192
 20
-1.622735236237822
 30
0.0
 10
100.933
 20
-1.144537999024822
 30
0.0
  0
SPLINE
  5
B4
330
1F
100
AcDbEntity
  8
0
  6
Continuous
 62
     1
370
    15
100
AcDbSpline
210
0.0
220
0.0
230
1.0
 70
     8
 71
     3
 72
    13
 73
     9
 74
     0
 42
0.000000001
 43
0.00000001
 40
0.0
 40
0.0
 40
0.0
 40
0.0
 40
0.1263891798824837
 40
0.3393276292920348
 40
0.4819586174730044
 40
0.6286762025866108
 40
0.8119603387562846
 40
1.0
 40
1.0
 40
1.0
 40
1.0
 10
107.6073722334042
 20
-4.825680587256884
 30
0.0
 10
107.4827622803935
 20
-4.785077553034333
 30
0.0
 10
107.1482114906771
 20
-4.676067182387004
 30
0.0
 10
106.4835051685068
 20
-4.688176422028923
 30
0.0
 10
105.7462509813506
 20
-4.797486932130013
 30
0.0
 10
105.0234476039084
 20
-4.973426798663892
 30
0.0
 10
104.2226637455368
 20
-5.231656178280348
 30
0.0
 10
103.6631834764383
 20
-5.470451698747122
 30
0.0
 10
103.3798607241486
 20
-5.591378580050934
 30
0.0
  0
SPLINE
  5
B5
330
1F
100
AcDbEntity
  8
0
  6
Continuous
 62
     1
370
    15
100
AcDbSpline
210
0.0
220
0.0
230
1.0
 70
     8
 71
     3
 72
    40
 73
    36
 74
     0
 42
0.000000001
 43
0.00000001
 40
0.0
 40
0.0
 40
0.0
 40
0.0
 40
0.1250000000000029
 40
0.1250000000000029
 40
0.1875000000000044
 40
0.1875000000000044
 40
0.2500000000000059
 40
0.2500000000000059
 40
0.3750000000000088
 40
0.3750000000000088
 40
0.4375000000000103
 40
0.4375000000000103
 40
0.5000000000000118
 40
0.5000000000000118
 40
0.5625000000000132
 40
0.5625000000000132
 40
0.5937500000000127
 40
0.5937500000000127
 40
0.625000000000012
 40
0.625000000000012
 40
0.6562500000000114
 40
0.6562500000000114
 40
0.6875000000000109
 40
0.6875000000000109
 40
0.7187500000000102
 40
0.7187500000000102
 40
0.7500000000000097
 40
0.7500000000000097
 40
0.8125000000000072
 40
0.8125000000000072
 40
0.8750000000000048
 40
0.8750000000000048
 40
0.9375000000000024
 40
0.9375000000000024
 40
1.0
 40
1.0
 40
1.0
 40
1.0
 10
100.933
 20
2.182439315449296
 30
0.0
 10
101.3650521647476
 20
1.865338837536636
 30
0.0
 10
101.7925820206825
 20
1.543826658492861
 30
0.0
 10
102.4344733059956
 20
1.064920716830048
 30
0.0
 10
102.6485475540322
 20
0.9058632152082365
 30
0.0
 10
103.07845923754
 20
0.5910223615072732
 30
0.0
 10
103.2954122167086
 20
0.4346326766865351
 30
0.0
 10
103.9453075863967
 20
-0.0178233065858745
 30
0.0
 10
104.3741257181381
 20
-0.2969941789973614
 30
0.0
 10
105.0236890502993
 20
-0.6588159644001297
 30
0.0
 10
105.2427834631909
 20
-0.770400835773493
 30
0.0
 10
105.6774943186565
 20
-0.962924015380238
 30
0.0
 10
105.893393892262
 20
-1.043709235251959
 30
0.0
 10
106.3254213124185
 20
-1.164420285731499
 30
0.0
 10
106.5431220000192
 20
-1.204351076520804
 30
0.0
 10
106.8601186103111
 20
-1.219916144393317
 30
0.0
 10
106.9645959374587
 20
-1.217842477214749
 30
0.0
 10
107.1713664825547
 20
-1.196492787148499
 30
0.0
 10
107.2743907990106
 20
-1.1769445045855
 30
0.0
 10
107.4728619946276
 20
-1.118322364678639
 30
0.0
 10
107.5686919644799
 20
-1.079361864678596
 30
0.0
 10
107.7531195688083
 20
-0.9792178509322705
 30
0.0
 10
107.8424943103268
 20
-0.9171486156619616
 30
0.0
 10
108.0060517676894
 20
-0.7728591708736992
 30
0.0
 10
108.0809790450628
 20
-0.6904795170576606
 30
0.0
 10
108.21666966848
 20
-0.504237214537642
 30
0.0
 10
108.2778367942025
 20
-0.3990681009822546
 30
0.0
 10
108.4314392120997
 20
-0.0651732958908195
 30
0.0
 10
108.4974959398222
 20
0.1892951404304631
 30
0.0
 10
108.5607770644474
 20
0.7105840387158324
 30
0.0
 10
108.5595272006256
 20
0.9822528724287631
 30
0.0
 10
108.5072233400352
 20
1.518217491535627
 30
0.0
 10
108.4569304940668
 20
1.782204908646745
 30
0.0
 10
108.3197216727139
 20
2.303692799870037
 30
0.0
 10
108.2322705373016
 20
2.561738340115521
 30
0.0
 10
108.1313014890585
 20
2.812736549716931
 30
0.0
  0
SPLINE
  5
B6
330
1F
100
AcDbEntity
  8
0
  6
Continuous
 62
     1
370
    15
100
AcDbSpline
210
0.0
220
0.0
230
1.0
 70
     8
 71
     3
 72
    30
 73
    26
 74
     0
 42
0.000000001
 43
0.00000001
 40
0.0
 40
0.0
 40
0.0
 40
0.0
 40
0.062500000000002
 40
0.062500000000002
 40
0.125000000000004
 40
0.125000000000004
 40
0.2500000000000064
 40
0.2500000000000064
 40
0.3125000000000067
 40
0.3125000000000067
 40
0.375000000000007
 40
0.375000000000007
 40
0.500000000000006
 40
0.500000000000006
 40
0.6250000000000049
 40
0.6250000000000049
 40
0.6875000000000043
 40
0.6875000000000043
 40
0.7500000000000038
 40
0.7500000000000038
 40
0.8750000000000011
 40
0.8750000000000011
 40
0.9375000000000006
 40
0.9375000000000006
 40
1.0
 40
1.0
 40
1.0
 40
1.0
 10
100.9330000000002
 20
2.182439315449141
 30
0.0
 10
100.6025168677091
 20
2.424994191323472
 30
0.0
 10
100.2738222502644
 20
2.664876546073718
 30
0.0
 10
99.61199883034507
 20
3.139750665506331
 30
0.0
 10
99.28007934695326
 20
3.374441697754221
 30
0.0
 10
98.28589769967618
 20
4.067009001942403
 30
0.0
 10
97.62823387371287
 20
4.512720530752452
 30
0.0
 10
96.63362685797702
 20
5.152585454704663
 30
0.0
 10
96.30184910375228
 20
5.360835840685834
 30
0.0
 10
95.6408718304621
 20
5.765371278339086
 30
0.0
 10
95.31218112508579
 20
5.961574057764519
 30
0.0
 10
94.31945891340635
 20
6.532535951104704
 30
0.0
 10
93.65489226097512
 20
6.888288551526424
 30
0.0
 10
92.33683652425049
 20
7.538570182233317
 30
0.0
 10
91.67070922373689
 20
7.835124152860661
 30
0.0
 10
90.67922684227248
 20
8.228761509419042
 30
0.0
 10
90.35053995837778
 20
8.351440198759153
 30
0.0
 10
89.68873379053048
 20
8.579949316443368
 30
0.0
 10
89.3568164048129
 20
8.685608763633605
 30
0.0
 10
88.36262136889673
 20
8.975297471696011
 30
0.0
 10
87.70496403582257
 20
9.131847991867163
 30
0.0
 10
86.71036333094531
 20
9.310142564369697
 30
0.0
 10
86.37858111069129
 20
9.36005724506938
 30
0.0
 10
85.71758190305232
 20
9.44045165938481
 30
0.0
 10
85.38889875005175
 20
9.47094588001927
 30
0.0
 10
85.05799999999999
 20
9.491755539397017
 30
0.0
  0
SPLINE
  5
B7
330
1F
100
AcDbEntity
  8
0
  6
Continuous
 62
     1
370
    15
100
AcDbSpline
210
0.0
220
0.0
230
1.0
 70
     8
 71
     3
 72
    12
 73
     8
 74
     0
 42
0.000000001
 43
0.00000001
 40
0.0
 40
0.0
 40
0.0
 40
0.0
 40
0.0981124458514415
 40
0.3338477660051423
 40
0.5695752111018932
 40
0.8052958729071718
 40
1.0
 40
1.0
 40
1.0
 40
1.0
 10
104.3311452152015
 20
4.86640111731993
 30
0.0
 10
104.0022515311916
 20
4.978177250697428
 30
0.0
 10
102.8831231606057
 20
5.358518522357016
 30
0.0
 10
100.9734933538032
 20
5.889409656712793
 30
0.0
 10
98.6026558915967
 20
6.342182738993836
 30
0.0
 10
96.36934977367277
 20
6.580496601952179
 30
0.0
 10
94.9263436342062
 20
6.555386844469331
 30
0.0
 10
94.27359486596335
 20
6.544028359692639
 30
0.0
  0
SPLINE
  5
B8
330
1F
100
AcDbEntity
  8
0
  6
Continuous
 62
     1
370
    15
100
AcDbSpline
210
0.0
220
0.0
230
1.0
 70
     8
 71
     3
 72
    10
 73
     6
 74
     0
 42
0.000000001
 43
0.00000001
 40
0.0
 40
0.0
 40
0.0
 40
0.0
 40
0.5
 40
0.5
 40
1.0
 40
1.0
 40
1.0
 40
1.0
 10
102.7022116312969
 20
4.386347967396574
 30
0.0
 10
102.9665360044731
 20
4.501895585819513
 30
0.0
 10
103.239068779666
 20
4.593768574353784
 30
0.0
 10
103.7870882734396
 20
4.750055857160341
 30
0.0
 10
104.059607152227
 20
4.813171736854613
 30
0.0
 10
104.3311452152014
 20
4.866401117319934
 30
0.0
  0
SPLINE
  5
B9
330
1F
100
AcDbEntity
  8
0
  6
Continuous
 62
     1
370
    15
100
AcDbSpline
210
0.0
220
0.0
230
1.0
 70
     8
 71
     3
 72
    10
 73
     6
 74
     0
 42
0.000000001
 43
0.00000001
 40
0.0
 40
0.0
 40
0.0
 40
0.0
 40
0.5
 40
0.5
 40
1.0
 40
1.0
 40
1.0
 40
1.0
 10
102.7022116312969
 20
4.386347967396582
 30
0.0
 10
103.5999498555194
 20
4.141757695867815
 30
0.0
 10
104.5022731052819
 20
3.885769768980242
 30
0.0
 10
106.3127706858639
 20
3.359249044127586
 30
0.0
 10
107.2214692983236
 20
3.08756014270092
 30
0.0
 10
108.1313014890615
 20
2.812736549728778
 30
0.0
  0
SPLINE
  5
BA
330
1F
100
AcDbEntity
  8
0
  6
Continuous
 62
     1
370
    15
100
AcDbSpline
210
0.0
220
0.0
230
1.0
 70
     8
 71
     3
 72
    13
 73
     9
 74
     0
 42
0.000000001
 43
0.00000001
 40
0.0
 40
0.0
 40
0.0
 40
0.0
 40
0.2194423587758501
 40
0.4446956295920096
 40
0.6147670163004169
 40
0.7888112998530336
 40
0.8973172490191469
 40
1.0
 40
1.0
 40
1.0
 40
1.0
 10
100.933
 20
-9.120661588879361
 30
0.0
 10
101.3297488764843
 20
-9.013417730578773
 30
0.0
 10
102.133752681412
 20
-8.796090158304674
 30
0.0
 10
103.2470670029335
 20
-8.247532768969691
 30
0.0
 10
104.2806172851242
 20
-7.621059016016043
 30
0.0
 10
105.105285266021
 20
-7.047795727578603
 30
0.0
 10
105.8066095065672
 20
-6.530205332048213
 30
0.0
 10
106.1883714385992
 20
-6.248427049884917
 30
0.0
 10
106.3739891604448
 20
-6.111422706569906
 30
0.0
  0
ARC
  5
BB
330
1F
100
AcDbEntity
  8
0
  6
Continuous
 62
     1
370
    15
100
AcDbCircle
 10
100.8118454832184
 20
0.0620322977627853
 30
0.0
 40
9.650906843885398
100
AcDbArc
 50
319.3252446689223
 51
352.5506392775697
  0
ARC
  5
BC
330
1F
100
AcDbEntity
  8
0
  6
Continuous
 62
     1
370
    15
100
AcDbCircle
 10
104.2295678160947
 20
0.4625253490657675
 30
0.0
 40
6.355023107757692
100
AcDbArc
 50
303.2236818646152
 51
346.0915976398799
  0
ARC
  5
BD
330
1F
100
AcDbEntity
  8
0
  6
Continuous
 62
     1
370
    15
100
AcDbCircle
 10
105.2707562505408
 20
-2.10057205250608
 30
0.0
 40
5.685360189330064
100
AcDbArc
 50
25.37471123958964
 51
59.79188800976971
  0
ARC
  5
BE
330
1F
100
AcDbEntity
  8
0
  6
Continuous
 62
     1
370
    15
100
AcDbCircle
 10
101.5878651264419
 20
0.0628834150025934
 30
0.0
 40
8.823975374439698
100
AcDbArc
 50
1.772458519346112
 51
46.05387424666138
  0
SPLINE
  5
BF
330
1F
100
AcDbEntity
  8
0
  6
Continuous
 62
     1
370
    15
100
AcDbSpline
210
0.0
220
0.0
230
1.0
 70
     8
 71
     3
 72
    20
 73
    16
 74
     0
 42
0.000000001
 43
0.00000001
 40
0.0
 40
0.0
 40
0.0
 40
0.0
 40
0.125
 40
0.125
 40
0.25
 40
0.25
 40
0.375
 40
0.375
 40
0.5
 40
0.5
 40
0.625
 40
0.625
 40
0.75
 40
0.75
 40
1.0
 40
1.0
 40
1.0
 40
1.0
 10
107.7115423854702
 20
6.416080896269481
 30
0.0
 10
107.5206925813136
 20
6.683347373106159
 30
0.0
 10
107.3058416897487
 20
6.938597516458688
 30
0.0
 10
106.8419917208817
 20
7.412111782710348
 30
0.0
 10
106.5950055451981
 20
7.628650328208267
 30
0.0
 10
106.0767181006041
 20
8.019316143710379
 30
0.0
 10
105.8053754565719
 20
8.193473287012397
 30
0.0
 10
105.2407440634547
 20
8.4966737021962
 30
0.0
 10
104.9494126095234
 20
8.624363235278366
 30
0.0
 10
104.3598583812698
 20
8.828551674921098
 30
0.0
 10
104.0602065342771
 20
8.905839770786361
 30
0.0
 10
103.4510852792313
 20
9.010857804659642
 30
0.0
 10
103.1403646294018
 20
9.038462551197554
 30
0.0
 10
102.1995757919138
 20
9.045077787550998
 30
0.0
 10
101.5718432253192
 20
8.95036531787518
 30
0.0
 10
100.933
 20
8.761392476820049
 30
0.0
  0
LINE
  5
C0
330
1F
100
AcDbEntity
  8
0
  6
Continuous
 62
     4
370
    15
100
AcDbLine
 10
85.05799999999971
 20
8.637105080577967
 30
0.0
 11
85.05800000000004
 21
9.49175553939702
 31
0.0
  0
SPLINE
  5
C1
330
1F
100
AcDbEntity
  8
0
  6
Continuous
 62
     1
370
    15
100
AcDbSpline
210
0.0
220
0.0
230
1.0
 70
     8
 71
     3
 72
    30
 73
    26
 74
     0
 42
0.000000001
 43
0.00000001
 40
0.0
 40
0.0
 40
0.0
 40
0.0
 40
0.0625000000000006
 40
0.0625000000000006
 40
0.1250000000000011
 40
0.1250000000000011
 40
0.2500000000000022
 40
0.2500000000000022
 40
0.3125000000000027
 40
0.3125000000000027
 40
0.3750000000000032
 40
0.3750000000000032
 40
0.5000000000000026
 40
0.5000000000000026
 40
0.6250000000000019
 40
0.6250000000000019
 40
0.6875000000000016
 40
0.6875000000000016
 40
0.7500000000000012
 40
0.7500000000000012
 40
0.8750000000000007
 40
0.8750000000000007
 40
0.9375000000000003
 40
0.9375000000000003
 40
1.0
 40
1.0
 40
1.0
 40
1.0
 10
100.9330000000002
 20
-9.120661588879312
 30
0.0
 10
100.602516867709
 20
-9.192493377124928
 30
0.0
 10
100.2738222502644
 20
-9.254852882734037
 30
0.0
 10
99.61199883034509
 20
-9.360722707791588
 30
0.0
 10
99.2800793469532
 20
-9.404132872262123
 30
0.0
 10
98.2858976996762
 20
-9.505145358565624
 30
0.0
 10
97.62823387371287
 20
-9.533544271110308
 30
0.0
 10
96.633626857977
 20
-9.517404627486119
 30
0.0
 10
96.30184910375228
 20
-9.502211533957823
 30
0.0
 10
95.64087183046205
 20
-9.452400953170637
 30
0.0
 10
95.31218112508579
 20
-9.417832481842671
 30
0.0
 10
94.3194589134064
 20
-9.285000124285135
 30
0.0
 10
93.65489226097513
 20
-9.157614629090077
 30
0.0
 10
92.33683652425049
 20
-8.829680585622949
 30
0.0
 10
91.67070922373685
 20
-8.628042211508486
 30
0.0
 10
90.67922684227247
 20
-8.274477186414341
 30
0.0
 10
90.35053995837774
 20
-8.1482397843624
 30
0.0
 10
89.68873379053043
 20
-7.878732101698604
 30
0.0
 10
89.3568164048129
 20
-7.735594454597208
 30
0.0
 10
88.36262136889675
 20
-7.282978218660476
 30
0.0
 10
87.70496403582257
 20
-6.950856991905313
 30
0.0
 10
86.7103633309453
 20
-6.410582870621147
 30
0.0
 10
86.37858111069129
 20
-6.223656199424539
 30
0.0
 10
85.7175819030523
 20
-5.837899381978835
 30
0.0
 10
85.38889875005172
 20
-5.639196011085488
 30
0.0
 10
85.05799999999999
 20
-5.434464245926912
 30
0.0
  0
SPLINE
  5
C2
330
1F
100
AcDbEntity
  8
0
  6
Continuous
 62
     1
370
    15
100
AcDbSpline
210
0.0
220
0.0
230
1.0
 70
     8
 71
     3
 72
    12
 73
     8
 74
     0
 42
0.000000001
 43
0.00000001
 40
0.0
 40
0.0
 40
0.0
 40
0.0
 40
0.051021149621185
 40
0.3466071831655494
 40
0.6426076775125257
 40
0.9386951247738049
 40
1.0
 40
1.0
 40
1.0
 40
1.0
 10
103.7622206759477
 20
-5.856003468719182
 30
0.0
 10
103.8359692843608
 20
-5.865853547669436
 30
0.0
 10
104.3369732330025
 20
-5.932769094344776
 30
0.0
 10
105.2718071210051
 20
-6.022456369377972
 30
0.0
 10
106.5648692323456
 20
-6.131826873475963
 30
0.0
 10
107.5193481634152
 20
-6.192364666227427
 30
0.0
 10
108.0417004062794
 20
-6.222854288270803
 30
0.0
 10
108.1313014890616
 20
-6.228084290029245
 30
0.0
  0
SPLINE
  5
C3
330
1F
100
AcDbEntity
  8
0
  6
Continuous
 62
     4
370
    15
100
AcDbSpline
210
0.0
220
0.0
230
1.0
 70
    24
 71
     3
 72
    14
 73
    10
 74
     0
 42
0.000000001
 43
0.00000001
 40
0.0
 40
0.0
 40
0.0
 40
0.0
 40
0.25
 40
0.25
 40
0.5
 40
0.5
 40
0.75
 40
0.75
 40
1.0
 40
1.0
 40
1.0
 40
1.0
 10
85.05799999999998
 20
1.716223657366913
 30
0.0
 10
85.05799999999998
 20
1.264379458765718
 30
0.0
 10
85.05799999999999
 20
0.7380366043253328
 30
0.0
 10
85.05799999999998
 20
-0.4439722938741206
 30
0.0
 10
85.058
 20
-1.100310540604356
 30
0.0
 10
85.058
 20
-2.450741297816174
 30
0.0
 10
85.058
 20
-3.142908919124902
 30
0.0
 10
85.05800000000002
 20
-4.41085124611727
 30
0.0
 10
85.05799999999999
 20
-4.983045158935654
 30
0.0
 10
85.05799999999999
 20
-5.434464245925792
 30
0.0
  0
SPLINE
  5
C4
330
1F
100
AcDbEntity
  8
0
  6
Continuous
 62
     1
370
    15
100
AcDbSpline
210
0.0
220
0.0
230
1.0
 70
     8
 71
     3
 72
    11
 73
     7
 74
     0
 42
0.000000001
 43
0.00000001
 40
0.0
 40
0.0
 40
0.0
 40
0.0
 40
0.2873494075099529
 40
0.574674056051839
 40
0.8619899946237379
 40
0.9999999999999999
 40
0.9999999999999999
 40
0.9999999999999999
 40
0.9999999999999999
 10
85.05799999999967
 20
-7.796271709556542
 30
0.0
 10
85.79885036007073
 20
-8.094589910197213
 30
0.0
 10
87.2804872461143
 20
-8.69120060740327
 30
0.0
 10
89.50280213897605
 20
-9.238824471164277
 30
0.0
 10
91.34008397830598
 20
-9.519399288808641
 30
0.0
 10
92.43663130394326
 20
-9.495894062929763
 30
0.0
 10
92.7924396068691
 20
-9.488267073802785
 30
0.0
  0
LINE
  5
C5
330
1F
100
AcDbEntity
  8
0
  6
Continuous
 62
     4
370
    15
100
AcDbLine
 10
85.05799999999971
 20
-7.796271709556522
 30
0.0
 11
85.05800000000004
 21
-5.43446424592692
 31
0.0
  0
SPLINE
  5
C6
330
1F
100
AcDbEntity
  8
0
  6
Continuous
 62
     1
370
    15
100
AcDbSpline
210
0.0
220
0.0
230
1.0
 70
     8
 71
     3
 72
    10
 73
     6
 74
     0
 42
0.000000001
 43
0.00000001
 40
0.0
 40
0.0
 40
0.0
 40
0.0
 40
0.0967558764312179
 40
0.5483668306462806
 40
1.0
 40
1.0
 40
1.0
 40
1.0
 10
95.77685060847749
 20
6.542054587833143
 30
0.0
 10
95.94314338819271
 20
6.638346388490663
 30
0.0
 10
96.88561270308352
 20
7.184083055775402
 30
0.0
 10
98.60432044752709
 20
7.976874483865377
 30
0.0
 10
100.1567607551723
 20
8.499882191406071
 30
0.0
 10
100.9330000000002
 20
8.761392476820111
 30
0.0
  0
SPLINE
  5
C7
330
1F
100
AcDbEntity
  8
0
  6
Continuous
 62
     1
370
    15
100
AcDbSpline
210
0.0
220
0.0
230
1.0
 70
     8
 71
     3
 72
    13
 73
     9
 74
     0
 42
0.000000001
 43
0.00000001
 40
0.0
 40
0.0
 40
0.0
 40
0.0
 40
0.1601658051934375
 40
0.3733961882247831
 40
0.5162227201465679
 40
0.6631414516295633
 40
0.8466768660528287
 40
1.0
 40
1.0
 40
1.0
 40
1.0
 10
107.7115423854703
 20
6.416080896269524
 30
0.0
 10
107.5549428217717
 20
6.21265711768317
 30
0.0
 10
107.1898606490064
 20
5.73841317137584
 30
0.0
 10
106.4844032634908
 20
5.309933468002879
 30
0.0
 10
105.7460292585577
 20
5.064794245722603
 30
0.0
 10
105.0236014154759
 20
4.961525473418759
 30
0.0
 10
104.2762664178296
 20
4.96882224590067
 30
0.0
 10
103.7692130214343
 20
5.080277892782042
 30
0.0
 10
103.5384247092779
 20
5.131007580832497
 30
0.0
  0
LINE
  5
C8
330
1F
100
AcDbEntity
  8
중심선
100
AcDbLine
 10
-70.34200000000003
 20
-0.000000000000014
 30
0.0
 11
113.4076186143927
 21
-0.000000000000014
 31
0.0
  0
CIRCLE
  5
C9
330
1F
100
AcDbEntity
  8
외형선
100
AcDbCircle
 10
0.0
 20
0.0
 30
0.0
 40
3.000000000000004
  0
INSERT
  5
CA
330
1F
100
AcDbEntity
  8
0
  6
Continuous
 62
     7
100
AcDbBlockReference
 66
     1
  2
블럭10
 10
-8.432786299681437
 20
-51.95764267978461
 30
0.0
  0
ATTRIB
  5
CB
330
CA
100
AcDbEntity
  8
FORMAT
 62
     2
100
AcDbText
 10
-17.61408158842272
 20
-49.88227576695243
 30
0.0
 40
4.233333333333333
  1
E5978906 [ 3 FLUTE ]
 41
0.75
  7
SLDTEXTSTYLE0
 11
-17.61408158842272
 21
-51.99894243361909
 31
0.0
100
AcDbAttribute
  2
AUTOATTR0
 70
     0
 74
     1
  0
SEQEND
  5
CC
330
CA
100
AcDbEntity
  8
0
  6
Continuous
 62
     7
  0
HATCH
  5
CD
330
1F
100
AcDbEntity
  8
중심선
100
AcDbHatch
 10
0.0
 20
0.0
 30
0.0
210
0.0
220
0.0
230
1.0
  2
SOLID
 70
     1
 71
     0
 91
        1
 92
        0
 93
        4
 72
     1
 10
-2.717876995300587
 20
-35.71046837814069
 11
-6.16415223913787
 21
-35.71046837814069
 72
     1
 10
-6.16415223913787
 20
-35.71046837814069
 11
-8.292382098341893
 21
-38.24679395871328
 72
     1
 10
-8.292382098341893
 20
-38.24679395871328
 11
-4.846073769391461
 21
-38.24675452941079
 72
     1
 10
-4.846073769391461
 20
-38.24675452941079
 11
-2.717876995300587
 21
-35.71046837814069
 97
        0
 75
     0
 76
     1
 98
        1
 10
-9.650856814308677
 20
-0.0000000000000036
  0
HATCH
  5
CE
330
1F
100
AcDbEntity
  8
중심선
100
AcDbHatch
 10
0.0
 20
0.0
 30
0.0
210
0.0
220
0.0
230
1.0
  2
SOLID
 70
     1
 71
     0
 91
        1
 92
        0
 93
        4
 72
     1
 10
2.294886995735364
 20
-35.71046837814069
 11
-1.151388248101918
 21
-35.71046837814069
 72
     1
 10
-1.151388248101918
 20
-35.71046837814069
 11
-5.682526256459306
 21
-41.1104683781407
 72
     1
 10
-5.682526256459306
 20
-41.11046837814069
 11
-2.236251012622025
 21
-41.11046837814069
 72
     1
 10
-2.236251012622025
 20
-41.11046837814069
 11
2.294886995735364
 21
-35.71046837814068
 97
        0
 75
     0
 76
     1
 98
        1
 10
-9.650856814308677
 20
-0.0000000000000036
  0
HATCH
  5
CF
330
1F
100
AcDbEntity
  8
중심선
100
AcDbHatch
 10
0.0
 20
0.0
 30
0.0
210
0.0
220
0.0
230
1.0
  2
SOLID
 70
     1
 71
     0
 91
        1
 92
        0
 93
        4
 72
     1
 10
7.307650986771259
 20
-35.71046837814072
 11
3.861375742934143
 21
-35.71046837814069
 72
     1
 10
3.861375742934143
 20
-35.71046837814069
 11
-3.187061158955105
 21
-44.11046837814071
 72
     1
 10
-3.187061158955105
 20
-44.11046837814071
 11
0.2592140848821778
 21
-44.11046837814071
 72
     1
 10
0.2592140848821778
 20
-44.11046837814071
 11
7.307650986771259
 21
-35.71046837814072
 97
        0
 75
     0
 76
     1
 98
        1
 10
-9.650856814308677
 20
-0.0000000000000036
  0
HATCH
  5
D0
330
1F
100
AcDbEntity
  8
중심선
100
AcDbHatch
 10
0.0
 20
0.0
 30
0.0
210
0.0
220
0.0
230
1.0
  2
SOLID
 70
     1
 71
     0
 91
        1
 92
        0
 93
        6
 72
     3
 10
12.10754141778346
 20
-39.91046837819196
 11
3.960054785062285
 21
1.540882976769353E-10
 40
0.3939339440162626
 50
17.09539180608438
 51
320.0019657685078
 73
     0
 72
     1
 10
13.79054107348406
 20
-38.49836238277899
 11
16.09584294718509
 21
-36.56403567273107
 72
     3
 10
12.10754141773061
 20
-39.91046837814083
 11
6.600054785286831
 21
-1.278976924368180E-13
 40
0.6363583540795978
 50
39.99873849337418
 51
368.4976242363725
 73
     1
 72
     1
 10
18.53287390963122
 20
-38.95046837807071
 11
10.78760872456653
 21
-38.95046837807068
 72
     1
 10
10.78760872456653
 20
-38.95046837807068
 11
10.7875836801206
 21
-40.8704683780706
 72
     1
 10
10.7875836801206
 20
-40.8704683780706
 11
15.22896344959264
 21
-40.87046837807057
 97
        0
 75
     0
 76
     1
 98
        1
 10
-9.650856814308677
 20
-0.0000000000000036
  0
POINT
  5
D1
330
1F
100
AcDbEntity
  8
치수문자_일반주서
100
AcDbPoint
 10
-67.34200000000003
 20
-0.000000000000014
 30
0.0
  0
DIMENSION
  5
D2
330
1F
100
AcDbEntity
  8
치수문자_일반주서
100
AcDbDimension
  2
_D
 10
-78.83845802161207
 20
-9.525000000000052
 30
0.0
 11
-78.83845802161211
 21
-0.0000000000000062
 31
0.0
 70
   160
  1
%%c<>
 71
     2
 42
19.05
 52
-270.0
  3
SLDDIMSTYLE0
100
AcDbAlignedDimension
 13
-66.34200000000003
 23
9.524999999999995
 33
0.0
 14
-66.34200000000003
 24
-9.525000000000006
 34
0.0
 50
90.0000000000002
100
AcDbRotatedDimension
1001
ACAD
1000
DSTYLE
1002
{
1070
   171
1070
     6
1070
   273
1070
     7
1002
}
  0
DIMENSION
  5
E7
330
1F
100
AcDbEntity
  8
치수문자_일반주서
100
AcDbDimension
  2
_D_1
 10
110.458
 20
49.52500000000005
 30
0.0
 11
28.35603203274613
 21
49.52500000000005
 31
0.0
 70
   160
  1
<>
 71
     2
 42
177.8
  3
SLDDIMSTYLE1
100
AcDbAlignedDimension
 13
-67.34200000000003
 23
8.524999999999995
 33
0.0
 14
110.458
 24
0.0000000000000043
 34
0.0
 50
-0.0000000000000046
100
AcDbRotatedDimension
1001
ACAD
1000
DSTYLE
1002
{
1070
   171
1070
     6
1070
   273
1070
     7
1002
}
  0
DIMENSION
  5
FB
330
1F
100
AcDbEntity
  8
치수문자_일반주서
100
AcDbDimension
  2
_D_2
 10
110.458
 20
33.89566299829283
 30
0.0
 11
56.80506907162846
 21
33.89566299829283
 31
0.0
 70
   160
  1
<>
 71
     2
 42
107.95
  3
SLDDIMSTYLE1
100
AcDbAlignedDimension
 13
2.507999999999996
 23
9.017000000000005
 33
0.0
 14
110.458
 24
0.0000000000000043
 34
0.0
100
AcDbRotatedDimension
1001
ACAD
1000
DSTYLE
1002
{
1070
   171
1070
     6
1070
   273
1070
     7
1002
}
  0
DIMENSION
  5
10E
330
1F
100
AcDbEntity
  8
치수문자_일반주서
100
AcDbDimension
  2
_D_3
 10
110.458
 20
25.39830197801731
 30
0.0
 11
97.56754563583426
 21
25.39830197801731
 31
0.0
 70
   160
  1
<>
 71
     2
 42
25.40000000000015
  3
SLDDIMSTYLE0
100
AcDbAlignedDimension
 13
85.05800000000004
 23
9.49175553939702
 33
0.0
 14
110.458
 24
0.0000000000000043
 34
0.0
 50
-0.0000000000010599
100
AcDbRotatedDimension
1001
ACAD
1000
DSTYLE
1002
{
1070
   171
1070
     6
1070
   273
1070
     7
1002
}
  0
INSERT
  5
129
330
1F
100
AcDbEntity
  8
외형선
100
AcDbBlockReference
  2
SW_DOWELSYMBOL_0
 10
0.0
 20
0.0
 30
0.0
  0
DIMENSION
  5
151
102
{ACAD_XDICTIONARY
360
152
102
}
330
1F
100
AcDbEntity
  8
치수문자_일반주서
100
AcDbDimension
  2
*D7
 10
127.0598603101511
 20
-9.462499999999999
 30
0.0
 11
127.0598603101511
 21
29.97275
 31
0.0
 70
   160
  1
{%%C<>[]}
 71
     5
 42
19.05
  3
SLDDIMSTYLE0
100
AcDbAlignedDimension
 13
110.458
 23
9.587500000000004
 33
0.0
 14
110.458
 24
-9.462499999999997
 34
0.0
 50
90.0
100
AcDbRotatedDimension
1001
ACAD
1000
DSTYLE
1002
{
1070
   283
1070
     1
1070
   170
1070
     1
1070
   171
1070
     6
1070
   273
1070
     7
1002
}
  0
ENDSEC
  0
SECTION
  2
OBJECTS
  0
DICTIONARY
  5
C
330
0
100
AcDbDictionary
281
     1
  3
ACAD_GROUP
350
D
  3
ACAD_IMAGE_VARS
350
14D
  3
ACAD_LAYOUT
350
1A
  3
ACAD_MLINESTYLE
350
17
  3
ACAD_PLOTSETTINGS
350
19
  3
ACAD_PLOTSTYLENAME
350
E
  3
ACAD_SCALELIST
350
47
  3
APPDATA
350
14B
  3
DWGPROPS
350
166
  0
DICTIONARY
  5
152
330
151
100
AcDbDictionary
280
     1
281
     1
  0
DICTIONARY
  5
D
102
{ACAD_REACTORS
330
C
102
}
330
C
100
AcDbDictionary
281
     1
  0
RASTERVARIABLES
  5
14D
102
{ACAD_REACTORS
330
C
102
}
330
C
100
AcDbRasterVariables
 90
        0
 70
     1
 71
     1
 72
     1
  0
DICTIONARY
  5
1A
102
{ACAD_REACTORS
330
C
102
}
330
C
100
AcDbDictionary
281
     1
  3
Layout1
350
1E
  3
Layout2
350
26
  3
Model
350
22
  0
DICTIONARY
  5
17
102
{ACAD_REACTORS
330
C
102
}
330
C
100
AcDbDictionary
281
     1
  3
Standard
350
18
  0
DICTIONARY
  5
19
102
{ACAD_REACTORS
330
C
102
}
330
C
100
AcDbDictionary
281
     1
  0
ACDBDICTIONARYWDFLT
  5
E
102
{ACAD_REACTORS
330
C
102
}
330
C
100
AcDbDictionary
281
     1
  3
Normal
350
F
100
AcDbDictionaryWithDefault
340
F
  0
DICTIONARY
  5
47
102
{ACAD_REACTORS
330
C
102
}
330
C
100
AcDbDictionary
281
     1
  3
A0
350
48
  3
A1
350
49
  3
A2
350
4A
  3
A3
350
4B
  3
A4
350
4C
  3
A5
350
4D
  3
A6
350
4E
  3
A7
350
4F
  3
A8
350
50
  3
A9
350
51
  3
B0
350
52
  3
B1
350
53
  3
B2
350
54
  3
B3
350
55
  3
B4
350
56
  3
B5
350
57
  3
B6
350
58
  3
B7
350
59
  3
B8
350
5A
  3
B9
350
5B
  3
C0
350
5C
  3
C1
350
5D
  3
C2
350
5E
  3
C3
350
5F
  3
C4
350
60
  3
C5
350
61
  3
C6
350
62
  3
C7
350
63
  3
C8
350
64
  3
C9
350
65
  3
D0
350
66
  3
D1
350
67
  3
D2
350
68
  0
DICTIONARY
  5
14B
102
{ACAD_REACTORS
330
C
102
}
330
C
100
AcDbDictionary
281
     1
  0
XRECORD
  5
166
102
{ACAD_REACTORS
330
C
102
}
330
C
100
AcDbXrecord
280
     1
  1
DWGPROPS COOKIE
  2

  3

  4

  6

  7

  8
12016016
  9

300
=
301
=
302
=
303
=
304
=
305
=
306
=
307
=
308
=
309
=
 40
0.0
 41
2458269.362239676
 42
2458275.034850613
  1

 90
        0
  0
LAYOUT
  5
1E
102
{ACAD_REACTORS
330
1A
102
}
330
1A
100
AcDbPlotSettings
  1

  2
none_device
  4

  6

 40
0.0
 41
0.0
 42
0.0
 43
0.0
 44
0.0
 45
0.0
 46
0.0
 47
0.0
 48
0.0
 49
0.0
140
0.0
141
0.0
142
1.0
143
1.0
 70
   688
 72
     1
 73
     0
 74
     5
  7

 75
    16
147
1.0
148
0.0
149
0.0
100
AcDbLayout
  1
Layout1
 70
     1
 71
     1
 10
0.0
 20
0.0
 11
420.0
 21
297.0
 12
0.0
 22
0.0
 32
0.0
 14
1.000000000000000E+20
 24
1.000000000000000E+20
 34
1.000000000000000E+20
 15
-1.000000000000000E+20
 25
-1.000000000000000E+20
 35
-1.000000000000000E+20
146
0.0
 13
0.0
 23
0.0
 33
0.0
 16
1.0
 26
0.0
 36
0.0
 17
0.0
 27
1.0
 37
0.0
 76
     0
330
1B
  0
LAYOUT
  5
26
102
{ACAD_REACTORS
330
1A
102
}
330
1A
100
AcDbPlotSettings
  1

  2
none_device
  4

  6

 40
0.0
 41
0.0
 42
0.0
 43
0.0
 44
0.0
 45
0.0
 46
0.0
 47
0.0
 48
0.0
 49
0.0
140
0.0
141
0.0
142
1.0
143
1.0
 70
   688
 72
     1
 73
     0
 74
     5
  7

 75
    16
147
1.0
148
0.0
149
0.0
100
AcDbLayout
  1
Layout2
 70
     1
 71
     2
 10
0.0
 20
0.0
 11
0.0
 21
0.0
 12
0.0
 22
0.0
 32
0.0
 14
0.0
 24
0.0
 34
0.0
 15
0.0
 25
0.0
 35
0.0
146
0.0
 13
0.0
 23
0.0
 33
0.0
 16
1.0
 26
0.0
 36
0.0
 17
0.0
 27
1.0
 37
0.0
 76
     0
330
23
  0
LAYOUT
  5
22
102
{ACAD_REACTORS
330
1A
102
}
330
1A
100
AcDbPlotSettings
  1

  2
none_device
  4
ANSI_A_(11.00_x_8.50_Inches)
  6

 40
6.35
 41
19.05
 42
6.35000508
 43
19.05000254
 44
279.4
 45
215.9
 46
102.2382039864588
 47
82.40554802471813
 48
0.0
 49
0.0
140
0.0
141
0.0
142
0.0527644506128296
143
1.0
 70
  1696
 72
     0
 73
     0
 74
     0
  7

 75
     0
147
0.0235690232323232
148
0.0
149
0.0
100
AcDbLayout
  1
Model
 70
     1
 71
     0
 10
0.0
 20
0.0
 11
420.0
 21
297.0
 12
0.0
 22
0.0
 32
0.0
 14
-83.21345802161215
 24
-49.88227576695243
 34
0.0
 15
127.6101936434844
 25
53.90000000000005
 35
0.0
146
0.0
 13
0.0
 23
0.0
 33
0.0
 16
1.0
 26
0.0
 36
0.0
 17
0.0
 27
1.0
 37
0.0
 76
     0
330
1F
331
29
  0
MLINESTYLE
  5
18
102
{ACAD_REACTORS
330
17
102
}
330
17
100
AcDbMlineStyle
  2
Standard
 70
     0
  3

 62
   256
 51
90.0
 52
90.0
 71
     2
 49
0.5
 62
   256
  6
BYLAYER
 49
-0.5
 62
   256
  6
BYLAYER
  0
ACDBPLACEHOLDER
  5
F
102
{ACAD_REACTORS
330
E
102
}
330
E
  0
SCALE
  5
48
102
{ACAD_REACTORS
330
47
102
}
330
47
100
AcDbScale
 70
     0
300
1:1
140
1.0
141
1.0
290
     1
  0
SCALE
  5
49
102
{ACAD_REACTORS
330
47
102
}
330
47
100
AcDbScale
 70
     0
300
1:2
140
1.0
141
2.0
290
     0
  0
SCALE
  5
4A
102
{ACAD_REACTORS
330
47
102
}
330
47
100
AcDbScale
 70
     0
300
1:4
140
1.0
141
4.0
290
     0
  0
SCALE
  5
4B
102
{ACAD_REACTORS
330
47
102
}
330
47
100
AcDbScale
 70
     0
300
1:5
140
1.0
141
5.0
290
     0
  0
SCALE
  5
4C
102
{ACAD_REACTORS
330
47
102
}
330
47
100
AcDbScale
 70
     0
300
1:8
140
1.0
141
8.0
290
     0
  0
SCALE
  5
4D
102
{ACAD_REACTORS
330
47
102
}
330
47
100
AcDbScale
 70
     0
300
1:10
140
1.0
141
10.0
290
     0
  0
SCALE
  5
4E
102
{ACAD_REACTORS
330
47
102
}
330
47
100
AcDbScale
 70
     0
300
1:16
140
1.0
141
16.0
290
     0
  0
SCALE
  5
4F
102
{ACAD_REACTORS
330
47
102
}
330
47
100
AcDbScale
 70
     0
300
1:20
140
1.0
141
20.0
290
     0
  0
SCALE
  5
50
102
{ACAD_REACTORS
330
47
102
}
330
47
100
AcDbScale
 70
     0
300
1:30
140
1.0
141
30.0
290
     0
  0
SCALE
  5
51
102
{ACAD_REACTORS
330
47
102
}
330
47
100
AcDbScale
 70
     0
300
1:40
140
1.0
141
40.0
290
     0
  0
SCALE
  5
52
102
{ACAD_REACTORS
330
47
102
}
330
47
100
AcDbScale
 70
     0
300
1:50
140
1.0
141
50.0
290
     0
  0
SCALE
  5
53
102
{ACAD_REACTORS
330
47
102
}
330
47
100
AcDbScale
 70
     0
300
1:100
140
1.0
141
100.0
290
     0
  0
SCALE
  5
54
102
{ACAD_REACTORS
330
47
102
}
330
47
100
AcDbScale
 70
     0
300
2:1
140
2.0
141
1.0
290
     0
  0
SCALE
  5
55
102
{ACAD_REACTORS
330
47
102
}
330
47
100
AcDbScale
 70
     0
300
4:1
140
4.0
141
1.0
290
     0
  0
SCALE
  5
56
102
{ACAD_REACTORS
330
47
102
}
330
47
100
AcDbScale
 70
     0
300
8:1
140
8.0
141
1.0
290
     0
  0
SCALE
  5
57
102
{ACAD_REACTORS
330
47
102
}
330
47
100
AcDbScale
 70
     0
300
10:1
140
10.0
141
1.0
290
     0
  0
SCALE
  5
58
102
{ACAD_REACTORS
330
47
102
}
330
47
100
AcDbScale
 70
     0
300
100:1
140
100.0
141
1.0
290
     0
  0
SCALE
  5
59
102
{ACAD_REACTORS
330
47
102
}
330
47
100
AcDbScale
 70
     0
300
1/128" = 1'-0"
140
0.0078125
141
12.0
290
     0
  0
SCALE
  5
5A
102
{ACAD_REACTORS
330
47
102
}
330
47
100
AcDbScale
 70
     0
300
1/64" = 1'-0"
140
0.015625
141
12.0
290
     0
  0
SCALE
  5
5B
102
{ACAD_REACTORS
330
47
102
}
330
47
100
AcDbScale
 70
     0
300
1/32" = 1'-0"
140
0.03125
141
12.0
290
     0
  0
SCALE
  5
5C
102
{ACAD_REACTORS
330
47
102
}
330
47
100
AcDbScale
 70
     0
300
1/16" = 1'-0"
140
0.0625
141
12.0
290
     0
  0
SCALE
  5
5D
102
{ACAD_REACTORS
330
47
102
}
330
47
100
AcDbScale
 70
     0
300
3/32" = 1'-0"
140
0.09375
141
12.0
290
     0
  0
SCALE
  5
5E
102
{ACAD_REACTORS
330
47
102
}
330
47
100
AcDbScale
 70
     0
300
1/8" = 1'-0"
140
0.125
141
12.0
290
     0
  0
SCALE
  5
5F
102
{ACAD_REACTORS
330
47
102
}
330
47
100
AcDbScale
 70
     0
300
3/16" = 1'-0"
140
0.1875
141
12.0
290
     0
  0
SCALE
  5
60
102
{ACAD_REACTORS
330
47
102
}
330
47
100
AcDbScale
 70
     0
300
1/4" = 1'-0"
140
0.25
141
12.0
290
     0
  0
SCALE
  5
61
102
{ACAD_REACTORS
330
47
102
}
330
47
100
AcDbScale
 70
     0
300
3/8" = 1'-0"
140
0.375
141
12.0
290
     0
  0
SCALE
  5
62
102
{ACAD_REACTORS
330
47
102
}
330
47
100
AcDbScale
 70
     0
300
1/2" = 1'-0"
140
0.5
141
12.0
290
     0
  0
SCALE
  5
63
102
{ACAD_REACTORS
330
47
102
}
330
47
100
AcDbScale
 70
     0
300
3/4" = 1'-0"
140
0.75
141
12.0
290
     0
  0
SCALE
  5
64
102
{ACAD_REACTORS
330
47
102
}
330
47
100
AcDbScale
 70
     0
300
1" = 1'-0"
140
1.0
141
12.0
290
     0
  0
SCALE
  5
65
102
{ACAD_REACTORS
330
47
102
}
330
47
100
AcDbScale
 70
     0
300
1-1/2" = 1'-0"
140
1.5
141
12.0
290
     0
  0
SCALE
  5
66
102
{ACAD_REACTORS
330
47
102
}
330
47
100
AcDbScale
 70
     0
300
3" = 1'-0"
140
3.0
141
12.0
290
     0
  0
SCALE
  5
67
102
{ACAD_REACTORS
330
47
102
}
330
47
100
AcDbScale
 70
     0
300
6" = 1'-0"
140
6.0
141
12.0
290
     0
  0
SCALE
  5
68
102
{ACAD_REACTORS
330
47
102
}
330
47
100
AcDbScale
 70
     0
300
1'-0" = 1'-0"
140
12.0
141
12.0
290
     0
  0
ENDSEC
  0
EOF
