  0
SECTION
  2
HEADER
  9
$ACADVER
  1
AC1015
  9
$ACADMAINTVER
 70
     6
  9
$DWGCODEPAGE
  3
ANSI_949
  9
$INSBASE
 10
0.0
 20
0.0
 30
0.0
  9
$EXTMIN
 10
-83.22145802161212
 20
-49.88227576695244
 30
0.0
  9
$EXTMAX
 10
100.5368365266458
 20
57.07500000000005
 30
0.0
  9
$LIMMIN
 10
0.0
 20
0.0
  9
$LIMMAX
 10
420.0
 20
297.0
  9
$ORTHOMODE
 70
     1
  9
$REGENMODE
 70
     1
  9
$FILLMODE
 70
     1
  9
$QTEXTMODE
 70
     0
  9
$MIRRTEXT
 70
     1
  9
$LTSCALE
 40
1.0
  9
$ATTMODE
 70
     1
  9
$TEXTSIZE
 40
3.5
  9
$TRACEWID
 40
1.0
  9
$TEXTSTYLE
  7
Standard
  9
$CLAYER
  8
0
  9
$CELTYPE
  6
ByLayer
  9
$CECOLOR
 62
   256
  9
$CELTSCALE
 40
1.0
  9
$DISPSILH
 70
     0
  9
$DIMSCALE
 40
1.0
  9
$DIMASZ
 40
3.302
  9
$DIMEXO
 40
1.0
  9
$DIMDLI
 40
3.75
  9
$DIMRND
 40
0.0
  9
$DIMDLE
 40
0.0
  9
$DIMEXE
 40
1.0
  9
$DIMTP
 40
0.0
  9
$DIMTM
 40
0.0
  9
$DIMTXT
 40
3.5
  9
$DIMCEN
 40
2.5
  9
$DIMTSZ
 40
0.0
  9
$DIMTOL
 70
     0
  9
$DIMLIM
 70
     0
  9
$DIMTIH
 70
     1
  9
$DIMTOH
 70
     1
  9
$DIMSE1
 70
     0
  9
$DIMSE2
 70
     0
  9
$DIMTAD
 70
     1
  9
$DIMZIN
 70
     0
  9
$DIMBLK
  1

  9
$DIMASO
 70
     1
  9
$DIMSHO
 70
     1
  9
$DIMPOST
  1

  9
$DIMAPOST
  1

  9
$DIMALT
 70
     0
  9
$DIMALTD
 70
     3
  9
$DIMALTF
 40
0.0393700787401575
  9
$DIMLFAC
 40
1.0
  9
$DIMTOFL
 70
     1
  9
$DIMTVP
 40
0.0
  9
$DIMTIX
 70
     0
  9
$DIMSOXD
 70
     0
  9
$DIMSAH
 70
     0
  9
$DIMBLK1
  1

  9
$DIMBLK2
  1

  9
$DIMSTYLE
  2
ISO-25
  9
$DIMCLRD
 70
     0
  9
$DIMCLRE
 70
     0
  9
$DIMCLRT
 70
     0
  9
$DIMTFAC
 40
1.0
  9
$DIMGAP
 40
1.524
  9
$DIMJUST
 70
     0
  9
$DIMSD1
 70
     0
  9
$DIMSD2
 70
     0
  9
$DIMTOLJ
 70
     0
  9
$DIMTZIN
 70
     0
  9
$DIMALTZ
 70
     0
  9
$DIMALTTZ
 70
     0
  9
$DIMUPT
 70
     0
  9
$DIMDEC
 70
     2
  9
$DIMTDEC
 70
     2
  9
$DIMALTU
 70
     2
  9
$DIMALTTD
 70
     3
  9
$DIMTXSTY
  7
Standard
  9
$DIMAUNIT
 70
     0
  9
$DIMADEC
 70
     2
  9
$DIMALTRND
 40
0.0
  9
$DIMAZIN
 70
     0
  9
$DIMDSEP
 70
    44
  9
$DIMATFIT
 70
     3
  9
$DIMFRAC
 70
     0
  9
$DIMLDRBLK
  1

  9
$DIMLUNIT
 70
     2
  9
$DIMLWD
 70
    -2
  9
$DIMLWE
 70
    -2
  9
$DIMTMOVE
 70
     0
  9
$LUNITS
 70
     2
  9
$LUPREC
 70
     2
  9
$SKETCHINC
 40
1.0
  9
$FILLETRAD
 40
10.0
  9
$AUNITS
 70
     0
  9
$AUPREC
 70
     2
  9
$MENU
  1
.
  9
$ELEVATION
 40
0.0
  9
$PELEVATION
 40
0.0
  9
$THICKNESS
 40
0.0
  9
$LIMCHECK
 70
     0
  9
$CHAMFERA
 40
0.0
  9
$CHAMFERB
 40
0.0
  9
$CHAMFERC
 40
0.0
  9
$CHAMFERD
 40
0.0
  9
$SKPOLY
 70
     0
  9
$TDCREATE
 40
2458269.737373414
  9
$TDUCREATE
 40
2458269.362373414
  9
$TDUPDATE
 40
2458275.408576215
  9
$TDUUPDATE
 40
2458275.033576215
  9
$TDINDWG
 40
0.0005636111
  9
$TDUSRTIMER
 40
2458275.032549294
  9
$USRTIMER
 70
     1
  9
$ANGBASE
 50
0.0
  9
$ANGDIR
 70
     0
  9
$PDMODE
 70
     0
  9
$PDSIZE
 40
-1.0
  9
$PLINEWID
 40
0.0
  9
$SPLFRAME
 70
     0
  9
$SPLINETYPE
 70
     6
  9
$SPLINESEGS
 70
     8
  9
$HANDSEED
  5
16A
  9
$SURFTAB1
 70
     6
  9
$SURFTAB2
 70
     6
  9
$SURFTYPE
 70
     6
  9
$SURFU
 70
     6
  9
$SURFV
 70
     6
  9
$UCSBASE
  2

  9
$UCSNAME
  2

  9
$UCSORG
 10
0.0
 20
0.0
 30
0.0
  9
$UCSXDIR
 10
1.0
 20
0.0
 30
0.0
  9
$UCSYDIR
 10
0.0
 20
1.0
 30
0.0
  9
$UCSORTHOREF
  2

  9
$UCSORTHOVIEW
 70
     0
  9
$UCSORGTOP
 10
0.0
 20
0.0
 30
0.0
  9
$UCSORGBOTTOM
 10
0.0
 20
0.0
 30
0.0
  9
$UCSORGLEFT
 10
0.0
 20
0.0
 30
0.0
  9
$UCSORGRIGHT
 10
0.0
 20
0.0
 30
0.0
  9
$UCSORGFRONT
 10
0.0
 20
0.0
 30
0.0
  9
$UCSORGBACK
 10
0.0
 20
0.0
 30
0.0
  9
$PUCSBASE
  2

  9
$PUCSNAME
  2

  9
$PUCSORG
 10
0.0
 20
0.0
 30
0.0
  9
$PUCSXDIR
 10
1.0
 20
0.0
 30
0.0
  9
$PUCSYDIR
 10
0.0
 20
1.0
 30
0.0
  9
$PUCSORTHOREF
  2

  9
$PUCSORTHOVIEW
 70
     0
  9
$PUCSORGTOP
 10
0.0
 20
0.0
 30
0.0
  9
$PUCSORGBOTTOM
 10
0.0
 20
0.0
 30
0.0
  9
$PUCSORGLEFT
 10
0.0
 20
0.0
 30
0.0
  9
$PUCSORGRIGHT
 10
0.0
 20
0.0
 30
0.0
  9
$PUCSORGFRONT
 10
0.0
 20
0.0
 30
0.0
  9
$PUCSORGBACK
 10
0.0
 20
0.0
 30
0.0
  9
$USERI1
 70
     0
  9
$USERI2
 70
     0
  9
$USERI3
 70
     0
  9
$USERI4
 70
     0
  9
$USERI5
 70
     0
  9
$USERR1
 40
0.0
  9
$USERR2
 40
0.0
  9
$USERR3
 40
0.0
  9
$USERR4
 40
0.0
  9
$USERR5
 40
0.0
  9
$WORLDVIEW
 70
     1
  9
$SHADEDGE
 70
     3
  9
$SHADEDIF
 70
    70
  9
$TILEMODE
 70
     1
  9
$MAXACTVP
 70
    64
  9
$PINSBASE
 10
0.0
 20
0.0
 30
0.0
  9
$PLIMCHECK
 70
     0
  9
$PEXTMIN
 10
1.000000000000000E+20
 20
1.000000000000000E+20
 30
1.000000000000000E+20
  9
$PEXTMAX
 10
-1.000000000000000E+20
 20
-1.000000000000000E+20
 30
-1.000000000000000E+20
  9
$PLIMMIN
 10
0.0
 20
0.0
  9
$PLIMMAX
 10
0.0
 20
0.0
  9
$UNITMODE
 70
     0
  9
$VISRETAIN
 70
     1
  9
$PLINEGEN
 70
     0
  9
$PSLTSCALE
 70
     1
  9
$TREEDEPTH
 70
  3020
  9
$CMLSTYLE
  2
Standard
  9
$CMLJUST
 70
     0
  9
$CMLSCALE
 40
20.0
  9
$PROXYGRAPHICS
 70
     1
  9
$MEASUREMENT
 70
     1
  9
$CELWEIGHT
370
    -1
  9
$ENDCAPS
280
     0
  9
$JOINSTYLE
280
     0
  9
$LWDISPLAY
290
     1
  9
$INSUNITS
 70
     4
  9
$HYPERLINKBASE
  1

  9
$STYLESHEET
  1

  9
$XEDIT
290
     1
  9
$CEPSNTYPE
380
     0
  9
$PSTYLEMODE
290
     1
  9
$FINGERPRINTGUID
  2
{95866D86-BC39-48FF-9AEC-E9829E90CF93}
  9
$VERSIONGUID
  2
{FAEB1C32-E019-11D5-929B-00C0DF256EC4}
  9
$EXTNAMES
290
     1
  9
$PSVPSCALE
 40
0.0
  9
$OLESTARTUP
290
     0
  0
ENDSEC
  0
SECTION
  2
CLASSES
  0
CLASS
  1
ACDBDICTIONARYWDFLT
  2
AcDbDictionaryWithDefault
  3
ObjectDBX Classes
 90
        0
280
     0
281
     0
  0
CLASS
  1
VISUALSTYLE
  2
AcDbVisualStyle
  3
ObjectDBX Classes
 90
     4095
280
     0
281
     0
  0
CLASS
  1
MATERIAL
  2
AcDbMaterial
  3
ObjectDBX Classes
 90
     1153
280
     0
281
     0
  0
CLASS
  1
SCALE
  2
AcDbScale
  3
ObjectDBX Classes
 90
     1153
280
     0
281
     0
  0
CLASS
  1
SUN
  2
AcDbSun
  3
SCENEOE
 90
     1153
280
     0
281
     0
  0
CLASS
  1
ACDBPLACEHOLDER
  2
AcDbPlaceHolder
  3
ObjectDBX Classes
 90
        0
280
     0
281
     0
  0
CLASS
  1
LAYOUT
  2
AcDbLayout
  3
ObjectDBX Classes
 90
        0
280
     0
281
     0
  0
CLASS
  1
TABLESTYLE
  2
AcDbTableStyle
  3
ObjectDBX Classes
 90
     4095
280
     0
281
     0
  0
CLASS
  1
MLEADERSTYLE
  2
AcDbMLeaderStyle
  3
ACDB_MLEADERSTYLE_CLASS
 90
     4095
280
     0
281
     0
  0
CLASS
  1
RASTERVARIABLES
  2
AcDbRasterVariables
  3
ISM
 90
        0
280
     0
281
     0
  0
CLASS
  1
DIMASSOC
  2
AcDbDimAssoc
  3
"AcDbDimAssoc|Product Desc:     AcDim ARX App For Dimension|Company:          Autodesk, Inc.|WEB Address:      www.autodesk.com"
 90
        0
280
     0
281
     0
  0
ENDSEC
  0
SECTION
  2
TABLES
  0
TABLE
  2
VPORT
  5
8
330
0
100
AcDbSymbolTable
 70
     1
  0
VPORT
  5
29
330
8
100
AcDbSymbolTableRecord
100
AcDbViewportTableRecord
  2
*Active
 70
     0
 10
0.0
 20
0.0
 11
1.0
 21
1.0
 12
10.60254370241886
 22
-5.411499932023343
 13
0.0
 23
0.0
 14
10.0
 24
10.0
 15
10.0
 25
10.0
 16
0.0
 26
0.0
 36
1.0
 17
0.0
 27
0.0
 37
0.0
 40
152.2586829064568
 41
1.515444015444015
 42
50.0
 43
0.0
 44
0.0
 50
0.0
 51
0.0
 71
    16
 72
  2000
 73
     1
 74
     3
 75
     0
 76
     0
 77
     0
 78
     0
281
     0
 65
     1
110
0.0
120
0.0
130
0.0
111
1.0
121
0.0
131
0.0
112
0.0
122
1.0
132
0.0
 79
     0
146
0.0
  0
ENDTAB
  0
TABLE
  2
LTYPE
  5
5
330
0
100
AcDbSymbolTable
 70
     6
  0
LTYPE
  5
14
330
5
100
AcDbSymbolTableRecord
100
AcDbLinetypeTableRecord
  2
ByBlock
 70
     0
  3

 72
    65
 73
     0
 40
0.0
  0
LTYPE
  5
15
330
5
100
AcDbSymbolTableRecord
100
AcDbLinetypeTableRecord
  2
ByLayer
 70
     0
  3

 72
    65
 73
     0
 40
0.0
  0
LTYPE
  5
16
330
5
100
AcDbSymbolTableRecord
100
AcDbLinetypeTableRecord
  2
Continuous
 70
     0
  3
Solid line
 72
    65
 73
     0
 40
0.0
  0
LTYPE
  5
6A
330
5
100
AcDbSymbolTableRecord
100
AcDbLinetypeTableRecord
  2
HIDDEN
 70
     0
  3
Hidden __ __ __ __ __ __ __ __ __ __ __ __ __ __
 72
    65
 73
     2
 40
1.905
 49
1.27
 74
     0
 49
-0.635
 74
     0
  0
LTYPE
  5
6B
330
5
100
AcDbSymbolTableRecord
100
AcDbLinetypeTableRecord
  2
PHANTOM
 70
     0
  3
Phantom ______  __  __  ______  __  __  ______
 72
    65
 73
     6
 40
12.7
 49
6.35
 74
     0
 49
-1.27
 74
     0
 49
1.27
 74
     0
 49
-1.27
 74
     0
 49
1.27
 74
     0
 49
-1.27
 74
     0
  0
LTYPE
  5
6C
330
5
100
AcDbSymbolTableRecord
100
AcDbLinetypeTableRecord
  2
CENTER
 70
     0
  3
Center ____ _ ____ _ ____ _ ____ _ ____ _ ____
 72
    65
 73
     4
 40
10.16
 49
6.35
 74
     0
 49
-1.27
 74
     0
 49
1.27
 74
     0
 49
-1.27
 74
     0
  0
LTYPE
  5
6D
330
5
100
AcDbSymbolTableRecord
100
AcDbLinetypeTableRecord
  2
CENTERX2
 70
     0
  3
Center (2x) ________  __  ________  __  _____
 72
    65
 73
     4
 40
20.32
 49
12.7
 74
     0
 49
-2.54
 74
     0
 49
2.54
 74
     0
 49
-2.54
 74
     0
  0
LTYPE
  5
6E
330
5
100
AcDbSymbolTableRecord
100
AcDbLinetypeTableRecord
  2
DOT2
 70
     0
  3
Dot (.5x) ........................................
 72
    65
 73
     2
 40
0.635
 49
0.0
 74
     0
 49
-0.635
 74
     0
  0
ENDTAB
  0
TABLE
  2
LAYER
  5
2
330
0
100
AcDbSymbolTable
 70
    17
  0
LAYER
  5
10
330
2
100
AcDbSymbolTableRecord
100
AcDbLayerTableRecord
  2
0
 70
     0
 62
     7
  6
Continuous
370
    -3
390
F
  0
LAYER
  5
6F
330
2
100
AcDbSymbolTableRecord
100
AcDbLayerTableRecord
  2
FORMAT
 70
     0
 62
     2
  6
Continuous
370
    -3
390
F
  0
LAYER
  5
70
330
2
100
AcDbSymbolTableRecord
100
AcDbLayerTableRecord
  2
외형선
 70
     0
 62
   100
  6
Continuous
370
    30
390
F
  0
LAYER
  5
71
330
2
100
AcDbSymbolTableRecord
100
AcDbLayerTableRecord
  2
숨은선
 70
     0
 62
     2
  6
HIDDEN
370
    15
390
F
  0
LAYER
  5
72
330
2
100
AcDbSymbolTableRecord
100
AcDbLayerTableRecord
  2
중심선
 70
     0
 62
     1
  6
CENTERX2
370
    -3
390
F
  0
LAYER
  5
73
330
2
100
AcDbSymbolTableRecord
100
AcDbLayerTableRecord
  2
파단선
 70
     0
 62
     4
  6
Continuous
370
    -3
390
F
  0
LAYER
  5
74
330
2
100
AcDbSymbolTableRecord
100
AcDbLayerTableRecord
  2
해칭선
 70
     0
 62
     4
  6
Continuous
370
    -3
390
F
  0
LAYER
  5
75
330
2
100
AcDbSymbolTableRecord
100
AcDbLayerTableRecord
  2
가는실선
 70
     0
 62
     4
  6
Continuous
370
    -3
390
F
  0
LAYER
  5
76
330
2
100
AcDbSymbolTableRecord
100
AcDbLayerTableRecord
  2
치수_보조선
 70
     0
 62
     4
  6
Continuous
370
    -3
390
F
  0
LAYER
  5
77
330
2
100
AcDbSymbolTableRecord
100
AcDbLayerTableRecord
  2
치수문자_일반주서
 70
     0
 62
     7
  6
Continuous
370
    15
390
F
  0
LAYER
  5
78
330
2
100
AcDbSymbolTableRecord
100
AcDbLayerTableRecord
  2
개별주서
 70
     0
 62
   100
  6
Continuous
370
    30
390
F
  0
LAYER
  5
79
330
2
100
AcDbSymbolTableRecord
100
AcDbLayerTableRecord
  2
중간선
 70
     0
 62
     2
  6
Continuous
370
    15
390
F
  0
LAYER
  5
7A
330
2
100
AcDbSymbolTableRecord
100
AcDbLayerTableRecord
  2
윤곽선
 70
     0
 62
     3
  6
Continuous
370
    40
390
F
  0
LAYER
  5
7B
330
2
100
AcDbSymbolTableRecord
100
AcDbLayerTableRecord
  2
중심마크
 70
     0
 62
   100
  6
Continuous
370
    30
390
F
  0
LAYER
  5
7C
330
2
100
AcDbSymbolTableRecord
100
AcDbLayerTableRecord
  2
가상선
 70
     0
 62
     4
  6
PHANTOM
370
    -3
390
F
  0
LAYER
  5
7D
330
2
100
AcDbSymbolTableRecord
100
AcDbLayerTableRecord
  2
특수지정선
 70
     0
 62
     5
  6
CENTERX2
370
    60
390
F
  0
LAYER
  5
151
330
2
100
AcDbSymbolTableRecord
100
AcDbLayerTableRecord
  2
Defpoints
 70
     0
 62
     7
  6
Continuous
290
     0
370
    -3
390
F
  0
ENDTAB
  0
TABLE
  2
STYLE
  5
3
330
0
100
AcDbSymbolTable
 70
     2
  0
STYLE
  5
11
330
3
100
AcDbSymbolTableRecord
100
AcDbTextStyleTableRecord
  2
Standard
 70
     0
 40
0.0
 41
1.0
 50
0.0
 71
     0
 42
3.5
  3
txt
  4

  0
STYLE
  5
93
330
3
100
AcDbSymbolTableRecord
100
AcDbTextStyleTableRecord
  2
SLDTEXTSTYLE0
 70
     0
 40
0.0
 41
0.75
 50
0.0
 71
     0
 42
3.5
  3
TXT
  4

  0
ENDTAB
  0
TABLE
  2
VIEW
  5
6
330
0
100
AcDbSymbolTable
 70
     0
  0
ENDTAB
  0
TABLE
  2
UCS
  5
7
330
0
100
AcDbSymbolTable
 70
     0
  0
ENDTAB
  0
TABLE
  2
APPID
  5
9
330
0
100
AcDbSymbolTable
 70
     2
  0
APPID
  5
12
330
9
100
AcDbSymbolTableRecord
100
AcDbRegAppTableRecord
  2
ACAD
 70
     0
  0
APPID
  5
166
330
9
100
AcDbSymbolTableRecord
100
AcDbRegAppTableRecord
  2
PE_DIMMEASUREMENT
 70
     0
  0
ENDTAB
  0
TABLE
  2
DIMSTYLE
  5
A
330
0
100
AcDbSymbolTable
 70
     4
100
AcDbDimStyleTable
  0
DIMSTYLE
105
27
330
A
100
AcDbSymbolTableRecord
100
AcDbDimStyleTableRecord
  2
ISO-25
 70
     0
 41
2.5
 42
0.625
 43
3.75
 44
1.25
 73
     0
 74
     0
 77
     1
 78
     8
140
2.5
141
2.5
143
0.03937007874016
147
0.625
171
     3
172
     1
178
     0
271
     2
272
     2
274
     3
278
    44
283
     0
284
     8
340
11
  0
DIMSTYLE
105
D4
102
{ACAD_REACTORS
330
D3
102
}
330
A
100
AcDbSymbolTableRecord
100
AcDbDimStyleTableRecord
  2
SLDDIMSTYLE0
 70
     0
 41
3.302
 44
0.0
 45
0.000000001
 73
     0
 74
     0
 77
     1
 78
     4
 79
     1
140
3.5
143
0.0393700787401575
147
0.875
148
0.000000001
170
     1
172
     1
173
     1
178
     0
271
     2
272
     2
276
     2
284
    12
289
     0
340
93
  0
DIMSTYLE
105
E9
102
{ACAD_REACTORS
330
E8
330
FC
102
}
330
A
100
AcDbSymbolTableRecord
100
AcDbDimStyleTableRecord
  2
SLDDIMSTYLE1
 70
     0
 41
3.302
 44
0.0
 45
0.000000001
 73
     0
 74
     0
 77
     1
 78
    12
 79
     3
140
3.5
143
0.0393700787401575
147
0.875
148
0.000000001
170
     1
173
     1
178
     0
271
     2
272
     2
276
     2
284
    12
340
93
  0
DIMSTYLE
105
110
102
{ACAD_REACTORS
330
10F
330
154
102
}
330
A
100
AcDbSymbolTableRecord
100
AcDbDimStyleTableRecord
  2
SLDDIMSTYLE2
 70
     0
 41
3.302
 44
0.0
 45
0.000000001
 73
     0
 74
     0
 77
     1
 78
    12
 79
     3
140
3.5
143
0.0393700787401575
147
0.875
148
0.000000001
170
     1
172
     1
173
     1
178
     0
271
     2
272
     2
276
     2
284
    12
289
     0
340
93
  0
ENDTAB
  0
TABLE
  2
BLOCK_RECORD
  5
1
330
0
100
AcDbSymbolTable
 70
     8
  0
BLOCK_RECORD
  5
1F
330
1
100
AcDbSymbolTableRecord
100
AcDbBlockTableRecord
  2
*Model_Space
340
22
  0
BLOCK_RECORD
  5
1B
330
1
100
AcDbSymbolTableRecord
100
AcDbBlockTableRecord
  2
*Paper_Space
340
1E
  0
BLOCK_RECORD
  5
23
330
1
100
AcDbSymbolTableRecord
100
AcDbBlockTableRecord
  2
*Paper_Space0
340
26
  0
BLOCK_RECORD
  5
7E
330
1
100
AcDbSymbolTableRecord
100
AcDbBlockTableRecord
  2
블럭10
340
0
102
{BLKREFS
331
CB
102
}
  0
BLOCK_RECORD
  5
D5
330
1
100
AcDbSymbolTableRecord
100
AcDbBlockTableRecord
  2
_D
340
0
  0
BLOCK_RECORD
  5
EA
330
1
100
AcDbSymbolTableRecord
100
AcDbBlockTableRecord
  2
_D_1
340
0
  0
BLOCK_RECORD
  5
FD
330
1
100
AcDbSymbolTableRecord
100
AcDbBlockTableRecord
  2
_D_2
340
0
  0
BLOCK_RECORD
  5
111
330
1
100
AcDbSymbolTableRecord
100
AcDbBlockTableRecord
  2
_D_3
340
0
  0
BLOCK_RECORD
  5
125
330
1
100
AcDbSymbolTableRecord
100
AcDbBlockTableRecord
  2
SW_DOWELSYMBOL_0
340
0
102
{BLKREFS
331
12B
102
}
  0
BLOCK_RECORD
  5
157
330
1
100
AcDbSymbolTableRecord
100
AcDbBlockTableRecord
  2
*D7
340
0
  0
ENDTAB
  0
ENDSEC
  0
SECTION
  2
BLOCKS
  0
BLOCK
  5
20
330
1F
100
AcDbEntity
  8
0
100
AcDbBlockBegin
  2
*Model_Space
 70
     0
 10
0.0
 20
0.0
 30
0.0
  3
*Model_Space
  1
*Model_Space
  0
ENDBLK
  5
21
330
1F
100
AcDbEntity
  8
0
100
AcDbBlockEnd
  0
BLOCK
  5
1C
330
1B
100
AcDbEntity
 67
     1
  8
0
100
AcDbBlockBegin
  2
*Paper_Space
 70
     0
 10
0.0
 20
0.0
 30
0.0
  3
*Paper_Space
  1
*Paper_Space
  0
ENDBLK
  5
1D
330
1B
100
AcDbEntity
 67
     1
  8
0
100
AcDbBlockEnd
  0
BLOCK
  5
24
330
23
100
AcDbEntity
  8
0
100
AcDbBlockBegin
  2
*Paper_Space0
 70
     0
 10
0.0
 20
0.0
 30
0.0
  3
*Paper_Space0
  1
*Paper_Space0
  0
ENDBLK
  5
25
330
23
100
AcDbEntity
  8
0
100
AcDbBlockEnd
  0
BLOCK
  5
7F
330
7E
100
AcDbEntity
  8
0
100
AcDbBlockBegin
  2
블럭10
 70
     2
 10
0.0
 20
0.0
 30
0.0
  3
블럭10
  1
블럭10
  0
ELLIPSE
  5
81
330
7E
100
AcDbEntity
  8
중심선
100
AcDbEllipse
 10
20.54032771741204
 20
12.0471743016438
 30
0.0
 11
6.600054785286829
 21
-1.261213355974178E-13
 31
0.0
210
0.0
220
0.0
230
1.0
 40
0.636358354079598
 41
0.9219305317359503
 42
6.513795318482858
  0
ELLIPSE
  5
82
330
7E
100
AcDbEntity
  8
중심선
100
AcDbEllipse
 10
20.54032771746488
 20
12.04717430159265
 30
0.0
 11
3.960054785062283
 21
1.540847449632565E-10
 31
0.0
210
0.0
220
0.0
230
1.0
 40
0.3939339440162632
 41
1.131841032648279
 42
5.62031148352944
  0
LINE
  5
83
330
7E
100
AcDbEntity
  8
중심선
100
AcDbLine
 10
2.268634060543552
 20
16.24717430164393
 30
0.0
 11
5.714909304380834
 21
16.24717430164393
 31
0.0
  0
LINE
  5
84
330
7E
100
AcDbEntity
  8
중심선
100
AcDbLine
 10
5.245725140726316
 20
7.84717430164391
 30
0.0
 11
8.692000384563599
 21
7.84717430164391
 31
0.0
  0
LINE
  5
85
330
7E
100
AcDbEntity
  8
중심선
100
AcDbLine
 10
15.74043728645272
 20
16.24717430164393
 30
0.0
 11
8.692000384563599
 21
7.84717430164391
 31
0.0
  0
LINE
  5
86
330
7E
100
AcDbEntity
  8
중심선
100
AcDbLine
 10
0.1404042013395286
 20
13.71084872107135
 30
0.0
 11
3.58671253028996
 21
13.71088815037384
 31
0.0
  0
LINE
  5
87
330
7E
100
AcDbEntity
  8
중심선
100
AcDbLine
 10
2.750260043222114
 20
10.84717430164391
 30
0.0
 11
6.196535287059397
 21
10.84717430164391
 31
0.0
  0
LINE
  5
88
330
7E
100
AcDbEntity
  8
중심선
100
AcDbLine
 10
12.29416204261559
 20
16.24717430164393
 30
0.0
 11
5.245725140726316
 21
7.84717430164391
 31
0.0
  0
LINE
  5
89
330
7E
100
AcDbEntity
  8
중심선
100
AcDbLine
 10
10.72767329541681
 20
16.24717430164393
 30
0.0
 11
6.196535287059397
 21
10.84717430164391
 31
0.0
  0
LINE
  5
8A
330
7E
100
AcDbEntity
  8
중심선
100
AcDbLine
 10
7.28139805157953
 20
16.24717430164393
 30
0.0
 11
2.750260043222114
 21
10.84717430164391
 31
0.0
  0
LINE
  5
8B
330
7E
100
AcDbEntity
  8
중심선
100
AcDbLine
 10
5.714909304380834
 20
16.24717430164393
 30
0.0
 11
3.58671253028996
 21
13.71088815037384
 31
0.0
  0
LINE
  5
8C
330
7E
100
AcDbEntity
  8
중심선
100
AcDbLine
 10
2.268634060543552
 20
16.24717430164393
 30
0.0
 11
0.1404042013395286
 21
13.71084872107135
 31
0.0
  0
LINE
  5
8D
330
7E
100
AcDbEntity
  8
중심선
100
AcDbLine
 10
7.28139805157953
 20
16.24717430164393
 30
0.0
 11
10.72767329541681
 21
16.24717430164393
 31
0.0
  0
LINE
  5
8E
330
7E
100
AcDbEntity
  8
중심선
100
AcDbLine
 10
12.29416204261559
 20
16.24717430164393
 30
0.0
 11
15.74043728645272
 21
16.24717430164393
 31
0.0
  0
LINE
  5
8F
330
7E
100
AcDbEntity
  8
중심선
100
AcDbLine
 10
19.22036997980202
 20
11.08717430171403
 30
0.0
 11
23.66174974927406
 21
11.08717430171406
 31
0.0
  0
LINE
  5
90
330
7E
100
AcDbEntity
  8
중심선
100
AcDbLine
 10
19.22039502424796
 20
13.00717430171391
 30
0.0
 11
19.22036997980202
 21
11.08717430171403
 31
0.0
  0
LINE
  5
91
330
7E
100
AcDbEntity
  8
중심선
100
AcDbLine
 10
19.22039502424796
 20
13.00717430171391
 30
0.0
 11
26.96566020931264
 21
13.00717430171391
 31
0.0
  0
LINE
  5
92
330
7E
100
AcDbEntity
  8
중심선
100
AcDbLine
 10
22.22332737316547
 20
13.45928029700563
 30
0.0
 11
24.52862924686651
 21
15.39360700705356
 31
0.0
  0
ATTDEF
  5
94
330
7E
100
AcDbEntity
  8
FORMAT
 62
     2
100
AcDbText
 10
-9.18129528874128
 20
2.075366912832191
 30
0.0
 40
4.233333333333333
  1
E5978907 [ 3 FLUTE ]
 41
0.75
  7
SLDTEXTSTYLE0
 11
-9.18129528874128
 21
-0.0412997538344756
 31
0.0
100
AcDbAttributeDefinition
  3

  2
AUTOATTR0
 70
     0
 74
     1
  0
ENDBLK
  5
80
330
7E
100
AcDbEntity
  8
0
100
AcDbBlockEnd
  0
BLOCK
  5
D6
330
D5
100
AcDbEntity
  8
0
100
AcDbBlockBegin
  2
_D
 70
     0
 10
0.0
 20
0.0
 30
0.0
  3
_D
  1
_D
  0
LINE
  5
D8
330
D5
100
AcDbEntity
  8
치수문자_일반주서
 62
     0
370
    -2
100
AcDbLine
 10
-66.4125
 20
12.69999999999999
 30
0.0
 11
-78.84645802161212
 21
12.69999999999994
 31
0.0
  0
LINE
  5
D9
330
D5
100
AcDbEntity
  8
치수문자_일반주서
 62
     0
370
    -2
100
AcDbLine
 10
-66.4125
 20
-12.70000000000001
 30
0.0
 11
-78.84645802161204
 21
-12.70000000000006
 31
0.0
  0
LINE
  5
DA
330
D5
100
AcDbEntity
  8
치수문자_일반주서
 62
     0
370
    -2
100
AcDbLine
 10
-78.84645802161211
 20
9.39799999999994
 30
0.0
 11
-78.84645802161205
 21
-9.39800000000006
 31
0.0
  0
SOLID
  5
DB
330
D5
100
AcDbEntity
  8
치수문자_일반주서
 62
     0
100
AcDbTrace
 10
-78.29612468827878
 20
9.397999999999941
 30
0.0
 11
-79.39679135494544
 21
9.397999999999938
 31
0.0
 12
-78.84645802161212
 22
12.69999999999994
 32
0.0
 13
-78.84645802161212
 23
12.69999999999994
 33
0.0
  0
SOLID
  5
DC
330
D5
100
AcDbEntity
  8
치수문자_일반주서
 62
     0
100
AcDbTrace
 10
-79.39679135494538
 20
-9.398000000000062
 30
0.0
 11
-78.29612468827872
 21
-9.398000000000058
 31
0.0
 12
-78.84645802161204
 22
-12.70000000000006
 32
0.0
 13
-78.84645802161204
 23
-12.70000000000006
 33
0.0
  0
MTEXT
  5
DD
330
D5
100
AcDbEntity
  8
치수문자_일반주서
 62
     0
100
AcDbMText
 10
-83.22145802161208
 20
-0.0000000000000278
 30
0.0
 40
3.5
 41
0.0
 71
     2
 72
     1
  1
\A1;%%c25.40 [1]
  7
SLDTEXTSTYLE0
 11
-3.356894814614647E-15
 21
1.0
 31
0.0
 73
     1
 44
1.0
  0
POINT
  5
DE
330
D5
100
AcDbEntity
  8
Defpoints
 62
     0
100
AcDbPoint
 10
-66.35
 20
12.69999999999999
 30
0.0
  0
POINT
  5
DF
330
D5
100
AcDbEntity
  8
Defpoints
 62
     0
100
AcDbPoint
 10
-66.35
 20
-12.70000000000001
 30
0.0
  0
POINT
  5
E0
330
D5
100
AcDbEntity
  8
Defpoints
 62
     0
100
AcDbPoint
 10
-78.84645802161204
 20
-12.70000000000006
 30
0.0
  0
ENDBLK
  5
D7
330
D5
100
AcDbEntity
  8
0
100
AcDbBlockEnd
  0
BLOCK
  5
EB
330
EA
100
AcDbEntity
  8
0
100
AcDbBlockBegin
  2
_D_1
 70
     0
 10
0.0
 20
0.0
 30
0.0
  3
_D_1
  1
_D_1
  0
LINE
  5
ED
330
EA
100
AcDbEntity
  8
치수문자_일반주서
 62
     0
370
    -2
100
AcDbLine
 10
-67.35
 20
11.76249999999999
 30
0.0
 11
-67.35
 21
52.70000000000005
 31
0.0
  0
LINE
  5
EE
330
EA
100
AcDbEntity
  8
치수문자_일반주서
 62
     0
370
    -2
100
AcDbLine
 10
85.05000000000001
 20
0.0624999999999972
 30
0.0
 11
85.05000000000001
 21
52.70000000000005
 31
0.0
  0
LINE
  5
EF
330
EA
100
AcDbEntity
  8
치수문자_일반주서
 62
     0
370
    -2
100
AcDbLine
 10
-64.048
 20
52.70000000000005
 30
0.0
 11
81.74800000000002
 21
52.70000000000005
 31
0.0
  0
SOLID
  5
F0
330
EA
100
AcDbEntity
  8
치수문자_일반주서
 62
     0
100
AcDbTrace
 10
-64.048
 20
53.25033333333338
 30
0.0
 11
-64.048
 21
52.14966666666671
 31
0.0
 12
-67.35
 22
52.70000000000005
 32
0.0
 13
-67.35
 23
52.70000000000005
 33
0.0
  0
SOLID
  5
F1
330
EA
100
AcDbEntity
  8
치수문자_일반주서
 62
     0
100
AcDbTrace
 10
81.74800000000002
 20
52.14966666666671
 30
0.0
 11
81.74800000000002
 21
53.25033333333338
 31
0.0
 12
85.05000000000001
 22
52.70000000000005
 32
0.0
 13
85.05000000000001
 23
52.70000000000005
 33
0.0
  0
MTEXT
  5
F2
330
EA
100
AcDbEntity
  8
치수문자_일반주서
 62
     0
100
AcDbMText
 10
14.66396809076006
 20
57.07500000000005
 30
0.0
 40
3.5
 41
0.0
 71
     2
 72
     1
  1
\A1;152.4 [6]
  7
SLDTEXTSTYLE0
 73
     1
 44
1.0
  0
POINT
  5
F3
330
EA
100
AcDbEntity
  8
Defpoints
 62
     0
100
AcDbPoint
 10
-67.35
 20
11.69999999999999
 30
0.0
  0
POINT
  5
F4
330
EA
100
AcDbEntity
  8
Defpoints
 62
     0
100
AcDbPoint
 10
85.05000000000001
 20
-0.0000000000000028
 30
0.0
  0
POINT
  5
F5
330
EA
100
AcDbEntity
  8
Defpoints
 62
     0
100
AcDbPoint
 10
85.05000000000001
 20
52.70000000000005
 30
0.0
  0
ENDBLK
  5
EC
330
EA
100
AcDbEntity
  8
0
100
AcDbBlockEnd
  0
BLOCK
  5
FE
330
FD
100
AcDbEntity
  8
0
100
AcDbBlockBegin
  2
_D_2
 70
     0
 10
0.0
 20
0.0
 30
0.0
  3
_D_2
  1
_D_2
  0
LINE
  5
100
330
FD
100
AcDbEntity
  8
치수문자_일반주서
 62
     0
370
    -2
100
AcDbLine
 10
2.5
 20
12.2625
 30
0.0
 11
2.5
 21
39.6796547563595
 31
0.0
  0
LINE
  5
101
330
FD
100
AcDbEntity
  8
치수문자_일반주서
 62
     0
370
    -2
100
AcDbLine
 10
85.05
 20
0.0624999999999971
 30
0.0
 11
85.05
 21
39.6796547563595
 31
0.0
  0
LINE
  5
102
330
FD
100
AcDbEntity
  8
치수문자_일반주서
 62
     0
370
    -2
100
AcDbLine
 10
5.802
 20
39.6796547563595
 30
0.0
 11
81.74799999999999
 21
39.6796547563595
 31
0.0
  0
SOLID
  5
103
330
FD
100
AcDbEntity
  8
치수문자_일반주서
 62
     0
100
AcDbTrace
 10
5.802
 20
40.22998808969283
 30
0.0
 11
5.802
 21
39.12932142302616
 31
0.0
 12
2.5
 22
39.6796547563595
 32
0.0
 13
2.5
 23
39.6796547563595
 33
0.0
  0
SOLID
  5
104
330
FD
100
AcDbEntity
  8
치수문자_일반주서
 62
     0
100
AcDbTrace
 10
81.74799999999999
 20
39.12932142302616
 30
0.0
 11
81.74799999999999
 21
40.22998808969283
 31
0.0
 12
85.05
 22
39.6796547563595
 32
0.0
 13
85.05
 23
39.6796547563595
 33
0.0
  0
MTEXT
  5
105
330
FD
100
AcDbEntity
  8
치수문자_일반주서
 62
     0
100
AcDbMText
 10
40.1155584738828
 20
44.0546547563595
 30
0.0
 40
3.5
 41
0.0
 71
     2
 72
     1
  1
\A1;82.55 [3 1/4]
  7
SLDTEXTSTYLE0
 73
     1
 44
1.0
  0
POINT
  5
106
330
FD
100
AcDbEntity
  8
Defpoints
 62
     0
100
AcDbPoint
 10
2.5
 20
12.2
 30
0.0
  0
POINT
  5
107
330
FD
100
AcDbEntity
  8
Defpoints
 62
     0
100
AcDbPoint
 10
85.05
 20
-0.0000000000000029
 30
0.0
  0
POINT
  5
108
330
FD
100
AcDbEntity
  8
Defpoints
 62
     0
100
AcDbPoint
 10
85.05
 20
39.6796547563595
 30
0.0
  0
ENDBLK
  5
FF
330
FD
100
AcDbEntity
  8
0
100
AcDbBlockEnd
  0
BLOCK
  5
112
330
111
100
AcDbEntity
  8
0
100
AcDbBlockBegin
  2
_D_3
 70
     0
 10
0.0
 20
0.0
 30
0.0
  3
_D_3
  1
_D_3
  0
LINE
  5
114
330
111
100
AcDbEntity
  8
치수문자_일반주서
 62
     0
370
    -2
100
AcDbLine
 10
56.47499999999999
 20
11.77198182612213
 30
0.0
 11
56.47499999999999
 21
27.4519304148371
 31
0.0
  0
LINE
  5
115
330
111
100
AcDbEntity
  8
치수문자_일반주서
 62
     0
370
    -2
100
AcDbLine
 10
85.05000000000001
 20
0.0624999999999972
 30
0.0
 11
85.05000000000001
 21
27.4519304148371
 31
0.0
  0
LINE
  5
116
330
111
100
AcDbEntity
  8
치수문자_일반주서
 62
     0
370
    -2
100
AcDbLine
 10
59.77699999999999
 20
27.4519304148371
 30
0.0
 11
81.74800000000002
 21
27.4519304148371
 31
0.0
  0
SOLID
  5
117
330
111
100
AcDbEntity
  8
치수문자_일반주서
 62
     0
100
AcDbTrace
 10
59.77699999999999
 20
28.00226374817044
 30
0.0
 11
59.77699999999999
 21
26.90159708150377
 31
0.0
 12
56.47499999999999
 22
27.4519304148371
 32
0.0
 13
56.47499999999999
 23
27.4519304148371
 33
0.0
  0
SOLID
  5
118
330
111
100
AcDbEntity
  8
치수문자_일반주서
 62
     0
100
AcDbTrace
 10
81.74800000000002
 20
26.90159708150377
 30
0.0
 11
81.74800000000002
 21
28.00226374817044
 31
0.0
 12
85.05000000000001
 22
27.4519304148371
 32
0.0
 13
85.05000000000001
 23
27.4519304148371
 33
0.0
  0
MTEXT
  5
119
330
111
100
AcDbEntity
  8
치수문자_일반주서
 62
     0
100
AcDbMText
 10
69.97942369260096
 20
31.8269304148371
 30
0.0
 40
3.5
 41
0.0
 71
     2
 72
     1
  1
\A1;28.58 [1 1/8]
  7
SLDTEXTSTYLE0
 73
     1
 44
1.0
  0
POINT
  5
11A
330
111
100
AcDbEntity
  8
Defpoints
 62
     0
100
AcDbPoint
 10
56.47499999999999
 20
11.70948182612213
 30
0.0
  0
POINT
  5
11B
330
111
100
AcDbEntity
  8
Defpoints
 62
     0
100
AcDbPoint
 10
85.05000000000001
 20
-0.0000000000000028
 30
0.0
  0
POINT
  5
11C
330
111
100
AcDbEntity
  8
Defpoints
 62
     0
100
AcDbPoint
 10
85.05000000000001
 20
27.4519304148371
 30
0.0
  0
ENDBLK
  5
113
330
111
100
AcDbEntity
  8
0
100
AcDbBlockEnd
  0
BLOCK
  5
126
330
125
100
AcDbEntity
  8
0
100
AcDbBlockBegin
  2
SW_DOWELSYMBOL_0
 70
     0
 10
0.0
 20
0.0
 30
0.0
  3
SW_DOWELSYMBOL_0
  1
SW_DOWELSYMBOL_0
  0
CIRCLE
  5
128
330
125
100
AcDbEntity
  8
외형선
 62
     0
100
AcDbCircle
 10
0.0
 20
0.0
 30
0.0
 40
3.000000000000004
  0
HATCH
  5
129
330
125
100
AcDbEntity
  8
0
  6
Continuous
 62
     0
370
    30
100
AcDbHatch
 10
0.0
 20
0.0
 30
0.0
210
0.0
220
0.0
230
1.0
  2
SOLID
 70
     1
 71
     0
 91
        1
 92
        0
 93
        3
 72
     2
 10
0.0
 20
0.0
 40
3.000000000000004
 50
0.0
 51
90.0
 73
     1
 72
     1
 10
0.0
 20
3.000000000000004
 11
0.0
 21
0.0
 72
     1
 10
0.0
 20
0.0
 11
3.000000000000006
 21
0.0
 97
        0
 75
     0
 76
     1
 98
        1
 10
0.0
 20
0.0
  0
HATCH
  5
12A
330
125
100
AcDbEntity
  8
0
  6
Continuous
 62
     0
370
    30
100
AcDbHatch
 10
0.0
 20
0.0
 30
0.0
210
0.0
220
0.0
230
1.0
  2
SOLID
 70
     1
 71
     0
 91
        1
 92
        0
 93
        3
 72
     2
 10
0.0
 20
0.0
 40
3.000000000000004
 50
180.0
 51
270.0000000000008
 73
     1
 72
     1
 10
0.0
 20
-3.000000000000004
 11
0.0
 21
0.0
 72
     1
 10
0.0
 20
0.0
 11
-3.000000000000006
 21
0.0
 97
        0
 75
     0
 76
     1
 98
        1
 10
0.0
 20
0.0
  0
ENDBLK
  5
127
330
125
100
AcDbEntity
  8
0
100
AcDbBlockEnd
  0
BLOCK
  5
158
330
157
100
AcDbEntity
  8
0
100
AcDbBlockBegin
  2
*D7
 70
     1
 10
0.0
 20
0.0
 30
0.0
  3
*D7
  1
*D7
  0
LINE
  5
15A
330
157
100
AcDbEntity
  8
치수문자_일반주서
 62
     0
370
    -2
100
AcDbLine
 10
85.1125
 20
12.7
 30
0.0
 11
99.98650319331247
 21
12.69999999999999
 31
0.0
  0
LINE
  5
15B
330
157
100
AcDbEntity
  8
치수문자_일반주서
 62
     0
370
    -2
100
AcDbLine
 10
85.1125
 20
-12.7
 30
0.0
 11
99.98650319331247
 21
-12.7
 31
0.0
  0
LINE
  5
15C
330
157
100
AcDbEntity
  8
치수문자_일반주서
 62
     0
370
    -2
100
AcDbLine
 10
99.98650319331247
 20
9.397999999999994
 30
0.0
 11
99.98650319331247
 21
-9.398000000000005
 31
0.0
  0
SOLID
  5
15D
330
157
100
AcDbEntity
  8
치수문자_일반주서
 62
     0
100
AcDbTrace
 10
100.5368365266458
 20
9.397999999999994
 30
0.0
 11
99.43616985997915
 21
9.397999999999994
 31
0.0
 12
99.98650319331247
 22
12.69999999999999
 32
0.0
 13
99.98650319331247
 23
12.69999999999999
 33
0.0
  0
SOLID
  5
15E
330
157
100
AcDbEntity
  8
치수문자_일반주서
 62
     0
100
AcDbTrace
 10
99.43616985997915
 20
-9.398000000000005
 30
0.0
 11
100.5368365266458
 21
-9.398000000000005
 31
0.0
 12
99.98650319331247
 22
-12.7
 32
0.0
 13
99.98650319331247
 23
-12.7
 33
0.0
  0
MTEXT
  5
15F
330
157
100
AcDbEntity
  8
치수문자_일반주서
 62
     0
100
AcDbMText
 10
97.36150319331247
 20
-0.0000000000000053
 30
0.0
 40
3.5
 41
0.0
 71
     5
 72
     1
  1
\A1;{%%C25.4 [1]}
  7
SLDTEXTSTYLE0
 11
0.0
 21
1.0
 31
0.0
 73
     1
 44
1.0
  0
POINT
  5
160
330
157
100
AcDbEntity
  8
Defpoints
 62
     0
100
AcDbPoint
 10
85.05
 20
12.7
 30
0.0
  0
POINT
  5
161
330
157
100
AcDbEntity
  8
Defpoints
 62
     0
100
AcDbPoint
 10
85.05
 20
-12.7
 30
0.0
  0
POINT
  5
162
330
157
100
AcDbEntity
  8
Defpoints
 62
     0
100
AcDbPoint
 10
99.98650319331247
 20
-12.7
 30
0.0
  0
ENDBLK
  5
159
330
157
100
AcDbEntity
  8
0
100
AcDbBlockEnd
  0
ENDSEC
  0
SECTION
  2
ENTITIES
  0
LINE
  5
95
330
1F
100
AcDbEntity
  8
0
  6
Continuous
 62
     4
370
    15
100
AcDbLine
 10
2.0
 20
12.7
 30
0.0
 11
-66.35
 21
12.69999999999999
 31
0.0
  0
LINE
  5
96
330
1F
100
AcDbEntity
  8
0
  6
Continuous
 62
     4
370
    15
100
AcDbLine
 10
-66.35
 20
-12.70000000000002
 30
0.0
 11
2.0
 21
-12.70000000000001
 31
0.0
  0
LINE
  5
97
330
1F
100
AcDbEntity
  8
0
  6
Continuous
 62
     4
370
    15
100
AcDbLine
 10
2.0
 20
-12.70000000000001
 30
0.0
 11
2.500000000000002
 21
-12.20000000000001
 31
0.0
  0
LINE
  5
98
330
1F
100
AcDbEntity
  8
0
  6
Continuous
 62
     4
370
    15
100
AcDbLine
 10
2.500000000000002
 20
12.2
 30
0.0
 11
2.0
 21
12.7
 31
0.0
  0
LINE
  5
99
330
1F
100
AcDbEntity
  8
0
  6
Continuous
 62
     4
370
    15
100
AcDbLine
 10
-66.35
 20
12.69999999999999
 30
0.0
 11
-67.35
 21
11.69999999999999
 31
0.0
  0
LINE
  5
9A
330
1F
100
AcDbEntity
  8
0
  6
Continuous
 62
     4
370
    15
100
AcDbLine
 10
-67.35
 20
-11.70000000000001
 30
0.0
 11
-66.35
 21
-12.70000000000001
 31
0.0
  0
LINE
  5
9B
330
1F
100
AcDbEntity
  8
0
  6
Continuous
 62
     4
370
    15
100
AcDbLine
 10
53.42546562927003
 20
12.2
 30
0.0
 11
2.500000000000002
 21
12.2
 31
0.0
  0
LINE
  5
9C
330
1F
100
AcDbEntity
  8
0
  6
Continuous
 62
     4
370
    15
100
AcDbLine
 10
2.500000000000002
 20
-12.20000000000001
 30
0.0
 11
53.42546562927003
 21
-12.20000000000001
 31
0.0
  0
ARC
  5
9D
330
1F
100
AcDbEntity
  8
0
  6
Continuous
 62
     1
370
    15
100
AcDbCircle
 10
72.35
 20
-0.0000000000000029
 30
0.0
 40
12.70000000000001
100
AcDbArc
 50
353.5800701243586
 51
0.0
  0
ARC
  5
9E
330
1F
100
AcDbEntity
  8
0
  6
Continuous
 62
     1
370
    15
100
AcDbCircle
 10
72.35
 20
-0.0000000000000029
 30
0.0
 40
12.7
100
AcDbArc
 50
0.0
 51
60.08179572049232
  0
LINE
  5
9F
330
1F
100
AcDbEntity
  8
0
  6
Continuous
 62
     1
370
    15
100
AcDbLine
 10
61.49792619922008
 20
-12.7
 30
0.0
 11
67.42362904306768
 21
-12.7
 31
0.0
  0
LINE
  5
A0
330
1F
100
AcDbEntity
  8
0
  6
Continuous
 62
     4
370
    15
100
AcDbLine
 10
2.0
 20
12.7
 30
0.0
 11
2.0
 21
-12.7
 31
0.0
  0
LINE
  5
A1
330
1F
100
AcDbEntity
  8
0
  6
Continuous
 62
     4
370
    15
100
AcDbLine
 10
-66.35
 20
12.69999999999999
 30
0.0
 11
-66.35
 21
-12.7
 31
0.0
  0
LINE
  5
A2
330
1F
100
AcDbEntity
  8
0
  6
Continuous
 62
     4
370
    15
100
AcDbLine
 10
2.500000000000002
 20
12.2
 30
0.0
 11
2.500000000000002
 21
-12.20000000000001
 31
0.0
  0
LINE
  5
A3
330
1F
100
AcDbEntity
  8
0
  6
Continuous
 62
     4
370
    15
100
AcDbLine
 10
-67.35
 20
11.69999999999999
 30
0.0
 11
-67.35
 21
-11.70000000000001
 31
0.0
  0
LINE
  5
A4
330
1F
100
AcDbEntity
  8
0
  6
Continuous
 62
     4
370
    15
100
AcDbLine
 10
53.42546562927003
 20
11.92538120903672
 30
0.0
 11
53.42546562927003
 21
12.2
 31
0.0
  0
SPLINE
  5
A5
330
1F
100
AcDbEntity
  8
0
  6
Continuous
 62
     4
370
    15
100
AcDbSpline
210
0.0
220
0.0
230
1.0
 70
     8
 71
     3
 72
    10
 73
     6
 74
     0
 42
0.000000001
 43
0.00000001
 40
0.0
 40
0.0
 40
0.0
 40
0.0
 40
0.5
 40
0.5
 40
1.0
 40
1.0
 40
1.0
 40
1.0
 10
56.475
 20
11.26775306602483
 30
0.0
 10
55.96704226046104
 20
11.40878090490168
 30
0.0
 10
55.45701053122709
 20
11.53460369438558
 30
0.0
 10
54.43905145895753
 20
11.75423366347412
 30
0.0
 10
53.93324106142694
 20
11.84794530903748
 30
0.0
 10
53.42546562927004
 20
11.92552396862708
 30
0.0
  0
LINE
  5
A6
330
1F
100
AcDbEntity
  8
0
  6
Continuous
 62
     1
370
    15
100
AcDbLine
 10
56.475
 20
9.299380665688629
 30
0.0
 11
56.475
 21
8.899117468911633
 31
0.0
  0
SPLINE
  5
A7
330
1F
100
AcDbEntity
  8
0
  6
Continuous
 62
     4
370
    15
100
AcDbSpline
210
0.0
220
0.0
230
1.0
 70
     8
 71
     3
 72
    10
 73
     6
 74
     0
 42
0.000000001
 43
0.00000001
 40
0.0
 40
0.0
 40
0.0
 40
0.0
 40
0.5
 40
0.5
 40
1.0
 40
1.0
 40
1.0
 40
1.0
 10
56.47499999999987
 20
8.899117468911696
 30
0.0
 10
55.96699303474936
 20
9.15076511870789
 30
0.0
 10
55.45691167767634
 20
9.390592221839308
 30
0.0
 10
54.43885436416995
 20
9.843613433808
 30
0.0
 10
53.93299587505543
 20
10.05653952163826
 30
0.0
 10
53.42517038075575
 20
10.25575949486988
 30
0.0
  0
SPLINE
  5
A8
330
1F
100
AcDbEntity
  8
0
  6
Continuous
 62
     4
370
    15
100
AcDbSpline
210
0.0
220
0.0
230
1.0
 70
     8
 71
     3
 72
    10
 73
     6
 74
     0
 42
0.000000001
 43
0.00000001
 40
0.0
 40
0.0
 40
0.0
 40
0.0
 40
0.5
 40
0.5
 40
1.0
 40
1.0
 40
1.0
 40
1.0
 10
56.475
 20
-9.684593214331446
 30
0.0
 10
55.96704226046102
 20
-9.460887556917967
 30
0.0
 10
55.45701053122709
 20
-9.223644712608767
 30
0.0
 10
54.43905145895753
 20
-8.724942499075379
 30
0.0
 10
53.93324106142697
 20
-8.463874521949869
 30
0.0
 10
53.42546562927004
 20
-8.19130602814034
 30
0.0
  0
LINE
  5
A9
330
1F
100
AcDbEntity
  8
0
  6
Continuous
 62
     1
370
    15
100
AcDbLine
 10
56.47499999999999
 20
-9.68459321433145
 30
0.0
 11
56.475
 21
-10.11308877614045
 31
0.0
  0
SPLINE
  5
AA
330
1F
100
AcDbEntity
  8
0
  6
Continuous
 62
     4
370
    15
100
AcDbSpline
210
0.0
220
0.0
230
1.0
 70
     8
 71
     3
 72
    10
 73
     6
 74
     0
 42
0.000000001
 43
0.00000001
 40
0.0
 40
0.0
 40
0.0
 40
0.0
 40
0.5
 40
0.5
 40
1.0
 40
1.0
 40
1.0
 40
1.0
 10
56.47499999999987
 20
-11.6768875083448
 30
0.0
 10
55.96699303474936
 20
-11.57031821127757
 30
0.0
 10
55.45691167767634
 20
-11.44764538763218
 30
0.0
 10
54.43885436416995
 20
-11.171534181897
 30
0.0
 10
53.93299587505543
 20
-11.01834379599598
 30
0.0
 10
53.42517038075575
 20
-10.85016494546029
 30
0.0
  0
LINE
  5
AB
330
1F
100
AcDbEntity
  8
0
  6
Continuous
 62
     4
370
    15
100
AcDbLine
 10
53.42546562927003
 20
-12.20000000000001
 30
0.0
 11
53.42546562927003
 21
-10.84985375069726
 31
0.0
  0
LINE
  5
AC
330
1F
100
AcDbEntity
  8
0
  6
Continuous
 62
     4
370
    15
100
AcDbLine
 10
53.42546562927003
 20
-8.191807529303947
 30
0.0
 11
53.42546562927003
 21
10.2561280915433
 31
0.0
  0
SPLINE
  5
AD
330
1F
100
AcDbEntity
  8
0
  6
Continuous
 62
     4
370
    15
100
AcDbSpline
210
0.0
220
0.0
230
1.0
 70
     8
 71
     3
 72
    10
 73
     6
 74
     0
 42
0.000000001
 43
0.00000001
 40
0.0
 40
0.0
 40
0.0
 40
0.0
 40
0.5
 40
0.5
 40
1.0
 40
1.0
 40
1.0
 40
1.0
 10
56.47499999999986
 20
-0.4360479933384095
 30
0.0
 10
55.96704226046092
 20
-0.1721745076215195
 30
0.0
 10
55.45701053122701
 20
0.0926532259887126
 30
0.0
 10
54.4390514589575
 20
0.6209702324530993
 30
0.0
 10
53.93324106142693
 20
0.8840934653884178
 30
0.0
 10
53.42546562927003
 20
1.14599373735217
 30
0.0
  0
SPLINE
  5
AE
330
1F
100
AcDbEntity
  8
0
  6
Continuous
 62
     4
370
    15
100
AcDbSpline
210
0.0
220
0.0
230
1.0
 70
    24
 71
     3
 72
    16
 73
    12
 74
     0
 42
0.000000001
 43
0.00000001
 40
0.0
 40
0.0
 40
0.0
 40
0.0
 40
0.25
 40
0.25
 40
0.5
 40
0.5
 40
0.75
 40
0.75
 40
0.875
 40
0.875
 40
1.0
 40
1.0
 40
1.0
 40
1.0
 10
56.47499999999999
 20
-0.4360479933384797
 30
0.0
 10
56.475
 20
-0.8895053302887996
 30
0.0
 10
56.475
 20
-1.443742001082866
 30
0.0
 10
56.475
 20
-2.766248006692506
 30
0.0
 10
56.47499999999997
 20
-3.535931580871661
 30
0.0
 10
56.475
 20
-5.225499677085669
 30
0.0
 10
56.47499999999997
 20
-6.144515031417416
 30
0.0
 10
56.47499999999997
 20
-7.515353395027136
 30
0.0
 10
56.47499999999997
 20
-7.970359604053845
 30
0.0
 10
56.47499999999999
 20
-8.853221966357895
 30
0.0
 10
56.47499999999999
 20
-9.280951900322128
 30
0.0
 10
56.475
 20
-9.684593214331443
 30
0.0
  0
SPLINE
  5
AF
330
1F
100
AcDbEntity
  8
0
  6
Continuous
 62
     4
370
    15
100
AcDbSpline
210
0.0
220
0.0
230
1.0
 70
    24
 71
     3
 72
    16
 73
    12
 74
     0
 42
0.000000001
 43
0.00000001
 40
0.0
 40
0.0
 40
0.0
 40
0.0
 40
0.1250000000000002
 40
0.1250000000000002
 40
0.2500000000000001
 40
0.2500000000000001
 40
0.5000000000000001
 40
0.5000000000000001
 40
0.7500000000000001
 40
0.7500000000000001
 40
1.0
 40
1.0
 40
1.0
 40
1.0
 10
56.475
 20
8.899117468920386
 30
0.0
 10
56.47500000000002
 20
8.520285623100952
 30
0.0
 10
56.47500000000003
 20
8.113952135942654
 30
0.0
 10
56.47500000000003
 20
7.265848790037455
 30
0.0
 10
56.475
 20
6.824200883934557
 30
0.0
 10
56.47500000000002
 20
5.480766690911684
 30
0.0
 10
56.475
 20
4.562799047711795
 30
0.0
 10
56.475
 20
2.846991875350593
 30
0.0
 10
56.475
 20
2.050322666365633
 30
0.0
 10
56.475
 20
0.6583730404303157
 30
0.0
 10
56.475
 20
0.0618600945852355
 30
0.0
 10
56.475
 20
-0.4360479933384828
 30
0.0
  0
SPLINE
  5
B0
330
1F
100
AcDbEntity
  8
0
  6
Continuous
 62
     1
370
    15
100
AcDbSpline
210
0.0
220
0.0
230
1.0
 70
     8
 71
     3
 72
     8
 73
     4
 74
     0
 42
0.000000001
 43
0.00000001
 40
0.0
 40
0.0
 40
0.0
 40
0.0
 40
1.0
 40
1.0
 40
1.0
 40
1.0
 10
76.88079522346476
 20
-8.344453410387153
 30
0.0
 10
76.46689922034517
 20
-8.046911900656418
 30
0.0
 10
76.04512818200863
 20
-7.750376475575041
 30
0.0
 10
75.61279980768313
 20
-7.455189815722514
 30
0.0
  0
SPLINE
  5
B1
330
1F
100
AcDbEntity
  8
0
  6
Continuous
 62
     1
370
    15
100
AcDbSpline
210
0.0
220
0.0
230
1.0
 70
     8
 71
     3
 72
    32
 73
    28
 74
     0
 42
0.000000001
 43
0.00000001
 40
0.0
 40
0.0
 40
0.0
 40
0.0
 40
0.1250000000000006
 40
0.1250000000000006
 40
0.1875000000000008
 40
0.1875000000000008
 40
0.2500000000000011
 40
0.2500000000000011
 40
0.3125000000000014
 40
0.3125000000000014
 40
0.3750000000000017
 40
0.3750000000000017
 40
0.5000000000000022
 40
0.5000000000000022
 40
0.5625000000000026
 40
0.5625000000000026
 40
0.6250000000000019
 40
0.6250000000000019
 40
0.6875000000000013
 40
0.6875000000000013
 40
0.7500000000000007
 40
0.7500000000000007
 40
0.8750000000000004
 40
0.8750000000000004
 40
0.9375000000000002
 40
0.9375000000000002
 40
1.0
 40
1.0
 40
1.0
 40
1.0
 10
76.88079522355571
 20
-8.344453410401561
 30
0.0
 10
76.02898119907434
 20
-8.209440694673265
 30
0.0
 10
75.18303766874945
 20
-8.04287747188524
 30
0.0
 10
73.90493432917893
 20
-7.747379218687307
 30
0.0
 10
73.47864038312724
 20
-7.641349370732842
 30
0.0
 10
72.62918992975403
 20
-7.415184064719168
 30
0.0
 10
72.20628405600371
 20
-7.295093946608907
 30
0.0
 10
71.35539037476093
 20
-7.040740677505465
 30
0.0
 10
70.92887401179783
 20
-6.906602268710551
 30
0.0
 10
70.07736502310215
 20
-6.625544273060379
 30
0.0
 10
69.65360199694481
 20
-6.478774787895251
 30
0.0
 10
68.38115956358945
 20
-6.020255365239554
 30
0.0
 10
67.52536548326765
 20
-5.689427642956151
 30
0.0
 10
66.25235719936694
 20
-5.163927312629061
 30
0.0
 10
65.82892726898265
 20
-4.9838005478306
 30
0.0
 10
64.97758559192798
 20
-4.613738415793715
 30
0.0
 10
64.55105816359162
 20
-4.423992388039996
 30
0.0
 10
63.69995322494341
 20
-4.036702389862217
 30
0.0
 10
63.27685308233288
 20
-3.839395188434961
 30
0.0
 10
62.42773631746218
 20
-3.437392666489173
 30
0.0
 10
62.00151528789564
 20
-3.232654365167712
 30
0.0
 10
60.72334579603325
 20
-2.609830387564318
 30
0.0
 10
59.8772968100231
 20
-2.184046844825073
 30
0.0
 10
58.59976072477482
 20
-1.53390957527588
 30
0.0
 10
58.1732720380757
 20
-1.315413086047609
 30
0.0
 10
57.32267000704704
 20
-0.8767317806963677
 30
0.0
 10
56.899920243142
 20
-0.6567852259502437
 30
0.0
 10
56.4749999999998
 20
-0.4360479933383813
 30
0.0
  0
SPLINE
  5
B2
330
1F
100
AcDbEntity
  8
0
  6
Continuous
 62
     4
370
    15
100
AcDbSpline
210
0.0
220
0.0
230
1.0
 70
    24
 71
     3
 72
    18
 73
    14
 74
     0
 42
0.000000001
 43
0.00000001
 40
0.0
 40
0.0
 40
0.0
 40
0.0
 40
0.1249999999999999
 40
0.1249999999999999
 40
0.25
 40
0.25
 40
0.375
 40
0.375
 40
0.5
 40
0.5
 40
0.75
 40
0.75
 40
1.0
 40
1.0
 40
1.0
 40
1.0
 10
56.47500000000003
 20
9.299380665686654
 30
0.0
 10
56.47500000000002
 20
8.925140260537585
 30
0.0
 10
56.47500000000003
 20
8.51771541315358
 30
0.0
 10
56.47500000000003
 20
7.656682197901238
 30
0.0
 10
56.47500000000002
 20
7.203212867756402
 30
0.0
 10
56.47500000000002
 20
6.275802299587752
 30
0.0
 10
56.475
 20
5.802021804207643
 30
0.0
 10
56.475
 20
4.860379100765383
 30
0.0
 10
56.47500000000003
 20
4.392642093245523
 30
0.0
 10
56.47500000000003
 20
3.032162728129765
 30
0.0
 10
56.47500000000002
 20
2.185989480866985
 30
0.0
 10
56.47500000000003
 20
0.7128286529611904
 30
0.0
 10
56.475
 20
0.0843880311251341
 30
0.0
 10
56.475
 20
-0.4360479933384828
 30
0.0
  0
SPLINE
  5
B3
330
1F
100
AcDbEntity
  8
0
  6
Continuous
 62
     1
370
    15
100
AcDbSpline
210
0.0
220
0.0
230
1.0
 70
     8
 71
     3
 72
    24
 73
    20
 74
     0
 42
0.000000001
 43
0.00000001
 40
0.0
 40
0.0
 40
0.0
 40
0.0
 40
0.125
 40
0.125
 40
0.25
 40
0.25
 40
0.375
 40
0.375
 40
0.5
 40
0.5
 40
0.625
 40
0.625
 40
0.75
 40
0.75
 40
0.875
 40
0.875
 40
0.9375
 40
0.9375
 40
1.0
 40
1.0
 40
1.0
 40
1.0
 10
72.34999999999974
 20
-1.524917199992041
 30
0.0
 10
71.69013046306861
 20
-1.030465658626256
 30
0.0
 10
71.02570126427625
 20
-0.5313489540659171
 30
0.0
 10
69.70149228323945
 20
0.4658801207398827
 30
0.0
 10
69.0437501042997
 20
0.9634761322149878
 30
0.0
 10
67.71871089790352
 20
1.954313899817018
 30
0.0
 10
67.05459836278897
 20
2.446737446310744
 30
0.0
 10
65.73693446732952
 20
3.415447063369094
 30
0.0
 10
65.07330229859886
 20
3.894199491811466
 30
0.0
 10
63.74806560984533
 20
4.830990963727225
 30
0.0
 10
63.09020542323957
 20
5.288191046285514
 30
0.0
 10
61.76632110048651
 20
6.17795873867155
 30
0.0
 10
61.10182443157647
 20
6.610110734902086
 30
0.0
 10
59.78149544443983
 20
7.440070582133734
 30
0.0
 10
59.12079593395553
 20
7.838942134096318
 30
0.0
 10
58.12649685477283
 20
8.409330407046902
 30
0.0
 10
57.79516747533669
 20
8.594681033008085
 30
0.0
 10
57.13443518635672
 20
8.954893310588563
 30
0.0
 10
56.8055497395791
 20
9.129674708104215
 30
0.0
 10
56.47499999999975
 20
9.299380665688666
 30
0.0
  0
SPLINE
  5
B4
330
1F
100
AcDbEntity
  8
0
  6
Continuous
 62
     1
370
    15
100
AcDbSpline
210
0.0
220
0.0
230
1.0
 70
     8
 71
     3
 72
    20
 73
    16
 74
     0
 42
0.000000001
 43
0.00000001
 40
0.0
 40
0.0
 40
0.0
 40
0.0
 40
0.1250000000000003
 40
0.1250000000000003
 40
0.2500000000000006
 40
0.2500000000000006
 40
0.3750000000000009
 40
0.3750000000000009
 40
0.5000000000000012
 40
0.5000000000000012
 40
0.6250000000000016
 40
0.6250000000000016
 40
0.7500000000000018
 40
0.7500000000000018
 40
1.0
 40
1.0
 40
1.0
 40
1.0
 10
81.3880682529711
 20
-6.471580678673571
 30
0.0
 10
81.13352691229
 20
-6.393929264882006
 30
0.0
 10
80.84698914821863
 20
-6.31011383105773
 30
0.0
 10
80.22840903524812
 20
-6.112987033407199
 30
0.0
 10
79.89906699736528
 20
-6.000670712973504
 30
0.0
 10
79.2080779285204
 20
-5.737587222014941
 30
0.0
 10
78.84658841535787
 20
-5.586563176675948
 30
0.0
 10
78.09329509101082
 20
-5.240481646661349
 30
0.0
 10
77.7046044016351
 20
-5.046841639564842
 30
0.0
 10
76.91839776024915
 20
-4.623568277998916
 30
0.0
 10
76.51892207725112
 20
-4.393088305273483
 30
0.0
 10
75.70718443164546
 20
-3.894522724657783
 30
0.0
 10
75.29300488888825
 20
-3.625091404885446
 30
0.0
 10
74.03755180677254
 20
-2.775728148488563
 30
0.0
 10
73.20144973001695
 20
-2.162923059999533
 30
0.0
 10
72.35000000000002
 20
-1.524917199992242
 30
0.0
  0
SPLINE
  5
B5
330
1F
100
AcDbEntity
  8
0
  6
Continuous
 62
     1
370
    15
100
AcDbSpline
210
0.0
220
0.0
230
1.0
 70
     8
 71
     3
 72
    14
 73
    10
 74
     0
 42
0.000000001
 43
0.00000001
 40
0.0
 40
0.0
 40
0.0
 40
0.0
 40
0.1252138434562025
 40
0.2308001135626063
 40
0.3390710048123792
 40
0.4817193398242147
 40
0.6284563220895344
 40
0.8118380217590061
 40
1.0
 40
1.0
 40
1.0
 40
1.0
 10
81.24493041121684
 20
-6.433087238977571
 30
0.0
 10
81.08117173189643
 20
-6.378812544357478
 30
0.0
 10
80.7793239430197
 20
-6.278770845004366
 30
0.0
 10
80.20234270955902
 20
-6.249160456564156
 30
0.0
 10
79.55005403726216
 20
-6.278810670760409
 30
0.0
 10
78.76677554978548
 20
-6.39731322680677
 30
0.0
 10
77.80488570741633
 20
-6.630844539034157
 30
0.0
 10
76.73654897681018
 20
-6.975315575841663
 30
0.0
 10
75.99058206588086
 20
-7.293865581650005
 30
0.0
 10
75.61279980767594
 20
-7.455189815717641
 30
0.0
  0
SPLINE
  5
B6
330
1F
100
AcDbEntity
  8
0
  6
Continuous
 62
     1
370
    15
100
AcDbSpline
210
0.0
220
0.0
230
1.0
 70
     8
 71
     3
 72
    44
 73
    40
 74
     0
 42
0.000000001
 43
0.00000001
 40
0.0
 40
0.0
 40
0.0
 40
0.0
 40
0.1249999999999987
 40
0.1249999999999987
 40
0.1874999999999971
 40
0.1874999999999971
 40
0.2499999999999954
 40
0.2499999999999954
 40
0.3749999999999942
 40
0.3749999999999942
 40
0.4374999999999936
 40
0.4374999999999936
 40
0.4999999999999929
 40
0.4999999999999929
 40
0.5624999999999922
 40
0.5624999999999922
 40
0.5937499999999928
 40
0.5937499999999928
 40
0.6249999999999933
 40
0.6249999999999933
 40
0.6562499999999939
 40
0.6562499999999939
 40
0.6874999999999944
 40
0.6874999999999944
 40
0.718749999999995
 40
0.718749999999995
 40
0.7499999999999956
 40
0.7499999999999956
 40
0.7812499999999962
 40
0.7812499999999962
 40
0.8124999999999968
 40
0.8124999999999968
 40
0.8437499999999973
 40
0.8437499999999973
 40
0.8749999999999979
 40
0.8749999999999979
 40
0.9374999999999989
 40
0.9374999999999989
 40
1.0
 40
1.0
 40
1.0
 40
1.0
 10
72.35
 20
2.911030433140106
 30
0.0
 10
72.92584429878144
 20
2.487967717382772
 30
0.0
 10
73.49511918852372
 20
2.058288959970869
 30
0.0
 10
74.35106520895232
 20
1.419949078211477
 30
0.0
 10
74.6366288995664
 20
1.208078148102335
 30
0.0
 10
75.21031659240904
 20
0.7889889841848802
 30
0.0
 10
75.49971694615442
 20
0.5807022558583769
 30
0.0
 10
76.3656079525226
 20
-0.0236043794109227
 30
0.0
 10
76.93718341630009
 20
-0.3960700506445664
 30
0.0
 10
77.8033482780902
 20
-0.8782253048104989
 30
0.0
 10
78.09557390312412
 20
-1.026810931482301
 30
0.0
 10
78.67549802278671
 20
-1.282887379503014
 30
0.0
 10
78.96327568815298
 20
-1.391044277157741
 30
0.0
 10
79.53923736504834
 20
-1.552486793511231
 30
0.0
 10
79.82952051940651
 20
-1.605909455314301
 30
0.0
 10
80.25223619820238
 20
-1.626817048903952
 30
0.0
 10
80.39155658063237
 20
-1.624084578474656
 30
0.0
 10
80.66728362561904
 20
-1.595652581078356
 30
0.0
 10
80.8046672729345
 20
-1.569589497429958
 30
0.0
 10
81.06932819807676
 20
-1.49140710090084
 30
0.0
 10
81.19711373577698
 20
-1.43944003925266
 30
0.0
 10
81.44303568629255
 20
-1.305871601217701
 30
0.0
 10
81.56221129223638
 20
-1.223088070906385
 30
0.0
 10
81.78031690600639
 20
-1.030652185203767
 30
0.0
 10
81.88025053632163
 20
-0.9208259795274361
 30
0.0
 10
82.06125788644209
 20
-0.6725903827070718
 30
0.0
 10
82.14285625153857
 20
-0.5323943874614921
 30
0.0
 10
82.27946563781225
 20
-0.235636815206122
 30
0.0
 10
82.33550550879951
 20
-0.0782009441650718
 30
0.0
 10
82.42458266710233
 20
0.2532184456381434
 30
0.0
 10
82.45701475945438
 20
0.4257972792454791
 30
0.0
 10
82.49924394924727
 20
0.7733465053882922
 30
0.0
 10
82.50942139353032
 20
0.9497569891376434
 30
0.0
 10
82.51053084140301
 20
1.306862406627464
 30
0.0
 10
82.5012941167196
 20
1.488024869366843
 30
0.0
 10
82.44901863585184
 20
2.024054870470926
 30
0.0
 10
82.38197344369979
 20
2.376068262624819
 30
0.0
 10
82.1990601121922
 20
3.071429486227833
 30
0.0
 10
82.08247341670955
 20
3.415520845003381
 30
0.0
 10
81.94786213041345
 20
3.750225728611886
 30
0.0
  0
SPLINE
  5
B7
330
1F
100
AcDbEntity
  8
0
  6
Continuous
 62
     1
370
    15
100
AcDbSpline
210
0.0
220
0.0
230
1.0
 70
     8
 71
     3
 72
    24
 73
    20
 74
     0
 42
0.000000001
 43
0.00000001
 40
0.0
 40
0.0
 40
0.0
 40
0.0
 40
0.1250000000000004
 40
0.1250000000000004
 40
0.2500000000000009
 40
0.2500000000000009
 40
0.3750000000000013
 40
0.3750000000000013
 40
0.5000000000000018
 40
0.5000000000000018
 40
0.6250000000000013
 40
0.6250000000000013
 40
0.7500000000000009
 40
0.7500000000000009
 40
0.8750000000000004
 40
0.8750000000000004
 40
0.9375000000000002
 40
0.9375000000000002
 40
1.0
 40
1.0
 40
1.0
 40
1.0
 10
72.34999999999994
 20
2.91103043314013
 30
0.0
 10
71.69013046306881
 20
3.395825018986291
 30
0.0
 10
71.02570126427648
 20
3.874993556164152
 30
0.0
 10
69.70149228323967
 20
4.812088748942629
 30
0.0
 10
69.04375010429993
 20
5.269584517090694
 30
0.0
 10
67.71871089790372
 20
6.16032926052363
 30
0.0
 10
67.05459836278914
 20
6.592788022989778
 30
0.0
 10
65.73693446732969
 20
7.423081146878219
 30
0.0
 10
65.07330229859909
 20
7.823033148440538
 30
0.0
 10
63.7480656098456
 20
8.584484112281475
 30
0.0
 10
63.09020542323979
 20
8.945354047083496
 30
0.0
 10
61.76632110048671
 20
9.62563632634186
 30
0.0
 10
61.10182443157669
 20
9.944671145865888
 30
0.0
 10
59.78149544444008
 20
10.53403480842466
 30
0.0
 10
59.12079593395575
 20
10.80515367657519
 30
0.0
 10
58.12649685477303
 20
11.17385695224184
 30
0.0
 10
57.79516747533692
 20
11.29034679515263
 30
0.0
 10
57.13443518635695
 20
11.50994054012474
 30
0.0
 10
56.80554973957933
 20
11.61300492267198
 30
0.0
 10
56.47499999999996
 20
11.70948182611245
 30
0.0
  0
SPLINE
  5
B8
330
1F
100
AcDbEntity
  8
0
  6
Continuous
 62
     1
370
    15
100
AcDbSpline
210
0.0
220
0.0
230
1.0
 70
     8
 71
     3
 72
    13
 73
     9
 74
     0
 42
0.000000001
 43
0.00000001
 40
0.0
 40
0.0
 40
0.0
 40
0.0
 40
0.1897958269216633
 40
0.3796116668484614
 40
0.5695089286892965
 40
0.7659855829275325
 40
0.9623905019711637
 40
1.0
 40
1.0
 40
1.0
 40
1.0
 10
76.88079522358669
 20
6.488320703834968
 30
0.0
 10
76.03180042115318
 20
6.770857050838944
 30
0.0
 10
74.33372129410012
 20
7.335959536868432
 30
0.0
 10
71.78617483152479
 20
7.97550008487978
 30
0.0
 10
69.20854973494502
 20
8.453850589745297
 30
0.0
 10
66.60113684909092
 20
8.715409489384768
 30
0.0
 10
64.67526077723565
 20
8.805423180260858
 30
0.0
 10
63.62841776105062
 20
8.741013070845325
 30
0.0
 10
63.46017496282369
 20
8.730661435619572
 30
0.0
  0
SPLINE
  5
B9
330
1F
100
AcDbEntity
  8
0
  6
Continuous
 62
     1
370
    15
100
AcDbSpline
210
0.0
220
0.0
230
1.0
 70
     8
 71
     3
 72
    10
 73
     6
 74
     0
 42
0.000000001
 43
0.00000001
 40
0.0
 40
0.0
 40
0.0
 40
0.0
 40
0.5
 40
0.5
 40
1.0
 40
1.0
 40
1.0
 40
1.0
 10
74.70902754898805
 20
5.848454059930797
 30
0.0
 10
75.06135790625052
 20
6.002635824941886
 30
0.0
 10
75.42466527260285
 20
6.125447575502801
 30
0.0
 10
76.15537628874014
 20
6.333385036349895
 30
0.0
 10
76.51873889904684
 20
6.417394293921589
 30
0.0
 10
76.88079522346473
 20
6.488320703877529
 30
0.0
  0
SPLINE
  5
BA
330
1F
100
AcDbEntity
  8
0
  6
Continuous
 62
     1
370
    15
100
AcDbSpline
210
0.0
220
0.0
230
1.0
 70
     8
 71
     3
 72
    10
 73
     6
 74
     0
 42
0.000000001
 43
0.00000001
 40
0.0
 40
0.0
 40
0.0
 40
0.0
 40
0.5
 40
0.5
 40
1.0
 40
1.0
 40
1.0
 40
1.0
 10
74.70902754898805
 20
5.848454059930796
 30
0.0
 10
75.90608600538269
 20
5.522161472606818
 30
0.0
 10
77.10905477011698
 20
5.181172825612834
 30
0.0
 10
79.52322933141124
 20
4.478714043307052
 30
0.0
 10
80.73476087243696
 20
4.116575611653539
 30
0.0
 10
81.9478621304174
 20
3.750225728627098
 30
0.0
  0
SPLINE
  5
BB
330
1F
100
AcDbEntity
  8
0
  6
Continuous
 62
     1
370
    15
100
AcDbSpline
210
0.0
220
0.0
230
1.0
 70
     8
 71
     3
 72
    13
 73
     9
 74
     0
 42
0.000000001
 43
0.00000001
 40
0.0
 40
0.0
 40
0.0
 40
0.0
 40
0.2195402512503393
 40
0.4449130068444861
 40
0.6149670689147688
 40
0.78901529636456
 40
0.8976080265523178
 40
1.0
 40
1.0
 40
1.0
 40
1.0
 10
72.35
 20
-12.16121119408588
 30
0.0
 10
72.8787746210732
 20
-12.01796579233454
 30
0.0
 10
73.95037176676695
 20
-11.72766940227912
 30
0.0
 10
75.43728186645015
 20
-10.9966968340843
 30
0.0
 10
76.81424869307801
 20
-10.16032540327752
 30
0.0
 10
77.91451265887903
 20
-9.395923272783293
 30
0.0
 10
78.84944091760244
 20
-8.706432703925561
 30
0.0
 10
79.35784697965508
 20
-8.330862639872473
 30
0.0
 10
79.60457908444445
 20
-8.148596535440964
 30
0.0
  0
ARC
  5
BC
330
1F
100
AcDbEntity
  8
0
  6
Continuous
 62
     1
370
    15
100
AcDbCircle
 10
72.18846112390455
 20
0.0827095497978802
 30
0.0
 40
12.86787529287348
100
AcDbArc
 50
319.3261103174576
 51
352.5506397973293
  0
ARC
  5
BD
330
1F
100
AcDbEntity
  8
0
  6
Continuous
 62
     1
370
    15
100
AcDbCircle
 10
76.74543529695396
 20
0.6166944971757552
 30
0.0
 40
8.473351505328868
100
AcDbArc
 50
303.2237394290582
 51
346.0916180531138
  0
ARC
  5
BE
330
1F
100
AcDbEntity
  8
0
  6
Continuous
 62
     1
370
    15
100
AcDbCircle
 10
78.1338422409724
 20
-2.800640463135085
 30
0.0
 40
7.580276748210112
100
AcDbArc
 50
25.37441790339783
 51
59.7913460648133
  0
ARC
  5
BF
330
1F
100
AcDbEntity
  8
0
  6
Continuous
 62
     1
370
    15
100
AcDbCircle
 10
73.22315223639953
 20
0.0838441783443328
 30
0.0
 40
11.76530177576903
100
AcDbArc
 50
1.772460154023712
 51
46.05379227830775
  0
SPLINE
  5
C0
330
1F
100
AcDbEntity
  8
0
  6
Continuous
 62
     1
370
    15
100
AcDbSpline
210
0.0
220
0.0
230
1.0
 70
     8
 71
     3
 72
    20
 73
    16
 74
     0
 42
0.000000001
 43
0.00000001
 40
0.0
 40
0.0
 40
0.0
 40
0.0
 40
0.1250000000000003
 40
0.1250000000000003
 40
0.2500000000000006
 40
0.2500000000000006
 40
0.3750000000000009
 40
0.3750000000000009
 40
0.5000000000000012
 40
0.5000000000000012
 40
0.6250000000000016
 40
0.6250000000000016
 40
0.7500000000000018
 40
0.7500000000000018
 40
1.0
 40
1.0
 40
1.0
 40
1.0
 10
81.38806825297112
 20
8.55476339158482
 30
0.0
 10
81.13352691229005
 20
8.911186359373373
 30
0.0
 10
80.84698914821863
 20
9.25157113277388
 30
0.0
 10
80.22840903524809
 20
9.88300814076297
 30
0.0
 10
79.89906699736525
 20
10.17174069677448
 30
0.0
 10
79.20807792852042
 20
10.69257439167719
 30
0.0
 10
78.8465884153579
 20
10.92459289889652
 30
0.0
 10
78.09329509101082
 20
11.32906799521867
 30
0.0
 10
77.7046044016351
 20
11.49942939710069
 30
0.0
 10
76.91839776024915
 20
11.77168888571111
 30
0.0
 10
76.51892207725112
 20
11.87467058518148
 30
0.0
 10
75.70718443164546
 20
12.01438545174459
 30
0.0
 10
75.29300488888825
 20
12.05109863823748
 30
0.0
 10
74.03755180677254
 20
12.06038429650334
 30
0.0
 10
73.20144973001695
 20
11.9335847010654
 30
0.0
 10
72.35000000000002
 20
11.68140867085346
 30
0.0
  0
LINE
  5
C1
330
1F
100
AcDbEntity
  8
0
  6
Continuous
 62
     4
370
    15
100
AcDbLine
 10
56.47499999999986
 20
9.299380665688629
 30
0.0
 11
56.47499999999999
 21
11.70948182612213
 31
0.0
  0
SPLINE
  5
C2
330
1F
100
AcDbEntity
  8
0
  6
Continuous
 62
     1
370
    15
100
AcDbSpline
210
0.0
220
0.0
230
1.0
 70
     8
 71
     3
 72
    24
 73
    20
 74
     0
 42
0.000000001
 43
0.00000001
 40
0.0
 40
0.0
 40
0.0
 40
0.0
 40
0.1250000000000008
 40
0.1250000000000008
 40
0.2500000000000017
 40
0.2500000000000017
 40
0.3750000000000025
 40
0.3750000000000025
 40
0.5000000000000033
 40
0.5000000000000033
 40
0.6250000000000024
 40
0.6250000000000024
 40
0.7500000000000018
 40
0.7500000000000018
 40
0.875000000000001
 40
0.875000000000001
 40
0.9375000000000006
 40
0.9375000000000006
 40
1.0
 40
1.0
 40
1.0
 40
1.0
 10
72.34999999999997
 20
-12.1612111940859
 30
0.0
 10
71.69013046306878
 20
-12.30474159903292
 30
0.0
 10
71.02570126427648
 20
-12.42044876148022
 30
0.0
 10
69.70149228323965
 20
-12.59362578448672
 30
0.0
 10
69.04375010429993
 20
-12.65116139900058
 30
0.0
 10
67.71871089790372
 20
-12.70782265526393
 30
0.0
 10
67.05459836278919
 20
-12.70674515917941
 30
0.0
 10
65.73693446732972
 20
-12.64612220186086
 30
0.0
 10
65.07330229859909
 20
-12.58643295974813
 30
0.0
 10
63.74806560984556
 20
-12.40914013493842
 30
0.0
 10
63.09020542323977
 20
-12.29184666240365
 30
0.0
 10
61.76632110048669
 20
-12.00060482505863
 30
0.0
 10
61.10182443157669
 20
-11.82662154867787
 30
0.0
 10
59.78149544444012
 20
-11.42568466085398
 30
0.0
 10
59.12079593395575
 20
-11.19831639730084
 30
0.0
 10
58.12649685477303
 20
-10.81883465239231
 30
0.0
 10
57.7951674753369
 20
-10.68601692139885
 30
0.0
 10
57.13443518635696
 20
-10.40846391138911
 30
0.0
 10
56.80554973957933
 20
-10.26381737403943
 30
0.0
 10
56.47499999999994
 20
-10.11308877613141
 30
0.0
  0
SPLINE
  5
C3
330
1F
100
AcDbEntity
  8
0
  6
Continuous
 62
     1
370
    15
100
AcDbSpline
210
0.0
220
0.0
230
1.0
 70
     8
 71
     3
 72
    12
 73
     8
 74
     0
 42
0.000000001
 43
0.00000001
 40
0.0
 40
0.0
 40
0.0
 40
0.0
 40
0.051171336335341
 40
0.3469169045494629
 40
0.6430747864459323
 40
0.9393186978562266
 40
1.0
 40
1.0
 40
1.0
 40
1.0
 10
76.12242728824731
 20
-7.808067427201554
 30
0.0
 10
76.22104734433967
 20
-7.821241398776685
 30
0.0
 10
76.88964361397484
 20
-7.91055455271732
 30
0.0
 10
78.13702157477294
 20
-8.030006363352442
 30
0.0
 10
79.86198342296888
 20
-8.17612561853074
 30
0.0
 10
81.13403241944715
 20
-8.256652085186309
 30
0.0
 10
81.82960668006257
 20
-8.297089908895817
 30
0.0
 10
81.94786213041743
 20
-8.303964793900775
 30
0.0
  0
SPLINE
  5
C4
330
1F
100
AcDbEntity
  8
0
  6
Continuous
 62
     4
370
    15
100
AcDbSpline
210
0.0
220
0.0
230
1.0
 70
    24
 71
     3
 72
    18
 73
    14
 74
     0
 42
0.000000001
 43
0.00000001
 40
0.0
 40
0.0
 40
0.0
 40
0.0
 40
0.2500000000000001
 40
0.2500000000000001
 40
0.5000000000000002
 40
0.5000000000000002
 40
0.6250000000000002
 40
0.6250000000000002
 40
0.7500000000000003
 40
0.7500000000000003
 40
0.8750000000000002
 40
0.8750000000000002
 40
1.0
 40
1.0
 40
1.0
 40
1.0
 10
56.47499999999997
 20
-0.4360479933384767
 30
0.0
 10
56.47499999999997
 20
-0.910022085004341
 30
0.0
 10
56.475
 20
-1.494361997873494
 30
0.0
 10
56.47499999999999
 20
-2.896420187974644
 30
0.0
 10
56.475
 20
-3.715828858313674
 30
0.0
 10
56.47499999999999
 20
-5.059709772323775
 30
0.0
 10
56.475
 20
-5.525827254656146
 30
0.0
 10
56.475
 20
-6.473161806461408
 30
0.0
 10
56.47499999999997
 20
-6.954262457157328
 30
0.0
 10
56.47499999999999
 20
-7.905518310289136
 30
0.0
 10
56.47499999999999
 20
-8.375513830030618
 30
0.0
 10
56.475
 20
-9.2780613272478
 30
0.0
 10
56.47499999999997
 20
-9.710466371695349
 30
0.0
 10
56.47499999999997
 20
-10.11308877613845
 30
0.0
  0
SPLINE
  5
C5
330
1F
100
AcDbEntity
  8
0
  6
Continuous
 62
     1
370
    15
100
AcDbSpline
210
0.0
220
0.0
230
1.0
 70
     8
 71
     3
 72
     9
 73
     5
 74
     0
 42
0.000000001
 43
0.00000001
 40
0.0
 40
0.0
 40
0.0
 40
0.0
 40
0.5899815482714136
 40
0.9999999999999999
 40
0.9999999999999999
 40
0.9999999999999999
 40
0.9999999999999999
 10
56.47499999999975
 20
-12.14026036629052
 30
0.0
 10
57.46281715336504
 20
-12.33351364022438
 30
0.0
 10
59.13713587783956
 20
-12.66107180623835
 30
0.0
 10
60.81143334429211
 20
-12.65919269524783
 30
0.0
 10
61.49792619922008
 20
-12.65842222506887
 30
0.0
  0
LINE
  5
C6
330
1F
100
AcDbEntity
  8
0
  6
Continuous
 62
     4
370
    15
100
AcDbLine
 10
56.47499999999986
 20
-12.14026036629055
 30
0.0
 11
56.47499999999999
 21
-10.11308877614045
 31
0.0
  0
SPLINE
  5
C7
330
1F
100
AcDbEntity
  8
0
  6
Continuous
 62
     1
370
    15
100
AcDbSpline
210
0.0
220
0.0
230
1.0
 70
     8
 71
     3
 72
    10
 73
     6
 74
     0
 42
0.000000001
 43
0.00000001
 40
0.0
 40
0.0
 40
0.0
 40
0.0
 40
0.326421669926069
 40
0.6630558855135853
 40
1.0
 40
1.0
 40
1.0
 40
1.0
 10
65.43508185670211
 20
8.721475494876955
 30
0.0
 10
66.18736064102498
 20
9.118769549515282
 30
0.0
 10
67.71545427404038
 20
9.925787543348722
 30
0.0
 10
70.02009256055393
 20
10.92653629503444
 30
0.0
 10
71.57312601442393
 20
11.42970737951666
 30
0.0
 10
72.34999999999974
 20
11.68140867085337
 30
0.0
  0
SPLINE
  5
C8
330
1F
100
AcDbEntity
  8
0
  6
Continuous
 62
     1
370
    15
100
AcDbSpline
210
0.0
220
0.0
230
1.0
 70
     8
 71
     3
 72
    18
 73
    14
 74
     0
 42
0.000000001
 43
0.00000001
 40
0.0
 40
0.0
 40
0.0
 40
0.0
 40
0.1250000000000002
 40
0.1250000000000002
 40
0.2500000000000002
 40
0.2500000000000002
 40
0.3750000000000002
 40
0.3750000000000002
 40
0.5000000000000002
 40
0.5000000000000002
 40
0.7500000000000001
 40
0.7500000000000001
 40
1.0
 40
1.0
 40
1.0
 40
1.0
 10
81.38806825297112
 20
8.554763391584807
 30
0.0
 10
81.23647598412069
 20
8.3245843972274
 30
0.0
 10
81.06394307889707
 20
8.112207346205473
 30
0.0
 10
80.67563006040942
 20
7.724218332539611
 30
0.0
 10
80.46098564919447
 20
7.550700517371786
 30
0.0
 10
80.01002235425
 20
7.253894353321284
 30
0.0
 10
79.77022771669255
 20
7.12779611441885
 30
0.0
 10
79.2725712235677
 20
6.919948739874575
 30
0.0
 10
79.01877510106522
 20
6.839515396440472
 30
0.0
 10
78.24486724280004
 20
6.657413129148731
 30
0.0
 10
77.70621939135918
 20
6.615042103178577
 30
0.0
 10
76.6506281222484
 20
6.658032292495421
 30
0.0
 10
76.12895414325345
 20
6.741610391515604
 30
0.0
 10
75.612799807676
 20
6.88116616569107
 30
0.0
  0
LINE
  5
C9
330
1F
100
AcDbEntity
  8
중심선
100
AcDbLine
 10
-70.35000000000002
 20
-0.0000000000000211
 30
0.0
 11
87.98282481919023
 21
-0.0000000000000211
 31
0.0
  0
CIRCLE
  5
CA
330
1F
100
AcDbEntity
  8
외형선
100
AcDbCircle
 10
0.0
 20
0.0
 30
0.0
 40
3.000000000000004
  0
INSERT
  5
CB
330
1F
100
AcDbEntity
  8
0
  6
Continuous
 62
     7
100
AcDbBlockReference
 66
     1
  2
블럭10
 10
-8.440786299681431
 20
-51.95764267978463
 30
0.0
  0
ATTRIB
  5
CC
330
CB
100
AcDbEntity
  8
FORMAT
 62
     2
100
AcDbText
 10
-17.62208158842271
 20
-49.88227576695244
 30
0.0
 40
4.233333333333333
  1
E5978907 [ 3 FLUTE ]
 41
0.75
  7
SLDTEXTSTYLE0
 11
-17.62208158842271
 21
-51.99894243361911
 31
0.0
100
AcDbAttribute
  2
AUTOATTR0
 70
     0
 74
     1
  0
SEQEND
  5
CD
330
CB
100
AcDbEntity
  8
0
  6
Continuous
 62
     7
  0
HATCH
  5
CE
330
1F
100
AcDbEntity
  8
중심선
100
AcDbHatch
 10
0.0
 20
0.0
 30
0.0
210
0.0
220
0.0
230
1.0
  2
SOLID
 70
     1
 71
     0
 91
        1
 92
        0
 93
        4
 72
     1
 10
-2.725876995300581
 20
-35.71046837814069
 11
-6.172152239137864
 21
-35.71046837814069
 72
     1
 10
-6.172152239137864
 20
-35.71046837814069
 11
-8.300382098341887
 21
-38.24679395871328
 72
     1
 10
-8.300382098341887
 20
-38.24679395871328
 11
-4.854073769391455
 21
-38.24675452941079
 72
     1
 10
-4.854073769391455
 20
-38.24675452941079
 11
-2.725876995300581
 21
-35.71046837814069
 97
        0
 75
     0
 76
     1
 98
        1
 10
-9.65885681430867
 20
-0.0000000000000107
  0
HATCH
  5
CF
330
1F
100
AcDbEntity
  8
중심선
100
AcDbHatch
 10
0.0
 20
0.0
 30
0.0
210
0.0
220
0.0
230
1.0
  2
SOLID
 70
     1
 71
     0
 91
        1
 92
        0
 93
        4
 72
     1
 10
2.286886995735371
 20
-35.71046837814069
 11
-1.159388248101912
 21
-35.71046837814069
 72
     1
 10
-1.159388248101912
 20
-35.71046837814069
 11
-5.6905262564593
 21
-41.1104683781407
 72
     1
 10
-5.6905262564593
 20
-41.11046837814071
 11
-2.244251012622018
 21
-41.11046837814071
 72
     1
 10
-2.244251012622018
 20
-41.11046837814071
 11
2.286886995735371
 21
-35.7104683781407
 97
        0
 75
     0
 76
     1
 98
        1
 10
-9.65885681430867
 20
-0.0000000000000107
  0
HATCH
  5
D0
330
1F
100
AcDbEntity
  8
중심선
100
AcDbHatch
 10
0.0
 20
0.0
 30
0.0
210
0.0
220
0.0
230
1.0
  2
SOLID
 70
     1
 71
     0
 91
        1
 92
        0
 93
        4
 72
     1
 10
7.299650986771265
 20
-35.71046837814072
 11
3.85337574293415
 21
-35.71046837814069
 72
     1
 10
3.85337574293415
 20
-35.71046837814069
 11
-3.195061158955099
 21
-44.11046837814071
 72
     1
 10
-3.195061158955099
 20
-44.11046837814071
 11
0.251214084882184
 21
-44.11046837814071
 72
     1
 10
0.251214084882184
 20
-44.11046837814071
 11
7.299650986771265
 21
-35.71046837814072
 97
        0
 75
     0
 76
     1
 98
        1
 10
-9.65885681430867
 20
-0.0000000000000107
  0
HATCH
  5
D1
330
1F
100
AcDbEntity
  8
중심선
100
AcDbHatch
 10
0.0
 20
0.0
 30
0.0
210
0.0
220
0.0
230
1.0
  2
SOLID
 70
     1
 71
     0
 91
        1
 92
        0
 93
        6
 72
     3
 10
12.09954141778346
 20
-39.91046837819196
 11
3.960054785062283
 21
1.540882976769353E-10
 40
0.3939339440162628
 50
17.09539180608437
 51
320.0019657685082
 73
     0
 72
     1
 10
13.78254107348406
 20
-38.49836238277899
 11
16.0878429471851
 21
-36.56403567273107
 72
     3
 10
12.09954141773062
 20
-39.91046837814083
 11
6.600054785286829
 21
-1.278976924368180E-13
 40
0.636358354079598
 50
39.99873849337404
 51
368.4976242363725
 73
     1
 72
     1
 10
18.52487390963123
 20
-38.95046837807071
 11
10.77960872456654
 21
-38.95046837807068
 72
     1
 10
10.77960872456654
 20
-38.95046837807068
 11
10.77958368012061
 21
-40.8704683780706
 72
     1
 10
10.77958368012061
 20
-40.87046837807061
 11
15.22096344959265
 21
-40.87046837807058
 97
        0
 75
     0
 76
     1
 98
        1
 10
-9.65885681430867
 20
-0.0000000000000107
  0
POINT
  5
D2
330
1F
100
AcDbEntity
  8
치수문자_일반주서
100
AcDbPoint
 10
-67.35000000000002
 20
-0.0000000000000211
 30
0.0
  0
DIMENSION
  5
D3
330
1F
100
AcDbEntity
  8
치수문자_일반주서
100
AcDbDimension
  2
_D
 10
-78.84645802161204
 20
-12.70000000000006
 30
0.0
 11
-78.84645802161208
 21
-0.0000000000000133
 31
0.0
 70
   160
  1
%%c<>
 71
     2
 42
25.4
 52
-270.0
  3
SLDDIMSTYLE0
100
AcDbAlignedDimension
 13
-66.35
 23
12.69999999999999
 33
0.0
 14
-66.35
 24
-12.70000000000001
 34
0.0
 50
90.0000000000002
100
AcDbRotatedDimension
1001
ACAD
1000
DSTYLE
1002
{
1070
   171
1070
     6
1070
   273
1070
     7
1002
}
  0
DIMENSION
  5
E8
330
1F
100
AcDbEntity
  8
치수문자_일반주서
100
AcDbDimension
  2
_D_1
 10
85.05000000000001
 20
52.70000000000005
 30
0.0
 11
14.66396809076006
 21
52.70000000000005
 31
0.0
 70
   160
  1
<>
 71
     2
 42
152.4
  3
SLDDIMSTYLE1
100
AcDbAlignedDimension
 13
-67.35
 23
11.69999999999999
 33
0.0
 14
85.05000000000001
 24
-0.0000000000000028
 34
0.0
 50
-0.0000000000000053
100
AcDbRotatedDimension
1001
ACAD
1000
DSTYLE
1002
{
1070
   171
1070
     6
1070
   273
1070
     7
1002
}
  0
DIMENSION
  5
FC
330
1F
100
AcDbEntity
  8
치수문자_일반주서
100
AcDbDimension
  2
_D_2
 10
85.05
 20
39.6796547563595
 30
0.0
 11
40.1155584738828
 21
39.6796547563595
 31
0.0
 70
   160
  1
<>
 71
     2
 42
82.55
  3
SLDDIMSTYLE1
100
AcDbAlignedDimension
 13
2.5
 23
12.2
 33
0.0
 14
85.05
 24
-0.0000000000000029
 34
0.0
100
AcDbRotatedDimension
1001
ACAD
1000
DSTYLE
1002
{
1070
   171
1070
     6
1070
   273
1070
     7
1002
}
  0
DIMENSION
  5
10F
330
1F
100
AcDbEntity
  8
치수문자_일반주서
100
AcDbDimension
  2
_D_3
 10
85.05000000000001
 20
27.4519304148371
 30
0.0
 11
69.97942369260096
 21
27.4519304148371
 31
0.0
 70
   160
  1
<>
 71
     2
 42
28.57500000000009
  3
SLDDIMSTYLE2
100
AcDbAlignedDimension
 13
56.47499999999999
 23
11.70948182612213
 33
0.0
 14
85.05000000000001
 24
-0.0000000000000028
 34
0.0
 50
-0.0000000000003285
100
AcDbRotatedDimension
1001
ACAD
1000
DSTYLE
1002
{
1070
   171
1070
     6
1070
   273
1070
     7
1002
}
  0
INSERT
  5
12B
330
1F
100
AcDbEntity
  8
외형선
100
AcDbBlockReference
  2
SW_DOWELSYMBOL_0
 10
0.0
 20
0.0
 30
0.0
  0
DIMENSION
  5
154
102
{ACAD_XDICTIONARY
360
155
102
}
330
1F
100
AcDbEntity
  8
치수문자_일반주서
100
AcDbDimension
  2
*D7
 10
99.98650319331247
 20
-12.7
 30
0.0
 11
97.36150319331247
 21
-0.0000000000000053
 31
0.0
 70
    32
  1
{%%C<>[]}
 71
     5
 42
25.4
  3
SLDDIMSTYLE2
100
AcDbAlignedDimension
 13
85.05
 23
12.7
 33
0.0
 14
85.05
 24
-12.7
 34
0.0
 50
90.0
100
AcDbRotatedDimension
1001
ACAD
1000
DSTYLE
1002
{
1070
   283
1070
     1
1070
   170
1070
     1
1070
   171
1070
     6
1070
   273
1070
     7
1002
}
  0
ENDSEC
  0
SECTION
  2
OBJECTS
  0
DICTIONARY
  5
C
330
0
100
AcDbDictionary
281
     1
  3
ACAD_GROUP
350
D
  3
ACAD_IMAGE_VARS
350
14F
  3
ACAD_LAYOUT
350
1A
  3
ACAD_MLINESTYLE
350
17
  3
ACAD_PLOTSETTINGS
350
19
  3
ACAD_PLOTSTYLENAME
350
E
  3
ACAD_SCALELIST
350
47
  3
APPDATA
350
14D
  3
DWGPROPS
350
169
  0
DICTIONARY
  5
155
330
154
100
AcDbDictionary
280
     1
281
     1
  0
DICTIONARY
  5
D
102
{ACAD_REACTORS
330
C
102
}
330
C
100
AcDbDictionary
281
     1
  0
RASTERVARIABLES
  5
14F
102
{ACAD_REACTORS
330
C
102
}
330
C
100
AcDbRasterVariables
 90
        0
 70
     1
 71
     1
 72
     1
  0
DICTIONARY
  5
1A
102
{ACAD_REACTORS
330
C
102
}
330
C
100
AcDbDictionary
281
     1
  3
Layout1
350
1E
  3
Layout2
350
26
  3
Model
350
22
  0
DICTIONARY
  5
17
102
{ACAD_REACTORS
330
C
102
}
330
C
100
AcDbDictionary
281
     1
  3
Standard
350
18
  0
DICTIONARY
  5
19
102
{ACAD_REACTORS
330
C
102
}
330
C
100
AcDbDictionary
281
     1
  0
ACDBDICTIONARYWDFLT
  5
E
102
{ACAD_REACTORS
330
C
102
}
330
C
100
AcDbDictionary
281
     1
  3
Normal
350
F
100
AcDbDictionaryWithDefault
340
F
  0
DICTIONARY
  5
47
102
{ACAD_REACTORS
330
C
102
}
330
C
100
AcDbDictionary
281
     1
  3
A0
350
48
  3
A1
350
49
  3
A2
350
4A
  3
A3
350
4B
  3
A4
350
4C
  3
A5
350
4D
  3
A6
350
4E
  3
A7
350
4F
  3
A8
350
50
  3
A9
350
51
  3
B0
350
52
  3
B1
350
53
  3
B2
350
54
  3
B3
350
55
  3
B4
350
56
  3
B5
350
57
  3
B6
350
58
  3
B7
350
59
  3
B8
350
5A
  3
B9
350
5B
  3
C0
350
5C
  3
C1
350
5D
  3
C2
350
5E
  3
C3
350
5F
  3
C4
350
60
  3
C5
350
61
  3
C6
350
62
  3
C7
350
63
  3
C8
350
64
  3
C9
350
65
  3
D0
350
66
  3
D1
350
67
  3
D2
350
68
  0
DICTIONARY
  5
14D
102
{ACAD_REACTORS
330
C
102
}
330
C
100
AcDbDictionary
281
     1
  0
XRECORD
  5
169
102
{ACAD_REACTORS
330
C
102
}
330
C
100
AcDbXrecord
280
     1
  1
DWGPROPS COOKIE
  2

  3

  4

  6

  7

  8
12016016
  9

300
=
301
=
302
=
303
=
304
=
305
=
306
=
307
=
308
=
309
=
 40
0.0
 41
2458269.362373414
 42
2458275.033576215
  1

 90
        0
  0
LAYOUT
  5
1E
102
{ACAD_REACTORS
330
1A
102
}
330
1A
100
AcDbPlotSettings
  1

  2
none_device
  4

  6

 40
0.0
 41
0.0
 42
0.0
 43
0.0
 44
0.0
 45
0.0
 46
0.0
 47
0.0
 48
0.0
 49
0.0
140
0.0
141
0.0
142
1.0
143
1.0
 70
   688
 72
     1
 73
     0
 74
     5
  7

 75
    16
147
1.0
148
0.0
149
0.0
100
AcDbLayout
  1
Layout1
 70
     1
 71
     1
 10
0.0
 20
0.0
 11
420.0
 21
297.0
 12
0.0
 22
0.0
 32
0.0
 14
1.000000000000000E+20
 24
1.000000000000000E+20
 34
1.000000000000000E+20
 15
-1.000000000000000E+20
 25
-1.000000000000000E+20
 35
-1.000000000000000E+20
146
0.0
 13
0.0
 23
0.0
 33
0.0
 16
1.0
 26
0.0
 36
0.0
 17
0.0
 27
1.0
 37
0.0
 76
     0
330
1B
  0
LAYOUT
  5
26
102
{ACAD_REACTORS
330
1A
102
}
330
1A
100
AcDbPlotSettings
  1

  2
none_device
  4

  6

 40
0.0
 41
0.0
 42
0.0
 43
0.0
 44
0.0
 45
0.0
 46
0.0
 47
0.0
 48
0.0
 49
0.0
140
0.0
141
0.0
142
1.0
143
1.0
 70
   688
 72
     1
 73
     0
 74
     5
  7

 75
    16
147
1.0
148
0.0
149
0.0
100
AcDbLayout
  1
Layout2
 70
     1
 71
     2
 10
0.0
 20
0.0
 11
0.0
 21
0.0
 12
0.0
 22
0.0
 32
0.0
 14
0.0
 24
0.0
 34
0.0
 15
0.0
 25
0.0
 35
0.0
146
0.0
 13
0.0
 23
0.0
 33
0.0
 16
1.0
 26
0.0
 36
0.0
 17
0.0
 27
1.0
 37
0.0
 76
     0
330
23
  0
LAYOUT
  5
22
102
{ACAD_REACTORS
330
1A
102
}
330
1A
100
AcDbPlotSettings
  1

  2
none_device
  4
ANSI_A_(11.00_x_8.50_Inches)
  6

 40
6.35
 41
19.05
 42
6.35000508
 43
19.05000254
 44
279.4
 45
215.9
 46
117.2927666569861
 47
79.06702278317758
 48
0.0
 49
0.0
140
0.0
141
0.0
142
0.0601749999877983
143
1.0
 70
  1696
 72
     0
 73
     0
 74
     0
  7

 75
     0
147
0.0235690232323232
148
0.0
149
0.0
100
AcDbLayout
  1
Model
 70
     1
 71
     0
 10
0.0
 20
0.0
 11
420.0
 21
297.0
 12
0.0
 22
0.0
 32
0.0
 14
-83.22145802161212
 24
-49.88227576695244
 34
0.0
 15
100.5368365266458
 25
57.07500000000005
 35
0.0
146
0.0
 13
0.0
 23
0.0
 33
0.0
 16
1.0
 26
0.0
 36
0.0
 17
0.0
 27
1.0
 37
0.0
 76
     0
330
1F
331
29
  0
MLINESTYLE
  5
18
102
{ACAD_REACTORS
330
17
102
}
330
17
100
AcDbMlineStyle
  2
Standard
 70
     0
  3

 62
   256
 51
90.0
 52
90.0
 71
     2
 49
0.5
 62
   256
  6
BYLAYER
 49
-0.5
 62
   256
  6
BYLAYER
  0
ACDBPLACEHOLDER
  5
F
102
{ACAD_REACTORS
330
E
102
}
330
E
  0
SCALE
  5
48
102
{ACAD_REACTORS
330
47
102
}
330
47
100
AcDbScale
 70
     0
300
1:1
140
1.0
141
1.0
290
     1
  0
SCALE
  5
49
102
{ACAD_REACTORS
330
47
102
}
330
47
100
AcDbScale
 70
     0
300
1:2
140
1.0
141
2.0
290
     0
  0
SCALE
  5
4A
102
{ACAD_REACTORS
330
47
102
}
330
47
100
AcDbScale
 70
     0
300
1:4
140
1.0
141
4.0
290
     0
  0
SCALE
  5
4B
102
{ACAD_REACTORS
330
47
102
}
330
47
100
AcDbScale
 70
     0
300
1:5
140
1.0
141
5.0
290
     0
  0
SCALE
  5
4C
102
{ACAD_REACTORS
330
47
102
}
330
47
100
AcDbScale
 70
     0
300
1:8
140
1.0
141
8.0
290
     0
  0
SCALE
  5
4D
102
{ACAD_REACTORS
330
47
102
}
330
47
100
AcDbScale
 70
     0
300
1:10
140
1.0
141
10.0
290
     0
  0
SCALE
  5
4E
102
{ACAD_REACTORS
330
47
102
}
330
47
100
AcDbScale
 70
     0
300
1:16
140
1.0
141
16.0
290
     0
  0
SCALE
  5
4F
102
{ACAD_REACTORS
330
47
102
}
330
47
100
AcDbScale
 70
     0
300
1:20
140
1.0
141
20.0
290
     0
  0
SCALE
  5
50
102
{ACAD_REACTORS
330
47
102
}
330
47
100
AcDbScale
 70
     0
300
1:30
140
1.0
141
30.0
290
     0
  0
SCALE
  5
51
102
{ACAD_REACTORS
330
47
102
}
330
47
100
AcDbScale
 70
     0
300
1:40
140
1.0
141
40.0
290
     0
  0
SCALE
  5
52
102
{ACAD_REACTORS
330
47
102
}
330
47
100
AcDbScale
 70
     0
300
1:50
140
1.0
141
50.0
290
     0
  0
SCALE
  5
53
102
{ACAD_REACTORS
330
47
102
}
330
47
100
AcDbScale
 70
     0
300
1:100
140
1.0
141
100.0
290
     0
  0
SCALE
  5
54
102
{ACAD_REACTORS
330
47
102
}
330
47
100
AcDbScale
 70
     0
300
2:1
140
2.0
141
1.0
290
     0
  0
SCALE
  5
55
102
{ACAD_REACTORS
330
47
102
}
330
47
100
AcDbScale
 70
     0
300
4:1
140
4.0
141
1.0
290
     0
  0
SCALE
  5
56
102
{ACAD_REACTORS
330
47
102
}
330
47
100
AcDbScale
 70
     0
300
8:1
140
8.0
141
1.0
290
     0
  0
SCALE
  5
57
102
{ACAD_REACTORS
330
47
102
}
330
47
100
AcDbScale
 70
     0
300
10:1
140
10.0
141
1.0
290
     0
  0
SCALE
  5
58
102
{ACAD_REACTORS
330
47
102
}
330
47
100
AcDbScale
 70
     0
300
100:1
140
100.0
141
1.0
290
     0
  0
SCALE
  5
59
102
{ACAD_REACTORS
330
47
102
}
330
47
100
AcDbScale
 70
     0
300
1/128" = 1'-0"
140
0.0078125
141
12.0
290
     0
  0
SCALE
  5
5A
102
{ACAD_REACTORS
330
47
102
}
330
47
100
AcDbScale
 70
     0
300
1/64" = 1'-0"
140
0.015625
141
12.0
290
     0
  0
SCALE
  5
5B
102
{ACAD_REACTORS
330
47
102
}
330
47
100
AcDbScale
 70
     0
300
1/32" = 1'-0"
140
0.03125
141
12.0
290
     0
  0
SCALE
  5
5C
102
{ACAD_REACTORS
330
47
102
}
330
47
100
AcDbScale
 70
     0
300
1/16" = 1'-0"
140
0.0625
141
12.0
290
     0
  0
SCALE
  5
5D
102
{ACAD_REACTORS
330
47
102
}
330
47
100
AcDbScale
 70
     0
300
3/32" = 1'-0"
140
0.09375
141
12.0
290
     0
  0
SCALE
  5
5E
102
{ACAD_REACTORS
330
47
102
}
330
47
100
AcDbScale
 70
     0
300
1/8" = 1'-0"
140
0.125
141
12.0
290
     0
  0
SCALE
  5
5F
102
{ACAD_REACTORS
330
47
102
}
330
47
100
AcDbScale
 70
     0
300
3/16" = 1'-0"
140
0.1875
141
12.0
290
     0
  0
SCALE
  5
60
102
{ACAD_REACTORS
330
47
102
}
330
47
100
AcDbScale
 70
     0
300
1/4" = 1'-0"
140
0.25
141
12.0
290
     0
  0
SCALE
  5
61
102
{ACAD_REACTORS
330
47
102
}
330
47
100
AcDbScale
 70
     0
300
3/8" = 1'-0"
140
0.375
141
12.0
290
     0
  0
SCALE
  5
62
102
{ACAD_REACTORS
330
47
102
}
330
47
100
AcDbScale
 70
     0
300
1/2" = 1'-0"
140
0.5
141
12.0
290
     0
  0
SCALE
  5
63
102
{ACAD_REACTORS
330
47
102
}
330
47
100
AcDbScale
 70
     0
300
3/4" = 1'-0"
140
0.75
141
12.0
290
     0
  0
SCALE
  5
64
102
{ACAD_REACTORS
330
47
102
}
330
47
100
AcDbScale
 70
     0
300
1" = 1'-0"
140
1.0
141
12.0
290
     0
  0
SCALE
  5
65
102
{ACAD_REACTORS
330
47
102
}
330
47
100
AcDbScale
 70
     0
300
1-1/2" = 1'-0"
140
1.5
141
12.0
290
     0
  0
SCALE
  5
66
102
{ACAD_REACTORS
330
47
102
}
330
47
100
AcDbScale
 70
     0
300
3" = 1'-0"
140
3.0
141
12.0
290
     0
  0
SCALE
  5
67
102
{ACAD_REACTORS
330
47
102
}
330
47
100
AcDbScale
 70
     0
300
6" = 1'-0"
140
6.0
141
12.0
290
     0
  0
SCALE
  5
68
102
{ACAD_REACTORS
330
47
102
}
330
47
100
AcDbScale
 70
     0
300
1'-0" = 1'-0"
140
12.0
141
12.0
290
     0
  0
ENDSEC
  0
EOF
