  0
SECTION
  2
HEADER
  9
$ACADVER
  1
AC1015
  9
$ACADMAINTVER
 70
     6
  9
$DWGCODEPAGE
  3
ANSI_949
  9
$INSBASE
 10
0.0
 20
0.0
 30
0.0
  9
$EXTMIN
 10
-46.05895802161216
 20
-30.92360008043435
 30
0.0
  9
$EXTMAX
 10
34.44405887330295
 20
64.98694857228003
 30
0.0
  9
$LIMMIN
 10
0.0
 20
0.0
  9
$LIMMAX
 10
420.0
 20
297.0
  9
$ORTHOMODE
 70
     1
  9
$REGENMODE
 70
     1
  9
$FILLMODE
 70
     1
  9
$QTEXTMODE
 70
     0
  9
$MIRRTEXT
 70
     1
  9
$LTSCALE
 40
1.0
  9
$ATTMODE
 70
     1
  9
$TEXTSIZE
 40
3.5
  9
$TRACEWID
 40
1.0
  9
$TEXTSTYLE
  7
Standard
  9
$CLAYER
  8
0
  9
$CELTYPE
  6
ByLayer
  9
$CECOLOR
 62
   256
  9
$CELTSCALE
 40
1.0
  9
$DISPSILH
 70
     0
  9
$DIMSCALE
 40
1.0
  9
$DIMASZ
 40
3.302
  9
$DIMEXO
 40
1.0
  9
$DIMDLI
 40
3.75
  9
$DIMRND
 40
0.0
  9
$DIMDLE
 40
0.0
  9
$DIMEXE
 40
1.0
  9
$DIMTP
 40
0.0
  9
$DIMTM
 40
0.0
  9
$DIMTXT
 40
3.5
  9
$DIMCEN
 40
2.5
  9
$DIMTSZ
 40
0.0
  9
$DIMTOL
 70
     0
  9
$DIMLIM
 70
     0
  9
$DIMTIH
 70
     1
  9
$DIMTOH
 70
     1
  9
$DIMSE1
 70
     0
  9
$DIMSE2
 70
     0
  9
$DIMTAD
 70
     1
  9
$DIMZIN
 70
     0
  9
$DIMBLK
  1

  9
$DIMASO
 70
     1
  9
$DIMSHO
 70
     1
  9
$DIMPOST
  1

  9
$DIMAPOST
  1

  9
$DIMALT
 70
     0
  9
$DIMALTD
 70
     3
  9
$DIMALTF
 40
0.0393700787401575
  9
$DIMLFAC
 40
1.0
  9
$DIMTOFL
 70
     1
  9
$DIMTVP
 40
0.0
  9
$DIMTIX
 70
     0
  9
$DIMSOXD
 70
     0
  9
$DIMSAH
 70
     0
  9
$DIMBLK1
  1

  9
$DIMBLK2
  1

  9
$DIMSTYLE
  2
ISO-25
  9
$DIMCLRD
 70
     0
  9
$DIMCLRE
 70
     0
  9
$DIMCLRT
 70
     0
  9
$DIMTFAC
 40
1.0
  9
$DIMGAP
 40
1.524
  9
$DIMJUST
 70
     0
  9
$DIMSD1
 70
     0
  9
$DIMSD2
 70
     0
  9
$DIMTOLJ
 70
     0
  9
$DIMTZIN
 70
     0
  9
$DIMALTZ
 70
     0
  9
$DIMALTTZ
 70
     0
  9
$DIMUPT
 70
     0
  9
$DIMDEC
 70
     2
  9
$DIMTDEC
 70
     2
  9
$DIMALTU
 70
     2
  9
$DIMALTTD
 70
     3
  9
$DIMTXSTY
  7
Standard
  9
$DIMAUNIT
 70
     0
  9
$DIMADEC
 70
     2
  9
$DIMALTRND
 40
0.0
  9
$DIMAZIN
 70
     0
  9
$DIMDSEP
 70
    44
  9
$DIMATFIT
 70
     3
  9
$DIMFRAC
 70
     0
  9
$DIMLDRBLK
  1

  9
$DIMLUNIT
 70
     2
  9
$DIMLWD
 70
    -2
  9
$DIMLWE
 70
    -2
  9
$DIMTMOVE
 70
     0
  9
$LUNITS
 70
     2
  9
$LUPREC
 70
     2
  9
$SKETCHINC
 40
1.0
  9
$FILLETRAD
 40
10.0
  9
$AUNITS
 70
     0
  9
$AUPREC
 70
     2
  9
$MENU
  1
.
  9
$ELEVATION
 40
0.0
  9
$PELEVATION
 40
0.0
  9
$THICKNESS
 40
0.0
  9
$LIMCHECK
 70
     0
  9
$CHAMFERA
 40
0.0
  9
$CHAMFERB
 40
0.0
  9
$CHAMFERC
 40
0.0
  9
$CHAMFERD
 40
0.0
  9
$SKPOLY
 70
     0
  9
$TDCREATE
 40
2458264.584553611
  9
$TDUCREATE
 40
2458264.209553611
  9
$TDUPDATE
 40
2458267.801226783
  9
$TDUUPDATE
 40
2458267.426226783
  9
$TDINDWG
 40
0.000879919
  9
$TDUSRTIMER
 40
2458267.425347037
  9
$USRTIMER
 70
     1
  9
$ANGBASE
 50
0.0
  9
$ANGDIR
 70
     0
  9
$PDMODE
 70
     0
  9
$PDSIZE
 40
-1.0
  9
$PLINEWID
 40
0.0
  9
$SPLFRAME
 70
     0
  9
$SPLINETYPE
 70
     6
  9
$SPLINESEGS
 70
     8
  9
$HANDSEED
  5
149
  9
$SURFTAB1
 70
     6
  9
$SURFTAB2
 70
     6
  9
$SURFTYPE
 70
     6
  9
$SURFU
 70
     6
  9
$SURFV
 70
     6
  9
$UCSBASE
  2

  9
$UCSNAME
  2

  9
$UCSORG
 10
0.0
 20
0.0
 30
0.0
  9
$UCSXDIR
 10
1.0
 20
0.0
 30
0.0
  9
$UCSYDIR
 10
0.0
 20
1.0
 30
0.0
  9
$UCSORTHOREF
  2

  9
$UCSORTHOVIEW
 70
     0
  9
$UCSORGTOP
 10
0.0
 20
0.0
 30
0.0
  9
$UCSORGBOTTOM
 10
0.0
 20
0.0
 30
0.0
  9
$UCSORGLEFT
 10
0.0
 20
0.0
 30
0.0
  9
$UCSORGRIGHT
 10
0.0
 20
0.0
 30
0.0
  9
$UCSORGFRONT
 10
0.0
 20
0.0
 30
0.0
  9
$UCSORGBACK
 10
0.0
 20
0.0
 30
0.0
  9
$PUCSBASE
  2

  9
$PUCSNAME
  2

  9
$PUCSORG
 10
0.0
 20
0.0
 30
0.0
  9
$PUCSXDIR
 10
1.0
 20
0.0
 30
0.0
  9
$PUCSYDIR
 10
0.0
 20
1.0
 30
0.0
  9
$PUCSORTHOREF
  2

  9
$PUCSORTHOVIEW
 70
     0
  9
$PUCSORGTOP
 10
0.0
 20
0.0
 30
0.0
  9
$PUCSORGBOTTOM
 10
0.0
 20
0.0
 30
0.0
  9
$PUCSORGLEFT
 10
0.0
 20
0.0
 30
0.0
  9
$PUCSORGRIGHT
 10
0.0
 20
0.0
 30
0.0
  9
$PUCSORGFRONT
 10
0.0
 20
0.0
 30
0.0
  9
$PUCSORGBACK
 10
0.0
 20
0.0
 30
0.0
  9
$USERI1
 70
     0
  9
$USERI2
 70
     0
  9
$USERI3
 70
     0
  9
$USERI4
 70
     0
  9
$USERI5
 70
     0
  9
$USERR1
 40
0.0
  9
$USERR2
 40
0.0
  9
$USERR3
 40
0.0
  9
$USERR4
 40
0.0
  9
$USERR5
 40
0.0
  9
$WORLDVIEW
 70
     1
  9
$SHADEDGE
 70
     3
  9
$SHADEDIF
 70
    70
  9
$TILEMODE
 70
     1
  9
$MAXACTVP
 70
    64
  9
$PINSBASE
 10
0.0
 20
0.0
 30
0.0
  9
$PLIMCHECK
 70
     0
  9
$PEXTMIN
 10
1.000000000000000E+20
 20
1.000000000000000E+20
 30
1.000000000000000E+20
  9
$PEXTMAX
 10
-1.000000000000000E+20
 20
-1.000000000000000E+20
 30
-1.000000000000000E+20
  9
$PLIMMIN
 10
0.0
 20
0.0
  9
$PLIMMAX
 10
0.0
 20
0.0
  9
$UNITMODE
 70
     0
  9
$VISRETAIN
 70
     1
  9
$PLINEGEN
 70
     0
  9
$PSLTSCALE
 70
     1
  9
$TREEDEPTH
 70
  3020
  9
$CMLSTYLE
  2
Standard
  9
$CMLJUST
 70
     0
  9
$CMLSCALE
 40
20.0
  9
$PROXYGRAPHICS
 70
     1
  9
$MEASUREMENT
 70
     1
  9
$CELWEIGHT
370
    -1
  9
$ENDCAPS
280
     0
  9
$JOINSTYLE
280
     0
  9
$LWDISPLAY
290
     1
  9
$INSUNITS
 70
     4
  9
$HYPERLINKBASE
  1

  9
$STYLESHEET
  1

  9
$XEDIT
290
     1
  9
$CEPSNTYPE
380
     0
  9
$PSTYLEMODE
290
     1
  9
$FINGERPRINTGUID
  2
{97C4A73F-26A3-4804-B787-23951CBC5977}
  9
$VERSIONGUID
  2
{FAEB1C32-E019-11D5-929B-00C0DF256EC4}
  9
$EXTNAMES
290
     1
  9
$PSVPSCALE
 40
0.0
  9
$OLESTARTUP
290
     0
  0
ENDSEC
  0
SECTION
  2
CLASSES
  0
CLASS
  1
ACDBDICTIONARYWDFLT
  2
AcDbDictionaryWithDefault
  3
ObjectDBX Classes
 90
        0
280
     0
281
     0
  0
CLASS
  1
VISUALSTYLE
  2
AcDbVisualStyle
  3
ObjectDBX Classes
 90
     4095
280
     0
281
     0
  0
CLASS
  1
MATERIAL
  2
AcDbMaterial
  3
ObjectDBX Classes
 90
     1153
280
     0
281
     0
  0
CLASS
  1
SCALE
  2
AcDbScale
  3
ObjectDBX Classes
 90
     1153
280
     0
281
     0
  0
CLASS
  1
TABLESTYLE
  2
AcDbTableStyle
  3
ObjectDBX Classes
 90
     4095
280
     0
281
     0
  0
CLASS
  1
MLEADERSTYLE
  2
AcDbMLeaderStyle
  3
ACDB_MLEADERSTYLE_CLASS
 90
     4095
280
     0
281
     0
  0
CLASS
  1
SUN
  2
AcDbSun
  3
SCENEOE
 90
     1153
280
     0
281
     0
  0
CLASS
  1
ACDBPLACEHOLDER
  2
AcDbPlaceHolder
  3
ObjectDBX Classes
 90
        0
280
     0
281
     0
  0
CLASS
  1
LAYOUT
  2
AcDbLayout
  3
ObjectDBX Classes
 90
        0
280
     0
281
     0
  0
CLASS
  1
RASTERVARIABLES
  2
AcDbRasterVariables
  3
ISM
 90
        0
280
     0
281
     0
  0
ENDSEC
  0
SECTION
  2
TABLES
  0
TABLE
  2
VPORT
  5
8
330
0
100
AcDbSymbolTable
 70
     1
  0
VPORT
  5
29
330
8
100
AcDbSymbolTableRecord
100
AcDbViewportTableRecord
  2
*Active
 70
     0
 10
0.0
 20
0.0
 11
1.0
 21
1.0
 12
-6.917622341147464
 22
21.70958951563063
 13
0.0
 23
0.0
 14
10.0
 24
10.0
 15
10.0
 25
10.0
 16
0.0
 26
0.0
 36
1.0
 17
0.0
 27
0.0
 37
0.0
 40
100.6470010461281
 41
1.970186335403727
 42
50.0
 43
0.0
 44
0.0
 50
0.0
 51
0.0
 71
    16
 72
  2000
 73
     1
 74
     3
 75
     0
 76
     0
 77
     0
 78
     0
281
     0
 65
     1
110
0.0
120
0.0
130
0.0
111
1.0
121
0.0
131
0.0
112
0.0
122
1.0
132
0.0
 79
     0
146
0.0
  0
ENDTAB
  0
TABLE
  2
LTYPE
  5
5
330
0
100
AcDbSymbolTable
 70
     6
  0
LTYPE
  5
14
330
5
100
AcDbSymbolTableRecord
100
AcDbLinetypeTableRecord
  2
ByBlock
 70
     0
  3

 72
    65
 73
     0
 40
0.0
  0
LTYPE
  5
15
330
5
100
AcDbSymbolTableRecord
100
AcDbLinetypeTableRecord
  2
ByLayer
 70
     0
  3

 72
    65
 73
     0
 40
0.0
  0
LTYPE
  5
16
330
5
100
AcDbSymbolTableRecord
100
AcDbLinetypeTableRecord
  2
Continuous
 70
     0
  3
Solid line
 72
    65
 73
     0
 40
0.0
  0
LTYPE
  5
6E
330
5
100
AcDbSymbolTableRecord
100
AcDbLinetypeTableRecord
  2
HIDDEN
 70
     0
  3
Hidden __ __ __ __ __ __ __ __ __ __ __ __ __ __
 72
    65
 73
     2
 40
1.905
 49
1.27
 74
     0
 49
-0.635
 74
     0
  0
LTYPE
  5
6F
330
5
100
AcDbSymbolTableRecord
100
AcDbLinetypeTableRecord
  2
PHANTOM
 70
     0
  3
Phantom ______  __  __  ______  __  __  ______
 72
    65
 73
     6
 40
12.7
 49
6.35
 74
     0
 49
-1.27
 74
     0
 49
1.27
 74
     0
 49
-1.27
 74
     0
 49
1.27
 74
     0
 49
-1.27
 74
     0
  0
LTYPE
  5
70
330
5
100
AcDbSymbolTableRecord
100
AcDbLinetypeTableRecord
  2
CENTER
 70
     0
  3
Center ____ _ ____ _ ____ _ ____ _ ____ _ ____
 72
    65
 73
     4
 40
10.16
 49
6.35
 74
     0
 49
-1.27
 74
     0
 49
1.27
 74
     0
 49
-1.27
 74
     0
  0
LTYPE
  5
71
330
5
100
AcDbSymbolTableRecord
100
AcDbLinetypeTableRecord
  2
CENTERX2
 70
     0
  3
Center (2x) ________  __  ________  __  _____
 72
    65
 73
     4
 40
20.32
 49
12.7
 74
     0
 49
-2.54
 74
     0
 49
2.54
 74
     0
 49
-2.54
 74
     0
  0
LTYPE
  5
72
330
5
100
AcDbSymbolTableRecord
100
AcDbLinetypeTableRecord
  2
DOT2
 70
     0
  3
Dot (.5x) ........................................
 72
    65
 73
     2
 40
0.635
 49
0.0
 74
     0
 49
-0.635
 74
     0
  0
ENDTAB
  0
TABLE
  2
LAYER
  5
2
330
0
100
AcDbSymbolTable
 70
    17
  0
LAYER
  5
10
330
2
100
AcDbSymbolTableRecord
100
AcDbLayerTableRecord
  2
0
 70
     0
 62
     7
  6
Continuous
370
    -3
390
F
  0
LAYER
  5
73
330
2
100
AcDbSymbolTableRecord
100
AcDbLayerTableRecord
  2
FORMAT
 70
     0
 62
     2
  6
Continuous
370
    -3
390
F
  0
LAYER
  5
74
330
2
100
AcDbSymbolTableRecord
100
AcDbLayerTableRecord
  2
외형선
 70
     0
 62
   100
  6
Continuous
370
    35
390
F
  0
LAYER
  5
75
330
2
100
AcDbSymbolTableRecord
100
AcDbLayerTableRecord
  2
숨은선
 70
     0
 62
     2
  6
HIDDEN
370
    25
390
F
  0
LAYER
  5
76
330
2
100
AcDbSymbolTableRecord
100
AcDbLayerTableRecord
  2
중심선
 70
     0
 62
     1
  6
CENTERX2
370
    -3
390
F
  0
LAYER
  5
77
330
2
100
AcDbSymbolTableRecord
100
AcDbLayerTableRecord
  2
파단선
 70
     0
 62
     4
  6
Continuous
370
    -3
390
F
  0
LAYER
  5
78
330
2
100
AcDbSymbolTableRecord
100
AcDbLayerTableRecord
  2
해칭선
 70
     0
 62
     4
  6
Continuous
370
    -3
390
F
  0
LAYER
  5
79
330
2
100
AcDbSymbolTableRecord
100
AcDbLayerTableRecord
  2
가는실선
 70
     0
 62
     4
  6
Continuous
370
    -3
390
F
  0
LAYER
  5
7A
330
2
100
AcDbSymbolTableRecord
100
AcDbLayerTableRecord
  2
치수_보조선
 70
     0
 62
     4
  6
Continuous
370
    -3
390
F
  0
LAYER
  5
7B
330
2
100
AcDbSymbolTableRecord
100
AcDbLayerTableRecord
  2
치수문자_일반주서
 70
     0
 62
     7
  6
Continuous
370
    25
390
F
  0
LAYER
  5
7C
330
2
100
AcDbSymbolTableRecord
100
AcDbLayerTableRecord
  2
개별주서
 70
     0
 62
   100
  6
Continuous
370
    35
390
F
  0
LAYER
  5
7D
330
2
100
AcDbSymbolTableRecord
100
AcDbLayerTableRecord
  2
중간선
 70
     0
 62
     2
  6
Continuous
370
    25
390
F
  0
LAYER
  5
7E
330
2
100
AcDbSymbolTableRecord
100
AcDbLayerTableRecord
  2
윤곽선
 70
     0
 62
     3
  6
Continuous
370
    50
390
F
  0
LAYER
  5
7F
330
2
100
AcDbSymbolTableRecord
100
AcDbLayerTableRecord
  2
중심마크
 70
     0
 62
   100
  6
Continuous
370
    35
390
F
  0
LAYER
  5
80
330
2
100
AcDbSymbolTableRecord
100
AcDbLayerTableRecord
  2
가상선
 70
     0
 62
     4
  6
PHANTOM
370
    -3
390
F
  0
LAYER
  5
81
330
2
100
AcDbSymbolTableRecord
100
AcDbLayerTableRecord
  2
특수지정선
 70
     0
 62
     5
  6
CENTERX2
370
    70
390
F
  0
LAYER
  5
141
330
2
100
AcDbSymbolTableRecord
100
AcDbLayerTableRecord
  2
Defpoints
 70
     0
 62
     7
  6
Continuous
290
     0
370
    -3
390
F
  0
ENDTAB
  0
TABLE
  2
STYLE
  5
3
330
0
100
AcDbSymbolTable
 70
     2
  0
STYLE
  5
11
330
3
100
AcDbSymbolTableRecord
100
AcDbTextStyleTableRecord
  2
Standard
 70
     0
 40
0.0
 41
1.0
 50
0.0
 71
     0
 42
3.5
  3
txt
  4

  0
STYLE
  5
97
330
3
100
AcDbSymbolTableRecord
100
AcDbTextStyleTableRecord
  2
SLDTEXTSTYLE0
 70
     0
 40
0.0
 41
0.75
 50
0.0
 71
     0
 42
3.5
  3
TXT
  4

  0
ENDTAB
  0
TABLE
  2
VIEW
  5
6
330
0
100
AcDbSymbolTable
 70
     0
  0
ENDTAB
  0
TABLE
  2
UCS
  5
7
330
0
100
AcDbSymbolTable
 70
     0
  0
ENDTAB
  0
TABLE
  2
APPID
  5
9
330
0
100
AcDbSymbolTable
 70
     1
  0
APPID
  5
12
330
9
100
AcDbSymbolTableRecord
100
AcDbRegAppTableRecord
  2
ACAD
 70
     0
  0
ENDTAB
  0
TABLE
  2
DIMSTYLE
  5
A
330
0
100
AcDbSymbolTable
 70
     4
100
AcDbDimStyleTable
  0
DIMSTYLE
105
27
330
A
100
AcDbSymbolTableRecord
100
AcDbDimStyleTableRecord
  2
ISO-25
 70
     0
 41
2.5
 42
0.625
 43
3.75
 44
1.25
 73
     0
 74
     0
 77
     1
 78
     8
140
2.5
141
2.5
143
0.03937007874016
147
0.625
171
     3
172
     1
178
     0
271
     2
272
     2
274
     3
278
    44
283
     0
284
     8
340
11
  0
DIMSTYLE
105
C6
102
{ACAD_REACTORS
330
C5
102
}
330
A
100
AcDbSymbolTableRecord
100
AcDbDimStyleTableRecord
  2
SLDDIMSTYLE0
 70
     0
 41
3.302
 44
0.0
 45
0.000000001
 73
     0
 74
     0
 77
     1
 78
     4
 79
     1
140
3.5
143
0.0393700787401575
147
0.875
148
0.000000001
170
     1
173
     1
178
     0
271
     2
272
     2
276
     2
284
    12
340
97
  0
DIMSTYLE
105
DA
102
{ACAD_REACTORS
330
D9
102
}
330
A
100
AcDbSymbolTableRecord
100
AcDbDimStyleTableRecord
  2
SLDDIMSTYLE1
 70
     0
 41
3.302
 44
0.0
 45
0.000000001
 73
     0
 74
     0
 77
     1
 78
    12
 79
     3
140
3.5
143
0.0393700787401575
147
0.875
148
0.000000001
170
     1
172
     1
173
     1
178
     0
271
     2
272
     2
276
     2
284
    12
289
     0
340
97
  0
DIMSTYLE
105
EF
102
{ACAD_REACTORS
330
EE
330
103
102
}
330
A
100
AcDbSymbolTableRecord
100
AcDbDimStyleTableRecord
  2
SLDDIMSTYLE2
 70
     0
 41
3.302
 44
0.0
 45
0.000000001
 73
     0
 74
     0
 77
     1
 78
    12
 79
     3
140
3.5
143
0.0393700787401575
147
0.875
148
0.000000001
170
     1
173
     1
178
     0
271
     2
272
     2
276
     2
284
    12
340
97
  0
ENDTAB
  0
TABLE
  2
BLOCK_RECORD
  5
1
330
0
100
AcDbSymbolTable
 70
     7
  0
BLOCK_RECORD
  5
1F
330
1
100
AcDbSymbolTableRecord
100
AcDbBlockTableRecord
  2
*Model_Space
340
22
  0
BLOCK_RECORD
  5
1B
330
1
100
AcDbSymbolTableRecord
100
AcDbBlockTableRecord
  2
*Paper_Space
340
1E
  0
BLOCK_RECORD
  5
23
330
1
100
AcDbSymbolTableRecord
100
AcDbBlockTableRecord
  2
*Paper_Space0
340
26
  0
BLOCK_RECORD
  5
82
330
1
100
AcDbSymbolTableRecord
100
AcDbBlockTableRecord
  2
블럭10
340
0
102
{BLKREFS
331
BE
102
}
  0
BLOCK_RECORD
  5
C7
330
1
100
AcDbSymbolTableRecord
100
AcDbBlockTableRecord
  2
_D
340
0
  0
BLOCK_RECORD
  5
DB
330
1
100
AcDbSymbolTableRecord
100
AcDbBlockTableRecord
  2
_D_1
340
0
  0
BLOCK_RECORD
  5
F0
330
1
100
AcDbSymbolTableRecord
100
AcDbBlockTableRecord
  2
_D_2
340
0
  0
BLOCK_RECORD
  5
104
330
1
100
AcDbSymbolTableRecord
100
AcDbBlockTableRecord
  2
_D_3
340
0
  0
BLOCK_RECORD
  5
116
330
1
100
AcDbSymbolTableRecord
100
AcDbBlockTableRecord
  2
SW_DOWELSYMBOL_0
340
0
102
{BLKREFS
331
11C
102
}
  0
ENDTAB
  0
ENDSEC
  0
SECTION
  2
BLOCKS
  0
BLOCK
  5
20
330
1F
100
AcDbEntity
  8
0
100
AcDbBlockBegin
  2
*Model_Space
 70
     0
 10
0.0
 20
0.0
 30
0.0
  3
*Model_Space
  1
*Model_Space
  0
ENDBLK
  5
21
330
1F
100
AcDbEntity
  8
0
100
AcDbBlockEnd
  0
BLOCK
  5
1C
330
1B
100
AcDbEntity
 67
     1
  8
0
100
AcDbBlockBegin
  2
*Paper_Space
 70
     0
 10
0.0
 20
0.0
 30
0.0
  3
*Paper_Space
  1
*Paper_Space
  0
ENDBLK
  5
1D
330
1B
100
AcDbEntity
 67
     1
  8
0
100
AcDbBlockEnd
  0
BLOCK
  5
24
330
23
100
AcDbEntity
  8
0
100
AcDbBlockBegin
  2
*Paper_Space0
 70
     0
 10
0.0
 20
0.0
 30
0.0
  3
*Paper_Space0
  1
*Paper_Space0
  0
ENDBLK
  5
25
330
23
100
AcDbEntity
  8
0
100
AcDbBlockEnd
  0
BLOCK
  5
83
330
82
100
AcDbEntity
  8
0
100
AcDbBlockBegin
  2
블럭10
 70
     2
 10
0.0
 20
0.0
 30
0.0
  3
블럭10
  1
블럭10
  0
ELLIPSE
  5
85
330
82
100
AcDbEntity
  8
중심선
100
AcDbEllipse
 10
20.54032771741204
 20
12.0471743016438
 30
0.0
 11
6.600054785286829
 21
-1.261213355974178E-13
 31
0.0
210
0.0
220
0.0
230
1.0
 40
0.636358354079598
 41
0.9219305317359503
 42
6.513795318482858
  0
ELLIPSE
  5
86
330
82
100
AcDbEntity
  8
중심선
100
AcDbEllipse
 10
20.54032771746488
 20
12.04717430159265
 30
0.0
 11
3.960054785062283
 21
1.540847449632565E-10
 31
0.0
210
0.0
220
0.0
230
1.0
 40
0.3939339440162632
 41
1.131841032648279
 42
5.62031148352944
  0
LINE
  5
87
330
82
100
AcDbEntity
  8
중심선
100
AcDbLine
 10
2.268634060543552
 20
16.24717430164393
 30
0.0
 11
5.714909304380834
 21
16.24717430164393
 31
0.0
  0
LINE
  5
88
330
82
100
AcDbEntity
  8
중심선
100
AcDbLine
 10
5.245725140726316
 20
7.84717430164391
 30
0.0
 11
8.692000384563599
 21
7.84717430164391
 31
0.0
  0
LINE
  5
89
330
82
100
AcDbEntity
  8
중심선
100
AcDbLine
 10
15.74043728645272
 20
16.24717430164393
 30
0.0
 11
8.692000384563599
 21
7.84717430164391
 31
0.0
  0
LINE
  5
8A
330
82
100
AcDbEntity
  8
중심선
100
AcDbLine
 10
0.1404042013395286
 20
13.71084872107135
 30
0.0
 11
3.58671253028996
 21
13.71088815037384
 31
0.0
  0
LINE
  5
8B
330
82
100
AcDbEntity
  8
중심선
100
AcDbLine
 10
2.750260043222114
 20
10.84717430164391
 30
0.0
 11
6.196535287059397
 21
10.84717430164391
 31
0.0
  0
LINE
  5
8C
330
82
100
AcDbEntity
  8
중심선
100
AcDbLine
 10
12.29416204261559
 20
16.24717430164393
 30
0.0
 11
5.245725140726316
 21
7.84717430164391
 31
0.0
  0
LINE
  5
8D
330
82
100
AcDbEntity
  8
중심선
100
AcDbLine
 10
10.72767329541681
 20
16.24717430164393
 30
0.0
 11
6.196535287059397
 21
10.84717430164391
 31
0.0
  0
LINE
  5
8E
330
82
100
AcDbEntity
  8
중심선
100
AcDbLine
 10
7.28139805157953
 20
16.24717430164393
 30
0.0
 11
2.750260043222114
 21
10.84717430164391
 31
0.0
  0
LINE
  5
8F
330
82
100
AcDbEntity
  8
중심선
100
AcDbLine
 10
5.714909304380834
 20
16.24717430164393
 30
0.0
 11
3.58671253028996
 21
13.71088815037384
 31
0.0
  0
LINE
  5
90
330
82
100
AcDbEntity
  8
중심선
100
AcDbLine
 10
2.268634060543552
 20
16.24717430164393
 30
0.0
 11
0.1404042013395286
 21
13.71084872107135
 31
0.0
  0
LINE
  5
91
330
82
100
AcDbEntity
  8
중심선
100
AcDbLine
 10
7.28139805157953
 20
16.24717430164393
 30
0.0
 11
10.72767329541681
 21
16.24717430164393
 31
0.0
  0
LINE
  5
92
330
82
100
AcDbEntity
  8
중심선
100
AcDbLine
 10
12.29416204261559
 20
16.24717430164393
 30
0.0
 11
15.74043728645272
 21
16.24717430164393
 31
0.0
  0
LINE
  5
93
330
82
100
AcDbEntity
  8
중심선
100
AcDbLine
 10
19.22036997980202
 20
11.08717430171403
 30
0.0
 11
23.66174974927406
 21
11.08717430171406
 31
0.0
  0
LINE
  5
94
330
82
100
AcDbEntity
  8
중심선
100
AcDbLine
 10
19.22039502424796
 20
13.00717430171391
 30
0.0
 11
19.22036997980202
 21
11.08717430171403
 31
0.0
  0
LINE
  5
95
330
82
100
AcDbEntity
  8
중심선
100
AcDbLine
 10
19.22039502424796
 20
13.00717430171391
 30
0.0
 11
26.96566020931264
 21
13.00717430171391
 31
0.0
  0
LINE
  5
96
330
82
100
AcDbEntity
  8
중심선
100
AcDbLine
 10
22.22332737316547
 20
13.45928029700563
 30
0.0
 11
24.52862924686651
 21
15.39360700705356
 31
0.0
  0
ATTDEF
  5
98
330
82
100
AcDbEntity
  8
FORMAT
 62
     2
100
AcDbText
 10
-9.18129528874128
 20
2.075366912832191
 30
0.0
 40
4.233333333333333
  1
E5980020 [ 3 FLUTE ]
 41
0.75
  7
SLDTEXTSTYLE0
 11
-9.18129528874128
 21
-0.0412997538344756
 31
0.0
100
AcDbAttributeDefinition
  3

  2
AUTOATTR0
 70
     0
 74
     1
  0
ENDBLK
  5
84
330
82
100
AcDbEntity
  8
0
100
AcDbBlockEnd
  0
BLOCK
  5
C8
330
C7
100
AcDbEntity
  8
0
100
AcDbBlockBegin
  2
_D
 70
     0
 10
0.0
 20
0.0
 30
0.0
  3
_D
  1
_D
  0
LINE
  5
CA
330
C7
100
AcDbEntity
  8
치수문자_일반주서
 62
     0
370
    -2
100
AcDbLine
 10
-29.68750000000004
 20
3.531249999999998
 30
0.0
 11
-29.68750000000004
 21
60.61194857228003
 31
0.0
  0
LINE
  5
CB
330
C7
100
AcDbEntity
  8
치수문자_일반주서
 62
     0
370
    -2
100
AcDbLine
 10
21.11249999999996
 20
4.031250000000005
 30
0.0
 11
21.11249999999996
 21
60.61194857228003
 31
0.0
  0
LINE
  5
CC
330
C7
100
AcDbEntity
  8
치수문자_일반주서
 62
     0
370
    -2
100
AcDbLine
 10
-26.38550000000004
 20
60.61194857228003
 30
0.0
 11
17.81049999999996
 21
60.61194857228003
 31
0.0
  0
SOLID
  5
CD
330
C7
100
AcDbEntity
  8
치수문자_일반주서
 62
     0
100
AcDbTrace
 10
-26.38550000000004
 20
61.16228190561337
 30
0.0
 11
-26.38550000000004
 21
60.0616152389467
 31
0.0
 12
-29.68750000000004
 22
60.61194857228003
 32
0.0
 13
-29.68750000000004
 23
60.61194857228003
 33
0.0
  0
SOLID
  5
CE
330
C7
100
AcDbEntity
  8
치수문자_일반주서
 62
     0
100
AcDbTrace
 10
17.81049999999996
 20
60.0616152389467
 30
0.0
 11
17.81049999999996
 21
61.16228190561337
 31
0.0
 12
21.11249999999996
 22
60.61194857228003
 32
0.0
 13
21.11249999999996
 23
60.61194857228003
 33
0.0
  0
MTEXT
  5
CF
330
C7
100
AcDbEntity
  8
치수문자_일반주서
 62
     0
100
AcDbMText
 10
-4.287500000000041
 20
64.98694857228003
 30
0.0
 40
3.5
 41
0.0
 71
     2
 72
     1
  1
\A1;50.80 [2]
  7
SLDTEXTSTYLE0
 73
     1
 44
1.0
  0
POINT
  5
D0
330
C7
100
AcDbEntity
  8
Defpoints
 62
     0
100
AcDbPoint
 10
-29.68750000000004
 20
3.468749999999998
 30
0.0
  0
POINT
  5
D1
330
C7
100
AcDbEntity
  8
Defpoints
 62
     0
100
AcDbPoint
 10
21.11249999999996
 20
3.968750000000005
 30
0.0
  0
POINT
  5
D2
330
C7
100
AcDbEntity
  8
Defpoints
 62
     0
100
AcDbPoint
 10
21.11249999999996
 20
60.61194857228003
 30
0.0
  0
ENDBLK
  5
C9
330
C7
100
AcDbEntity
  8
0
100
AcDbBlockEnd
  0
BLOCK
  5
DC
330
DB
100
AcDbEntity
  8
0
100
AcDbBlockBegin
  2
_D_1
 70
     0
 10
0.0
 20
0.0
 30
0.0
  3
_D_1
  1
_D_1
  0
LINE
  5
DE
330
DB
100
AcDbEntity
  8
치수문자_일반주서
 62
     0
370
    -2
100
AcDbLine
 10
-29.25000000000004
 20
3.968749999999997
 30
0.0
 11
-41.68395802161211
 21
3.96874999999995
 31
0.0
  0
LINE
  5
DF
330
DB
100
AcDbEntity
  8
치수문자_일반주서
 62
     0
370
    -2
100
AcDbLine
 10
-29.25000000000004
 20
-3.968749999999998
 30
0.0
 11
-41.68395802161208
 21
-3.968750000000043
 31
0.0
  0
LINE
  5
E0
330
DB
100
AcDbEntity
  8
치수문자_일반주서
 62
     0
370
    -2
100
AcDbLine
 10
-41.68395802161211
 20
3.96874999999995
 30
0.0
 11
-41.68395802161223
 21
38.57274999999995
 31
0.0
  0
LINE
  5
E1
330
DB
100
AcDbEntity
  8
치수문자_일반주서
 62
     0
370
    -2
100
AcDbLine
 10
-41.68395802161211
 20
3.96874999999995
 30
0.0
 11
-41.68395802161208
 21
-3.968750000000043
 31
0.0
  0
LINE
  5
E2
330
DB
100
AcDbEntity
  8
치수문자_일반주서
 62
     0
370
    -2
100
AcDbLine
 10
-41.68395802161212
 20
7.27074999999995
 30
0.0
 11
-41.68395802161213
 21
10.57274999999995
 31
0.0
  0
LINE
  5
E3
330
DB
100
AcDbEntity
  8
치수문자_일반주서
 62
     0
370
    -2
100
AcDbLine
 10
-41.68395802161206
 20
-7.270750000000042
 30
0.0
 11
-41.68395802161205
 21
-10.57275000000004
 31
0.0
  0
SOLID
  5
E4
330
DB
100
AcDbEntity
  8
치수문자_일반주서
 62
     0
100
AcDbTrace
 10
-42.23429135494546
 20
7.270749999999948
 30
0.0
 11
-41.13362468827879
 21
7.270749999999952
 31
0.0
 12
-41.68395802161211
 22
3.96874999999995
 32
0.0
 13
-41.68395802161211
 23
3.96874999999995
 33
0.0
  0
SOLID
  5
E5
330
DB
100
AcDbEntity
  8
치수문자_일반주서
 62
     0
100
AcDbTrace
 10
-41.13362468827873
 20
-7.27075000000004
 30
0.0
 11
-42.2342913549454
 21
-7.270750000000044
 31
0.0
 12
-41.68395802161208
 22
-3.968750000000043
 32
0.0
 13
-41.68395802161208
 23
-3.968750000000043
 33
0.0
  0
MTEXT
  5
E6
330
DB
100
AcDbEntity
  8
치수문자_일반주서
 62
     0
100
AcDbMText
 10
-46.05895802161218
 20
24.57274999999993
 30
0.0
 40
3.5
 41
0.0
 71
     2
 72
     1
  1
\A1;%%c7.94 [5/16]
  7
SLDTEXTSTYLE0
 11
-3.580687802255625E-15
 21
1.0
 31
0.0
 73
     1
 44
1.0
  0
POINT
  5
145
330
DB
100
AcDbEntity
  8
Defpoints
 62
     0
100
AcDbPoint
 10
-29.18750000000004
 20
3.968749999999998
 30
0.0
  0
POINT
  5
146
330
DB
100
AcDbEntity
  8
Defpoints
 62
     0
100
AcDbPoint
 10
-29.18750000000004
 20
-3.968749999999997
 30
0.0
  0
POINT
  5
147
330
DB
100
AcDbEntity
  8
Defpoints
 62
     0
100
AcDbPoint
 10
-41.68395802161208
 20
-3.968750000000044
 30
0.0
  0
ENDBLK
  5
DD
330
DB
100
AcDbEntity
  8
0
100
AcDbBlockEnd
  0
BLOCK
  5
F1
330
F0
100
AcDbEntity
  8
0
100
AcDbBlockBegin
  2
_D_2
 70
     0
 10
0.0
 20
0.0
 30
0.0
  3
_D_2
  1
_D_2
  0
LINE
  5
F3
330
F0
100
AcDbEntity
  8
치수문자_일반주서
 62
     0
370
    -2
100
AcDbLine
 10
9.999999999999956
 20
4.031250000000004
 30
0.0
 11
9.999999999999956
 21
20.3096637462629
 31
0.0
  0
LINE
  5
F4
330
F0
100
AcDbEntity
  8
치수문자_일반주서
 62
     0
370
    -2
100
AcDbLine
 10
21.11249999999996
 20
4.031250000000005
 30
0.0
 11
21.11249999999996
 21
20.3096637462629
 31
0.0
  0
LINE
  5
F5
330
F0
100
AcDbEntity
  8
치수문자_일반주서
 62
     0
370
    -2
100
AcDbLine
 10
9.999999999999956
 20
20.3096637462629
 30
0.0
 11
-17.80200000000004
 21
20.3096637462629
 31
0.0
  0
LINE
  5
F6
330
F0
100
AcDbEntity
  8
치수문자_일반주서
 62
     0
370
    -2
100
AcDbLine
 10
13.30199999999996
 20
20.3096637462629
 30
0.0
 11
17.81049999999996
 21
20.3096637462629
 31
0.0
  0
SOLID
  5
F7
330
F0
100
AcDbEntity
  8
치수문자_일반주서
 62
     0
100
AcDbTrace
 10
13.30199999999996
 20
20.85999707959623
 30
0.0
 11
13.30199999999996
 21
19.75933041292956
 31
0.0
 12
9.999999999999956
 22
20.3096637462629
 32
0.0
 13
9.999999999999956
 23
20.3096637462629
 33
0.0
  0
SOLID
  5
F8
330
F0
100
AcDbEntity
  8
치수문자_일반주서
 62
     0
100
AcDbTrace
 10
17.81049999999996
 20
19.75933041292956
 30
0.0
 11
17.81049999999996
 21
20.85999707959623
 31
0.0
 12
21.11249999999996
 22
20.3096637462629
 32
0.0
 13
21.11249999999996
 23
20.3096637462629
 33
0.0
  0
MTEXT
  5
F9
330
F0
100
AcDbEntity
  8
치수문자_일반주서
 62
     0
100
AcDbMText
 10
-5.552000000000044
 20
24.6846637462629
 30
0.0
 40
3.5
 41
0.0
 71
     2
 72
     1
  1
\A1;11.11 [7/16]
  7
SLDTEXTSTYLE0
 73
     1
 44
1.0
  0
POINT
  5
FA
330
F0
100
AcDbEntity
  8
Defpoints
 62
     0
100
AcDbPoint
 10
9.999999999999956
 20
3.968750000000003
 30
0.0
  0
POINT
  5
FB
330
F0
100
AcDbEntity
  8
Defpoints
 62
     0
100
AcDbPoint
 10
21.11249999999996
 20
3.968750000000005
 30
0.0
  0
POINT
  5
FC
330
F0
100
AcDbEntity
  8
Defpoints
 62
     0
100
AcDbPoint
 10
21.11249999999996
 20
20.3096637462629
 30
0.0
  0
ENDBLK
  5
F2
330
F0
100
AcDbEntity
  8
0
100
AcDbBlockEnd
  0
BLOCK
  5
105
330
104
100
AcDbEntity
  8
0
100
AcDbBlockBegin
  2
_D_3
 70
     0
 10
0.0
 20
0.0
 30
0.0
  3
_D_3
  1
_D_3
  0
LINE
  5
107
330
104
100
AcDbEntity
  8
치수문자_일반주서
 62
     0
370
    -2
100
AcDbLine
 10
21.17499999999996
 20
3.968750000000005
 30
0.0
 11
33.89372553996957
 21
3.968750000000053
 31
0.0
  0
LINE
  5
108
330
104
100
AcDbEntity
  8
치수문자_일반주서
 62
     0
370
    -2
100
AcDbLine
 10
21.17499999999996
 20
-3.968749999999985
 30
0.0
 11
33.8937255399696
 21
-3.96874999999994
 31
0.0
  0
LINE
  5
109
330
104
100
AcDbEntity
  8
치수문자_일반주서
 62
     0
370
    -2
100
AcDbLine
 10
33.89372553996957
 20
3.968750000000053
 30
0.0
 11
33.89372553996943
 21
43.77496414154737
 31
0.0
  0
LINE
  5
10A
330
104
100
AcDbEntity
  8
치수문자_일반주서
 62
     0
370
    -2
100
AcDbLine
 10
33.89372553996956
 20
7.270750000000053
 30
0.0
 11
33.89372553996954
 21
10.57275000000005
 31
0.0
  0
LINE
  5
10B
330
104
100
AcDbEntity
  8
치수문자_일반주서
 62
     0
370
    -2
100
AcDbLine
 10
33.89372553996962
 20
-7.270749999999939
 30
0.0
 11
33.89372553996963
 21
-10.57274999999994
 31
0.0
  0
SOLID
  5
10C
330
104
100
AcDbEntity
  8
치수문자_일반주서
 62
     0
100
AcDbTrace
 10
33.34339220663622
 20
7.270750000000051
 30
0.0
 11
34.44405887330289
 21
7.270750000000055
 31
0.0
 12
33.89372553996957
 22
3.968750000000053
 32
0.0
 13
33.89372553996957
 23
3.968750000000053
 33
0.0
  0
SOLID
  5
10D
330
104
100
AcDbEntity
  8
치수문자_일반주서
 62
     0
100
AcDbTrace
 10
34.44405887330295
 20
-7.270749999999937
 30
0.0
 11
33.34339220663628
 21
-7.270749999999941
 31
0.0
 12
33.8937255399696
 22
-3.96874999999994
 32
0.0
 13
33.8937255399696
 23
-3.96874999999994
 33
0.0
  0
MTEXT
  5
10E
330
104
100
AcDbEntity
  8
치수문자_일반주서
 62
     0
100
AcDbMText
 10
29.51872553996948
 20
29.77496414154735
 30
0.0
 40
3.5
 41
0.0
 71
     2
 72
     1
  1
\A1;%%c7.94 [5/16]
  7
SLDTEXTSTYLE0
 11
-3.580687802255627E-15
 21
1.0
 31
0.0
 73
     1
 44
1.0
  0
POINT
  5
10F
330
104
100
AcDbEntity
  8
Defpoints
 62
     0
100
AcDbPoint
 10
21.11249999999996
 20
3.968750000000005
 30
0.0
  0
POINT
  5
110
330
104
100
AcDbEntity
  8
Defpoints
 62
     0
100
AcDbPoint
 10
21.11249999999996
 20
-3.968749999999986
 30
0.0
  0
POINT
  5
111
330
104
100
AcDbEntity
  8
Defpoints
 62
     0
100
AcDbPoint
 10
33.8937255399696
 20
-3.968749999999938
 30
0.0
  0
ENDBLK
  5
106
330
104
100
AcDbEntity
  8
0
100
AcDbBlockEnd
  0
BLOCK
  5
117
330
116
100
AcDbEntity
  8
0
100
AcDbBlockBegin
  2
SW_DOWELSYMBOL_0
 70
     0
 10
0.0
 20
0.0
 30
0.0
  3
SW_DOWELSYMBOL_0
  1
SW_DOWELSYMBOL_0
  0
CIRCLE
  5
119
330
116
100
AcDbEntity
  8
외형선
 62
     0
100
AcDbCircle
 10
0.0
 20
0.0
 30
0.0
 40
3.000000000000004
  0
HATCH
  5
11A
330
116
100
AcDbEntity
  8
0
  6
Continuous
 62
     0
370
    35
100
AcDbHatch
 10
0.0
 20
0.0
 30
0.0
210
0.0
220
0.0
230
1.0
  2
SOLID
 70
     1
 71
     0
 91
        1
 92
        0
 93
        3
 72
     2
 10
0.0000000000000087
 20
0.0
 40
3.000000000000004
 50
0.0
 51
90.0
 73
     1
 72
     1
 10
0.0000000000000087
 20
3.000000000000004
 11
0.0000000000000087
 21
0.0
 72
     1
 10
0.0000000000000087
 20
0.0
 11
3.000000000000013
 21
0.0
 97
        0
 75
     0
 76
     1
 98
        1
 10
0.0
 20
0.0
  0
HATCH
  5
11B
330
116
100
AcDbEntity
  8
0
  6
Continuous
 62
     0
370
    35
100
AcDbHatch
 10
0.0
 20
0.0
 30
0.0
210
0.0
220
0.0
230
1.0
  2
SOLID
 70
     1
 71
     0
 91
        1
 92
        0
 93
        3
 72
     2
 10
0.0000000000000087
 20
0.0
 40
3.000000000000004
 50
180.0
 51
270.0000000000008
 73
     1
 72
     1
 10
0.0000000000000087
 20
-3.000000000000004
 11
0.0000000000000087
 21
0.0
 72
     1
 10
0.0000000000000087
 20
0.0
 11
-2.999999999999996
 21
0.0
 97
        0
 75
     0
 76
     1
 98
        1
 10
0.0
 20
0.0
  0
ENDBLK
  5
118
330
116
100
AcDbEntity
  8
0
100
AcDbBlockEnd
  0
ENDSEC
  0
SECTION
  2
ENTITIES
  0
LINE
  5
99
330
1F
100
AcDbEntity
  8
0
  6
Continuous
 62
     4
370
    25
100
AcDbLine
 10
9.999999999999956
 20
3.968750000000003
 30
0.0
 11
-29.18750000000004
 21
3.96875
 31
0.0
  0
LINE
  5
9A
330
1F
100
AcDbEntity
  8
0
  6
Continuous
 62
     4
370
    25
100
AcDbLine
 10
-29.18750000000004
 20
-3.968749999999999
 30
0.0
 11
8.479889759201043
 21
-3.968749999999997
 31
0.0
  0
LINE
  5
9B
330
1F
100
AcDbEntity
  8
0
  6
Continuous
 62
     4
370
    25
100
AcDbLine
 10
-29.18750000000004
 20
3.968749999999998
 30
0.0
 11
-29.68750000000004
 21
3.468749999999997
 31
0.0
  0
LINE
  5
9C
330
1F
100
AcDbEntity
  8
0
  6
Continuous
 62
     4
370
    25
100
AcDbLine
 10
-29.68750000000004
 20
-3.468749999999996
 30
0.0
 11
-29.18750000000004
 21
-3.968749999999997
 31
0.0
  0
LINE
  5
9D
330
1F
100
AcDbEntity
  8
0
  6
Continuous
 62
     1
370
    25
100
AcDbLine
 10
10.74519431606912
 20
3.968750000000004
 30
0.0
 11
9.999999999999957
 21
3.968750000000004
 31
0.0
  0
LINE
  5
9E
330
1F
100
AcDbEntity
  8
0
  6
Continuous
 62
     1
370
    25
100
AcDbLine
 10
13.4838967240944
 20
-3.968749999999997
 30
0.0
 11
17.94433984919249
 21
-3.968749999999997
 31
0.0
  0
LINE
  5
9F
330
1F
100
AcDbEntity
  8
0
  6
Continuous
 62
     4
370
    25
100
AcDbLine
 10
21.11249999999996
 20
3.968750000000004
 30
0.0
 11
20.68169938152818
 21
3.968750000000004
 31
0.0
  0
LINE
  5
A0
330
1F
100
AcDbEntity
  8
0
  6
Continuous
 62
     4
370
    25
100
AcDbLine
 10
9.999999999999956
 20
3.968750000000003
 30
0.0
 11
9.999999999999954
 21
3.40286015219187
 31
0.0
  0
SPLINE
  5
A1
330
1F
100
AcDbEntity
  8
0
  6
Continuous
 62
     4
370
    25
100
AcDbSpline
210
0.0
220
0.0
230
1.0
 70
     8
 71
     3
 72
    10
 73
     6
 74
     0
 42
0.000000001
 43
0.00000001
 40
0.0
 40
0.0
 40
0.0
 40
0.0
 40
0.5
 40
0.5
 40
1.0
 40
1.0
 40
1.0
 40
1.0
 10
10.0
 20
3.402860152191856
 30
0.0
 10
9.746056049418716
 20
3.478207294137782
 30
0.0
 10
9.494762991385816
 20
3.546364397033687
 30
0.0
 10
8.988861394584648
 20
3.668294646071502
 30
0.0
 10
8.734110571438178
 20
3.722036657407167
 30
0.0
 10
8.479889759201043
 20
3.768025982995643
 30
0.0
  0
SPLINE
  5
A2
330
1F
100
AcDbEntity
  8
0
  6
Continuous
 62
     4
370
    25
100
AcDbSpline
210
0.0
220
0.0
230
1.0
 70
     8
 71
     3
 72
    10
 73
     6
 74
     0
 42
0.000000001
 43
0.00000001
 40
0.0
 40
0.0
 40
0.0
 40
0.0
 40
0.5000000000000001
 40
0.5000000000000001
 40
1.0
 40
1.0
 40
1.0
 40
1.0
 10
10.0
 20
-1.60105294219211
 30
0.0
 10
9.746056049418717
 20
-1.467084460723304
 30
0.0
 10
9.494762991385818
 20
-1.330323423629479
 30
0.0
 10
8.988861394584648
 20
-1.05135858591596
 30
0.0
 10
8.734110571438178
 20
-0.9091140153618917
 30
0.0
 10
8.479889759201043
 20
-0.7653995201137821
 30
0.0
  0
LINE
  5
A3
330
1F
100
AcDbEntity
  8
0
  6
Continuous
 62
     4
370
    25
100
AcDbLine
 10
9.999999999999956
 20
-1.601052942192084
 30
0.0
 11
9.999999999999956
 21
-3.470226138490801
 31
0.0
  0
SPLINE
  5
A4
330
1F
100
AcDbEntity
  8
0
  6
Continuous
 62
     4
370
    25
100
AcDbSpline
210
0.0
220
0.0
230
1.0
 70
     8
 71
     3
 72
    10
 73
     6
 74
     0
 42
0.000000001
 43
0.00000001
 40
0.0
 40
0.0
 40
0.0
 40
0.0
 40
0.5000000000000001
 40
0.5000000000000001
 40
1.0
 40
1.0
 40
1.0
 40
1.0
 10
10.0
 20
-3.470226138490813
 30
0.0
 10
9.746056049418716
 20
-3.399183479102183
 30
0.0
 10
9.494762991385818
 20
-3.321323760225003
 30
0.0
 10
8.988861394584648
 20
-3.152092092250923
 30
0.0
 10
8.734110571438178
 20
-3.060665591748778
 30
0.0
 10
8.479889759201043
 20
-2.96323380554717
 30
0.0
  0
LINE
  5
A5
330
1F
100
AcDbEntity
  8
0
  6
Continuous
 62
     4
370
    25
100
AcDbLine
 10
8.479889759201043
 20
-2.963215910585296
 30
0.0
 11
8.479889759201043
 21
-3.968749999999997
 31
0.0
  0
LINE
  5
A6
330
1F
100
AcDbEntity
  8
0
  6
Continuous
 62
     4
370
    25
100
AcDbLine
 10
8.515070631628884
 20
-2.975758517324846
 30
0.0
 11
8.479889759201045
 21
-2.989814895631366
 31
0.0
  0
LINE
  5
A7
330
1F
100
AcDbEntity
  8
0
  6
Continuous
 62
     4
370
    25
100
AcDbLine
 10
-29.18750000000004
 20
3.968749999999998
 30
0.0
 11
-29.18750000000004
 21
-3.968749999999997
 31
0.0
  0
LINE
  5
A8
330
1F
100
AcDbEntity
  8
0
  6
Continuous
 62
     4
370
    25
100
AcDbLine
 10
8.479889759201043
 20
3.768034429578591
 30
0.0
 11
8.479889759201043
 21
-0.7654043672384144
 31
0.0
  0
LINE
  5
A9
330
1F
100
AcDbEntity
  8
0
  6
Continuous
 62
     4
370
    25
100
AcDbLine
 10
-29.68750000000004
 20
3.468749999999998
 30
0.0
 11
-29.68750000000004
 21
-3.468749999999996
 31
0.0
  0
SPLINE
  5
AA
330
1F
100
AcDbEntity
  8
0
  6
Continuous
 62
     4
370
    25
100
AcDbSpline
210
0.0
220
0.0
230
1.0
 70
    24
 71
     3
 72
    16
 73
    12
 74
     0
 42
0.000000001
 43
0.00000001
 40
0.0
 40
0.0
 40
0.0
 40
0.0
 40
0.2500000000000001
 40
0.2500000000000001
 40
0.5
 40
0.5
 40
0.75
 40
0.75
 40
0.875
 40
0.875
 40
1.0
 40
1.0
 40
1.0
 40
1.0
 10
9.999999999999956
 20
3.402860152191871
 30
0.0
 10
9.999999999999956
 20
3.110910099914578
 30
0.0
 10
9.999999999999956
 20
2.769162073496229
 30
0.0
 10
9.999999999999956
 20
1.980694578183102
 30
0.0
 10
9.999999999999954
 20
1.532458751508852
 30
0.0
 10
9.999999999999956
 20
0.5777047102513218
 30
0.0
 10
9.999999999999956
 20
0.0712400891945402
 30
0.0
 10
9.999999999999956
 20
-0.6316988979897258
 30
0.0
 10
9.999999999999956
 20
-0.8558390507544338
 30
0.0
 10
9.999999999999956
 20
-1.263419136673869
 30
0.0
 10
9.999999999999956
 20
-1.446681444725576
 30
0.0
 10
9.999999999999956
 20
-1.601052942191026
 30
0.0
  0
SPLINE
  5
AB
330
1F
100
AcDbEntity
  8
0
  6
Continuous
 62
     1
370
    25
100
AcDbSpline
210
0.0
220
0.0
230
1.0
 70
     8
 71
     3
 72
    30
 73
    26
 74
     0
 42
0.000000001
 43
0.00000001
 40
0.0
 40
0.0
 40
0.0
 40
0.0
 40
0.1250000000000001
 40
0.1250000000000001
 40
0.1875000000000001
 40
0.1875000000000001
 40
0.2500000000000002
 40
0.2500000000000002
 40
0.3125000000000002
 40
0.3125000000000002
 40
0.3750000000000002
 40
0.3750000000000002
 40
0.5000000000000001
 40
0.5000000000000001
 40
0.5625000000000001
 40
0.5625000000000001
 40
0.6250000000000001
 40
0.6250000000000001
 40
0.75
 40
0.75
 40
0.875
 40
0.875
 40
0.9375
 40
0.9375
 40
1.0
 40
1.0
 40
1.0
 40
1.0
 10
21.11249999999996
 20
-3.554559648128992
 30
0.0
 10
20.65289579635423
 20
-3.673162430414776
 30
0.0
 10
20.18481788559481
 20
-3.768170442452178
 30
0.0
 10
19.4912548522529
 20
-3.870747941296877
 30
0.0
 10
19.2619440077595
 20
-3.898348784043816
 30
0.0
 10
18.79850138743156
 20
-3.940396574262126
 30
0.0
 10
18.56573332664998
 20
-3.954763321983576
 30
0.0
 10
18.10166414546445
 20
-3.969944646674589
 30
0.0
 10
17.87159855232899
 20
-3.970773600485621
 30
0.0
 10
17.41033584252399
 20
-3.958987356919813
 30
0.0
 10
17.17796700086282
 20
-3.94633429731047
 30
0.0
 10
16.48095835291655
 20
-3.888237151527679
 30
0.0
 10
16.02177592427244
 20
-3.8229167297854
 30
0.0
 10
15.32550536149859
 20
-3.68635225666677
 30
0.0
 10
15.09275272817334
 20
-3.634412260161619
 30
0.0
 10
14.62948222963371
 20
-3.51851412287879
 30
0.0
 10
14.40024808046961
 20
-3.454699729692527
 30
0.0
 10
13.70635277282478
 20
-3.245429714085305
 30
0.0
 10
13.23898878514378
 20
-3.082216511971353
 30
0.0
 10
12.3191201595708
 20
-2.718069734485277
 30
0.0
 10
11.85099098465726
 20
-2.515080103401616
 30
0.0
 10
11.15777691224727
 20
-2.188321656187262
 30
0.0
 10
10.92835469259503
 20
-2.075769106486398
 30
0.0
 10
10.46475116108761
 20
-1.843215211118414
 30
0.0
 10
10.23197336293335
 20
-1.723430809836752
 30
0.0
 10
9.999999999999847
 20
-1.601052942192029
 30
0.0
  0
SPLINE
  5
AC
330
1F
100
AcDbEntity
  8
0
  6
Continuous
 62
     4
370
    25
100
AcDbSpline
210
0.0
220
0.0
230
1.0
 70
    24
 71
     3
 72
    16
 73
    12
 74
     0
 42
0.000000001
 43
0.00000001
 40
0.0
 40
0.0
 40
0.0
 40
0.0
 40
0.2500000000000001
 40
0.2500000000000001
 40
0.5000000000000001
 40
0.5000000000000001
 40
0.7500000000000002
 40
0.7500000000000002
 40
0.8750000000000001
 40
0.8750000000000001
 40
1.0
 40
1.0
 40
1.0
 40
1.0
 10
9.999999999999957
 20
3.402860152219494
 30
0.0
 10
9.999999999999957
 20
3.110910099942965
 30
0.0
 10
9.999999999999957
 20
2.769162073524903
 30
0.0
 10
9.999999999999957
 20
1.98069457821038
 30
0.0
 10
9.999999999999957
 20
1.53245875153439
 30
0.0
 10
9.999999999999957
 20
0.5777047102709543
 30
0.0
 10
9.999999999999957
 20
0.0712400892099601
 30
0.0
 10
9.999999999999957
 20
-0.6316988979808095
 30
0.0
 10
9.999999999999957
 20
-0.8558390507476901
 30
0.0
 10
9.999999999999957
 20
-1.263419136670978
 30
0.0
 10
9.999999999999957
 20
-1.446681444724359
 30
0.0
 10
9.999999999999957
 20
-1.601052942191027
 30
0.0
  0
SPLINE
  5
AD
330
1F
100
AcDbEntity
  8
0
  6
Continuous
 62
     1
370
    25
100
AcDbSpline
210
0.0
220
0.0
230
1.0
 70
     8
 71
     3
 72
    30
 73
    26
 74
     0
 42
0.000000001
 43
0.00000001
 40
0.0
 40
0.0
 40
0.0
 40
0.0
 40
0.1250000000000003
 40
0.1250000000000003
 40
0.1875000000000003
 40
0.1875000000000003
 40
0.2500000000000003
 40
0.2500000000000003
 40
0.3125000000000003
 40
0.3125000000000003
 40
0.3750000000000002
 40
0.3750000000000002
 40
0.5000000000000002
 40
0.5000000000000002
 40
0.5625000000000001
 40
0.5625000000000001
 40
0.6250000000000001
 40
0.6250000000000001
 40
0.7499999999999999
 40
0.7499999999999999
 40
0.8749999999999999
 40
0.8749999999999999
 40
0.9375
 40
0.9375
 40
1.0
 40
1.0
 40
1.0
 40
1.0
 10
21.11249999999996
 20
-2.195717536498117
 30
0.0
 10
20.65289579635417
 20
-1.973592993055461
 30
0.0
 10
20.18481788559468
 20
-1.735099143456436
 30
0.0
 10
19.49125485225269
 20
-1.363531286243061
 30
0.0
 10
19.26194400775924
 20
-1.237489921176075
 30
0.0
 10
18.79850138743124
 20
-0.9807530466824985
 30
0.0
 10
18.56573332664964
 20
-0.8502990914258652
 30
0.0
 10
18.10166414546405
 20
-0.5872115398204742
 30
0.0
 10
17.87159855232855
 20
-0.4548181816089117
 30
0.0
 10
17.41033584252349
 20
-0.1887257972367439
 30
0.0
 10
17.17796700086228
 20
-0.0547986624348131
 30
0.0
 10
16.48095835291591
 20
0.3465622634524769
 30
0.0
 10
16.02177592427175
 20
0.6125413351906944
 30
0.0
 10
15.3255053614978
 20
1.003999316815196
 30
0.0
 10
15.09275272817252
 20
1.133116423241439
 30
0.0
 10
14.62948222963283
 20
1.386644963792058
 30
0.0
 10
14.4002480804687
 20
1.510834583687979
 30
0.0
 10
13.70635277282376
 20
1.876189775222517
 30
0.0
 10
13.23898878514272
 20
2.109371779881607
 30
0.0
 10
12.31912015956959
 20
2.541634343674765
 30
0.0
 10
11.85099098465599
 20
2.743118324433136
 30
0.0
 10
11.15777691224592
 20
3.014088482661458
 30
0.0
 10
10.92835469259364
 20
3.099245085663049
 30
0.0
 10
10.46475116108615
 20
3.259312915995411
 30
0.0
 10
10.23197336293186
 20
3.334031854197416
 30
0.0
 10
9.999999999998325
 20
3.402860152192353
 30
0.0
  0
SPLINE
  5
AE
330
1F
100
AcDbEntity
  8
0
  6
Continuous
 62
     1
370
    25
100
AcDbSpline
210
0.0
220
0.0
230
1.0
 70
     8
 71
     3
 72
    10
 73
     6
 74
     0
 42
0.000000001
 43
0.00000001
 40
0.0
 40
0.0
 40
0.0
 40
0.0
 40
0.2383547209196817
 40
0.6172605458987533
 40
1.0
 40
1.0
 40
1.0
 40
1.0
 10
20.33687314759238
 20
-1.80291437429893
 30
0.0
 10
20.29837790409223
 20
-1.814458798043356
 30
0.0
 10
20.19868785001769
 20
-1.844355068925159
 30
0.0
 10
20.02876357816147
 20
-1.908802017544101
 30
0.0
 10
19.89506507071316
 20
-1.969840564415709
 30
0.0
 10
19.82787934113481
 20
-2.00051345211086
 30
0.0
  0
SPLINE
  5
AF
330
1F
100
AcDbEntity
  8
0
  6
Continuous
 62
     1
370
    25
100
AcDbSpline
210
0.0
220
0.0
230
1.0
 70
     8
 71
     3
 72
     8
 73
     4
 74
     0
 42
0.000000001
 43
0.00000001
 40
0.0
 40
0.0
 40
0.0
 40
0.0
 40
1.0
 40
1.0
 40
1.0
 40
1.0
 10
21.11249999999996
 20
-2.320163692655719
 30
0.0
 10
20.6731606507676
 20
-2.253003331515619
 30
0.0
 10
20.24536859422752
 20
-2.144985469467852
 30
0.0
 10
19.82787934113426
 20
-2.000513452113112
 30
0.0
  0
LINE
  5
B0
330
1F
100
AcDbEntity
  8
0
  6
Continuous
 62
     1
370
    25
100
AcDbLine
 10
21.11249999999996
 20
-3.554559648128993
 30
0.0
 11
21.11249999999996
 21
-2.320163692655719
 31
0.0
  0
SPLINE
  5
B1
330
1F
100
AcDbEntity
  8
0
  6
Continuous
 62
     1
370
    25
100
AcDbSpline
210
0.0
220
0.0
230
1.0
 70
     8
 71
     3
 72
    16
 73
    12
 74
     0
 42
0.000000001
 43
0.00000001
 40
0.0
 40
0.0
 40
0.0
 40
0.0
 40
0.1201320162037638
 40
0.2400803520810347
 40
0.360029940478417
 40
0.4801656261121826
 40
0.6002939393321576
 40
0.7180923730880423
 40
0.8359059463537382
 40
0.9539377226483556
 40
1.0
 40
1.0
 40
1.0
 40
1.0
 10
21.11249999999996
 20
0.2485346841557081
 30
0.0
 10
20.69725916156017
 20
0.4867984165696553
 30
0.0
 10
19.86741238264691
 20
0.9629615791778402
 30
0.0
 10
18.62352649814061
 20
1.644353089273689
 30
0.0
 10
17.37962679008228
 20
2.272485160048838
 30
0.0
 10
16.13452276155586
 20
2.825806538947313
 30
0.0
 10
14.896870862309
 20
3.283594615827732
 30
0.0
 10
13.66783999929735
 20
3.63592953409922
 30
0.0
 10
12.44607513071796
 20
3.863492867314783
 30
0.0
 10
11.47145331108317
 20
3.971080392427512
 30
0.0
 10
10.90437649772701
 20
3.957606459556605
 30
0.0
 10
10.74519431606912
 20
3.953824238207774
 30
0.0
  0
LINE
  5
B2
330
1F
100
AcDbEntity
  8
0
  6
Continuous
 62
     1
370
    25
100
AcDbLine
 10
21.11249999999996
 20
-2.195717536498117
 30
0.0
 11
21.11249999999996
 21
0.2485346841557064
 31
0.0
  0
SPLINE
  5
B3
330
1F
100
AcDbEntity
  8
0
  6
Continuous
 62
     1
370
    25
100
AcDbSpline
210
0.0
220
0.0
230
1.0
 70
     8
 71
     3
 72
    12
 73
     8
 74
     0
 42
0.000000001
 43
0.00000001
 40
0.0
 40
0.0
 40
0.0
 40
0.0
 40
0.0942576490951885
 40
0.3209402989956002
 40
0.5471999339468712
 40
0.7734147631590385
 40
1.0
 40
1.0
 40
1.0
 40
1.0
 10
15.71398240553272
 20
2.965224414391235
 30
0.0
 10
15.88359989006771
 20
3.032831603752031
 30
0.0
 10
16.46113483523239
 20
3.263029065453984
 30
0.0
 10
17.44625115075207
 20
3.552314446228566
 30
0.0
 10
18.66805912961101
 20
3.819212974846011
 30
0.0
 10
19.88968601994813
 20
3.968689706792803
 30
0.0
 10
20.70467310986531
 20
3.963538222031227
 30
0.0
 10
21.11249999999996
 20
3.960960372595474
 30
0.0
  0
SPLINE
  5
B4
330
1F
100
AcDbEntity
  8
0
  6
Continuous
 62
     1
370
    25
100
AcDbSpline
210
0.0
220
0.0
230
1.0
 70
     8
 71
     3
 72
    12
 73
     8
 74
     0
 42
0.000000001
 43
0.00000001
 40
0.0
 40
0.0
 40
0.0
 40
0.0
 40
0.2500000000000006
 40
0.2500000000000006
 40
0.5000000000000011
 40
0.5000000000000011
 40
1.0
 40
1.0
 40
1.0
 40
1.0
 10
21.11249999999996
 20
2.569781359493129
 30
0.0
 10
21.04712037951829
 20
2.420430342924761
 30
0.0
 10
20.97004065017408
 20
2.282062434500547
 30
0.0
 10
20.79122312066947
 20
2.0284736038539
 30
0.0
 10
20.68816349206266
 20
1.912507757658883
 30
0.0
 10
20.35590741569904
 20
1.616858090044622
 30
0.0
 10
20.09639874581354
 20
1.48254811663138
 30
0.0
 10
19.8278793411346
 20
1.411933854736409
 30
0.0
  0
SPLINE
  5
B5
330
1F
100
AcDbEntity
  8
0
  6
Continuous
 62
     1
370
    25
100
AcDbSpline
210
0.0
220
0.0
230
1.0
 70
     8
 71
     3
 72
     8
 73
     4
 74
     0
 42
0.000000001
 43
0.00000001
 40
0.0
 40
0.0
 40
0.0
 40
0.0
 40
1.0
 40
1.0
 40
1.0
 40
1.0
 10
21.11249999999996
 20
0.7655735109555297
 30
0.0
 10
20.67316065076758
 20
1.004513846046092
 30
0.0
 10
20.24536859422749
 20
1.219092100446595
 30
0.0
 10
19.8278793411342
 20
1.411933854734586
 30
0.0
  0
LINE
  5
B6
330
1F
100
AcDbEntity
  8
0
  6
Continuous
 62
     1
370
    25
100
AcDbLine
 10
21.11249999999996
 20
0.2485346841557064
 30
0.0
 11
21.11249999999996
 21
0.7655735109555293
 31
0.0
  0
LINE
  5
B7
330
1F
100
AcDbEntity
  8
0
  6
Continuous
 62
     1
370
    25
100
AcDbLine
 10
21.11249999999996
 20
2.569781359493128
 30
0.0
 11
21.11249999999996
 21
3.960960372595473
 31
0.0
  0
SPLINE
  5
B8
330
1F
100
AcDbEntity
  8
0
  6
Continuous
 62
     1
370
    25
100
AcDbSpline
210
0.0
220
0.0
230
1.0
 70
     8
 71
     3
 72
    10
 73
     6
 74
     0
 42
0.000000001
 43
0.00000001
 40
0.0
 40
0.0
 40
0.0
 40
0.0
 40
0.357328433050461
 40
0.7149877968710076
 40
1.0
 40
1.0
 40
1.0
 40
1.0
 10
9.99999999999837
 20
-3.470226138490357
 30
0.0
 10
10.41492526629488
 20
-3.574728703870681
 30
0.0
 10
11.24516007152116
 20
-3.783830617062388
 30
0.0
 10
12.40687234094501
 20
-3.944912027186193
 30
0.0
 10
13.15300261754011
 20
-3.95418335763627
 30
0.0
 10
13.4838967240944
 20
-3.958295010389255
 30
0.0
  0
LINE
  5
B9
330
1F
100
AcDbEntity
  8
0
  6
Continuous
 62
     1
370
    25
100
AcDbLine
 10
21.11249999999996
 20
0.7655735109555294
 30
0.0
 11
21.11249999999996
 21
2.569781359493128
 31
0.0
  0
LINE
  5
BA
330
1F
100
AcDbEntity
  8
0
  6
Continuous
 62
     1
370
    25
100
AcDbLine
 10
21.11249999999996
 20
-2.195717536498118
 30
0.0
 11
21.11249999999996
 21
-2.320163692655719
 31
0.0
  0
LINE
  5
BB
330
1F
100
AcDbEntity
  8
0
  6
Continuous
 62
     4
370
    25
100
AcDbLine
 10
21.11249999999996
 20
3.960960372595473
 30
0.0
 11
21.11249999999996
 21
3.968750000000005
 31
0.0
  0
LINE
  5
BC
330
1F
100
AcDbEntity
  8
중심선
100
AcDbLine
 10
-32.68750000000005
 20
0.0000000000000004
 30
0.0
 11
24.11249999999995
 21
0.0000000000000004
 31
0.0
  0
CIRCLE
  5
BD
330
1F
100
AcDbEntity
  8
외형선
100
AcDbCircle
 10
0.0
 20
0.0
 30
0.0
 40
3.000000000000004
  0
INSERT
  5
BE
330
1F
100
AcDbEntity
  8
0
  6
Continuous
 62
     7
100
AcDbBlockReference
 66
     1
  2
블럭10
 10
-16.64076129968143
 20
-32.99896699326654
 30
0.0
  0
ATTRIB
  5
BF
330
BE
100
AcDbEntity
  8
FORMAT
 62
     2
100
AcDbText
 10
-25.82205658842271
 20
-30.92360008043435
 30
0.0
 40
4.233333333333333
  1
E5980020 [ 3 FLUTE ]
 41
0.75
  7
SLDTEXTSTYLE0
 11
-25.82205658842271
 21
-33.04026674710101
 31
0.0
100
AcDbAttribute
  2
AUTOATTR0
 70
     0
 74
     1
  0
SEQEND
  5
C0
330
BE
100
AcDbEntity
  8
0
  6
Continuous
 62
     7
  0
HATCH
  5
C1
330
1F
100
AcDbEntity
  8
중심선
100
AcDbHatch
 10
0.0
 20
0.0
 30
0.0
210
0.0
220
0.0
230
1.0
  2
SOLID
 70
     1
 71
     0
 91
        1
 92
        0
 93
        4
 72
     1
 10
-10.92585199530058
 20
-16.7517926916226
 11
-14.37212723913786
 21
-16.7517926916226
 72
     1
 10
-14.37212723913786
 20
-16.7517926916226
 11
-16.50035709834188
 21
-19.2881182721952
 72
     1
 10
-16.50035709834188
 20
-19.2881182721952
 11
-13.05404876939145
 21
-19.28807884289271
 72
     1
 10
-13.05404876939145
 20
-19.28807884289271
 11
-10.92585199530058
 21
-16.7517926916226
 97
        0
 75
     0
 76
     1
 98
        1
 10
0.0
 20
19.0471323796535
  0
HATCH
  5
C2
330
1F
100
AcDbEntity
  8
중심선
100
AcDbHatch
 10
0.0
 20
0.0
 30
0.0
210
0.0
220
0.0
230
1.0
  2
SOLID
 70
     1
 71
     0
 91
        1
 92
        0
 93
        4
 72
     1
 10
-5.913088004264627
 20
-16.7517926916226
 11
-9.359363248101909
 21
-16.7517926916226
 72
     1
 10
-9.359363248101909
 20
-16.7517926916226
 11
-13.8905012564593
 21
-22.15179269162262
 72
     1
 10
-13.8905012564593
 20
-22.15179269162262
 11
-10.44422601262202
 21
-22.15179269162262
 72
     1
 10
-10.44422601262202
 20
-22.15179269162262
 11
-5.913088004264627
 21
-16.7517926916226
 97
        0
 75
     0
 76
     1
 98
        1
 10
0.0
 20
19.0471323796535
  0
HATCH
  5
C3
330
1F
100
AcDbEntity
  8
중심선
100
AcDbHatch
 10
0.0
 20
0.0
 30
0.0
210
0.0
220
0.0
230
1.0
  2
SOLID
 70
     1
 71
     0
 91
        1
 92
        0
 93
        4
 72
     1
 10
-0.9003240132287316
 20
-16.75179269162263
 11
-4.346599257065847
 21
-16.7517926916226
 72
     1
 10
-4.346599257065847
 20
-16.7517926916226
 11
-11.3950361589551
 21
-25.15179269162262
 72
     1
 10
-11.3950361589551
 20
-25.15179269162262
 11
-7.948760915117814
 21
-25.15179269162262
 72
     1
 10
-7.948760915117814
 20
-25.15179269162262
 11
-0.9003240132287313
 21
-16.75179269162263
 97
        0
 75
     0
 76
     1
 98
        1
 10
0.0
 20
19.0471323796535
  0
HATCH
  5
C4
330
1F
100
AcDbEntity
  8
중심선
100
AcDbHatch
 10
0.0
 20
0.0
 30
0.0
210
0.0
220
0.0
230
1.0
  2
SOLID
 70
     1
 71
     0
 91
        1
 92
        0
 93
        6
 72
     3
 10
3.899566417783467
 20
-20.95179269167387
 11
3.960054785062284
 21
1.540882976769353E-10
 40
0.3939339440162627
 50
17.09539180608437
 51
320.0019657685081
 73
     0
 72
     1
 10
5.582566073484063
 20
-19.5396866962609
 11
7.887867947185101
 21
-17.60535998621298
 72
     3
 10
3.899566417730621
 20
-20.95179269162275
 11
6.60005478528683
 21
-1.278976924368180E-13
 40
0.636358354079598
 50
39.99873849337411
 51
368.4976242363725
 73
     1
 72
     1
 10
10.32489890963123
 20
-19.99179269155263
 11
2.579633724566543
 21
-19.9917926915526
 72
     1
 10
2.579633724566543
 20
-19.9917926915526
 11
2.57960868012061
 21
-21.91179269155251
 72
     1
 10
2.57960868012061
 20
-21.91179269155251
 11
7.020988449592647
 21
-21.91179269155248
 97
        0
 75
     0
 76
     1
 98
        1
 10
0.0
 20
19.0471323796535
  0
DIMENSION
  5
C5
330
1F
100
AcDbEntity
  8
치수문자_일반주서
100
AcDbDimension
  2
_D
 10
21.11249999999996
 20
60.61194857228003
 30
0.0
 11
-4.287500000000041
 21
60.61194857228003
 31
0.0
 70
   160
  1
<>
 71
     2
 42
50.8
  3
SLDDIMSTYLE0
100
AcDbAlignedDimension
 13
-29.68750000000004
 23
3.468749999999998
 33
0.0
 14
21.11249999999996
 24
3.968750000000005
 34
0.0
100
AcDbRotatedDimension
1001
ACAD
1000
DSTYLE
1002
{
1070
   171
1070
     6
1070
   273
1070
     5
1002
}
  0
DIMENSION
  5
D9
330
1F
100
AcDbEntity
  8
치수문자_일반주서
100
AcDbDimension
  2
_D_1
 10
-41.68395802161208
 20
-3.968750000000043
 30
0.0
 11
-41.68395802161218
 21
24.57274999999995
 31
0.0
 70
   160
  1
%%c<>
 71
     2
 42
7.937499999999995
 52
-270.0
  3
SLDDIMSTYLE1
100
AcDbAlignedDimension
 13
-29.18750000000004
 23
3.968749999999998
 33
0.0
 14
-29.18750000000004
 24
-3.968749999999997
 34
0.0
 50
90.0000000000002
100
AcDbRotatedDimension
1001
ACAD
1000
DSTYLE
1002
{
1070
   171
1070
     6
1070
   273
1070
     5
1002
}
  0
DIMENSION
  5
EE
330
1F
100
AcDbEntity
  8
치수문자_일반주서
100
AcDbDimension
  2
_D_2
 10
21.11249999999996
 20
20.3096637462629
 30
0.0
 11
-5.552000000000044
 21
20.3096637462629
 31
0.0
 70
   160
  1
<>
 71
     2
 42
11.1125
  3
SLDDIMSTYLE2
100
AcDbAlignedDimension
 13
9.999999999999956
 23
3.968750000000003
 33
0.0
 14
21.11249999999996
 24
3.968750000000005
 34
0.0
100
AcDbRotatedDimension
1001
ACAD
1000
DSTYLE
1002
{
1070
   171
1070
     6
1070
   273
1070
     5
1002
}
  0
DIMENSION
  5
103
330
1F
100
AcDbEntity
  8
치수문자_일반주서
100
AcDbDimension
  2
_D_3
 10
33.8937255399696
 20
-3.96874999999994
 30
0.0
 11
33.89372553996948
 21
29.77496414154737
 31
0.0
 70
   160
  1
%%c<>
 71
     2
 42
7.937499999999991
 52
-270.0
  3
SLDDIMSTYLE2
100
AcDbAlignedDimension
 13
21.11249999999996
 23
3.968750000000005
 33
0.0
 14
21.11249999999996
 24
-3.968749999999986
 34
0.0
 50
90.0000000000002
100
AcDbRotatedDimension
1001
ACAD
1000
DSTYLE
1002
{
1070
   171
1070
     6
1070
   273
1070
     5
1002
}
  0
INSERT
  5
11C
330
1F
100
AcDbEntity
  8
외형선
100
AcDbBlockReference
  2
SW_DOWELSYMBOL_0
 10
0.0
 20
0.0
 30
0.0
  0
ENDSEC
  0
SECTION
  2
OBJECTS
  0
DICTIONARY
  5
C
330
0
100
AcDbDictionary
281
     1
  3
ACAD_GROUP
350
D
  3
ACAD_IMAGE_VARS
350
140
  3
ACAD_LAYOUT
350
1A
  3
ACAD_MLINESTYLE
350
17
  3
ACAD_PLOTSETTINGS
350
19
  3
ACAD_PLOTSTYLENAME
350
E
  3
ACAD_SCALELIST
350
47
  3
APPDATA
350
13E
  3
DWGPROPS
350
148
  0
DICTIONARY
  5
D
102
{ACAD_REACTORS
330
C
102
}
330
C
100
AcDbDictionary
281
     1
  0
RASTERVARIABLES
  5
140
102
{ACAD_REACTORS
330
C
102
}
330
C
100
AcDbRasterVariables
 90
        0
 70
     1
 71
     1
 72
     1
  0
DICTIONARY
  5
1A
102
{ACAD_REACTORS
330
C
102
}
330
C
100
AcDbDictionary
281
     1
  3
Layout1
350
1E
  3
Layout2
350
26
  3
Model
350
22
  0
DICTIONARY
  5
17
102
{ACAD_REACTORS
330
C
102
}
330
C
100
AcDbDictionary
281
     1
  3
Standard
350
18
  0
DICTIONARY
  5
19
102
{ACAD_REACTORS
330
C
102
}
330
C
100
AcDbDictionary
281
     1
  0
ACDBDICTIONARYWDFLT
  5
E
102
{ACAD_REACTORS
330
C
102
}
330
C
100
AcDbDictionary
281
     1
  3
Normal
350
F
100
AcDbDictionaryWithDefault
340
F
  0
DICTIONARY
  5
47
102
{ACAD_REACTORS
330
C
102
}
330
C
100
AcDbDictionary
281
     1
  3
A0
350
48
  3
A1
350
49
  3
A2
350
4A
  3
A3
350
4B
  3
A4
350
4C
  3
A5
350
4D
  3
A6
350
4E
  3
A7
350
4F
  3
A8
350
50
  3
A9
350
51
  3
B0
350
52
  3
B1
350
53
  3
B2
350
54
  3
B3
350
55
  3
B4
350
56
  3
B5
350
57
  3
B6
350
58
  3
B7
350
59
  3
B8
350
5A
  3
B9
350
5B
  3
C0
350
5C
  3
C1
350
5D
  3
C2
350
5E
  3
C3
350
5F
  3
C4
350
60
  3
C5
350
61
  3
C6
350
62
  3
C7
350
63
  3
C8
350
64
  3
C9
350
65
  3
D0
350
66
  3
D1
350
67
  3
D2
350
68
  0
DICTIONARY
  5
13E
102
{ACAD_REACTORS
330
C
102
}
330
C
100
AcDbDictionary
281
     1
  0
XRECORD
  5
148
102
{ACAD_REACTORS
330
C
102
}
330
C
100
AcDbXrecord
280
     1
  1
DWGPROPS COOKIE
  2

  3

  4

  6

  7

  8
12014074
  9

300
=
301
=
302
=
303
=
304
=
305
=
306
=
307
=
308
=
309
=
 40
0.0
 41
2458264.209553611
 42
2458267.426226783
  1

 90
        0
  0
LAYOUT
  5
1E
102
{ACAD_REACTORS
330
1A
102
}
330
1A
100
AcDbPlotSettings
  1

  2
none_device
  4

  6

 40
0.0
 41
0.0
 42
0.0
 43
0.0
 44
0.0
 45
0.0
 46
0.0
 47
0.0
 48
0.0
 49
0.0
140
0.0
141
0.0
142
1.0
143
1.0
 70
   688
 72
     1
 73
     0
 74
     5
  7

 75
    16
147
1.0
148
0.0
149
0.0
100
AcDbLayout
  1
Layout1
 70
     1
 71
     1
 10
0.0
 20
0.0
 11
420.0
 21
297.0
 12
0.0
 22
0.0
 32
0.0
 14
1.000000000000000E+20
 24
1.000000000000000E+20
 34
1.000000000000000E+20
 15
-1.000000000000000E+20
 25
-1.000000000000000E+20
 35
-1.000000000000000E+20
146
0.0
 13
0.0
 23
0.0
 33
0.0
 16
1.0
 26
0.0
 36
0.0
 17
0.0
 27
1.0
 37
0.0
 76
     0
330
1B
  0
LAYOUT
  5
26
102
{ACAD_REACTORS
330
1A
102
}
330
1A
100
AcDbPlotSettings
  1

  2
none_device
  4

  6

 40
0.0
 41
0.0
 42
0.0
 43
0.0
 44
0.0
 45
0.0
 46
0.0
 47
0.0
 48
0.0
 49
0.0
140
0.0
141
0.0
142
1.0
143
1.0
 70
   688
 72
     1
 73
     0
 74
     5
  7

 75
    16
147
1.0
148
0.0
149
0.0
100
AcDbLayout
  1
Layout2
 70
     1
 71
     2
 10
0.0
 20
0.0
 11
0.0
 21
0.0
 12
0.0
 22
0.0
 32
0.0
 14
0.0
 24
0.0
 34
0.0
 15
0.0
 25
0.0
 35
0.0
146
0.0
 13
0.0
 23
0.0
 33
0.0
 16
1.0
 26
0.0
 36
0.0
 17
0.0
 27
1.0
 37
0.0
 76
     0
330
23
  0
LAYOUT
  5
22
102
{ACAD_REACTORS
330
1A
102
}
330
1A
100
AcDbPlotSettings
  1

  2
none_device
  4
ANSI_A_(11.00_x_8.50_Inches)
  6

 40
6.35
 41
19.05
 42
6.35000508
 43
19.05000254
 44
279.4
 45
215.9
 46
148.7564772858006
 47
70.90283093656923
 48
0.0
 49
0.0
140
0.0
141
0.0
142
0.0689928208428817
143
1.0
 70
  1696
 72
     0
 73
     0
 74
     0
  7

 75
     0
147
0.0235690232323232
148
0.0
149
0.0
100
AcDbLayout
  1
Model
 70
     1
 71
     0
 10
0.0
 20
0.0
 11
420.0
 21
297.0
 12
0.0
 22
0.0
 32
0.0
 14
-46.05895802161216
 24
-30.92360008043435
 34
0.0
 15
34.44405887330295
 25
64.98694857228003
 35
0.0
146
0.0
 13
0.0
 23
0.0
 33
0.0
 16
1.0
 26
0.0
 36
0.0
 17
0.0
 27
1.0
 37
0.0
 76
     0
330
1F
331
29
  0
MLINESTYLE
  5
18
102
{ACAD_REACTORS
330
17
102
}
330
17
100
AcDbMlineStyle
  2
Standard
 70
     0
  3

 62
   256
 51
90.0
 52
90.0
 71
     2
 49
0.5
 62
   256
  6
BYLAYER
 49
-0.5
 62
   256
  6
BYLAYER
  0
ACDBPLACEHOLDER
  5
F
102
{ACAD_REACTORS
330
E
102
}
330
E
  0
SCALE
  5
48
102
{ACAD_REACTORS
330
47
102
}
330
47
100
AcDbScale
 70
     0
300
1:1
140
1.0
141
1.0
290
     1
  0
SCALE
  5
49
102
{ACAD_REACTORS
330
47
102
}
330
47
100
AcDbScale
 70
     0
300
1:2
140
1.0
141
2.0
290
     0
  0
SCALE
  5
4A
102
{ACAD_REACTORS
330
47
102
}
330
47
100
AcDbScale
 70
     0
300
1:4
140
1.0
141
4.0
290
     0
  0
SCALE
  5
4B
102
{ACAD_REACTORS
330
47
102
}
330
47
100
AcDbScale
 70
     0
300
1:5
140
1.0
141
5.0
290
     0
  0
SCALE
  5
4C
102
{ACAD_REACTORS
330
47
102
}
330
47
100
AcDbScale
 70
     0
300
1:8
140
1.0
141
8.0
290
     0
  0
SCALE
  5
4D
102
{ACAD_REACTORS
330
47
102
}
330
47
100
AcDbScale
 70
     0
300
1:10
140
1.0
141
10.0
290
     0
  0
SCALE
  5
4E
102
{ACAD_REACTORS
330
47
102
}
330
47
100
AcDbScale
 70
     0
300
1:16
140
1.0
141
16.0
290
     0
  0
SCALE
  5
4F
102
{ACAD_REACTORS
330
47
102
}
330
47
100
AcDbScale
 70
     0
300
1:20
140
1.0
141
20.0
290
     0
  0
SCALE
  5
50
102
{ACAD_REACTORS
330
47
102
}
330
47
100
AcDbScale
 70
     0
300
1:30
140
1.0
141
30.0
290
     0
  0
SCALE
  5
51
102
{ACAD_REACTORS
330
47
102
}
330
47
100
AcDbScale
 70
     0
300
1:40
140
1.0
141
40.0
290
     0
  0
SCALE
  5
52
102
{ACAD_REACTORS
330
47
102
}
330
47
100
AcDbScale
 70
     0
300
1:50
140
1.0
141
50.0
290
     0
  0
SCALE
  5
53
102
{ACAD_REACTORS
330
47
102
}
330
47
100
AcDbScale
 70
     0
300
1:100
140
1.0
141
100.0
290
     0
  0
SCALE
  5
54
102
{ACAD_REACTORS
330
47
102
}
330
47
100
AcDbScale
 70
     0
300
2:1
140
2.0
141
1.0
290
     0
  0
SCALE
  5
55
102
{ACAD_REACTORS
330
47
102
}
330
47
100
AcDbScale
 70
     0
300
4:1
140
4.0
141
1.0
290
     0
  0
SCALE
  5
56
102
{ACAD_REACTORS
330
47
102
}
330
47
100
AcDbScale
 70
     0
300
8:1
140
8.0
141
1.0
290
     0
  0
SCALE
  5
57
102
{ACAD_REACTORS
330
47
102
}
330
47
100
AcDbScale
 70
     0
300
10:1
140
10.0
141
1.0
290
     0
  0
SCALE
  5
58
102
{ACAD_REACTORS
330
47
102
}
330
47
100
AcDbScale
 70
     0
300
100:1
140
100.0
141
1.0
290
     0
  0
SCALE
  5
59
102
{ACAD_REACTORS
330
47
102
}
330
47
100
AcDbScale
 70
     0
300
1/128" = 1'-0"
140
0.0078125
141
12.0
290
     0
  0
SCALE
  5
5A
102
{ACAD_REACTORS
330
47
102
}
330
47
100
AcDbScale
 70
     0
300
1/64" = 1'-0"
140
0.015625
141
12.0
290
     0
  0
SCALE
  5
5B
102
{ACAD_REACTORS
330
47
102
}
330
47
100
AcDbScale
 70
     0
300
1/32" = 1'-0"
140
0.03125
141
12.0
290
     0
  0
SCALE
  5
5C
102
{ACAD_REACTORS
330
47
102
}
330
47
100
AcDbScale
 70
     0
300
1/16" = 1'-0"
140
0.0625
141
12.0
290
     0
  0
SCALE
  5
5D
102
{ACAD_REACTORS
330
47
102
}
330
47
100
AcDbScale
 70
     0
300
3/32" = 1'-0"
140
0.09375
141
12.0
290
     0
  0
SCALE
  5
5E
102
{ACAD_REACTORS
330
47
102
}
330
47
100
AcDbScale
 70
     0
300
1/8" = 1'-0"
140
0.125
141
12.0
290
     0
  0
SCALE
  5
5F
102
{ACAD_REACTORS
330
47
102
}
330
47
100
AcDbScale
 70
     0
300
3/16" = 1'-0"
140
0.1875
141
12.0
290
     0
  0
SCALE
  5
60
102
{ACAD_REACTORS
330
47
102
}
330
47
100
AcDbScale
 70
     0
300
1/4" = 1'-0"
140
0.25
141
12.0
290
     0
  0
SCALE
  5
61
102
{ACAD_REACTORS
330
47
102
}
330
47
100
AcDbScale
 70
     0
300
3/8" = 1'-0"
140
0.375
141
12.0
290
     0
  0
SCALE
  5
62
102
{ACAD_REACTORS
330
47
102
}
330
47
100
AcDbScale
 70
     0
300
1/2" = 1'-0"
140
0.5
141
12.0
290
     0
  0
SCALE
  5
63
102
{ACAD_REACTORS
330
47
102
}
330
47
100
AcDbScale
 70
     0
300
3/4" = 1'-0"
140
0.75
141
12.0
290
     0
  0
SCALE
  5
64
102
{ACAD_REACTORS
330
47
102
}
330
47
100
AcDbScale
 70
     0
300
1" = 1'-0"
140
1.0
141
12.0
290
     0
  0
SCALE
  5
65
102
{ACAD_REACTORS
330
47
102
}
330
47
100
AcDbScale
 70
     0
300
1-1/2" = 1'-0"
140
1.5
141
12.0
290
     0
  0
SCALE
  5
66
102
{ACAD_REACTORS
330
47
102
}
330
47
100
AcDbScale
 70
     0
300
3" = 1'-0"
140
3.0
141
12.0
290
     0
  0
SCALE
  5
67
102
{ACAD_REACTORS
330
47
102
}
330
47
100
AcDbScale
 70
     0
300
6" = 1'-0"
140
6.0
141
12.0
290
     0
  0
SCALE
  5
68
102
{ACAD_REACTORS
330
47
102
}
330
47
100
AcDbScale
 70
     0
300
1'-0" = 1'-0"
140
12.0
141
12.0
290
     0
  0
ENDSEC
  0
EOF
