  0
SECTION
  2
HEADER
  9
$ACADVER
  1
AC1015
  9
$ACADMAINTVER
 70
     6
  9
$DWGCODEPAGE
  3
ANSI_949
  9
$INSBASE
 10
0.0
 20
0.0
 30
0.0
  9
$EXTMIN
 10
-44.47145802161259
 20
-36.45363095208845
 30
0.0
  9
$EXTMAX
 10
33.956709576402
 20
65.78069857228004
 30
0.0
  9
$LIMMIN
 10
0.0
 20
0.0
  9
$LIMMAX
 10
420.0
 20
297.0
  9
$ORTHOMODE
 70
     1
  9
$REGENMODE
 70
     1
  9
$FILLMODE
 70
     1
  9
$QTEXTMODE
 70
     0
  9
$MIRRTEXT
 70
     1
  9
$LTSCALE
 40
1.0
  9
$ATTMODE
 70
     1
  9
$TEXTSIZE
 40
3.5
  9
$TRACEWID
 40
1.0
  9
$TEXTSTYLE
  7
Standard
  9
$CLAYER
  8
0
  9
$CELTYPE
  6
ByLayer
  9
$CECOLOR
 62
   256
  9
$CELTSCALE
 40
1.0
  9
$DISPSILH
 70
     0
  9
$DIMSCALE
 40
1.0
  9
$DIMASZ
 40
3.302
  9
$DIMEXO
 40
1.0
  9
$DIMDLI
 40
3.75
  9
$DIMRND
 40
0.0
  9
$DIMDLE
 40
0.0
  9
$DIMEXE
 40
1.0
  9
$DIMTP
 40
0.0
  9
$DIMTM
 40
0.0
  9
$DIMTXT
 40
3.5
  9
$DIMCEN
 40
2.5
  9
$DIMTSZ
 40
0.0
  9
$DIMTOL
 70
     0
  9
$DIMLIM
 70
     0
  9
$DIMTIH
 70
     1
  9
$DIMTOH
 70
     1
  9
$DIMSE1
 70
     0
  9
$DIMSE2
 70
     0
  9
$DIMTAD
 70
     1
  9
$DIMZIN
 70
     0
  9
$DIMBLK
  1

  9
$DIMASO
 70
     1
  9
$DIMSHO
 70
     1
  9
$DIMPOST
  1

  9
$DIMAPOST
  1

  9
$DIMALT
 70
     0
  9
$DIMALTD
 70
     3
  9
$DIMALTF
 40
0.0393700787401575
  9
$DIMLFAC
 40
1.0
  9
$DIMTOFL
 70
     1
  9
$DIMTVP
 40
0.0
  9
$DIMTIX
 70
     0
  9
$DIMSOXD
 70
     0
  9
$DIMSAH
 70
     0
  9
$DIMBLK1
  1

  9
$DIMBLK2
  1

  9
$DIMSTYLE
  2
ISO-25
  9
$DIMCLRD
 70
     0
  9
$DIMCLRE
 70
     0
  9
$DIMCLRT
 70
     0
  9
$DIMTFAC
 40
1.0
  9
$DIMGAP
 40
1.524
  9
$DIMJUST
 70
     0
  9
$DIMSD1
 70
     0
  9
$DIMSD2
 70
     0
  9
$DIMTOLJ
 70
     0
  9
$DIMTZIN
 70
     0
  9
$DIMALTZ
 70
     0
  9
$DIMALTTZ
 70
     0
  9
$DIMUPT
 70
     0
  9
$DIMDEC
 70
     2
  9
$DIMTDEC
 70
     2
  9
$DIMALTU
 70
     2
  9
$DIMALTTD
 70
     3
  9
$DIMTXSTY
  7
Standard
  9
$DIMAUNIT
 70
     0
  9
$DIMADEC
 70
     2
  9
$DIMALTRND
 40
0.0
  9
$DIMAZIN
 70
     0
  9
$DIMDSEP
 70
    44
  9
$DIMATFIT
 70
     3
  9
$DIMFRAC
 70
     0
  9
$DIMLDRBLK
  1

  9
$DIMLUNIT
 70
     2
  9
$DIMLWD
 70
    -2
  9
$DIMLWE
 70
    -2
  9
$DIMTMOVE
 70
     0
  9
$LUNITS
 70
     2
  9
$LUPREC
 70
     2
  9
$SKETCHINC
 40
1.0
  9
$FILLETRAD
 40
10.0
  9
$AUNITS
 70
     0
  9
$AUPREC
 70
     2
  9
$MENU
  1
.
  9
$ELEVATION
 40
0.0
  9
$PELEVATION
 40
0.0
  9
$THICKNESS
 40
0.0
  9
$LIMCHECK
 70
     0
  9
$CHAMFERA
 40
0.0
  9
$CHAMFERB
 40
0.0
  9
$CHAMFERC
 40
0.0
  9
$CHAMFERD
 40
0.0
  9
$SKPOLY
 70
     0
  9
$TDCREATE
 40
2458264.584742662
  9
$TDUCREATE
 40
2458264.209742662
  9
$TDUPDATE
 40
2458267.802338021
  9
$TDUUPDATE
 40
2458267.427338021
  9
$TDINDWG
 40
0.0010682292
  9
$TDUSRTIMER
 40
2458267.426269896
  9
$USRTIMER
 70
     1
  9
$ANGBASE
 50
0.0
  9
$ANGDIR
 70
     0
  9
$PDMODE
 70
     0
  9
$PDSIZE
 40
-1.0
  9
$PLINEWID
 40
0.0
  9
$SPLFRAME
 70
     0
  9
$SPLINETYPE
 70
     6
  9
$SPLINESEGS
 70
     8
  9
$HANDSEED
  5
145
  9
$SURFTAB1
 70
     6
  9
$SURFTAB2
 70
     6
  9
$SURFTYPE
 70
     6
  9
$SURFU
 70
     6
  9
$SURFV
 70
     6
  9
$UCSBASE
  2

  9
$UCSNAME
  2

  9
$UCSORG
 10
0.0
 20
0.0
 30
0.0
  9
$UCSXDIR
 10
1.0
 20
0.0
 30
0.0
  9
$UCSYDIR
 10
0.0
 20
1.0
 30
0.0
  9
$UCSORTHOREF
  2

  9
$UCSORTHOVIEW
 70
     0
  9
$UCSORGTOP
 10
0.0
 20
0.0
 30
0.0
  9
$UCSORGBOTTOM
 10
0.0
 20
0.0
 30
0.0
  9
$UCSORGLEFT
 10
0.0
 20
0.0
 30
0.0
  9
$UCSORGRIGHT
 10
0.0
 20
0.0
 30
0.0
  9
$UCSORGFRONT
 10
0.0
 20
0.0
 30
0.0
  9
$UCSORGBACK
 10
0.0
 20
0.0
 30
0.0
  9
$PUCSBASE
  2

  9
$PUCSNAME
  2

  9
$PUCSORG
 10
0.0
 20
0.0
 30
0.0
  9
$PUCSXDIR
 10
1.0
 20
0.0
 30
0.0
  9
$PUCSYDIR
 10
0.0
 20
1.0
 30
0.0
  9
$PUCSORTHOREF
  2

  9
$PUCSORTHOVIEW
 70
     0
  9
$PUCSORGTOP
 10
0.0
 20
0.0
 30
0.0
  9
$PUCSORGBOTTOM
 10
0.0
 20
0.0
 30
0.0
  9
$PUCSORGLEFT
 10
0.0
 20
0.0
 30
0.0
  9
$PUCSORGRIGHT
 10
0.0
 20
0.0
 30
0.0
  9
$PUCSORGFRONT
 10
0.0
 20
0.0
 30
0.0
  9
$PUCSORGBACK
 10
0.0
 20
0.0
 30
0.0
  9
$USERI1
 70
     0
  9
$USERI2
 70
     0
  9
$USERI3
 70
     0
  9
$USERI4
 70
     0
  9
$USERI5
 70
     0
  9
$USERR1
 40
0.0
  9
$USERR2
 40
0.0
  9
$USERR3
 40
0.0
  9
$USERR4
 40
0.0
  9
$USERR5
 40
0.0
  9
$WORLDVIEW
 70
     1
  9
$SHADEDGE
 70
     3
  9
$SHADEDIF
 70
    70
  9
$TILEMODE
 70
     1
  9
$MAXACTVP
 70
    64
  9
$PINSBASE
 10
0.0
 20
0.0
 30
0.0
  9
$PLIMCHECK
 70
     0
  9
$PEXTMIN
 10
1.000000000000000E+20
 20
1.000000000000000E+20
 30
1.000000000000000E+20
  9
$PEXTMAX
 10
-1.000000000000000E+20
 20
-1.000000000000000E+20
 30
-1.000000000000000E+20
  9
$PLIMMIN
 10
0.0
 20
0.0
  9
$PLIMMAX
 10
0.0
 20
0.0
  9
$UNITMODE
 70
     0
  9
$VISRETAIN
 70
     1
  9
$PLINEGEN
 70
     0
  9
$PSLTSCALE
 70
     1
  9
$TREEDEPTH
 70
  3020
  9
$CMLSTYLE
  2
Standard
  9
$CMLJUST
 70
     0
  9
$CMLSCALE
 40
20.0
  9
$PROXYGRAPHICS
 70
     1
  9
$MEASUREMENT
 70
     1
  9
$CELWEIGHT
370
    -1
  9
$ENDCAPS
280
     0
  9
$JOINSTYLE
280
     0
  9
$LWDISPLAY
290
     1
  9
$INSUNITS
 70
     4
  9
$HYPERLINKBASE
  1

  9
$STYLESHEET
  1

  9
$XEDIT
290
     1
  9
$CEPSNTYPE
380
     0
  9
$PSTYLEMODE
290
     1
  9
$FINGERPRINTGUID
  2
{501BAA20-0AB7-48B6-927F-DFE54AC88A12}
  9
$VERSIONGUID
  2
{FAEB1C32-E019-11D5-929B-00C0DF256EC4}
  9
$EXTNAMES
290
     1
  9
$PSVPSCALE
 40
0.0
  9
$OLESTARTUP
290
     0
  0
ENDSEC
  0
SECTION
  2
CLASSES
  0
CLASS
  1
ACDBDICTIONARYWDFLT
  2
AcDbDictionaryWithDefault
  3
ObjectDBX Classes
 90
        0
280
     0
281
     0
  0
CLASS
  1
VISUALSTYLE
  2
AcDbVisualStyle
  3
ObjectDBX Classes
 90
     4095
280
     0
281
     0
  0
CLASS
  1
MATERIAL
  2
AcDbMaterial
  3
ObjectDBX Classes
 90
     1153
280
     0
281
     0
  0
CLASS
  1
SCALE
  2
AcDbScale
  3
ObjectDBX Classes
 90
     1153
280
     0
281
     0
  0
CLASS
  1
TABLESTYLE
  2
AcDbTableStyle
  3
ObjectDBX Classes
 90
     4095
280
     0
281
     0
  0
CLASS
  1
MLEADERSTYLE
  2
AcDbMLeaderStyle
  3
ACDB_MLEADERSTYLE_CLASS
 90
     4095
280
     0
281
     0
  0
CLASS
  1
SUN
  2
AcDbSun
  3
SCENEOE
 90
     1153
280
     0
281
     0
  0
CLASS
  1
ACDBPLACEHOLDER
  2
AcDbPlaceHolder
  3
ObjectDBX Classes
 90
        0
280
     0
281
     0
  0
CLASS
  1
LAYOUT
  2
AcDbLayout
  3
ObjectDBX Classes
 90
        0
280
     0
281
     0
  0
CLASS
  1
RASTERVARIABLES
  2
AcDbRasterVariables
  3
ISM
 90
        0
280
     0
281
     0
  0
ENDSEC
  0
SECTION
  2
TABLES
  0
TABLE
  2
VPORT
  5
8
330
0
100
AcDbSymbolTable
 70
     1
  0
VPORT
  5
29
330
8
100
AcDbSymbolTableRecord
100
AcDbViewportTableRecord
  2
*Active
 70
     0
 10
0.0
 20
0.0
 11
1.0
 21
1.0
 12
21.2727108127332
 22
15.03115147423514
 13
0.0
 23
0.0
 14
10.0
 24
10.0
 15
10.0
 25
10.0
 16
0.0
 26
0.0
 36
1.0
 17
0.0
 27
0.0
 37
0.0
 40
126.6183763076598
 41
1.970186335403727
 42
50.0
 43
0.0
 44
0.0
 50
0.0
 51
0.0
 71
    16
 72
  2000
 73
     1
 74
     3
 75
     0
 76
     0
 77
     0
 78
     0
281
     0
 65
     1
110
0.0
120
0.0
130
0.0
111
1.0
121
0.0
131
0.0
112
0.0
122
1.0
132
0.0
 79
     0
146
0.0
  0
ENDTAB
  0
TABLE
  2
LTYPE
  5
5
330
0
100
AcDbSymbolTable
 70
     6
  0
LTYPE
  5
14
330
5
100
AcDbSymbolTableRecord
100
AcDbLinetypeTableRecord
  2
ByBlock
 70
     0
  3

 72
    65
 73
     0
 40
0.0
  0
LTYPE
  5
15
330
5
100
AcDbSymbolTableRecord
100
AcDbLinetypeTableRecord
  2
ByLayer
 70
     0
  3

 72
    65
 73
     0
 40
0.0
  0
LTYPE
  5
16
330
5
100
AcDbSymbolTableRecord
100
AcDbLinetypeTableRecord
  2
Continuous
 70
     0
  3
Solid line
 72
    65
 73
     0
 40
0.0
  0
LTYPE
  5
6E
330
5
100
AcDbSymbolTableRecord
100
AcDbLinetypeTableRecord
  2
HIDDEN
 70
     0
  3
Hidden __ __ __ __ __ __ __ __ __ __ __ __ __ __
 72
    65
 73
     2
 40
1.905
 49
1.27
 74
     0
 49
-0.635
 74
     0
  0
LTYPE
  5
6F
330
5
100
AcDbSymbolTableRecord
100
AcDbLinetypeTableRecord
  2
PHANTOM
 70
     0
  3
Phantom ______  __  __  ______  __  __  ______
 72
    65
 73
     6
 40
12.7
 49
6.35
 74
     0
 49
-1.27
 74
     0
 49
1.27
 74
     0
 49
-1.27
 74
     0
 49
1.27
 74
     0
 49
-1.27
 74
     0
  0
LTYPE
  5
70
330
5
100
AcDbSymbolTableRecord
100
AcDbLinetypeTableRecord
  2
CENTER
 70
     0
  3
Center ____ _ ____ _ ____ _ ____ _ ____ _ ____
 72
    65
 73
     4
 40
10.16
 49
6.35
 74
     0
 49
-1.27
 74
     0
 49
1.27
 74
     0
 49
-1.27
 74
     0
  0
LTYPE
  5
71
330
5
100
AcDbSymbolTableRecord
100
AcDbLinetypeTableRecord
  2
CENTERX2
 70
     0
  3
Center (2x) ________  __  ________  __  _____
 72
    65
 73
     4
 40
20.32
 49
12.7
 74
     0
 49
-2.54
 74
     0
 49
2.54
 74
     0
 49
-2.54
 74
     0
  0
LTYPE
  5
72
330
5
100
AcDbSymbolTableRecord
100
AcDbLinetypeTableRecord
  2
DOT2
 70
     0
  3
Dot (.5x) ........................................
 72
    65
 73
     2
 40
0.635
 49
0.0
 74
     0
 49
-0.635
 74
     0
  0
ENDTAB
  0
TABLE
  2
LAYER
  5
2
330
0
100
AcDbSymbolTable
 70
    17
  0
LAYER
  5
10
330
2
100
AcDbSymbolTableRecord
100
AcDbLayerTableRecord
  2
0
 70
     0
 62
     7
  6
Continuous
370
    -3
390
F
  0
LAYER
  5
73
330
2
100
AcDbSymbolTableRecord
100
AcDbLayerTableRecord
  2
FORMAT
 70
     0
 62
     2
  6
Continuous
370
    -3
390
F
  0
LAYER
  5
74
330
2
100
AcDbSymbolTableRecord
100
AcDbLayerTableRecord
  2
외형선
 70
     0
 62
   100
  6
Continuous
370
    35
390
F
  0
LAYER
  5
75
330
2
100
AcDbSymbolTableRecord
100
AcDbLayerTableRecord
  2
숨은선
 70
     0
 62
     2
  6
HIDDEN
370
    25
390
F
  0
LAYER
  5
76
330
2
100
AcDbSymbolTableRecord
100
AcDbLayerTableRecord
  2
중심선
 70
     0
 62
     1
  6
CENTERX2
370
    -3
390
F
  0
LAYER
  5
77
330
2
100
AcDbSymbolTableRecord
100
AcDbLayerTableRecord
  2
파단선
 70
     0
 62
     4
  6
Continuous
370
    -3
390
F
  0
LAYER
  5
78
330
2
100
AcDbSymbolTableRecord
100
AcDbLayerTableRecord
  2
해칭선
 70
     0
 62
     4
  6
Continuous
370
    -3
390
F
  0
LAYER
  5
79
330
2
100
AcDbSymbolTableRecord
100
AcDbLayerTableRecord
  2
가는실선
 70
     0
 62
     4
  6
Continuous
370
    -3
390
F
  0
LAYER
  5
7A
330
2
100
AcDbSymbolTableRecord
100
AcDbLayerTableRecord
  2
치수_보조선
 70
     0
 62
     4
  6
Continuous
370
    -3
390
F
  0
LAYER
  5
7B
330
2
100
AcDbSymbolTableRecord
100
AcDbLayerTableRecord
  2
치수문자_일반주서
 70
     0
 62
     7
  6
Continuous
370
    25
390
F
  0
LAYER
  5
7C
330
2
100
AcDbSymbolTableRecord
100
AcDbLayerTableRecord
  2
개별주서
 70
     0
 62
   100
  6
Continuous
370
    35
390
F
  0
LAYER
  5
7D
330
2
100
AcDbSymbolTableRecord
100
AcDbLayerTableRecord
  2
중간선
 70
     0
 62
     2
  6
Continuous
370
    25
390
F
  0
LAYER
  5
7E
330
2
100
AcDbSymbolTableRecord
100
AcDbLayerTableRecord
  2
윤곽선
 70
     0
 62
     3
  6
Continuous
370
    50
390
F
  0
LAYER
  5
7F
330
2
100
AcDbSymbolTableRecord
100
AcDbLayerTableRecord
  2
중심마크
 70
     0
 62
   100
  6
Continuous
370
    35
390
F
  0
LAYER
  5
80
330
2
100
AcDbSymbolTableRecord
100
AcDbLayerTableRecord
  2
가상선
 70
     0
 62
     4
  6
PHANTOM
370
    -3
390
F
  0
LAYER
  5
81
330
2
100
AcDbSymbolTableRecord
100
AcDbLayerTableRecord
  2
특수지정선
 70
     0
 62
     5
  6
CENTERX2
370
    70
390
F
  0
LAYER
  5
140
330
2
100
AcDbSymbolTableRecord
100
AcDbLayerTableRecord
  2
Defpoints
 70
     0
 62
     7
  6
Continuous
290
     0
370
    -3
390
F
  0
ENDTAB
  0
TABLE
  2
STYLE
  5
3
330
0
100
AcDbSymbolTable
 70
     2
  0
STYLE
  5
11
330
3
100
AcDbSymbolTableRecord
100
AcDbTextStyleTableRecord
  2
Standard
 70
     0
 40
0.0
 41
1.0
 50
0.0
 71
     0
 42
3.5
  3
txt
  4

  0
STYLE
  5
97
330
3
100
AcDbSymbolTableRecord
100
AcDbTextStyleTableRecord
  2
SLDTEXTSTYLE0
 70
     0
 40
0.0
 41
0.75
 50
0.0
 71
     0
 42
3.5
  3
TXT
  4

  0
ENDTAB
  0
TABLE
  2
VIEW
  5
6
330
0
100
AcDbSymbolTable
 70
     0
  0
ENDTAB
  0
TABLE
  2
UCS
  5
7
330
0
100
AcDbSymbolTable
 70
     0
  0
ENDTAB
  0
TABLE
  2
APPID
  5
9
330
0
100
AcDbSymbolTable
 70
     1
  0
APPID
  5
12
330
9
100
AcDbSymbolTableRecord
100
AcDbRegAppTableRecord
  2
ACAD
 70
     0
  0
ENDTAB
  0
TABLE
  2
DIMSTYLE
  5
A
330
0
100
AcDbSymbolTable
 70
     4
100
AcDbDimStyleTable
  0
DIMSTYLE
105
27
330
A
100
AcDbSymbolTableRecord
100
AcDbDimStyleTableRecord
  2
ISO-25
 70
     0
 41
2.5
 42
0.625
 43
3.75
 44
1.25
 73
     0
 74
     0
 77
     1
 78
     8
140
2.5
141
2.5
143
0.03937007874016
147
0.625
171
     3
172
     1
178
     0
271
     2
272
     2
274
     3
278
    44
283
     0
284
     8
340
11
  0
DIMSTYLE
105
C5
102
{ACAD_REACTORS
330
C4
330
ED
102
}
330
A
100
AcDbSymbolTableRecord
100
AcDbDimStyleTableRecord
  2
SLDDIMSTYLE0
 70
     0
 41
3.302
 44
0.0
 45
0.000000001
 73
     0
 74
     0
 77
     1
 78
     4
 79
     1
140
3.5
143
0.0393700787401575
147
0.875
148
0.000000001
170
     1
173
     1
178
     0
271
     2
272
     2
276
     2
284
    12
340
97
  0
DIMSTYLE
105
D9
102
{ACAD_REACTORS
330
D8
102
}
330
A
100
AcDbSymbolTableRecord
100
AcDbDimStyleTableRecord
  2
SLDDIMSTYLE1
 70
     0
 41
3.302
 44
0.0
 45
0.000000001
 73
     0
 74
     0
 77
     1
 78
    12
 79
     3
140
3.5
143
0.0393700787401575
147
0.875
148
0.000000001
170
     1
172
     1
173
     1
178
     0
271
     2
272
     2
276
     2
284
    12
289
     0
340
97
  0
DIMSTYLE
105
102
102
{ACAD_REACTORS
330
101
102
}
330
A
100
AcDbSymbolTableRecord
100
AcDbDimStyleTableRecord
  2
SLDDIMSTYLE2
 70
     0
 41
3.302
 44
0.0
 45
0.000000001
 73
     0
 74
     0
 77
     1
 78
    12
 79
     3
140
3.5
143
0.0393700787401575
147
0.875
148
0.000000001
170
     1
173
     1
178
     0
271
     2
272
     2
276
     2
284
    12
340
97
  0
ENDTAB
  0
TABLE
  2
BLOCK_RECORD
  5
1
330
0
100
AcDbSymbolTable
 70
     7
  0
BLOCK_RECORD
  5
1F
330
1
100
AcDbSymbolTableRecord
100
AcDbBlockTableRecord
  2
*Model_Space
340
22
  0
BLOCK_RECORD
  5
1B
330
1
100
AcDbSymbolTableRecord
100
AcDbBlockTableRecord
  2
*Paper_Space
340
1E
  0
BLOCK_RECORD
  5
23
330
1
100
AcDbSymbolTableRecord
100
AcDbBlockTableRecord
  2
*Paper_Space0
340
26
  0
BLOCK_RECORD
  5
82
330
1
100
AcDbSymbolTableRecord
100
AcDbBlockTableRecord
  2
블럭10
340
0
102
{BLKREFS
331
BD
102
}
  0
BLOCK_RECORD
  5
C6
330
1
100
AcDbSymbolTableRecord
100
AcDbBlockTableRecord
  2
_D
340
0
  0
BLOCK_RECORD
  5
DA
330
1
100
AcDbSymbolTableRecord
100
AcDbBlockTableRecord
  2
_D_1
340
0
  0
BLOCK_RECORD
  5
EE
330
1
100
AcDbSymbolTableRecord
100
AcDbBlockTableRecord
  2
_D_2
340
0
  0
BLOCK_RECORD
  5
103
330
1
100
AcDbSymbolTableRecord
100
AcDbBlockTableRecord
  2
_D_3
340
0
  0
BLOCK_RECORD
  5
115
330
1
100
AcDbSymbolTableRecord
100
AcDbBlockTableRecord
  2
SW_DOWELSYMBOL_0
340
0
102
{BLKREFS
331
11B
102
}
  0
ENDTAB
  0
ENDSEC
  0
SECTION
  2
BLOCKS
  0
BLOCK
  5
20
330
1F
100
AcDbEntity
  8
0
100
AcDbBlockBegin
  2
*Model_Space
 70
     0
 10
0.0
 20
0.0
 30
0.0
  3
*Model_Space
  1
*Model_Space
  0
ENDBLK
  5
21
330
1F
100
AcDbEntity
  8
0
100
AcDbBlockEnd
  0
BLOCK
  5
1C
330
1B
100
AcDbEntity
 67
     1
  8
0
100
AcDbBlockBegin
  2
*Paper_Space
 70
     0
 10
0.0
 20
0.0
 30
0.0
  3
*Paper_Space
  1
*Paper_Space
  0
ENDBLK
  5
1D
330
1B
100
AcDbEntity
 67
     1
  8
0
100
AcDbBlockEnd
  0
BLOCK
  5
24
330
23
100
AcDbEntity
  8
0
100
AcDbBlockBegin
  2
*Paper_Space0
 70
     0
 10
0.0
 20
0.0
 30
0.0
  3
*Paper_Space0
  1
*Paper_Space0
  0
ENDBLK
  5
25
330
23
100
AcDbEntity
  8
0
100
AcDbBlockEnd
  0
BLOCK
  5
83
330
82
100
AcDbEntity
  8
0
100
AcDbBlockBegin
  2
블럭10
 70
     2
 10
0.0
 20
0.0
 30
0.0
  3
블럭10
  1
블럭10
  0
ELLIPSE
  5
85
330
82
100
AcDbEntity
  8
중심선
100
AcDbEllipse
 10
20.54032771741204
 20
12.0471743016438
 30
0.0
 11
6.600054785286829
 21
-1.261213355974178E-13
 31
0.0
210
0.0
220
0.0
230
1.0
 40
0.636358354079598
 41
0.9219305317359503
 42
6.513795318482858
  0
ELLIPSE
  5
86
330
82
100
AcDbEntity
  8
중심선
100
AcDbEllipse
 10
20.54032771746488
 20
12.04717430159265
 30
0.0
 11
3.960054785062283
 21
1.540847449632565E-10
 31
0.0
210
0.0
220
0.0
230
1.0
 40
0.3939339440162632
 41
1.131841032648279
 42
5.62031148352944
  0
LINE
  5
87
330
82
100
AcDbEntity
  8
중심선
100
AcDbLine
 10
2.268634060543552
 20
16.24717430164393
 30
0.0
 11
5.714909304380834
 21
16.24717430164393
 31
0.0
  0
LINE
  5
88
330
82
100
AcDbEntity
  8
중심선
100
AcDbLine
 10
5.245725140726316
 20
7.84717430164391
 30
0.0
 11
8.692000384563599
 21
7.84717430164391
 31
0.0
  0
LINE
  5
89
330
82
100
AcDbEntity
  8
중심선
100
AcDbLine
 10
15.74043728645272
 20
16.24717430164393
 30
0.0
 11
8.692000384563599
 21
7.84717430164391
 31
0.0
  0
LINE
  5
8A
330
82
100
AcDbEntity
  8
중심선
100
AcDbLine
 10
0.1404042013395286
 20
13.71084872107135
 30
0.0
 11
3.58671253028996
 21
13.71088815037384
 31
0.0
  0
LINE
  5
8B
330
82
100
AcDbEntity
  8
중심선
100
AcDbLine
 10
2.750260043222114
 20
10.84717430164391
 30
0.0
 11
6.196535287059397
 21
10.84717430164391
 31
0.0
  0
LINE
  5
8C
330
82
100
AcDbEntity
  8
중심선
100
AcDbLine
 10
12.29416204261559
 20
16.24717430164393
 30
0.0
 11
5.245725140726316
 21
7.84717430164391
 31
0.0
  0
LINE
  5
8D
330
82
100
AcDbEntity
  8
중심선
100
AcDbLine
 10
10.72767329541681
 20
16.24717430164393
 30
0.0
 11
6.196535287059397
 21
10.84717430164391
 31
0.0
  0
LINE
  5
8E
330
82
100
AcDbEntity
  8
중심선
100
AcDbLine
 10
7.28139805157953
 20
16.24717430164393
 30
0.0
 11
2.750260043222114
 21
10.84717430164391
 31
0.0
  0
LINE
  5
8F
330
82
100
AcDbEntity
  8
중심선
100
AcDbLine
 10
5.714909304380834
 20
16.24717430164393
 30
0.0
 11
3.58671253028996
 21
13.71088815037384
 31
0.0
  0
LINE
  5
90
330
82
100
AcDbEntity
  8
중심선
100
AcDbLine
 10
2.268634060543552
 20
16.24717430164393
 30
0.0
 11
0.1404042013395286
 21
13.71084872107135
 31
0.0
  0
LINE
  5
91
330
82
100
AcDbEntity
  8
중심선
100
AcDbLine
 10
7.28139805157953
 20
16.24717430164393
 30
0.0
 11
10.72767329541681
 21
16.24717430164393
 31
0.0
  0
LINE
  5
92
330
82
100
AcDbEntity
  8
중심선
100
AcDbLine
 10
12.29416204261559
 20
16.24717430164393
 30
0.0
 11
15.74043728645272
 21
16.24717430164393
 31
0.0
  0
LINE
  5
93
330
82
100
AcDbEntity
  8
중심선
100
AcDbLine
 10
19.22036997980202
 20
11.08717430171403
 30
0.0
 11
23.66174974927406
 21
11.08717430171406
 31
0.0
  0
LINE
  5
94
330
82
100
AcDbEntity
  8
중심선
100
AcDbLine
 10
19.22039502424796
 20
13.00717430171391
 30
0.0
 11
19.22036997980202
 21
11.08717430171403
 31
0.0
  0
LINE
  5
95
330
82
100
AcDbEntity
  8
중심선
100
AcDbLine
 10
19.22039502424796
 20
13.00717430171391
 30
0.0
 11
26.96566020931264
 21
13.00717430171391
 31
0.0
  0
LINE
  5
96
330
82
100
AcDbEntity
  8
중심선
100
AcDbLine
 10
22.22332737316547
 20
13.45928029700563
 30
0.0
 11
24.52862924686651
 21
15.39360700705356
 31
0.0
  0
ATTDEF
  5
98
330
82
100
AcDbEntity
  8
FORMAT
 62
     2
100
AcDbText
 10
-9.18129528874128
 20
2.075366912832191
 30
0.0
 40
4.233333333333333
  1
E5980024 [ 3 FLUTE ]
 41
0.75
  7
SLDTEXTSTYLE0
 11
-9.18129528874128
 21
-0.0412997538344756
 31
0.0
100
AcDbAttributeDefinition
  3

  2
AUTOATTR0
 70
     0
 74
     1
  0
ENDBLK
  5
84
330
82
100
AcDbEntity
  8
0
100
AcDbBlockEnd
  0
BLOCK
  5
C7
330
C6
100
AcDbEntity
  8
0
100
AcDbBlockBegin
  2
_D
 70
     0
 10
0.0
 20
0.0
 30
0.0
  3
_D
  1
_D
  0
LINE
  5
C9
330
C6
100
AcDbEntity
  8
치수문자_일반주서
 62
     0
370
    -2
100
AcDbLine
 10
-28.10000000000042
 20
4.324999999999998
 30
0.0
 11
-28.10000000000042
 21
61.40569857228004
 31
0.0
  0
LINE
  5
CA
330
C6
100
AcDbEntity
  8
치수문자_일반주서
 62
     0
370
    -2
100
AcDbLine
 10
22.69999999999957
 20
4.825000000000006
 30
0.0
 11
22.69999999999957
 21
61.40569857228004
 31
0.0
  0
LINE
  5
CB
330
C6
100
AcDbEntity
  8
치수문자_일반주서
 62
     0
370
    -2
100
AcDbLine
 10
-24.79800000000042
 20
61.40569857228004
 30
0.0
 11
19.39799999999957
 21
61.40569857228004
 31
0.0
  0
SOLID
  5
CC
330
C6
100
AcDbEntity
  8
치수문자_일반주서
 62
     0
100
AcDbTrace
 10
-24.79800000000042
 20
61.95603190561337
 30
0.0
 11
-24.79800000000042
 21
60.8553652389467
 31
0.0
 12
-28.10000000000042
 22
61.40569857228004
 32
0.0
 13
-28.10000000000042
 23
61.40569857228004
 33
0.0
  0
SOLID
  5
CD
330
C6
100
AcDbEntity
  8
치수문자_일반주서
 62
     0
100
AcDbTrace
 10
19.39799999999957
 20
60.8553652389467
 30
0.0
 11
19.39799999999957
 21
61.95603190561337
 31
0.0
 12
22.69999999999957
 22
61.40569857228004
 32
0.0
 13
22.69999999999957
 23
61.40569857228004
 33
0.0
  0
MTEXT
  5
CE
330
C6
100
AcDbEntity
  8
치수문자_일반주서
 62
     0
100
AcDbMText
 10
-2.700000000000419
 20
65.78069857228004
 30
0.0
 40
3.5
 41
0.0
 71
     2
 72
     1
  1
\A1;50.80 [2]
  7
SLDTEXTSTYLE0
 73
     1
 44
1.0
  0
POINT
  5
CF
330
C6
100
AcDbEntity
  8
Defpoints
 62
     0
100
AcDbPoint
 10
-28.10000000000042
 20
4.262499999999998
 30
0.0
  0
POINT
  5
D0
330
C6
100
AcDbEntity
  8
Defpoints
 62
     0
100
AcDbPoint
 10
22.69999999999957
 20
4.762500000000006
 30
0.0
  0
POINT
  5
D1
330
C6
100
AcDbEntity
  8
Defpoints
 62
     0
100
AcDbPoint
 10
22.69999999999957
 20
61.40569857228004
 30
0.0
  0
ENDBLK
  5
C8
330
C6
100
AcDbEntity
  8
0
100
AcDbBlockEnd
  0
BLOCK
  5
DB
330
DA
100
AcDbEntity
  8
0
100
AcDbBlockBegin
  2
_D_1
 70
     0
 10
0.0
 20
0.0
 30
0.0
  3
_D_1
  1
_D_1
  0
LINE
  5
DD
330
DA
100
AcDbEntity
  8
치수문자_일반주서
 62
     0
370
    -2
100
AcDbLine
 10
-27.66250000000042
 20
4.762499999999998
 30
0.0
 11
-40.09645802161248
 21
4.762499999999953
 31
0.0
  0
LINE
  5
DE
330
DA
100
AcDbEntity
  8
치수문자_일반주서
 62
     0
370
    -2
100
AcDbLine
 10
-27.66250000000042
 20
-4.762499999999998
 30
0.0
 11
-40.09645802161244
 21
-4.762500000000045
 31
0.0
  0
LINE
  5
DF
330
DA
100
AcDbEntity
  8
치수문자_일반주서
 62
     0
370
    -2
100
AcDbLine
 10
-40.09645802161248
 20
4.762499999999953
 30
0.0
 11
-40.0964580216126
 21
37.83524999999996
 31
0.0
  0
LINE
  5
E0
330
DA
100
AcDbEntity
  8
치수문자_일반주서
 62
     0
370
    -2
100
AcDbLine
 10
-40.09645802161248
 20
4.762499999999953
 30
0.0
 11
-40.09645802161244
 21
-4.762500000000045
 31
0.0
  0
LINE
  5
E1
330
DA
100
AcDbEntity
  8
치수문자_일반주서
 62
     0
370
    -2
100
AcDbLine
 10
-40.09645802161249
 20
8.064499999999953
 30
0.0
 11
-40.09645802161251
 21
11.36649999999995
 31
0.0
  0
LINE
  5
E2
330
DA
100
AcDbEntity
  8
치수문자_일반주서
 62
     0
370
    -2
100
AcDbLine
 10
-40.09645802161243
 20
-8.064500000000045
 30
0.0
 11
-40.09645802161241
 21
-11.36650000000004
 31
0.0
  0
SOLID
  5
E3
330
DA
100
AcDbEntity
  8
치수문자_일반주서
 62
     0
100
AcDbTrace
 10
-40.64679135494583
 20
8.064499999999951
 30
0.0
 11
-39.54612468827916
 21
8.064499999999954
 31
0.0
 12
-40.09645802161248
 22
4.762499999999953
 32
0.0
 13
-40.09645802161248
 23
4.762499999999953
 33
0.0
  0
SOLID
  5
E4
330
DA
100
AcDbEntity
  8
치수문자_일반주서
 62
     0
100
AcDbTrace
 10
-39.54612468827909
 20
-8.064500000000043
 30
0.0
 11
-40.64679135494576
 21
-8.064500000000047
 31
0.0
 12
-40.09645802161244
 22
-4.762500000000045
 32
0.0
 13
-40.09645802161244
 23
-4.762500000000045
 33
0.0
  0
MTEXT
  5
E5
330
DA
100
AcDbEntity
  8
치수문자_일반주서
 62
     0
100
AcDbMText
 10
-44.47145802161255
 20
24.71024999999994
 30
0.0
 40
3.5
 41
0.0
 71
     2
 72
     1
  1
\A1;%%c9.53 [3/8]
  7
SLDTEXTSTYLE0
 11
-3.729883127349608E-15
 21
1.0
 31
0.0
 73
     1
 44
1.0
  0
POINT
  5
E6
330
DA
100
AcDbEntity
  8
Defpoints
 62
     0
100
AcDbPoint
 10
-27.60000000000042
 20
4.762499999999998
 30
0.0
  0
POINT
  5
E7
330
DA
100
AcDbEntity
  8
Defpoints
 62
     0
100
AcDbPoint
 10
-27.60000000000042
 20
-4.762499999999998
 30
0.0
  0
POINT
  5
E8
330
DA
100
AcDbEntity
  8
Defpoints
 62
     0
100
AcDbPoint
 10
-40.09645802161244
 20
-4.762500000000045
 30
0.0
  0
ENDBLK
  5
DC
330
DA
100
AcDbEntity
  8
0
100
AcDbBlockEnd
  0
BLOCK
  5
EF
330
EE
100
AcDbEntity
  8
0
100
AcDbBlockBegin
  2
_D_2
 70
     0
 10
0.0
 20
0.0
 30
0.0
  3
_D_2
  1
_D_2
  0
LINE
  5
F1
330
EE
100
AcDbEntity
  8
치수문자_일반주서
 62
     0
370
    -2
100
AcDbLine
 10
9.999999999999572
 20
4.825000000000004
 30
0.0
 11
9.999999999999572
 21
21.1034137462629
 31
0.0
  0
LINE
  5
F2
330
EE
100
AcDbEntity
  8
치수문자_일반주서
 62
     0
370
    -2
100
AcDbLine
 10
22.69999999999957
 20
4.825000000000006
 30
0.0
 11
22.69999999999958
 21
21.1034137462629
 31
0.0
  0
LINE
  5
F3
330
EE
100
AcDbEntity
  8
치수문자_일반주서
 62
     0
370
    -2
100
AcDbLine
 10
9.999999999999572
 20
21.1034137462629
 30
0.0
 11
-17.80200000000043
 21
21.1034137462629
 31
0.0
  0
LINE
  5
F4
330
EE
100
AcDbEntity
  8
치수문자_일반주서
 62
     0
370
    -2
100
AcDbLine
 10
13.30199999999957
 20
21.1034137462629
 30
0.0
 11
19.39799999999958
 21
21.1034137462629
 31
0.0
  0
SOLID
  5
F5
330
EE
100
AcDbEntity
  8
치수문자_일반주서
 62
     0
100
AcDbTrace
 10
13.30199999999957
 20
21.65374707959624
 30
0.0
 11
13.30199999999957
 21
20.55308041292957
 31
0.0
 12
9.999999999999572
 22
21.1034137462629
 32
0.0
 13
9.999999999999572
 23
21.1034137462629
 33
0.0
  0
SOLID
  5
F6
330
EE
100
AcDbEntity
  8
치수문자_일반주서
 62
     0
100
AcDbTrace
 10
19.39799999999958
 20
20.55308041292957
 30
0.0
 11
19.39799999999958
 21
21.65374707959624
 31
0.0
 12
22.69999999999958
 22
21.1034137462629
 32
0.0
 13
22.69999999999958
 23
21.1034137462629
 33
0.0
  0
MTEXT
  5
F7
330
EE
100
AcDbEntity
  8
치수문자_일반주서
 62
     0
100
AcDbMText
 10
-5.770750000000428
 20
25.4784137462629
 30
0.0
 40
3.5
 41
0.0
 71
     2
 72
     1
  1
\A1;12.70 [1/2]
  7
SLDTEXTSTYLE0
 73
     1
 44
1.0
  0
POINT
  5
F8
330
EE
100
AcDbEntity
  8
Defpoints
 62
     0
100
AcDbPoint
 10
9.999999999999572
 20
4.762500000000004
 30
0.0
  0
POINT
  5
F9
330
EE
100
AcDbEntity
  8
Defpoints
 62
     0
100
AcDbPoint
 10
22.69999999999957
 20
4.762500000000006
 30
0.0
  0
POINT
  5
FA
330
EE
100
AcDbEntity
  8
Defpoints
 62
     0
100
AcDbPoint
 10
22.69999999999957
 20
21.1034137462629
 30
0.0
  0
ENDBLK
  5
F0
330
EE
100
AcDbEntity
  8
0
100
AcDbBlockEnd
  0
BLOCK
  5
104
330
103
100
AcDbEntity
  8
0
100
AcDbBlockBegin
  2
_D_3
 70
     0
 10
0.0
 20
0.0
 30
0.0
  3
_D_3
  1
_D_3
  0
LINE
  5
106
330
103
100
AcDbEntity
  8
치수문자_일반주서
 62
     0
370
    -2
100
AcDbLine
 10
22.76249999999957
 20
4.762500000000006
 30
0.0
 11
33.40637624306864
 21
4.762500000000045
 31
0.0
  0
LINE
  5
107
330
103
100
AcDbEntity
  8
치수문자_일반주서
 62
     0
370
    -2
100
AcDbLine
 10
22.76249999999957
 20
-4.762499999999985
 30
0.0
 11
33.40637624306868
 21
-4.762499999999939
 31
0.0
  0
LINE
  5
108
330
103
100
AcDbEntity
  8
치수문자_일반주서
 62
     0
370
    -2
100
AcDbLine
 10
33.40637624306864
 20
4.762500000000045
 30
0.0
 11
33.40637624306848
 21
48.85495696985685
 31
0.0
  0
LINE
  5
109
330
103
100
AcDbEntity
  8
치수문자_일반주서
 62
     0
370
    -2
100
AcDbLine
 10
33.40637624306866
 20
1.460500000000046
 30
0.0
 11
33.40637624306866
 21
-1.460499999999939
 31
0.0
  0
SOLID
  5
10A
330
103
100
AcDbEntity
  8
치수문자_일반주서
 62
     0
100
AcDbTrace
 10
33.95670957640199
 20
1.460500000000048
 30
0.0
 11
32.85604290973532
 21
1.460500000000044
 31
0.0
 12
33.40637624306864
 22
4.762500000000045
 32
0.0
 13
33.40637624306864
 23
4.762500000000045
 33
0.0
  0
SOLID
  5
10B
330
103
100
AcDbEntity
  8
치수문자_일반주서
 62
     0
100
AcDbTrace
 10
32.85604290973533
 20
-1.460499999999941
 30
0.0
 11
33.956709576402
 21
-1.460499999999937
 31
0.0
 12
33.40637624306868
 22
-4.762499999999939
 32
0.0
 13
33.40637624306868
 23
-4.762499999999939
 33
0.0
  0
MTEXT
  5
10C
330
103
100
AcDbEntity
  8
치수문자_일반주서
 62
     0
100
AcDbMText
 10
29.03137624306853
 20
35.72995696985684
 30
0.0
 40
3.5
 41
0.0
 71
     2
 72
     1
  1
\A1;%%c9.53 [3/8]
  7
SLDTEXTSTYLE0
 11
-3.729883127349610E-15
 21
1.0
 31
0.0
 73
     1
 44
1.0
  0
POINT
  5
10D
330
103
100
AcDbEntity
  8
Defpoints
 62
     0
100
AcDbPoint
 10
22.69999999999957
 20
4.762500000000006
 30
0.0
  0
POINT
  5
10E
330
103
100
AcDbEntity
  8
Defpoints
 62
     0
100
AcDbPoint
 10
22.69999999999957
 20
-4.762499999999985
 30
0.0
  0
POINT
  5
10F
330
103
100
AcDbEntity
  8
Defpoints
 62
     0
100
AcDbPoint
 10
33.40637624306868
 20
-4.762499999999945
 30
0.0
  0
ENDBLK
  5
105
330
103
100
AcDbEntity
  8
0
100
AcDbBlockEnd
  0
BLOCK
  5
116
330
115
100
AcDbEntity
  8
0
100
AcDbBlockBegin
  2
SW_DOWELSYMBOL_0
 70
     0
 10
0.0
 20
0.0
 30
0.0
  3
SW_DOWELSYMBOL_0
  1
SW_DOWELSYMBOL_0
  0
CIRCLE
  5
118
330
115
100
AcDbEntity
  8
외형선
 62
     0
100
AcDbCircle
 10
0.0
 20
0.0
 30
0.0
 40
3.000000000000004
  0
HATCH
  5
119
330
115
100
AcDbEntity
  8
0
  6
Continuous
 62
     0
370
    35
100
AcDbHatch
 10
0.0
 20
0.0
 30
0.0
210
0.0
220
0.0
230
1.0
  2
SOLID
 70
     1
 71
     0
 91
        1
 92
        0
 93
        3
 72
     2
 10
0.0000000000000087
 20
0.0
 40
3.000000000000004
 50
0.0
 51
90.0
 73
     1
 72
     1
 10
0.0000000000000087
 20
3.000000000000004
 11
0.0000000000000087
 21
0.0
 72
     1
 10
0.0000000000000087
 20
0.0
 11
3.000000000000013
 21
0.0
 97
        0
 75
     0
 76
     1
 98
        1
 10
0.0
 20
0.0
  0
HATCH
  5
11A
330
115
100
AcDbEntity
  8
0
  6
Continuous
 62
     0
370
    35
100
AcDbHatch
 10
0.0
 20
0.0
 30
0.0
210
0.0
220
0.0
230
1.0
  2
SOLID
 70
     1
 71
     0
 91
        1
 92
        0
 93
        3
 72
     2
 10
0.0000000000000087
 20
0.0
 40
3.000000000000004
 50
180.0
 51
270.0000000000008
 73
     1
 72
     1
 10
0.0000000000000087
 20
-3.000000000000004
 11
0.0000000000000087
 21
0.0
 72
     1
 10
0.0000000000000087
 20
0.0
 11
-2.999999999999996
 21
0.0
 97
        0
 75
     0
 76
     1
 98
        1
 10
0.0
 20
0.0
  0
ENDBLK
  5
117
330
115
100
AcDbEntity
  8
0
100
AcDbBlockEnd
  0
ENDSEC
  0
SECTION
  2
ENTITIES
  0
LINE
  5
99
330
1F
100
AcDbEntity
  8
0
  6
Continuous
 62
     4
370
    25
100
AcDbLine
 10
9.99999999999957
 20
4.762500000000002
 30
0.0
 11
-27.60000000000042
 21
4.7625
 31
0.0
  0
LINE
  5
9A
330
1F
100
AcDbEntity
  8
0
  6
Continuous
 62
     4
370
    25
100
AcDbLine
 10
-27.60000000000042
 20
-4.762499999999998
 30
0.0
 11
8.479832357298637
 21
-4.762499999999997
 31
0.0
  0
LINE
  5
9B
330
1F
100
AcDbEntity
  8
0
  6
Continuous
 62
     4
370
    25
100
AcDbLine
 10
-27.60000000000042
 20
4.762499999999998
 30
0.0
 11
-28.10000000000042
 21
4.262499999999998
 31
0.0
  0
LINE
  5
9C
330
1F
100
AcDbEntity
  8
0
  6
Continuous
 62
     4
370
    25
100
AcDbLine
 10
-28.10000000000042
 20
-4.262499999999998
 30
0.0
 11
-27.60000000000042
 21
-4.762499999999998
 31
0.0
  0
LINE
  5
9D
330
1F
100
AcDbEntity
  8
0
  6
Continuous
 62
     1
370
    25
100
AcDbLine
 10
10.25881976460072
 20
4.762500000000004
 30
0.0
 11
9.999999999999572
 21
4.762500000000004
 31
0.0
  0
LINE
  5
9E
330
1F
100
AcDbEntity
  8
0
  6
Continuous
 62
     1
370
    25
100
AcDbLine
 10
13.54505871422389
 20
-4.762499999999998
 30
0.0
 11
18.89791615800071
 21
-4.762499999999998
 31
0.0
  0
LINE
  5
9F
330
1F
100
AcDbEntity
  8
0
  6
Continuous
 62
     1
370
    25
100
AcDbLine
 10
22.69999999999957
 20
4.762500000000004
 30
0.0
 11
22.1830235613863
 21
4.762500000000004
 31
0.0
  0
LINE
  5
A0
330
1F
100
AcDbEntity
  8
0
  6
Continuous
 62
     4
370
    25
100
AcDbLine
 10
9.99999999999957
 20
4.762500000000002
 30
0.0
 11
9.99999999999957
 21
3.882892064605952
 31
0.0
  0
SPLINE
  5
A1
330
1F
100
AcDbEntity
  8
0
  6
Continuous
 62
     4
370
    25
100
AcDbSpline
210
0.0
220
0.0
230
1.0
 70
     8
 71
     3
 72
    10
 73
     6
 74
     0
 42
0.000000001
 43
0.00000001
 40
0.0
 40
0.0
 40
0.0
 40
0.0
 40
0.5
 40
0.5
 40
1.0
 40
1.0
 40
1.0
 40
1.0
 10
9.99999999999999
 20
3.882892064605814
 30
0.0
 10
9.747071145968516
 20
3.967546871296232
 30
0.0
 10
9.495608094781623
 20
4.046563663048945
 30
0.0
 10
8.988264839730073
 20
4.193382409127062
 30
0.0
 10
8.733690035242093
 20
4.261030956481318
 30
0.0
 10
8.479832357298639
 20
4.322483722183672
 30
0.0
  0
SPLINE
  5
A2
330
1F
100
AcDbEntity
  8
0
  6
Continuous
 62
     4
370
    25
100
AcDbSpline
210
0.0
220
0.0
230
1.0
 70
     8
 71
     3
 72
    10
 73
     6
 74
     0
 42
0.000000001
 43
0.00000001
 40
0.0
 40
0.0
 40
0.0
 40
0.0
 40
0.5
 40
0.5
 40
1.0
 40
1.0
 40
1.0
 40
1.0
 10
9.99999999999999
 20
-2.250645488532016
 30
0.0
 10
9.747071145968516
 20
-2.121800250778211
 30
0.0
 10
9.495608094781625
 20
-1.990029690831701
 30
0.0
 10
8.988264839730075
 20
-1.720463517866365
 30
0.0
 10
8.733690035242095
 20
-1.582887642309556
 30
0.0
 10
8.47983235729864
 20
-1.443392926790596
 30
0.0
  0
LINE
  5
A3
330
1F
100
AcDbEntity
  8
0
  6
Continuous
 62
     4
370
    25
100
AcDbLine
 10
9.99999999999957
 20
-2.250645488531797
 30
0.0
 11
9.999999999999572
 21
-4.329628730185434
 31
0.0
  0
SPLINE
  5
A4
330
1F
100
AcDbEntity
  8
0
  6
Continuous
 62
     4
370
    25
100
AcDbSpline
210
0.0
220
0.0
230
1.0
 70
     8
 71
     3
 72
    10
 73
     6
 74
     0
 42
0.000000001
 43
0.00000001
 40
0.0
 40
0.0
 40
0.0
 40
0.0
 40
0.5
 40
0.5
 40
1.0
 40
1.0
 40
1.0
 40
1.0
 10
9.99999999999999
 20
-4.329628730185533
 30
0.0
 10
9.747071145968517
 20
-4.268727386389541
 30
0.0
 10
9.495608094781623
 20
-4.201838446713674
 30
0.0
 10
8.988264839730075
 20
-4.055970412086921
 30
0.0
 10
8.733690035242095
 20
-3.977089678159132
 30
0.0
 10
8.479832357298639
 20
-3.892760137372207
 30
0.0
  0
LINE
  5
A5
330
1F
100
AcDbEntity
  8
0
  6
Continuous
 62
     4
370
    25
100
AcDbLine
 10
8.479832357298639
 20
-3.892751610933912
 30
0.0
 11
8.479832357298639
 21
-4.762499999999997
 31
0.0
  0
LINE
  5
A6
330
1F
100
AcDbEntity
  8
0
  6
Continuous
 62
     4
370
    25
100
AcDbLine
 10
-27.60000000000042
 20
4.762499999999998
 30
0.0
 11
-27.60000000000042
 21
-4.762499999999998
 31
0.0
  0
LINE
  5
A7
330
1F
100
AcDbEntity
  8
0
  6
Continuous
 62
     4
370
    25
100
AcDbLine
 10
8.479832357298639
 20
4.322489935549646
 30
0.0
 11
8.479832357298639
 21
-1.443433579581058
 31
0.0
  0
LINE
  5
A8
330
1F
100
AcDbEntity
  8
0
  6
Continuous
 62
     4
370
    25
100
AcDbLine
 10
-28.10000000000042
 20
4.262499999999998
 30
0.0
 11
-28.10000000000042
 21
-4.262499999999998
 31
0.0
  0
SPLINE
  5
A9
330
1F
100
AcDbEntity
  8
0
  6
Continuous
 62
     4
370
    25
100
AcDbSpline
210
0.0
220
0.0
230
1.0
 70
    24
 71
     3
 72
    18
 73
    14
 74
     0
 42
0.000000001
 43
0.00000001
 40
0.0
 40
0.0
 40
0.0
 40
0.0
 40
0.25
 40
0.25
 40
0.5
 40
0.5
 40
0.625
 40
0.625
 40
0.75
 40
0.75
 40
0.875
 40
0.875
 40
1.0
 40
1.0
 40
1.0
 40
1.0
 10
9.999999999999572
 20
3.882892064605951
 30
0.0
 10
9.999999999999572
 20
3.545465523727444
 30
0.0
 10
9.999999999999572
 20
3.146678545860953
 30
0.0
 10
9.999999999999572
 20
2.213935673383514
 30
0.0
 10
9.999999999999572
 20
1.678072879962512
 30
0.0
 10
9.999999999999574
 20
0.8086808464943186
 30
0.0
 10
9.999999999999574
 20
0.5086756694071854
 30
0.0
 10
9.999999999999574
 20
-0.0954054338648578
 30
0.0
 10
9.999999999999574
 20
-0.3994098133632369
 30
0.0
 10
9.999999999999574
 20
-0.9888794286743281
 30
0.0
 10
9.999999999999574
 20
-1.274174446512736
 30
0.0
 10
9.999999999999574
 20
-1.800951513557771
 30
0.0
 10
9.999999999999574
 20
-2.042217085092815
 30
0.0
 10
9.999999999999574
 20
-2.250645488531192
 30
0.0
  0
SPLINE
  5
AA
330
1F
100
AcDbEntity
  8
0
  6
Continuous
 62
     1
370
    25
100
AcDbSpline
210
0.0
220
0.0
230
1.0
 70
     8
 71
     3
 72
    30
 73
    26
 74
     0
 42
0.000000001
 43
0.00000001
 40
0.0
 40
0.0
 40
0.0
 40
0.0
 40
0.125
 40
0.125
 40
0.1875000000000001
 40
0.1875000000000001
 40
0.2500000000000003
 40
0.2500000000000003
 40
0.3125000000000004
 40
0.3125000000000004
 40
0.3750000000000006
 40
0.3750000000000006
 40
0.5000000000000006
 40
0.5000000000000006
 40
0.5625000000000006
 40
0.5625000000000006
 40
0.6250000000000006
 40
0.6250000000000006
 40
0.6875000000000006
 40
0.6875000000000006
 40
0.7500000000000004
 40
0.7500000000000004
 40
0.8750000000000002
 40
0.8750000000000002
 40
1.0
 40
1.0
 40
1.0
 40
1.0
 10
22.69999999999958
 20
-4.26547157775479
 30
0.0
 10
22.17420240245407
 20
-4.401064328088182
 30
0.0
 10
21.63983993644939
 20
-4.510926560535612
 30
0.0
 10
20.84749181744136
 20
-4.632403351896107
 30
0.0
 10
20.58489676245322
 20
-4.665758449714042
 30
0.0
 10
20.05501961278673
 20
-4.718166374285247
 30
0.0
 10
19.78916189841992
 20
-4.73713733731572
 30
0.0
 10
19.25929713707821
 20
-4.760350370931061
 30
0.0
 10
18.99671437263916
 20
-4.76460688507581
 30
0.0
 10
18.46846174421344
 20
-4.758467010644098
 30
0.0
 10
18.20280685070178
 20
-4.748035307508394
 30
0.0
 10
17.40677586150001
 20
-4.694770966084287
 30
0.0
 10
16.88159952171263
 20
-4.630177470872945
 30
0.0
 10
16.08555616458004
 20
-4.49078002184446
 30
0.0
 10
15.81990960052763
 20
-4.437266181089263
 30
0.0
 10
15.29169815236901
 20
-4.316948854889159
 30
0.0
 10
15.02909055826634
 20
-4.250174123059802
 30
0.0
 10
14.49920110322656
 20
-4.103322455509747
 30
0.0
 10
14.23334343081647
 20
-4.023346842429893
 30
0.0
 10
13.70349114074455
 20
-3.851406648095591
 30
0.0
 10
13.44092041828279
 20
-3.759626085426888
 30
0.0
 10
12.64851077516924
 20
-3.466817348873929
 30
0.0
 10
12.11427091948485
 20
-3.248107751243575
 30
0.0
 10
11.06256146463929
 20
-2.775807907190503
 30
0.0
 10
10.52819073489578
 20
-2.519712697481369
 30
0.0
 10
9.999999999999519
 20
-2.250645488531773
 30
0.0
  0
SPLINE
  5
AB
330
1F
100
AcDbEntity
  8
0
  6
Continuous
 62
     4
370
    25
100
AcDbSpline
210
0.0
220
0.0
230
1.0
 70
    24
 71
     3
 72
    18
 73
    14
 74
     0
 42
0.000000001
 43
0.00000001
 40
0.0
 40
0.0
 40
0.0
 40
0.0
 40
0.2499999999999999
 40
0.2499999999999999
 40
0.4999999999999999
 40
0.4999999999999999
 40
0.6249999999999999
 40
0.6249999999999999
 40
0.7499999999999999
 40
0.7499999999999999
 40
0.875
 40
0.875
 40
1.0
 40
1.0
 40
1.0
 40
1.0
 10
9.999999999999572
 20
3.882892064626629
 30
0.0
 10
9.999999999999572
 20
3.545465523748853
 30
0.0
 10
9.999999999999572
 20
3.146678545882748
 30
0.0
 10
9.999999999999572
 20
2.213935673404583
 30
0.0
 10
9.999999999999572
 20
1.678072879982418
 30
0.0
 10
9.999999999999574
 20
0.8086808465109994
 30
0.0
 10
9.999999999999574
 20
0.5086756694225529
 30
0.0
 10
9.999999999999574
 20
-0.0954054338524681
 30
0.0
 10
9.999999999999574
 20
-0.3994098133525078
 30
0.0
 10
9.999999999999574
 20
-0.9888794286669962
 30
0.0
 10
9.999999999999574
 20
-1.274174446507136
 30
0.0
 10
9.999999999999574
 20
-1.800951513555307
 30
0.0
 10
9.999999999999574
 20
-2.04221708509175
 30
0.0
 10
9.999999999999574
 20
-2.250645488531194
 30
0.0
  0
SPLINE
  5
AC
330
1F
100
AcDbEntity
  8
0
  6
Continuous
 62
     1
370
    25
100
AcDbSpline
210
0.0
220
0.0
230
1.0
 70
     8
 71
     3
 72
    30
 73
    26
 74
     0
 42
0.000000001
 43
0.00000001
 40
0.0
 40
0.0
 40
0.0
 40
0.0
 40
0.125
 40
0.125
 40
0.1875
 40
0.1875
 40
0.25
 40
0.25
 40
0.3125
 40
0.3125
 40
0.375
 40
0.375
 40
0.5
 40
0.5
 40
0.5625
 40
0.5625
 40
0.625
 40
0.625
 40
0.6875
 40
0.6875
 40
0.75
 40
0.75
 40
0.875
 40
0.875
 40
1.0
 40
1.0
 40
1.0
 40
1.0
 10
22.69999999999957
 20
-2.63486104379774
 30
0.0
 10
22.17420240245401
 20
-2.380916935729819
 30
0.0
 10
21.63983993644928
 20
-2.109264948005096
 30
0.0
 10
20.84749181744119
 20
-1.686339265726126
 30
0.0
 10
20.58489676245301
 20
-1.542824421844217
 30
0.0
 10
20.05501961278646
 20
-1.250628757591853
 30
0.0
 10
19.78916189841964
 20
-1.102200421122981
 30
0.0
 10
19.25929713707788
 20
-0.8027423627031449
 30
0.0
 10
18.9967143726388
 20
-0.6519890489361109
 30
0.0
 10
18.46846174421303
 20
-0.3483548827042414
 30
0.0
 10
18.20280685070134
 20
-0.1954727362085172
 30
0.0
 10
17.4067758614995
 20
0.2631950643887856
 30
0.0
 10
16.88159952171207
 20
0.568176369909756
 30
0.0
 10
16.0855561645794
 20
1.019167306192145
 30
0.0
 10
15.81990960052697
 20
1.168206799828474
 30
0.0
 10
15.2916981523683
 20
1.461653549917026
 30
0.0
 10
15.02909055826561
 20
1.606078827101608
 30
0.0
 10
14.49920110322577
 20
1.890379281959692
 30
0.0
 10
14.23334343081566
 20
2.029985891985069
 30
0.0
 10
13.70349114074369
 20
2.302175169507659
 30
0.0
 10
13.44092041828191
 20
2.434529303961076
 30
0.0
 10
12.64851077516827
 20
2.820529905579179
 30
0.0
 10
12.11427091948385
 20
3.06286821142039
 30
0.0
 10
11.06256146463817
 20
3.504488659986325
 30
0.0
 10
10.5281907348946
 20
3.70610762959392
 30
0.0
 10
9.9999999999983
 20
3.882892064606381
 30
0.0
  0
SPLINE
  5
AD
330
1F
100
AcDbEntity
  8
0
  6
Continuous
 62
     1
370
    25
100
AcDbSpline
210
0.0
220
0.0
230
1.0
 70
     8
 71
     3
 72
     9
 73
     5
 74
     0
 42
0.000000001
 43
0.00000001
 40
0.0
 40
0.0
 40
0.0
 40
0.0
 40
0.2487887455203316
 40
1.0
 40
1.0
 40
1.0
 40
1.0
 10
21.77364386897351
 20
-2.166710995177255
 30
0.0
 10
21.72603427838318
 20
-2.179133723288738
 30
0.0
 10
21.53466874659131
 20
-2.229066561229224
 30
0.0
 10
21.31982874535381
 20
-2.327038107870705
 30
0.0
 10
21.15843851851177
 20
-2.400635436326565
 30
0.0
  0
SPLINE
  5
AE
330
1F
100
AcDbEntity
  8
0
  6
Continuous
 62
     1
370
    25
100
AcDbSpline
210
0.0
220
0.0
230
1.0
 70
     8
 71
     3
 72
     8
 73
     4
 74
     0
 42
0.000000001
 43
0.00000001
 40
0.0
 40
0.0
 40
0.0
 40
0.0
 40
1.0
 40
1.0
 40
1.0
 40
1.0
 10
22.69999999999957
 20
-2.784196431186863
 30
0.0
 10
22.17292840035578
 20
-2.703525848157295
 30
0.0
 10
21.65954323427914
 20
-2.573999217926011
 30
0.0
 10
21.15843851851111
 20
-2.4006354363293
 30
0.0
  0
LINE
  5
AF
330
1F
100
AcDbEntity
  8
0
  6
Continuous
 62
     1
370
    25
100
AcDbLine
 10
22.69999999999957
 20
-4.265471577754792
 30
0.0
 11
22.69999999999957
 21
-2.784196431186863
 31
0.0
  0
SPLINE
  5
B0
330
1F
100
AcDbEntity
  8
0
  6
Continuous
 62
     1
370
    25
100
AcDbSpline
210
0.0
220
0.0
230
1.0
 70
     8
 71
     3
 72
    16
 73
    12
 74
     0
 42
0.000000001
 43
0.00000001
 40
0.0
 40
0.0
 40
0.0
 40
0.0
 40
0.1143960279961767
 40
0.2286570503414961
 40
0.3428995401297948
 40
0.4572402037111998
 40
0.5716779999454926
 40
0.6839243866926049
 40
0.7961161837899415
 40
0.9083921542322233
 40
1.0
 40
1.0
 40
1.0
 40
1.0
 10
22.69999999999958
 20
0.2982416209868493
 30
0.0
 10
22.22550497184477
 20
0.5705914275886272
 30
0.0
 10
21.27707489573051
 20
1.114969624362389
 30
0.0
 10
19.85528848839268
 20
1.896750278779977
 30
0.0
 10
18.4337381074939
 20
2.622764876060716
 30
0.0
 10
17.01120429660999
 20
3.270859042993546
 30
0.0
 10
15.59647966210259
 20
3.817998418470262
 30
0.0
 10
14.19134475447488
 20
4.25250439955605
 30
0.0
 10
12.79526619403682
 20
4.558642973345965
 30
0.0
 10
11.48455392786979
 20
4.737374093924686
 30
0.0
 10
10.63881988179344
 20
4.747608395633137
 30
0.0
 10
10.25881976460072
 20
4.752206810308106
 30
0.0
  0
LINE
  5
B1
330
1F
100
AcDbEntity
  8
0
  6
Continuous
 62
     1
370
    25
100
AcDbLine
 10
22.69999999999957
 20
-2.634861043797741
 30
0.0
 11
22.69999999999957
 21
0.2982416209868481
 31
0.0
  0
SPLINE
  5
B2
330
1F
100
AcDbEntity
  8
0
  6
Continuous
 62
     1
370
    25
100
AcDbSpline
210
0.0
220
0.0
230
1.0
 70
     8
 71
     3
 72
    12
 73
     8
 74
     0
 42
0.000000001
 43
0.00000001
 40
0.0
 40
0.0
 40
0.0
 40
0.0
 40
0.1376771768848698
 40
0.3533757930678199
 40
0.5688184564528236
 40
0.7842712214010824
 40
1.0
 40
1.0
 40
1.0
 40
1.0
 10
16.22042658202746
 20
3.559109216470392
 30
0.0
 10
16.51783409835098
 20
3.673537140195814
 30
0.0
 10
17.28118950207953
 20
3.967239111797023
 30
0.0
 10
18.50993331619873
 20
4.316136012446832
 30
0.0
 10
19.90618776624702
 20
4.603283474094501
 30
0.0
 10
21.30251810658796
 20
4.764053198979678
 30
0.0
 10
22.23397395023791
 20
4.756787581390782
 30
0.0
 10
22.69999999999957
 20
4.753152447114567
 30
0.0
  0
SPLINE
  5
B3
330
1F
100
AcDbEntity
  8
0
  6
Continuous
 62
     1
370
    25
100
AcDbSpline
210
0.0
220
0.0
230
1.0
 70
     8
 71
     3
 72
    12
 73
     8
 74
     0
 42
0.000000001
 43
0.00000001
 40
0.0
 40
0.0
 40
0.0
 40
0.0
 40
0.2499999999999997
 40
0.2499999999999997
 40
0.4999999999999993
 40
0.4999999999999993
 40
1.0
 40
1.0
 40
1.0
 40
1.0
 10
22.69999999999957
 20
3.083737631391753
 30
0.0
 10
22.6215309397778
 20
2.904524753650839
 30
0.0
 10
22.52902629096999
 20
2.73848963063182
 30
0.0
 10
22.31443996163073
 20
2.434188713045323
 30
0.0
 10
22.19077086405116
 20
2.295026471038991
 30
0.0
 10
21.79207248400284
 20
1.940226699704478
 30
0.0
 10
21.4806654564957
 20
1.779028503699699
 30
0.0
 10
21.15843851851153
 20
1.69433897069126
 30
0.0
  0
SPLINE
  5
B4
330
1F
100
AcDbEntity
  8
0
  6
Continuous
 62
     1
370
    25
100
AcDbSpline
210
0.0
220
0.0
230
1.0
 70
     8
 71
     3
 72
     8
 73
     4
 74
     0
 42
0.000000001
 43
0.00000001
 40
0.0
 40
0.0
 40
0.0
 40
0.0
 40
1.0
 40
1.0
 40
1.0
 40
1.0
 10
22.69999999999957
 20
0.9186882131466353
 30
0.0
 10
22.17292840035577
 20
1.205300908192393
 30
0.0
 10
21.6595432342791
 20
1.462856153808308
 30
0.0
 10
21.15843851851105
 20
1.694338970689043
 30
0.0
  0
LINE
  5
B5
330
1F
100
AcDbEntity
  8
0
  6
Continuous
 62
     1
370
    25
100
AcDbLine
 10
22.69999999999957
 20
0.2982416209868481
 30
0.0
 11
22.69999999999957
 21
0.9186882131466345
 31
0.0
  0
LINE
  5
B6
330
1F
100
AcDbEntity
  8
0
  6
Continuous
 62
     1
370
    25
100
AcDbLine
 10
22.69999999999957
 20
3.083737631391751
 30
0.0
 11
22.69999999999957
 21
4.753152447114569
 31
0.0
  0
SPLINE
  5
B7
330
1F
100
AcDbEntity
  8
0
  6
Continuous
 62
     1
370
    25
100
AcDbSpline
210
0.0
220
0.0
230
1.0
 70
     8
 71
     3
 72
    10
 73
     6
 74
     0
 42
0.000000001
 43
0.00000001
 40
0.0
 40
0.0
 40
0.0
 40
0.0
 40
0.4016514393469541
 40
0.8029037678873381
 40
1.0
 40
1.0
 40
1.0
 40
1.0
 10
9.999999999998721
 20
-4.329628730185229
 30
0.0
 10
10.47471584316263
 20
-4.429847036670051
 30
0.0
 10
11.42367581644651
 20
-4.63018406526076
 30
0.0
 10
12.60530274846933
 20
-4.758277997254813
 30
0.0
 10
13.31220489251287
 20
-4.748160587739073
 30
0.0
 10
13.54505871422388
 20
-4.744827909388317
 30
0.0
  0
LINE
  5
B8
330
1F
100
AcDbEntity
  8
0
  6
Continuous
 62
     1
370
    25
100
AcDbLine
 10
22.69999999999957
 20
0.9186882131466344
 30
0.0
 11
22.69999999999957
 21
3.083737631391751
 31
0.0
  0
LINE
  5
B9
330
1F
100
AcDbEntity
  8
0
  6
Continuous
 62
     1
370
    25
100
AcDbLine
 10
22.69999999999957
 20
-2.634861043797741
 30
0.0
 11
22.69999999999957
 21
-2.784196431186864
 31
0.0
  0
LINE
  5
BA
330
1F
100
AcDbEntity
  8
0
  6
Continuous
 62
     1
370
    25
100
AcDbLine
 10
22.69999999999957
 20
4.753152447114569
 30
0.0
 11
22.69999999999957
 21
4.762500000000006
 31
0.0
  0
LINE
  5
BB
330
1F
100
AcDbEntity
  8
중심선
100
AcDbLine
 10
-31.10000000000042
 20
0.0000000000000008
 30
0.0
 11
25.69999999999956
 21
0.0000000000000012
 31
0.0
  0
CIRCLE
  5
BC
330
1F
100
AcDbEntity
  8
외형선
100
AcDbCircle
 10
0.0
 20
0.0
 30
0.0
 40
3.000000000000004
  0
INSERT
  5
BD
330
1F
100
AcDbEntity
  8
0
  6
Continuous
 62
     7
100
AcDbBlockReference
 66
     1
  2
블럭10
 10
-16.64076129968143
 20
-38.52899786492064
 30
0.0
  0
ATTRIB
  5
BE
330
BD
100
AcDbEntity
  8
FORMAT
 62
     2
100
AcDbText
 10
-25.82205658842271
 20
-36.45363095208845
 30
0.0
 40
4.233333333333333
  1
E5980024 [ 3 FLUTE ]
 41
0.75
  7
SLDTEXTSTYLE0
 11
-25.82205658842271
 21
-38.57029761875512
 31
0.0
100
AcDbAttribute
  2
AUTOATTR0
 70
     0
 74
     1
  0
SEQEND
  5
BF
330
BD
100
AcDbEntity
  8
0
  6
Continuous
 62
     7
  0
HATCH
  5
C0
330
1F
100
AcDbEntity
  8
중심선
100
AcDbHatch
 10
0.0
 20
0.0
 30
0.0
210
0.0
220
0.0
230
1.0
  2
SOLID
 70
     1
 71
     0
 91
        1
 92
        0
 93
        4
 72
     1
 10
-10.92585199530058
 20
-22.2818235632767
 11
-14.37212723913786
 21
-22.2818235632767
 72
     1
 10
-14.37212723913786
 20
-22.2818235632767
 11
-16.50035709834188
 21
-24.8181491438493
 72
     1
 10
-16.50035709834188
 20
-24.8181491438493
 11
-13.05404876939145
 21
-24.81810971454681
 72
     1
 10
-13.05404876939145
 20
-24.81810971454681
 11
-10.92585199530058
 21
-22.2818235632767
 97
        0
 75
     0
 76
     1
 98
        1
 10
0.0
 20
13.5171015079994
  0
HATCH
  5
C1
330
1F
100
AcDbEntity
  8
중심선
100
AcDbHatch
 10
0.0
 20
0.0
 30
0.0
210
0.0
220
0.0
230
1.0
  2
SOLID
 70
     1
 71
     0
 91
        1
 92
        0
 93
        4
 72
     1
 10
-5.913088004264627
 20
-22.2818235632767
 11
-9.359363248101909
 21
-22.2818235632767
 72
     1
 10
-9.359363248101909
 20
-22.2818235632767
 11
-13.8905012564593
 21
-27.68182356327672
 72
     1
 10
-13.8905012564593
 20
-27.68182356327672
 11
-10.44422601262202
 21
-27.68182356327672
 72
     1
 10
-10.44422601262202
 20
-27.68182356327672
 11
-5.913088004264627
 21
-22.2818235632767
 97
        0
 75
     0
 76
     1
 98
        1
 10
0.0
 20
13.5171015079994
  0
HATCH
  5
C2
330
1F
100
AcDbEntity
  8
중심선
100
AcDbHatch
 10
0.0
 20
0.0
 30
0.0
210
0.0
220
0.0
230
1.0
  2
SOLID
 70
     1
 71
     0
 91
        1
 92
        0
 93
        4
 72
     1
 10
-0.9003240132287316
 20
-22.28182356327673
 11
-4.346599257065847
 21
-22.2818235632767
 72
     1
 10
-4.346599257065847
 20
-22.2818235632767
 11
-11.3950361589551
 21
-30.68182356327672
 72
     1
 10
-11.3950361589551
 20
-30.68182356327672
 11
-7.948760915117814
 21
-30.68182356327672
 72
     1
 10
-7.948760915117814
 20
-30.68182356327672
 11
-0.9003240132287313
 21
-22.28182356327673
 97
        0
 75
     0
 76
     1
 98
        1
 10
0.0
 20
13.5171015079994
  0
HATCH
  5
C3
330
1F
100
AcDbEntity
  8
중심선
100
AcDbHatch
 10
0.0
 20
0.0
 30
0.0
210
0.0
220
0.0
230
1.0
  2
SOLID
 70
     1
 71
     0
 91
        1
 92
        0
 93
        6
 72
     3
 10
3.899566417783467
 20
-26.48182356332798
 11
3.960054785062284
 21
1.540882976769353E-10
 40
0.3939339440162627
 50
17.09539180608437
 51
320.0019657685081
 73
     0
 72
     1
 10
5.582566073484063
 20
-25.06971756791501
 11
7.887867947185101
 21
-23.13539085786709
 72
     3
 10
3.899566417730621
 20
-26.48182356327685
 11
6.60005478528683
 21
-1.278976924368180E-13
 40
0.636358354079598
 50
39.99873849337411
 51
368.4976242363725
 73
     1
 72
     1
 10
10.32489890963123
 20
-25.52182356320673
 11
2.579633724566543
 21
-25.5218235632067
 72
     1
 10
2.579633724566543
 20
-25.5218235632067
 11
2.57960868012061
 21
-27.44182356320662
 72
     1
 10
2.57960868012061
 20
-27.44182356320662
 11
7.020988449592647
 21
-27.44182356320659
 97
        0
 75
     0
 76
     1
 98
        1
 10
0.0
 20
13.5171015079994
  0
DIMENSION
  5
C4
330
1F
100
AcDbEntity
  8
치수문자_일반주서
100
AcDbDimension
  2
_D
 10
22.69999999999957
 20
61.40569857228004
 30
0.0
 11
-2.700000000000419
 21
61.40569857228004
 31
0.0
 70
   160
  1
<>
 71
     2
 42
50.8
  3
SLDDIMSTYLE0
100
AcDbAlignedDimension
 13
-28.10000000000042
 23
4.262499999999998
 33
0.0
 14
22.69999999999957
 24
4.762500000000006
 34
0.0
100
AcDbRotatedDimension
1001
ACAD
1000
DSTYLE
1002
{
1070
   171
1070
     6
1070
   273
1070
     5
1002
}
  0
DIMENSION
  5
D8
330
1F
100
AcDbEntity
  8
치수문자_일반주서
100
AcDbDimension
  2
_D_1
 10
-40.09645802161244
 20
-4.762500000000045
 30
0.0
 11
-40.09645802161255
 21
24.71024999999996
 31
0.0
 70
   160
  1
%%c<>
 71
     2
 42
9.524999999999997
 52
-270.0
  3
SLDDIMSTYLE1
100
AcDbAlignedDimension
 13
-27.60000000000042
 23
4.762499999999998
 33
0.0
 14
-27.60000000000042
 24
-4.762499999999998
 34
0.0
 50
90.0000000000002
100
AcDbRotatedDimension
1001
ACAD
1000
DSTYLE
1002
{
1070
   171
1070
     6
1070
   273
1070
     5
1002
}
  0
DIMENSION
  5
ED
330
1F
100
AcDbEntity
  8
치수문자_일반주서
100
AcDbDimension
  2
_D_2
 10
22.69999999999958
 20
21.1034137462629
 30
0.0
 11
-5.770750000000428
 21
21.1034137462629
 31
0.0
 70
   160
  1
<>
 71
     2
 42
12.7
  3
SLDDIMSTYLE0
100
AcDbAlignedDimension
 13
9.999999999999572
 23
4.762500000000004
 33
0.0
 14
22.69999999999957
 24
4.762500000000006
 34
0.0
100
AcDbRotatedDimension
1001
ACAD
1000
DSTYLE
1002
{
1070
   171
1070
     6
1070
   273
1070
     5
1002
}
  0
DIMENSION
  5
101
330
1F
100
AcDbEntity
  8
치수문자_일반주서
100
AcDbDimension
  2
_D_3
 10
33.40637624306868
 20
-4.762499999999939
 30
0.0
 11
33.40637624306853
 21
35.72995696985685
 31
0.0
 70
   160
  1
%%c<>
 71
     2
 42
9.524999999999991
 52
-270.0
  3
SLDDIMSTYLE2
100
AcDbAlignedDimension
 13
22.69999999999957
 23
4.762500000000006
 33
0.0
 14
22.69999999999957
 24
-4.762499999999985
 34
0.0
 50
90.0000000000002
100
AcDbRotatedDimension
1001
ACAD
1000
DSTYLE
1002
{
1070
   171
1070
     6
1070
   273
1070
     5
1002
}
  0
INSERT
  5
11B
330
1F
100
AcDbEntity
  8
외형선
100
AcDbBlockReference
  2
SW_DOWELSYMBOL_0
 10
0.0
 20
0.0
 30
0.0
  0
ENDSEC
  0
SECTION
  2
OBJECTS
  0
DICTIONARY
  5
C
330
0
100
AcDbDictionary
281
     1
  3
ACAD_GROUP
350
D
  3
ACAD_IMAGE_VARS
350
13F
  3
ACAD_LAYOUT
350
1A
  3
ACAD_MLINESTYLE
350
17
  3
ACAD_PLOTSETTINGS
350
19
  3
ACAD_PLOTSTYLENAME
350
E
  3
ACAD_SCALELIST
350
47
  3
APPDATA
350
13D
  3
DWGPROPS
350
144
  0
DICTIONARY
  5
D
102
{ACAD_REACTORS
330
C
102
}
330
C
100
AcDbDictionary
281
     1
  0
RASTERVARIABLES
  5
13F
102
{ACAD_REACTORS
330
C
102
}
330
C
100
AcDbRasterVariables
 90
        0
 70
     1
 71
     1
 72
     1
  0
DICTIONARY
  5
1A
102
{ACAD_REACTORS
330
C
102
}
330
C
100
AcDbDictionary
281
     1
  3
Layout1
350
1E
  3
Layout2
350
26
  3
Model
350
22
  0
DICTIONARY
  5
17
102
{ACAD_REACTORS
330
C
102
}
330
C
100
AcDbDictionary
281
     1
  3
Standard
350
18
  0
DICTIONARY
  5
19
102
{ACAD_REACTORS
330
C
102
}
330
C
100
AcDbDictionary
281
     1
  0
ACDBDICTIONARYWDFLT
  5
E
102
{ACAD_REACTORS
330
C
102
}
330
C
100
AcDbDictionary
281
     1
  3
Normal
350
F
100
AcDbDictionaryWithDefault
340
F
  0
DICTIONARY
  5
47
102
{ACAD_REACTORS
330
C
102
}
330
C
100
AcDbDictionary
281
     1
  3
A0
350
48
  3
A1
350
49
  3
A2
350
4A
  3
A3
350
4B
  3
A4
350
4C
  3
A5
350
4D
  3
A6
350
4E
  3
A7
350
4F
  3
A8
350
50
  3
A9
350
51
  3
B0
350
52
  3
B1
350
53
  3
B2
350
54
  3
B3
350
55
  3
B4
350
56
  3
B5
350
57
  3
B6
350
58
  3
B7
350
59
  3
B8
350
5A
  3
B9
350
5B
  3
C0
350
5C
  3
C1
350
5D
  3
C2
350
5E
  3
C3
350
5F
  3
C4
350
60
  3
C5
350
61
  3
C6
350
62
  3
C7
350
63
  3
C8
350
64
  3
C9
350
65
  3
D0
350
66
  3
D1
350
67
  3
D2
350
68
  0
DICTIONARY
  5
13D
102
{ACAD_REACTORS
330
C
102
}
330
C
100
AcDbDictionary
281
     1
  0
XRECORD
  5
144
102
{ACAD_REACTORS
330
C
102
}
330
C
100
AcDbXrecord
280
     1
  1
DWGPROPS COOKIE
  2

  3

  4

  6

  7

  8
12014074
  9

300
=
301
=
302
=
303
=
304
=
305
=
306
=
307
=
308
=
309
=
 40
0.0
 41
2458264.209742662
 42
2458267.427338021
  1

 90
        0
  0
LAYOUT
  5
1E
102
{ACAD_REACTORS
330
1A
102
}
330
1A
100
AcDbPlotSettings
  1

  2
none_device
  4

  6

 40
0.0
 41
0.0
 42
0.0
 43
0.0
 44
0.0
 45
0.0
 46
0.0
 47
0.0
 48
0.0
 49
0.0
140
0.0
141
0.0
142
1.0
143
1.0
 70
   688
 72
     1
 73
     0
 74
     5
  7

 75
    16
147
1.0
148
0.0
149
0.0
100
AcDbLayout
  1
Layout1
 70
     1
 71
     1
 10
0.0
 20
0.0
 11
420.0
 21
297.0
 12
0.0
 22
0.0
 32
0.0
 14
1.000000000000000E+20
 24
1.000000000000000E+20
 34
1.000000000000000E+20
 15
-1.000000000000000E+20
 25
-1.000000000000000E+20
 35
-1.000000000000000E+20
146
0.0
 13
0.0
 23
0.0
 33
0.0
 16
1.0
 26
0.0
 36
0.0
 17
0.0
 27
1.0
 37
0.0
 76
     0
330
1B
  0
LAYOUT
  5
26
102
{ACAD_REACTORS
330
1A
102
}
330
1A
100
AcDbPlotSettings
  1

  2
none_device
  4

  6

 40
0.0
 41
0.0
 42
0.0
 43
0.0
 44
0.0
 45
0.0
 46
0.0
 47
0.0
 48
0.0
 49
0.0
140
0.0
141
0.0
142
1.0
143
1.0
 70
   688
 72
     1
 73
     0
 74
     5
  7

 75
    16
147
1.0
148
0.0
149
0.0
100
AcDbLayout
  1
Layout2
 70
     1
 71
     2
 10
0.0
 20
0.0
 11
0.0
 21
0.0
 12
0.0
 22
0.0
 32
0.0
 14
0.0
 24
0.0
 34
0.0
 15
0.0
 25
0.0
 35
0.0
146
0.0
 13
0.0
 23
0.0
 33
0.0
 16
1.0
 26
0.0
 36
0.0
 17
0.0
 27
1.0
 37
0.0
 76
     0
330
23
  0
LAYOUT
  5
22
102
{ACAD_REACTORS
330
1A
102
}
330
1A
100
AcDbPlotSettings
  1

  2
none_device
  4
ANSI_A_(11.00_x_8.50_Inches)
  6

 40
6.35
 41
19.05
 42
6.35000508
 43
19.05000254
 44
279.4
 45
215.9
 46
147.6991343638155
 47
70.32820153514443
 48
0.0
 49
0.0
140
0.0
141
0.0
142
0.0685467331092587
143
1.0
 70
  1696
 72
     0
 73
     0
 74
     0
  7

 75
     0
147
0.0235690232323232
148
0.0
149
0.0
100
AcDbLayout
  1
Model
 70
     1
 71
     0
 10
0.0
 20
0.0
 11
420.0
 21
297.0
 12
0.0
 22
0.0
 32
0.0
 14
-44.47145802161259
 24
-36.45363095208845
 34
0.0
 15
33.956709576402
 25
65.78069857228004
 35
0.0
146
0.0
 13
0.0
 23
0.0
 33
0.0
 16
1.0
 26
0.0
 36
0.0
 17
0.0
 27
1.0
 37
0.0
 76
     0
330
1F
331
29
  0
MLINESTYLE
  5
18
102
{ACAD_REACTORS
330
17
102
}
330
17
100
AcDbMlineStyle
  2
Standard
 70
     0
  3

 62
   256
 51
90.0
 52
90.0
 71
     2
 49
0.5
 62
   256
  6
BYLAYER
 49
-0.5
 62
   256
  6
BYLAYER
  0
ACDBPLACEHOLDER
  5
F
102
{ACAD_REACTORS
330
E
102
}
330
E
  0
SCALE
  5
48
102
{ACAD_REACTORS
330
47
102
}
330
47
100
AcDbScale
 70
     0
300
1:1
140
1.0
141
1.0
290
     1
  0
SCALE
  5
49
102
{ACAD_REACTORS
330
47
102
}
330
47
100
AcDbScale
 70
     0
300
1:2
140
1.0
141
2.0
290
     0
  0
SCALE
  5
4A
102
{ACAD_REACTORS
330
47
102
}
330
47
100
AcDbScale
 70
     0
300
1:4
140
1.0
141
4.0
290
     0
  0
SCALE
  5
4B
102
{ACAD_REACTORS
330
47
102
}
330
47
100
AcDbScale
 70
     0
300
1:5
140
1.0
141
5.0
290
     0
  0
SCALE
  5
4C
102
{ACAD_REACTORS
330
47
102
}
330
47
100
AcDbScale
 70
     0
300
1:8
140
1.0
141
8.0
290
     0
  0
SCALE
  5
4D
102
{ACAD_REACTORS
330
47
102
}
330
47
100
AcDbScale
 70
     0
300
1:10
140
1.0
141
10.0
290
     0
  0
SCALE
  5
4E
102
{ACAD_REACTORS
330
47
102
}
330
47
100
AcDbScale
 70
     0
300
1:16
140
1.0
141
16.0
290
     0
  0
SCALE
  5
4F
102
{ACAD_REACTORS
330
47
102
}
330
47
100
AcDbScale
 70
     0
300
1:20
140
1.0
141
20.0
290
     0
  0
SCALE
  5
50
102
{ACAD_REACTORS
330
47
102
}
330
47
100
AcDbScale
 70
     0
300
1:30
140
1.0
141
30.0
290
     0
  0
SCALE
  5
51
102
{ACAD_REACTORS
330
47
102
}
330
47
100
AcDbScale
 70
     0
300
1:40
140
1.0
141
40.0
290
     0
  0
SCALE
  5
52
102
{ACAD_REACTORS
330
47
102
}
330
47
100
AcDbScale
 70
     0
300
1:50
140
1.0
141
50.0
290
     0
  0
SCALE
  5
53
102
{ACAD_REACTORS
330
47
102
}
330
47
100
AcDbScale
 70
     0
300
1:100
140
1.0
141
100.0
290
     0
  0
SCALE
  5
54
102
{ACAD_REACTORS
330
47
102
}
330
47
100
AcDbScale
 70
     0
300
2:1
140
2.0
141
1.0
290
     0
  0
SCALE
  5
55
102
{ACAD_REACTORS
330
47
102
}
330
47
100
AcDbScale
 70
     0
300
4:1
140
4.0
141
1.0
290
     0
  0
SCALE
  5
56
102
{ACAD_REACTORS
330
47
102
}
330
47
100
AcDbScale
 70
     0
300
8:1
140
8.0
141
1.0
290
     0
  0
SCALE
  5
57
102
{ACAD_REACTORS
330
47
102
}
330
47
100
AcDbScale
 70
     0
300
10:1
140
10.0
141
1.0
290
     0
  0
SCALE
  5
58
102
{ACAD_REACTORS
330
47
102
}
330
47
100
AcDbScale
 70
     0
300
100:1
140
100.0
141
1.0
290
     0
  0
SCALE
  5
59
102
{ACAD_REACTORS
330
47
102
}
330
47
100
AcDbScale
 70
     0
300
1/128" = 1'-0"
140
0.0078125
141
12.0
290
     0
  0
SCALE
  5
5A
102
{ACAD_REACTORS
330
47
102
}
330
47
100
AcDbScale
 70
     0
300
1/64" = 1'-0"
140
0.015625
141
12.0
290
     0
  0
SCALE
  5
5B
102
{ACAD_REACTORS
330
47
102
}
330
47
100
AcDbScale
 70
     0
300
1/32" = 1'-0"
140
0.03125
141
12.0
290
     0
  0
SCALE
  5
5C
102
{ACAD_REACTORS
330
47
102
}
330
47
100
AcDbScale
 70
     0
300
1/16" = 1'-0"
140
0.0625
141
12.0
290
     0
  0
SCALE
  5
5D
102
{ACAD_REACTORS
330
47
102
}
330
47
100
AcDbScale
 70
     0
300
3/32" = 1'-0"
140
0.09375
141
12.0
290
     0
  0
SCALE
  5
5E
102
{ACAD_REACTORS
330
47
102
}
330
47
100
AcDbScale
 70
     0
300
1/8" = 1'-0"
140
0.125
141
12.0
290
     0
  0
SCALE
  5
5F
102
{ACAD_REACTORS
330
47
102
}
330
47
100
AcDbScale
 70
     0
300
3/16" = 1'-0"
140
0.1875
141
12.0
290
     0
  0
SCALE
  5
60
102
{ACAD_REACTORS
330
47
102
}
330
47
100
AcDbScale
 70
     0
300
1/4" = 1'-0"
140
0.25
141
12.0
290
     0
  0
SCALE
  5
61
102
{ACAD_REACTORS
330
47
102
}
330
47
100
AcDbScale
 70
     0
300
3/8" = 1'-0"
140
0.375
141
12.0
290
     0
  0
SCALE
  5
62
102
{ACAD_REACTORS
330
47
102
}
330
47
100
AcDbScale
 70
     0
300
1/2" = 1'-0"
140
0.5
141
12.0
290
     0
  0
SCALE
  5
63
102
{ACAD_REACTORS
330
47
102
}
330
47
100
AcDbScale
 70
     0
300
3/4" = 1'-0"
140
0.75
141
12.0
290
     0
  0
SCALE
  5
64
102
{ACAD_REACTORS
330
47
102
}
330
47
100
AcDbScale
 70
     0
300
1" = 1'-0"
140
1.0
141
12.0
290
     0
  0
SCALE
  5
65
102
{ACAD_REACTORS
330
47
102
}
330
47
100
AcDbScale
 70
     0
300
1-1/2" = 1'-0"
140
1.5
141
12.0
290
     0
  0
SCALE
  5
66
102
{ACAD_REACTORS
330
47
102
}
330
47
100
AcDbScale
 70
     0
300
3" = 1'-0"
140
3.0
141
12.0
290
     0
  0
SCALE
  5
67
102
{ACAD_REACTORS
330
47
102
}
330
47
100
AcDbScale
 70
     0
300
6" = 1'-0"
140
6.0
141
12.0
290
     0
  0
SCALE
  5
68
102
{ACAD_REACTORS
330
47
102
}
330
47
100
AcDbScale
 70
     0
300
1'-0" = 1'-0"
140
12.0
141
12.0
290
     0
  0
ENDSEC
  0
EOF
