  0
SECTION
  2
HEADER
  9
$ACADVER
  1
AC1015
  9
$ACADMAINTVER
 70
     6
  9
$DWGCODEPAGE
  3
ANSI_949
  9
$INSBASE
 10
0.0
 20
0.0
 30
0.0
  9
$EXTMIN
 10
-52.38004542603286
 20
-27.28319208326459
 30
0.0
  9
$EXTMAX
 10
48.17757946607482
 20
46.18610365728746
 30
0.0
  9
$LIMMIN
 10
0.0
 20
0.0
  9
$LIMMAX
 10
420.0
 20
297.0
  9
$ORTHOMODE
 70
     1
  9
$REGENMODE
 70
     1
  9
$FILLMODE
 70
     1
  9
$QTEXTMODE
 70
     0
  9
$MIRRTEXT
 70
     1
  9
$LTSCALE
 40
1.0
  9
$ATTMODE
 70
     1
  9
$TEXTSIZE
 40
3.5
  9
$TRACEWID
 40
1.0
  9
$TEXTSTYLE
  7
Standard
  9
$CLAYER
  8
0
  9
$CELTYPE
  6
ByLayer
  9
$CECOLOR
 62
   256
  9
$CELTSCALE
 40
1.0
  9
$DISPSILH
 70
     0
  9
$DIMSCALE
 40
1.0
  9
$DIMASZ
 40
3.302
  9
$DIMEXO
 40
1.0
  9
$DIMDLI
 40
3.75
  9
$DIMRND
 40
0.0
  9
$DIMDLE
 40
0.0
  9
$DIMEXE
 40
1.0
  9
$DIMTP
 40
0.0
  9
$DIMTM
 40
0.0
  9
$DIMTXT
 40
3.5
  9
$DIMCEN
 40
2.5
  9
$DIMTSZ
 40
0.0
  9
$DIMTOL
 70
     0
  9
$DIMLIM
 70
     0
  9
$DIMTIH
 70
     1
  9
$DIMTOH
 70
     1
  9
$DIMSE1
 70
     0
  9
$DIMSE2
 70
     0
  9
$DIMTAD
 70
     1
  9
$DIMZIN
 70
     0
  9
$DIMBLK
  1

  9
$DIMASO
 70
     1
  9
$DIMSHO
 70
     1
  9
$DIMPOST
  1

  9
$DIMAPOST
  1

  9
$DIMALT
 70
     0
  9
$DIMALTD
 70
     3
  9
$DIMALTF
 40
0.0393700787401575
  9
$DIMLFAC
 40
1.0
  9
$DIMTOFL
 70
     1
  9
$DIMTVP
 40
0.0
  9
$DIMTIX
 70
     0
  9
$DIMSOXD
 70
     0
  9
$DIMSAH
 70
     0
  9
$DIMBLK1
  1

  9
$DIMBLK2
  1

  9
$DIMSTYLE
  2
ISO-25
  9
$DIMCLRD
 70
     0
  9
$DIMCLRE
 70
     0
  9
$DIMCLRT
 70
     0
  9
$DIMTFAC
 40
1.0
  9
$DIMGAP
 40
1.524
  9
$DIMJUST
 70
     0
  9
$DIMSD1
 70
     0
  9
$DIMSD2
 70
     0
  9
$DIMTOLJ
 70
     0
  9
$DIMTZIN
 70
     0
  9
$DIMALTZ
 70
     0
  9
$DIMALTTZ
 70
     0
  9
$DIMUPT
 70
     0
  9
$DIMDEC
 70
     2
  9
$DIMTDEC
 70
     2
  9
$DIMALTU
 70
     2
  9
$DIMALTTD
 70
     3
  9
$DIMTXSTY
  7
Standard
  9
$DIMAUNIT
 70
     0
  9
$DIMADEC
 70
     2
  9
$DIMALTRND
 40
0.0
  9
$DIMAZIN
 70
     0
  9
$DIMDSEP
 70
    44
  9
$DIMATFIT
 70
     3
  9
$DIMFRAC
 70
     0
  9
$DIMLDRBLK
  1

  9
$DIMLUNIT
 70
     2
  9
$DIMLWD
 70
    -2
  9
$DIMLWE
 70
    -2
  9
$DIMTMOVE
 70
     0
  9
$LUNITS
 70
     2
  9
$LUPREC
 70
     2
  9
$SKETCHINC
 40
1.0
  9
$FILLETRAD
 40
10.0
  9
$AUNITS
 70
     0
  9
$AUPREC
 70
     2
  9
$MENU
  1
.
  9
$ELEVATION
 40
0.0
  9
$PELEVATION
 40
0.0
  9
$THICKNESS
 40
0.0
  9
$LIMCHECK
 70
     0
  9
$CHAMFERA
 40
0.0
  9
$CHAMFERB
 40
0.0
  9
$CHAMFERC
 40
0.0
  9
$CHAMFERD
 40
0.0
  9
$SKPOLY
 70
     0
  9
$TDCREATE
 40
2458269.39581316
  9
$TDUCREATE
 40
2458269.02081316
  9
$TDUPDATE
 40
2458269.828215023
  9
$TDUUPDATE
 40
2458269.453215023
  9
$TDINDWG
 40
0.010256713
  9
$TDUSRTIMER
 40
2458269.442959491
  9
$USRTIMER
 70
     1
  9
$ANGBASE
 50
0.0
  9
$ANGDIR
 70
     0
  9
$PDMODE
 70
     0
  9
$PDSIZE
 40
-1.0
  9
$PLINEWID
 40
0.0
  9
$SPLFRAME
 70
     0
  9
$SPLINETYPE
 70
     6
  9
$SPLINESEGS
 70
     8
  9
$HANDSEED
  5
16A
  9
$SURFTAB1
 70
     6
  9
$SURFTAB2
 70
     6
  9
$SURFTYPE
 70
     6
  9
$SURFU
 70
     6
  9
$SURFV
 70
     6
  9
$UCSBASE
  2

  9
$UCSNAME
  2

  9
$UCSORG
 10
0.0
 20
0.0
 30
0.0
  9
$UCSXDIR
 10
1.0
 20
0.0
 30
0.0
  9
$UCSYDIR
 10
0.0
 20
1.0
 30
0.0
  9
$UCSORTHOREF
  2

  9
$UCSORTHOVIEW
 70
     0
  9
$UCSORGTOP
 10
0.0
 20
0.0
 30
0.0
  9
$UCSORGBOTTOM
 10
0.0
 20
0.0
 30
0.0
  9
$UCSORGLEFT
 10
0.0
 20
0.0
 30
0.0
  9
$UCSORGRIGHT
 10
0.0
 20
0.0
 30
0.0
  9
$UCSORGFRONT
 10
0.0
 20
0.0
 30
0.0
  9
$UCSORGBACK
 10
0.0
 20
0.0
 30
0.0
  9
$PUCSBASE
  2

  9
$PUCSNAME
  2

  9
$PUCSORG
 10
0.0
 20
0.0
 30
0.0
  9
$PUCSXDIR
 10
1.0
 20
0.0
 30
0.0
  9
$PUCSYDIR
 10
0.0
 20
1.0
 30
0.0
  9
$PUCSORTHOREF
  2

  9
$PUCSORTHOVIEW
 70
     0
  9
$PUCSORGTOP
 10
0.0
 20
0.0
 30
0.0
  9
$PUCSORGBOTTOM
 10
0.0
 20
0.0
 30
0.0
  9
$PUCSORGLEFT
 10
0.0
 20
0.0
 30
0.0
  9
$PUCSORGRIGHT
 10
0.0
 20
0.0
 30
0.0
  9
$PUCSORGFRONT
 10
0.0
 20
0.0
 30
0.0
  9
$PUCSORGBACK
 10
0.0
 20
0.0
 30
0.0
  9
$USERI1
 70
     0
  9
$USERI2
 70
     0
  9
$USERI3
 70
     0
  9
$USERI4
 70
     0
  9
$USERI5
 70
     0
  9
$USERR1
 40
0.0
  9
$USERR2
 40
0.0
  9
$USERR3
 40
0.0
  9
$USERR4
 40
0.0
  9
$USERR5
 40
0.0
  9
$WORLDVIEW
 70
     1
  9
$SHADEDGE
 70
     3
  9
$SHADEDIF
 70
    70
  9
$TILEMODE
 70
     1
  9
$MAXACTVP
 70
    64
  9
$PINSBASE
 10
0.0
 20
0.0
 30
0.0
  9
$PLIMCHECK
 70
     0
  9
$PEXTMIN
 10
1.000000000000000E+20
 20
1.000000000000000E+20
 30
1.000000000000000E+20
  9
$PEXTMAX
 10
-1.000000000000000E+20
 20
-1.000000000000000E+20
 30
-1.000000000000000E+20
  9
$PLIMMIN
 10
0.0
 20
0.0
  9
$PLIMMAX
 10
0.0
 20
0.0
  9
$UNITMODE
 70
     0
  9
$VISRETAIN
 70
     1
  9
$PLINEGEN
 70
     0
  9
$PSLTSCALE
 70
     1
  9
$TREEDEPTH
 70
  3020
  9
$CMLSTYLE
  2
Standard
  9
$CMLJUST
 70
     0
  9
$CMLSCALE
 40
20.0
  9
$PROXYGRAPHICS
 70
     1
  9
$MEASUREMENT
 70
     1
  9
$CELWEIGHT
370
    -1
  9
$ENDCAPS
280
     0
  9
$JOINSTYLE
280
     0
  9
$LWDISPLAY
290
     1
  9
$INSUNITS
 70
     4
  9
$HYPERLINKBASE
  1

  9
$STYLESHEET
  1

  9
$XEDIT
290
     1
  9
$CEPSNTYPE
380
     0
  9
$PSTYLEMODE
290
     1
  9
$FINGERPRINTGUID
  2
{B9C5FB2F-E2E6-4879-9FC3-8797DF17BD72}
  9
$VERSIONGUID
  2
{FAEB1C32-E019-11D5-929B-00C0DF256EC4}
  9
$EXTNAMES
290
     1
  9
$PSVPSCALE
 40
0.0
  9
$OLESTARTUP
290
     0
  0
ENDSEC
  0
SECTION
  2
CLASSES
  0
CLASS
  1
ACDBDICTIONARYWDFLT
  2
AcDbDictionaryWithDefault
  3
ObjectDBX Classes
 90
        0
280
     0
281
     0
  0
CLASS
  1
VISUALSTYLE
  2
AcDbVisualStyle
  3
ObjectDBX Classes
 90
     4095
280
     0
281
     0
  0
CLASS
  1
MATERIAL
  2
AcDbMaterial
  3
ObjectDBX Classes
 90
     1153
280
     0
281
     0
  0
CLASS
  1
SCALE
  2
AcDbScale
  3
ObjectDBX Classes
 90
     1153
280
     0
281
     0
  0
CLASS
  1
SUN
  2
AcDbSun
  3
SCENEOE
 90
     1153
280
     0
281
     0
  0
CLASS
  1
ACDBPLACEHOLDER
  2
AcDbPlaceHolder
  3
ObjectDBX Classes
 90
        0
280
     0
281
     0
  0
CLASS
  1
LAYOUT
  2
AcDbLayout
  3
ObjectDBX Classes
 90
        0
280
     0
281
     0
  0
CLASS
  1
TABLESTYLE
  2
AcDbTableStyle
  3
ObjectDBX Classes
 90
     4095
280
     0
281
     0
  0
CLASS
  1
MLEADERSTYLE
  2
AcDbMLeaderStyle
  3
ACDB_MLEADERSTYLE_CLASS
 90
     4095
280
     0
281
     0
  0
CLASS
  1
RASTERVARIABLES
  2
AcDbRasterVariables
  3
ISM
 90
        0
280
     0
281
     0
  0
CLASS
  1
DIMASSOC
  2
AcDbDimAssoc
  3
"AcDbDimAssoc|Product Desc:     AcDim ARX App For Dimension|Company:          Autodesk, Inc.|WEB Address:      www.autodesk.com"
 90
        0
280
     0
281
     0
  0
ENDSEC
  0
SECTION
  2
TABLES
  0
TABLE
  2
VPORT
  5
8
330
0
100
AcDbSymbolTable
 70
     1
  0
VPORT
  5
29
330
8
100
AcDbSymbolTableRecord
100
AcDbViewportTableRecord
  2
*Active
 70
     0
 10
0.0
 20
0.0
 11
1.0
 21
1.0
 12
36.19838794298917
 22
11.87000017297208
 13
0.0
 23
0.0
 14
10.0
 24
10.0
 15
10.0
 25
10.0
 16
0.0
 26
0.0
 36
1.0
 17
0.0
 27
0.0
 37
0.0
 40
106.8039181482031
 41
1.970186335403727
 42
50.0
 43
0.0
 44
0.0
 50
0.0
 51
0.0
 71
    16
 72
  2000
 73
     1
 74
     3
 75
     0
 76
     0
 77
     0
 78
     0
281
     0
 65
     1
110
0.0
120
0.0
130
0.0
111
1.0
121
0.0
131
0.0
112
0.0
122
1.0
132
0.0
 79
     0
146
0.0
  0
ENDTAB
  0
TABLE
  2
LTYPE
  5
5
330
0
100
AcDbSymbolTable
 70
     6
  0
LTYPE
  5
14
330
5
100
AcDbSymbolTableRecord
100
AcDbLinetypeTableRecord
  2
ByBlock
 70
     0
  3

 72
    65
 73
     0
 40
0.0
  0
LTYPE
  5
15
330
5
100
AcDbSymbolTableRecord
100
AcDbLinetypeTableRecord
  2
ByLayer
 70
     0
  3

 72
    65
 73
     0
 40
0.0
  0
LTYPE
  5
16
330
5
100
AcDbSymbolTableRecord
100
AcDbLinetypeTableRecord
  2
Continuous
 70
     0
  3
Solid line
 72
    65
 73
     0
 40
0.0
  0
LTYPE
  5
6A
330
5
100
AcDbSymbolTableRecord
100
AcDbLinetypeTableRecord
  2
HIDDEN
 70
     0
  3
Hidden __ __ __ __ __ __ __ __ __ __ __ __ __ __
 72
    65
 73
     2
 40
1.905
 49
1.27
 74
     0
 49
-0.635
 74
     0
  0
LTYPE
  5
6B
330
5
100
AcDbSymbolTableRecord
100
AcDbLinetypeTableRecord
  2
PHANTOM
 70
     0
  3
Phantom ______  __  __  ______  __  __  ______
 72
    65
 73
     6
 40
12.7
 49
6.35
 74
     0
 49
-1.27
 74
     0
 49
1.27
 74
     0
 49
-1.27
 74
     0
 49
1.27
 74
     0
 49
-1.27
 74
     0
  0
LTYPE
  5
6C
330
5
100
AcDbSymbolTableRecord
100
AcDbLinetypeTableRecord
  2
CENTER
 70
     0
  3
Center ____ _ ____ _ ____ _ ____ _ ____ _ ____
 72
    65
 73
     4
 40
10.16
 49
6.35
 74
     0
 49
-1.27
 74
     0
 49
1.27
 74
     0
 49
-1.27
 74
     0
  0
LTYPE
  5
6D
330
5
100
AcDbSymbolTableRecord
100
AcDbLinetypeTableRecord
  2
CENTERX2
 70
     0
  3
Center (2x) ________  __  ________  __  _____
 72
    65
 73
     4
 40
20.32
 49
12.7
 74
     0
 49
-2.54
 74
     0
 49
2.54
 74
     0
 49
-2.54
 74
     0
  0
LTYPE
  5
6E
330
5
100
AcDbSymbolTableRecord
100
AcDbLinetypeTableRecord
  2
DOT2
 70
     0
  3
Dot (.5x) ........................................
 72
    65
 73
     2
 40
0.635
 49
0.0
 74
     0
 49
-0.635
 74
     0
  0
ENDTAB
  0
TABLE
  2
LAYER
  5
2
330
0
100
AcDbSymbolTable
 70
    17
  0
LAYER
  5
10
330
2
100
AcDbSymbolTableRecord
100
AcDbLayerTableRecord
  2
0
 70
     0
 62
     7
  6
Continuous
370
    -3
390
F
  0
LAYER
  5
6F
330
2
100
AcDbSymbolTableRecord
100
AcDbLayerTableRecord
  2
FORMAT
 70
     0
 62
     2
  6
Continuous
370
    -3
390
F
  0
LAYER
  5
70
330
2
100
AcDbSymbolTableRecord
100
AcDbLayerTableRecord
  2
외형선
 70
     0
 62
   100
  6
Continuous
370
    30
390
F
  0
LAYER
  5
71
330
2
100
AcDbSymbolTableRecord
100
AcDbLayerTableRecord
  2
숨은선
 70
     0
 62
     2
  6
HIDDEN
370
    15
390
F
  0
LAYER
  5
72
330
2
100
AcDbSymbolTableRecord
100
AcDbLayerTableRecord
  2
중심선
 70
     0
 62
     1
  6
CENTERX2
370
    -3
390
F
  0
LAYER
  5
73
330
2
100
AcDbSymbolTableRecord
100
AcDbLayerTableRecord
  2
파단선
 70
     0
 62
     4
  6
Continuous
370
    -3
390
F
  0
LAYER
  5
74
330
2
100
AcDbSymbolTableRecord
100
AcDbLayerTableRecord
  2
해칭선
 70
     0
 62
     4
  6
Continuous
370
    -3
390
F
  0
LAYER
  5
75
330
2
100
AcDbSymbolTableRecord
100
AcDbLayerTableRecord
  2
가는실선
 70
     0
 62
     4
  6
Continuous
370
    -3
390
F
  0
LAYER
  5
76
330
2
100
AcDbSymbolTableRecord
100
AcDbLayerTableRecord
  2
치수_보조선
 70
     0
 62
     4
  6
Continuous
370
    -3
390
F
  0
LAYER
  5
77
330
2
100
AcDbSymbolTableRecord
100
AcDbLayerTableRecord
  2
치수문자_일반주서
 70
     0
 62
     7
  6
Continuous
370
    15
390
F
  0
LAYER
  5
78
330
2
100
AcDbSymbolTableRecord
100
AcDbLayerTableRecord
  2
개별주서
 70
     0
 62
   100
  6
Continuous
370
    30
390
F
  0
LAYER
  5
79
330
2
100
AcDbSymbolTableRecord
100
AcDbLayerTableRecord
  2
중간선
 70
     0
 62
     2
  6
Continuous
370
    15
390
F
  0
LAYER
  5
7A
330
2
100
AcDbSymbolTableRecord
100
AcDbLayerTableRecord
  2
윤곽선
 70
     0
 62
     3
  6
Continuous
370
    40
390
F
  0
LAYER
  5
7B
330
2
100
AcDbSymbolTableRecord
100
AcDbLayerTableRecord
  2
중심마크
 70
     0
 62
   100
  6
Continuous
370
    30
390
F
  0
LAYER
  5
7C
330
2
100
AcDbSymbolTableRecord
100
AcDbLayerTableRecord
  2
가상선
 70
     0
 62
     4
  6
PHANTOM
370
    -3
390
F
  0
LAYER
  5
7D
330
2
100
AcDbSymbolTableRecord
100
AcDbLayerTableRecord
  2
특수지정선
 70
     0
 62
     5
  6
CENTERX2
370
    60
390
F
  0
LAYER
  5
14B
330
2
100
AcDbSymbolTableRecord
100
AcDbLayerTableRecord
  2
Defpoints
 70
     0
 62
     7
  6
Continuous
290
     0
370
    -3
390
F
  0
ENDTAB
  0
TABLE
  2
STYLE
  5
3
330
0
100
AcDbSymbolTable
 70
     2
  0
STYLE
  5
11
330
3
100
AcDbSymbolTableRecord
100
AcDbTextStyleTableRecord
  2
Standard
 70
     0
 40
0.0
 41
1.0
 50
0.0
 71
     0
 42
3.5
  3
txt
  4

  0
STYLE
  5
93
330
3
100
AcDbSymbolTableRecord
100
AcDbTextStyleTableRecord
  2
SLDTEXTSTYLE0
 70
     0
 40
0.0
 41
0.75
 50
0.0
 71
     0
 42
3.5
  3
TXT
  4

  0
ENDTAB
  0
TABLE
  2
VIEW
  5
6
330
0
100
AcDbSymbolTable
 70
     0
  0
ENDTAB
  0
TABLE
  2
UCS
  5
7
330
0
100
AcDbSymbolTable
 70
     0
  0
ENDTAB
  0
TABLE
  2
APPID
  5
9
330
0
100
AcDbSymbolTable
 70
     2
  0
APPID
  5
12
330
9
100
AcDbSymbolTableRecord
100
AcDbRegAppTableRecord
  2
ACAD
 70
     0
  0
APPID
  5
168
330
9
100
AcDbSymbolTableRecord
100
AcDbRegAppTableRecord
  2
PE_DIMMEASUREMENT
 70
     0
  0
ENDTAB
  0
TABLE
  2
DIMSTYLE
  5
A
330
0
100
AcDbSymbolTable
 70
     4
100
AcDbDimStyleTable
  0
DIMSTYLE
105
27
330
A
100
AcDbSymbolTableRecord
100
AcDbDimStyleTableRecord
  2
ISO-25
 70
     0
 41
2.5
 42
0.625
 43
3.75
 44
1.25
 73
     0
 74
     0
 77
     1
 78
     8
140
2.5
141
2.5
143
0.03937007874016
147
0.625
171
     3
172
     1
178
     0
271
     2
272
     2
274
     3
278
    44
283
     0
284
     8
340
11
  0
DIMSTYLE
105
DA
330
A
100
AcDbSymbolTableRecord
100
AcDbDimStyleTableRecord
  2
SLDDIMSTYLE0
 70
     0
 41
3.302
 44
0.0
 45
0.000000001
 73
     0
 74
     0
 77
     1
 78
    12
 79
     3
140
3.5
147
0.875
173
     1
178
     0
271
     2
272
     2
276
     2
284
    12
340
93
  0
DIMSTYLE
105
E5
330
A
100
AcDbSymbolTableRecord
100
AcDbDimStyleTableRecord
  2
SLDDIMSTYLE1
 70
     0
 41
3.302
 44
0.0
 45
0.000000001
 73
     0
 74
     0
 77
     1
 78
    12
 79
     3
140
3.5
143
0.0393700787401575
147
0.875
148
0.000000001
170
     1
173
     1
178
     0
271
     2
272
     2
276
     2
284
    12
340
93
  0
DIMSTYLE
105
10C
102
{ACAD_REACTORS
330
10B
330
E4
330
F8
330
153
102
}
330
A
100
AcDbSymbolTableRecord
100
AcDbDimStyleTableRecord
  2
SLDDIMSTYLE2
 70
     0
 41
3.302
 44
0.0
 45
0.000000001
 73
     0
 74
     0
 77
     1
 78
    12
 79
     3
140
3.5
143
0.0393700787401575
147
0.875
148
0.000000001
170
     1
172
     1
173
     1
178
     0
271
     2
272
     2
276
     2
284
    12
289
     0
340
93
  0
ENDTAB
  0
TABLE
  2
BLOCK_RECORD
  5
1
330
0
100
AcDbSymbolTable
 70
     8
  0
BLOCK_RECORD
  5
1F
330
1
100
AcDbSymbolTableRecord
100
AcDbBlockTableRecord
  2
*Model_Space
340
22
  0
BLOCK_RECORD
  5
1B
330
1
100
AcDbSymbolTableRecord
100
AcDbBlockTableRecord
  2
*Paper_Space
340
1E
  0
BLOCK_RECORD
  5
23
330
1
100
AcDbSymbolTableRecord
100
AcDbBlockTableRecord
  2
*Paper_Space0
340
26
  0
BLOCK_RECORD
  5
7E
330
1
100
AcDbSymbolTableRecord
100
AcDbBlockTableRecord
  2
블럭10
340
0
102
{BLKREFS
331
CF
102
}
  0
BLOCK_RECORD
  5
DB
330
1
100
AcDbSymbolTableRecord
100
AcDbBlockTableRecord
  2
_D
340
0
  0
BLOCK_RECORD
  5
E6
330
1
100
AcDbSymbolTableRecord
100
AcDbBlockTableRecord
  2
_D_1
340
0
  0
BLOCK_RECORD
  5
F9
330
1
100
AcDbSymbolTableRecord
100
AcDbBlockTableRecord
  2
_D_2
340
0
  0
BLOCK_RECORD
  5
10D
330
1
100
AcDbSymbolTableRecord
100
AcDbBlockTableRecord
  2
_D_3
340
0
  0
BLOCK_RECORD
  5
120
330
1
100
AcDbSymbolTableRecord
100
AcDbBlockTableRecord
  2
SW_DOWELSYMBOL_0
340
0
102
{BLKREFS
331
126
102
}
  0
BLOCK_RECORD
  5
156
330
1
100
AcDbSymbolTableRecord
100
AcDbBlockTableRecord
  2
*D7
340
0
  0
ENDTAB
  0
ENDSEC
  0
SECTION
  2
BLOCKS
  0
BLOCK
  5
20
330
1F
100
AcDbEntity
  8
0
100
AcDbBlockBegin
  2
*Model_Space
 70
     0
 10
0.0
 20
0.0
 30
0.0
  3
*Model_Space
  1
*Model_Space
  0
ENDBLK
  5
21
330
1F
100
AcDbEntity
  8
0
100
AcDbBlockEnd
  0
BLOCK
  5
1C
330
1B
100
AcDbEntity
 67
     1
  8
0
100
AcDbBlockBegin
  2
*Paper_Space
 70
     0
 10
0.0
 20
0.0
 30
0.0
  3
*Paper_Space
  1
*Paper_Space
  0
ENDBLK
  5
1D
330
1B
100
AcDbEntity
 67
     1
  8
0
100
AcDbBlockEnd
  0
BLOCK
  5
24
330
23
100
AcDbEntity
  8
0
100
AcDbBlockBegin
  2
*Paper_Space0
 70
     0
 10
0.0
 20
0.0
 30
0.0
  3
*Paper_Space0
  1
*Paper_Space0
  0
ENDBLK
  5
25
330
23
100
AcDbEntity
  8
0
100
AcDbBlockEnd
  0
BLOCK
  5
7F
330
7E
100
AcDbEntity
  8
0
100
AcDbBlockBegin
  2
블럭10
 70
     2
 10
0.0
 20
0.0
 30
0.0
  3
블럭10
  1
블럭10
  0
ELLIPSE
  5
81
330
7E
100
AcDbEntity
  8
중심선
100
AcDbEllipse
 10
20.54032771741204
 20
12.0471743016438
 30
0.0
 11
6.600054785286829
 21
-1.261213355974178E-13
 31
0.0
210
0.0
220
0.0
230
1.0
 40
0.636358354079598
 41
0.9219305317359503
 42
6.513795318482858
  0
ELLIPSE
  5
82
330
7E
100
AcDbEntity
  8
중심선
100
AcDbEllipse
 10
20.54032771746488
 20
12.04717430159265
 30
0.0
 11
3.960054785062283
 21
1.540847449632565E-10
 31
0.0
210
0.0
220
0.0
230
1.0
 40
0.3939339440162632
 41
1.131841032648279
 42
5.62031148352944
  0
LINE
  5
83
330
7E
100
AcDbEntity
  8
중심선
100
AcDbLine
 10
2.268634060543552
 20
16.24717430164393
 30
0.0
 11
5.714909304380834
 21
16.24717430164393
 31
0.0
  0
LINE
  5
84
330
7E
100
AcDbEntity
  8
중심선
100
AcDbLine
 10
5.245725140726316
 20
7.84717430164391
 30
0.0
 11
8.692000384563599
 21
7.84717430164391
 31
0.0
  0
LINE
  5
85
330
7E
100
AcDbEntity
  8
중심선
100
AcDbLine
 10
15.74043728645272
 20
16.24717430164393
 30
0.0
 11
8.692000384563599
 21
7.84717430164391
 31
0.0
  0
LINE
  5
86
330
7E
100
AcDbEntity
  8
중심선
100
AcDbLine
 10
0.1404042013395286
 20
13.71084872107135
 30
0.0
 11
3.58671253028996
 21
13.71088815037384
 31
0.0
  0
LINE
  5
87
330
7E
100
AcDbEntity
  8
중심선
100
AcDbLine
 10
2.750260043222114
 20
10.84717430164391
 30
0.0
 11
6.196535287059397
 21
10.84717430164391
 31
0.0
  0
LINE
  5
88
330
7E
100
AcDbEntity
  8
중심선
100
AcDbLine
 10
12.29416204261559
 20
16.24717430164393
 30
0.0
 11
5.245725140726316
 21
7.84717430164391
 31
0.0
  0
LINE
  5
89
330
7E
100
AcDbEntity
  8
중심선
100
AcDbLine
 10
10.72767329541681
 20
16.24717430164393
 30
0.0
 11
6.196535287059397
 21
10.84717430164391
 31
0.0
  0
LINE
  5
8A
330
7E
100
AcDbEntity
  8
중심선
100
AcDbLine
 10
7.28139805157953
 20
16.24717430164393
 30
0.0
 11
2.750260043222114
 21
10.84717430164391
 31
0.0
  0
LINE
  5
8B
330
7E
100
AcDbEntity
  8
중심선
100
AcDbLine
 10
5.714909304380834
 20
16.24717430164393
 30
0.0
 11
3.58671253028996
 21
13.71088815037384
 31
0.0
  0
LINE
  5
8C
330
7E
100
AcDbEntity
  8
중심선
100
AcDbLine
 10
2.268634060543552
 20
16.24717430164393
 30
0.0
 11
0.1404042013395286
 21
13.71084872107135
 31
0.0
  0
LINE
  5
8D
330
7E
100
AcDbEntity
  8
중심선
100
AcDbLine
 10
7.28139805157953
 20
16.24717430164393
 30
0.0
 11
10.72767329541681
 21
16.24717430164393
 31
0.0
  0
LINE
  5
8E
330
7E
100
AcDbEntity
  8
중심선
100
AcDbLine
 10
12.29416204261559
 20
16.24717430164393
 30
0.0
 11
15.74043728645272
 21
16.24717430164393
 31
0.0
  0
LINE
  5
8F
330
7E
100
AcDbEntity
  8
중심선
100
AcDbLine
 10
19.22036997980202
 20
11.08717430171403
 30
0.0
 11
23.66174974927406
 21
11.08717430171406
 31
0.0
  0
LINE
  5
90
330
7E
100
AcDbEntity
  8
중심선
100
AcDbLine
 10
19.22039502424796
 20
13.00717430171391
 30
0.0
 11
19.22036997980202
 21
11.08717430171403
 31
0.0
  0
LINE
  5
91
330
7E
100
AcDbEntity
  8
중심선
100
AcDbLine
 10
19.22039502424796
 20
13.00717430171391
 30
0.0
 11
26.96566020931264
 21
13.00717430171391
 31
0.0
  0
LINE
  5
92
330
7E
100
AcDbEntity
  8
중심선
100
AcDbLine
 10
22.22332737316547
 20
13.45928029700563
 30
0.0
 11
24.52862924686651
 21
15.39360700705356
 31
0.0
  0
ATTDEF
  5
94
330
7E
100
AcDbEntity
  8
FORMAT
 62
     2
100
AcDbText
 10
-9.18129528874128
 20
2.075366912832191
 30
0.0
 40
4.233333333333333
  1
E5982016 [ 3 FLUTE ]
 41
0.75
  7
SLDTEXTSTYLE0
 11
-9.18129528874128
 21
-0.0412997538344756
 31
0.0
100
AcDbAttributeDefinition
  3

  2
AUTOATTR0
 70
     0
 74
     1
  0
ENDBLK
  5
80
330
7E
100
AcDbEntity
  8
0
100
AcDbBlockEnd
  0
BLOCK
  5
DC
330
DB
100
AcDbEntity
  8
0
100
AcDbBlockBegin
  2
_D
 70
     0
 10
0.0
 20
0.0
 30
0.0
  3
_D
  1
_D
  0
LINE
  5
DE
330
DB
100
AcDbEntity
  8
치수문자_일반주서
 62
     0
370
    -2
100
AcDbLine
 10
41.75000000000002
 20
-2.762808543878584
 30
0.0
 11
41.75000000000002
 21
-0.5007445570349951
 31
0.0
  0
LINE
  5
DF
330
DB
100
AcDbEntity
  8
치수문자_일반주서
 62
     0
370
    -2
100
AcDbLine
 10
41.75000000000001
 20
3.130839174624613
 30
0.0
 11
41.75000000000001
 21
-0.5007445570349951
 31
0.0
  0
LINE
  5
E0
330
DB
100
AcDbEntity
  8
치수문자_일반주서
 62
     0
370
    -2
100
AcDbLine
 10
41.75000000000002
 20
-0.5007445570349951
 30
0.0
 11
59.75128426805503
 21
-0.5007445570349951
 31
0.0
  0
LINE
  5
E1
330
DB
100
AcDbEntity
  8
치수문자_일반주서
 62
     0
370
    -2
100
AcDbLine
 10
38.44800000000002
 20
-0.5007445570349951
 30
0.0
 11
35.14600000000002
 21
-0.5007445570349951
 31
0.0
  0
LINE
  5
E2
330
DB
100
AcDbEntity
  8
치수문자_일반주서
 62
     0
370
    -2
100
AcDbLine
 10
45.05200000000001
 20
-0.5007445570349951
 30
0.0
 11
48.35400000000001
 21
-0.5007445570349951
 31
0.0
  0
SOLID
  5
E3
330
DB
100
AcDbEntity
  8
치수문자_일반주서
 62
     0
100
AcDbTrace
 10
38.44800000000002
 20
-1.051077890368328
 30
0.0
 11
38.44800000000002
 21
0.0495887762983381
 31
0.0
 12
41.75000000000002
 22
-0.5007445570349951
 32
0.0
 13
41.75000000000002
 23
-0.5007445570349951
 33
0.0
  0
SOLID
  5
14C
330
DB
100
AcDbEntity
  8
치수문자_일반주서
 62
     0
100
AcDbTrace
 10
45.05200000000001
 20
0.0495887762983381
 30
0.0
 11
45.05200000000001
 21
-1.051077890368328
 31
0.0
 12
41.75000000000001
 22
-0.5007445570349951
 32
0.0
 13
41.75000000000001
 23
-0.5007445570349951
 33
0.0
  0
MTEXT
  5
14D
330
DB
100
AcDbEntity
  8
치수문자_일반주서
 62
     0
100
AcDbMText
 10
61.28253426805503
 20
3.874255442965005
 30
0.0
 40
3.5
 41
0.0
 71
     2
 72
     1
  1
\A1;0
  7
SLDTEXTSTYLE0
 73
     1
 44
1.0
  0
POINT
  5
14E
330
DB
100
AcDbEntity
  8
Defpoints
 62
     0
100
AcDbPoint
 10
41.75000000000002
 20
-2.825308543878584
 30
0.0
  0
POINT
  5
14F
330
DB
100
AcDbEntity
  8
Defpoints
 62
     0
100
AcDbPoint
 10
41.75000000000001
 20
3.193339174624613
 30
0.0
  0
POINT
  5
150
330
DB
100
AcDbEntity
  8
Defpoints
 62
     0
100
AcDbPoint
 10
41.75000000000001
 20
-0.5007445570349951
 30
0.0
  0
ENDBLK
  5
DD
330
DB
100
AcDbEntity
  8
0
100
AcDbBlockEnd
  0
BLOCK
  5
E7
330
E6
100
AcDbEntity
  8
0
100
AcDbBlockBegin
  2
_D_1
 70
     0
 10
0.0
 20
0.0
 30
0.0
  3
_D_1
  1
_D_1
  0
LINE
  5
E9
330
E6
100
AcDbEntity
  8
치수문자_일반주서
 62
     0
370
    -2
100
AcDbLine
 10
41.75
 20
3.237500000000017
 30
0.0
 11
41.75
 21
23.78841845233052
 31
0.0
  0
LINE
  5
EA
330
E6
100
AcDbEntity
  8
치수문자_일반주서
 62
     0
370
    -2
100
AcDbLine
 10
10.0
 20
3.237500000000014
 30
0.0
 11
10.0
 21
23.78841845233052
 31
0.0
  0
LINE
  5
EB
330
E6
100
AcDbEntity
  8
치수문자_일반주서
 62
     0
370
    -2
100
AcDbLine
 10
38.448
 20
23.78841845233052
 30
0.0
 11
13.302
 21
23.78841845233052
 31
0.0
  0
SOLID
  5
EC
330
E6
100
AcDbEntity
  8
치수문자_일반주서
 62
     0
100
AcDbTrace
 10
38.448
 20
23.23808511899719
 30
0.0
 11
38.448
 21
24.33875178566386
 31
0.0
 12
41.75
 22
23.78841845233052
 32
0.0
 13
41.75
 23
23.78841845233052
 33
0.0
  0
SOLID
  5
ED
330
E6
100
AcDbEntity
  8
치수문자_일반주서
 62
     0
100
AcDbTrace
 10
13.302
 20
24.33875178566386
 30
0.0
 11
13.302
 21
23.23808511899719
 31
0.0
 12
10.0
 22
23.78841845233052
 32
0.0
 13
10.0
 23
23.78841845233052
 33
0.0
  0
MTEXT
  5
EE
330
E6
100
AcDbEntity
  8
치수문자_일반주서
 62
     0
100
AcDbMText
 10
25.875
 20
28.16341845233052
 30
0.0
 40
3.5
 41
0.0
 71
     2
 72
     1
  1
\A1;31.75 [1 1/4]
  7
SLDTEXTSTYLE0
 73
     1
 44
1.0
  0
POINT
  5
EF
330
E6
100
AcDbEntity
  8
Defpoints
 62
     0
100
AcDbPoint
 10
41.75
 20
3.175000000000017
 30
0.0
  0
POINT
  5
F0
330
E6
100
AcDbEntity
  8
Defpoints
 62
     0
100
AcDbPoint
 10
10.0
 20
3.175000000000014
 30
0.0
  0
POINT
  5
F1
330
E6
100
AcDbEntity
  8
Defpoints
 62
     0
100
AcDbPoint
 10
10.0
 20
23.78841845233052
 30
0.0
  0
ENDBLK
  5
E8
330
E6
100
AcDbEntity
  8
0
100
AcDbBlockEnd
  0
BLOCK
  5
FA
330
F9
100
AcDbEntity
  8
0
100
AcDbBlockBegin
  2
_D_2
 70
     0
 10
0.0
 20
0.0
 30
0.0
  3
_D_2
  1
_D_2
  0
LINE
  5
FC
330
F9
100
AcDbEntity
  8
치수문자_일반주서
 62
     0
370
    -2
100
AcDbLine
 10
41.75
 20
3.237500000000017
 30
0.0
 11
41.75
 21
41.81110365728746
 31
0.0
  0
LINE
  5
FD
330
F9
100
AcDbEntity
  8
치수문자_일반주서
 62
     0
370
    -2
100
AcDbLine
 10
-40.8
 20
2.737500000000007
 30
0.0
 11
-40.8
 21
41.81110365728746
 31
0.0
  0
LINE
  5
FE
330
F9
100
AcDbEntity
  8
치수문자_일반주서
 62
     0
370
    -2
100
AcDbLine
 10
38.448
 20
41.81110365728746
 30
0.0
 11
-37.498
 21
41.81110365728746
 31
0.0
  0
SOLID
  5
FF
330
F9
100
AcDbEntity
  8
치수문자_일반주서
 62
     0
100
AcDbTrace
 10
38.448
 20
41.26077032395413
 30
0.0
 11
38.448
 21
42.3614369906208
 31
0.0
 12
41.75
 22
41.81110365728746
 32
0.0
 13
41.75
 23
41.81110365728746
 33
0.0
  0
SOLID
  5
100
330
F9
100
AcDbEntity
  8
치수문자_일반주서
 62
     0
100
AcDbTrace
 10
-37.498
 20
42.3614369906208
 30
0.0
 11
-37.498
 21
41.26077032395413
 31
0.0
 12
-40.8
 22
41.81110365728746
 32
0.0
 13
-40.8
 23
41.81110365728746
 33
0.0
  0
MTEXT
  5
101
330
F9
100
AcDbEntity
  8
치수문자_일반주서
 62
     0
100
AcDbMText
 10
0.4749999999999994
 20
46.18610365728746
 30
0.0
 40
3.5
 41
0.0
 71
     2
 72
     1
  1
\A1;82.55 [3 1/4]
  7
SLDTEXTSTYLE0
 73
     1
 44
1.0
  0
POINT
  5
102
330
F9
100
AcDbEntity
  8
Defpoints
 62
     0
100
AcDbPoint
 10
41.75
 20
3.175000000000017
 30
0.0
  0
POINT
  5
103
330
F9
100
AcDbEntity
  8
Defpoints
 62
     0
100
AcDbPoint
 10
-40.8
 20
2.675000000000007
 30
0.0
  0
POINT
  5
104
330
F9
100
AcDbEntity
  8
Defpoints
 62
     0
100
AcDbPoint
 10
-40.8
 20
41.81110365728746
 30
0.0
  0
ENDBLK
  5
FB
330
F9
100
AcDbEntity
  8
0
100
AcDbBlockEnd
  0
BLOCK
  5
10E
330
10D
100
AcDbEntity
  8
0
100
AcDbBlockBegin
  2
_D_3
 70
     0
 10
0.0
 20
0.0
 30
0.0
  3
_D_3
  1
_D_3
  0
LINE
  5
110
330
10D
100
AcDbEntity
  8
치수문자_일반주서
 62
     0
370
    -2
100
AcDbLine
 10
-40.3625
 20
3.17500000000001
 30
0.0
 11
-48.00504542603277
 21
3.174999999999983
 31
0.0
  0
LINE
  5
111
330
10D
100
AcDbEntity
  8
치수문자_일반주서
 62
     0
370
    -2
100
AcDbLine
 10
-40.3625
 20
-3.174999999999989
 30
0.0
 11
-48.00504542603275
 21
-3.175000000000018
 31
0.0
  0
LINE
  5
112
330
10D
100
AcDbEntity
  8
치수문자_일반주서
 62
     0
370
    -2
100
AcDbLine
 10
-48.00504542603277
 20
3.174999999999983
 30
0.0
 11
-48.00504542603288
 21
35.81024999999998
 31
0.0
  0
LINE
  5
113
330
10D
100
AcDbEntity
  8
치수문자_일반주서
 62
     0
370
    -2
100
AcDbLine
 10
-48.00504542603277
 20
3.174999999999983
 30
0.0
 11
-48.00504542603275
 21
-3.175000000000018
 31
0.0
  0
LINE
  5
114
330
10D
100
AcDbEntity
  8
치수문자_일반주서
 62
     0
370
    -2
100
AcDbLine
 10
-48.00504542603279
 20
6.476999999999983
 30
0.0
 11
-48.0050454260328
 21
9.778999999999982
 31
0.0
  0
LINE
  5
115
330
10D
100
AcDbEntity
  8
치수문자_일반주서
 62
     0
370
    -2
100
AcDbLine
 10
-48.00504542603274
 20
-6.477000000000018
 30
0.0
 11
-48.00504542603272
 21
-9.779000000000018
 31
0.0
  0
SOLID
  5
116
330
10D
100
AcDbEntity
  8
치수문자_일반주서
 62
     0
100
AcDbTrace
 10
-48.55537875936612
 20
6.476999999999981
 30
0.0
 11
-47.45471209269945
 21
6.476999999999984
 31
0.0
 12
-48.00504542603277
 22
3.174999999999983
 32
0.0
 13
-48.00504542603277
 23
3.174999999999983
 33
0.0
  0
SOLID
  5
117
330
10D
100
AcDbEntity
  8
치수문자_일반주서
 62
     0
100
AcDbTrace
 10
-47.4547120926994
 20
-6.477000000000016
 30
0.0
 11
-48.55537875936607
 21
-6.47700000000002
 31
0.0
 12
-48.00504542603275
 22
-3.175000000000018
 32
0.0
 13
-48.00504542603275
 23
-3.175000000000018
 33
0.0
  0
MTEXT
  5
118
330
10D
100
AcDbEntity
  8
치수문자_일반주서
 62
     0
100
AcDbMText
 10
-52.38004542603284
 20
23.12274999999997
 30
0.0
 40
3.5
 41
0.0
 71
     2
 72
     1
  1
\A1;%%c6.35 [1/4]
  7
SLDTEXTSTYLE0
 11
-3.356894814614647E-15
 21
1.0
 31
0.0
 73
     1
 44
1.0
  0
POINT
  5
119
330
10D
100
AcDbEntity
  8
Defpoints
 62
     0
100
AcDbPoint
 10
-40.3
 20
3.175000000000011
 30
0.0
  0
POINT
  5
11A
330
10D
100
AcDbEntity
  8
Defpoints
 62
     0
100
AcDbPoint
 10
-40.3
 20
-3.174999999999989
 30
0.0
  0
POINT
  5
11B
330
10D
100
AcDbEntity
  8
Defpoints
 62
     0
100
AcDbPoint
 10
-48.00504542603275
 20
-3.175000000000018
 30
0.0
  0
ENDBLK
  5
10F
330
10D
100
AcDbEntity
  8
0
100
AcDbBlockEnd
  0
BLOCK
  5
121
330
120
100
AcDbEntity
  8
0
100
AcDbBlockBegin
  2
SW_DOWELSYMBOL_0
 70
     0
 10
0.0
 20
0.0
 30
0.0
  3
SW_DOWELSYMBOL_0
  1
SW_DOWELSYMBOL_0
  0
CIRCLE
  5
123
330
120
100
AcDbEntity
  8
외형선
 62
     0
100
AcDbCircle
 10
0.0
 20
0.0
 30
0.0
 40
3.000000000000008
  0
HATCH
  5
124
330
120
100
AcDbEntity
  8
0
  6
Continuous
 62
     0
370
    30
100
AcDbHatch
 10
0.0
 20
0.0
 30
0.0
210
0.0
220
0.0
230
1.0
  2
SOLID
 70
     1
 71
     0
 91
        1
 92
        0
 93
        3
 72
     2
 10
0.0000000000000087
 20
0.0
 40
3.000000000000008
 50
0.0
 51
90.0
 73
     1
 72
     1
 10
0.0000000000000087
 20
3.000000000000008
 11
0.0000000000000087
 21
0.0
 72
     1
 10
0.0000000000000087
 20
0.0
 11
3.000000000000017
 21
0.0
 97
        0
 75
     0
 76
     1
 98
        1
 10
0.0
 20
0.0
  0
HATCH
  5
125
330
120
100
AcDbEntity
  8
0
  6
Continuous
 62
     0
370
    30
100
AcDbHatch
 10
0.0
 20
0.0
 30
0.0
210
0.0
220
0.0
230
1.0
  2
SOLID
 70
     1
 71
     0
 91
        1
 92
        0
 93
        3
 72
     2
 10
0.0000000000000087
 20
0.0
 40
3.000000000000008
 50
180.0
 51
270.0000000000008
 73
     1
 72
     1
 10
0.0000000000000087
 20
-3.000000000000008
 11
0.0000000000000087
 21
0.0
 72
     1
 10
0.0000000000000087
 20
0.0
 11
-3.0
 21
0.0
 97
        0
 75
     0
 76
     1
 98
        1
 10
0.0
 20
0.0
  0
ENDBLK
  5
122
330
120
100
AcDbEntity
  8
0
100
AcDbBlockEnd
  0
BLOCK
  5
157
330
156
100
AcDbEntity
  8
0
100
AcDbBlockBegin
  2
*D7
 70
     1
 10
0.0
 20
0.0
 30
0.0
  3
*D7
  1
*D7
  0
LINE
  5
159
330
156
100
AcDbEntity
  8
치수문자_일반주서
 62
     0
370
    -2
100
AcDbLine
 10
41.8125
 20
-3.174999999999986
 30
0.0
 11
47.62724613274148
 21
-3.174999999999985
 31
0.0
  0
LINE
  5
15A
330
156
100
AcDbEntity
  8
치수문자_일반주서
 62
     0
370
    -2
100
AcDbLine
 10
41.8125
 20
3.175000000000017
 30
0.0
 11
47.62724613274148
 21
3.175000000000016
 31
0.0
  0
LINE
  5
15B
330
156
100
AcDbEntity
  8
치수문자_일반주서
 62
     0
370
    -2
100
AcDbLine
 10
47.62724613274148
 20
6.477000000000016
 30
0.0
 11
47.62724613274148
 21
35.15400000000002
 31
0.0
  0
LINE
  5
15C
330
156
100
AcDbEntity
  8
치수문자_일반주서
 62
     0
370
    -2
100
AcDbLine
 10
47.62724613274148
 20
-3.174999999999985
 30
0.0
 11
47.62724613274148
 21
3.175000000000016
 31
0.0
  0
LINE
  5
15D
330
156
100
AcDbEntity
  8
치수문자_일반주서
 62
     0
370
    -2
100
AcDbLine
 10
47.62724613274148
 20
-6.476999999999984
 30
0.0
 11
47.62724613274148
 21
-9.778999999999984
 31
0.0
  0
SOLID
  5
15E
330
156
100
AcDbEntity
  8
치수문자_일반주서
 62
     0
100
AcDbTrace
 10
48.17757946607482
 20
-6.476999999999984
 30
0.0
 11
47.07691279940815
 21
-6.476999999999984
 31
0.0
 12
47.62724613274148
 22
-3.174999999999985
 32
0.0
 13
47.62724613274148
 23
-3.174999999999985
 33
0.0
  0
SOLID
  5
15F
330
156
100
AcDbEntity
  8
치수문자_일반주서
 62
     0
100
AcDbTrace
 10
47.07691279940815
 20
6.477000000000016
 30
0.0
 11
48.17757946607482
 21
6.477000000000016
 31
0.0
 12
47.62724613274148
 22
3.175000000000016
 32
0.0
 13
47.62724613274148
 23
3.175000000000016
 33
0.0
  0
MTEXT
  5
160
330
156
100
AcDbEntity
  8
치수문자_일반주서
 62
     0
100
AcDbMText
 10
45.00224613274148
 20
22.46650000000001
 30
0.0
 40
3.5
 41
0.0
 71
     5
 72
     1
  1
\A1;{Ø6.35 [1/4]}
  7
SLDTEXTSTYLE0
 11
0.0
 21
1.0
 31
0.0
 73
     1
 44
1.0
  0
POINT
  5
161
330
156
100
AcDbEntity
  8
Defpoints
 62
     0
100
AcDbPoint
 10
41.75
 20
-3.174999999999986
 30
0.0
  0
POINT
  5
162
330
156
100
AcDbEntity
  8
Defpoints
 62
     0
100
AcDbPoint
 10
41.75
 20
3.175000000000017
 30
0.0
  0
POINT
  5
163
330
156
100
AcDbEntity
  8
Defpoints
 62
     0
100
AcDbPoint
 10
47.62724613274148
 20
3.175000000000016
 30
0.0
  0
ENDBLK
  5
158
330
156
100
AcDbEntity
  8
0
100
AcDbBlockEnd
  0
ENDSEC
  0
SECTION
  2
ENTITIES
  0
LINE
  5
95
330
1F
100
AcDbEntity
  8
0
  6
Continuous
 62
     4
370
    15
100
AcDbLine
 10
10.0
 20
3.175000000000014
 30
0.0
 11
-40.3
 21
3.175000000000011
 31
0.0
  0
LINE
  5
96
330
1F
100
AcDbEntity
  8
0
  6
Continuous
 62
     4
370
    15
100
AcDbLine
 10
-40.3
 20
-3.174999999999989
 30
0.0
 11
8.480289024362364
 21
-3.174999999999986
 31
0.0
  0
LINE
  5
97
330
1F
100
AcDbEntity
  8
0
  6
Continuous
 62
     4
370
    15
100
AcDbLine
 10
-40.3
 20
3.175000000000007
 30
0.0
 11
-40.8
 21
2.675000000000007
 31
0.0
  0
LINE
  5
98
330
1F
100
AcDbEntity
  8
0
  6
Continuous
 62
     4
370
    15
100
AcDbLine
 10
-40.8
 20
-2.674999999999986
 30
0.0
 11
-40.3
 21
-3.174999999999985
 31
0.0
  0
LINE
  5
99
330
1F
100
AcDbEntity
  8
0
  6
Continuous
 62
     1
370
    15
100
AcDbLine
 10
24.9266961852333
 20
-3.174999999999988
 30
0.0
 11
26.98730888945003
 21
-3.174999999999988
 31
0.0
  0
LINE
  5
9A
330
1F
100
AcDbEntity
  8
0
  6
Continuous
 62
     1
370
    15
100
AcDbLine
 10
17.01263023671897
 20
3.175000000000017
 30
0.0
 11
14.95254468045964
 21
3.175000000000017
 31
0.0
  0
LINE
  5
9B
330
1F
100
AcDbEntity
  8
0
  6
Continuous
 62
     1
370
    15
100
AcDbLine
 10
36.96092399547456
 20
3.175000000000017
 30
0.0
 11
34.90089431401758
 21
3.175000000000017
 31
0.0
  0
LINE
  5
9C
330
1F
100
AcDbEntity
  8
0
  6
Continuous
 62
     1
370
    15
100
AcDbLine
 10
38.22652596564362
 20
-3.174999999999988
 30
0.0
 11
40.28718684170033
 21
-3.174999999999988
 31
0.0
  0
LINE
  5
9D
330
1F
100
AcDbEntity
  8
0
  6
Continuous
 62
     1
370
    15
100
AcDbLine
 10
18.27635772394715
 20
-3.174999999999988
 30
0.0
 11
20.33697782959052
 21
-3.174999999999988
 31
0.0
  0
LINE
  5
9E
330
1F
100
AcDbEntity
  8
0
  6
Continuous
 62
     1
370
    15
100
AcDbLine
 10
10.36299268330128
 20
3.175000000000017
 30
0.0
 11
10.0
 21
3.175000000000017
 31
0.0
  0
LINE
  5
9F
330
1F
100
AcDbEntity
  8
0
  6
Continuous
 62
     1
370
    15
100
AcDbLine
 10
30.31190610331789
 20
3.175000000000017
 30
0.0
 11
28.25180013571108
 21
3.175000000000017
 31
0.0
  0
LINE
  5
A0
330
1F
100
AcDbEntity
  8
0
  6
Continuous
 62
     1
370
    15
100
AcDbLine
 10
31.57624081122878
 20
-3.174999999999988
 30
0.0
 11
33.63685230609586
 21
-3.174999999999988
 31
0.0
  0
LINE
  5
A1
330
1F
100
AcDbEntity
  8
0
  6
Continuous
 62
     1
370
    15
100
AcDbLine
 10
11.6269706992066
 20
-3.174999999999988
 30
0.0
 11
13.68734500996356
 21
-3.174999999999988
 31
0.0
  0
LINE
  5
A2
330
1F
100
AcDbEntity
  8
0
  6
Continuous
 62
     1
370
    15
100
AcDbLine
 10
23.66279323524665
 20
3.175000000000017
 30
0.0
 11
21.60271751705272
 21
3.175000000000017
 31
0.0
  0
LINE
  5
A3
102
{ACAD_REACTORS
102
}
330
1F
100
AcDbEntity
  8
0
  6
Continuous
 62
     1
370
    15
100
AcDbLine
 10
41.75
 20
3.175000000000017
 30
0.0
 11
41.55108774639741
 21
3.175000000000017
 31
0.0
  0
SPLINE
  5
A4
330
1F
100
AcDbEntity
  8
0
  6
Continuous
 62
     4
370
    15
100
AcDbSpline
210
0.0
220
0.0
230
1.0
 70
     8
 71
     3
 72
     8
 73
     4
 74
     0
 42
0.000000001
 43
0.00000001
 40
0.0
 40
0.0
 40
0.0
 40
0.0
 40
1.0
 40
1.0
 40
1.0
 40
1.0
 10
8.667742645440988
 20
0.0334548070497721
 30
0.0
 10
8.546307321537181
 20
0.1550477897455403
 30
0.0
 10
8.480289024362365
 20
0.323348799931718
 30
0.0
 10
8.480289024362364
 20
0.4930271966894467
 30
0.0
  0
SPLINE
  5
A5
330
1F
100
AcDbEntity
  8
0
  6
Continuous
 62
     4
370
    15
100
AcDbSpline
210
0.0
220
0.0
230
1.0
 70
     8
 71
     3
 72
    14
 73
    10
 74
     0
 42
0.000000001
 43
0.00000001
 40
0.0
 40
0.0
 40
0.0
 40
0.0
 40
0.25
 40
0.25
 40
0.5
 40
0.5
 40
0.75
 40
0.75
 40
1.0
 40
1.0
 40
1.0
 40
1.0
 10
8.480289024362364
 20
2.719787462932936
 30
0.0
 10
8.480289024362364
 20
2.785059699130194
 30
0.0
 10
8.515462085501504
 20
2.84225111020277
 30
0.0
 10
8.650518413991241
 20
2.929964015321703
 30
0.0
 10
8.751270952004214
 20
2.960609816129431
 30
0.0
 10
8.980788611142803
 20
2.994711044193903
 30
0.0
 10
9.111727681527471
 20
2.999135065694659
 30
0.0
 10
9.357811709171852
 20
2.983294154114192
 30
0.0
 10
9.472591868761757
 20
2.963214058399054
 30
0.0
 10
9.562188311997932
 20
2.928664149874562
 30
0.0
  0
SPLINE
  5
A6
330
1F
100
AcDbEntity
  8
0
  6
Continuous
 62
     4
370
    15
100
AcDbSpline
210
0.0
220
0.0
230
1.0
 70
    24
 71
     3
 72
    14
 73
    10
 74
     0
 42
0.000000001
 43
0.00000001
 40
0.0
 40
0.0
 40
0.0
 40
0.0
 40
0.25
 40
0.25
 40
0.4999999999999999
 40
0.4999999999999999
 40
0.75
 40
0.75
 40
1.0
 40
1.0
 40
1.0
 40
1.0
 10
10.0
 20
2.731546272858829
 30
0.0
 10
10.0
 20
2.497403779406889
 30
0.0
 10
10.0
 20
2.223511404932372
 30
0.0
 10
10.0
 20
1.59222355483392
 30
0.0
 10
10.0
 20
1.233619586315398
 30
0.0
 10
10.0
 20
0.4706617738401966
 30
0.0
 10
10.0
 20
0.0663654172757564
 30
0.0
 10
10.0
 20
-0.6805824433058186
 30
0.0
 10
10.0
 20
-1.019634416968357
 30
0.0
 10
10.0
 20
-1.264282006802684
 30
0.0
  0
SPLINE
  5
A7
330
1F
100
AcDbEntity
  8
0
  6
Continuous
 62
     4
370
    15
100
AcDbSpline
210
0.0
220
0.0
230
1.0
 70
     8
 71
     3
 72
    14
 73
    10
 74
     0
 42
0.000000001
 43
0.00000001
 40
0.0
 40
0.0
 40
0.0
 40
0.0
 40
0.25
 40
0.25
 40
0.5
 40
0.5
 40
0.75
 40
0.75
 40
1.0
 40
1.0
 40
1.0
 40
1.0
 10
10.00000000000174
 20
-1.26428200680428
 30
0.0
 10
9.888999595148698
 20
-1.162331522448252
 30
0.0
 10
9.779615157020208
 20
-1.058563879402086
 30
0.0
 10
9.557678370634394
 20
-0.8465398748884424
 30
0.0
 10
9.445782183698208
 20
-0.7384776007074777
 30
0.0
 10
9.221979761118597
 20
-0.5200154792292581
 30
0.0
 10
9.110076945819552
 20
-0.4096189701595137
 30
0.0
 10
8.888114008961317
 20
-0.1883351719649129
 30
0.0
 10
8.778730108029682
 20
-0.077676749931825
 30
0.0
 10
8.667742645440988
 20
0.0334548070497717
 30
0.0
  0
SPLINE
  5
A8
330
1F
100
AcDbEntity
  8
0
  6
Continuous
 62
     4
370
    15
100
AcDbSpline
210
0.0
220
0.0
230
1.0
 70
     8
 71
     3
 72
     8
 73
     4
 74
     0
 42
0.000000001
 43
0.00000001
 40
0.0
 40
0.0
 40
0.0
 40
0.0
 40
1.0
 40
1.0
 40
1.0
 40
1.0
 10
10.00000000000173
 20
2.73154627285794
 30
0.0
 10
9.853587564625855
 20
2.806273521302818
 30
0.0
 10
9.709215056813186
 20
2.871968142750369
 30
0.0
 10
9.562188311997932
 20
2.928664149874565
 30
0.0
  0
LINE
  5
A9
330
1F
100
AcDbEntity
  8
0
  6
Continuous
 62
     4
370
    15
100
AcDbLine
 10
-40.3
 20
3.175000000000007
 30
0.0
 11
-40.3
 21
-3.174999999999989
 31
0.0
  0
LINE
  5
AA
330
1F
100
AcDbEntity
  8
0
  6
Continuous
 62
     1
370
    15
100
AcDbLine
 10
10.0
 20
-1.264282006802684
 30
0.0
 11
10.0
 21
-2.767365077553242
 31
0.0
  0
SPLINE
  5
AB
330
1F
100
AcDbEntity
  8
0
  6
Continuous
 62
     4
370
    15
100
AcDbSpline
210
0.0
220
0.0
230
1.0
 70
     8
 71
     3
 72
     8
 73
     4
 74
     0
 42
0.000000001
 43
0.00000001
 40
0.0
 40
0.0
 40
0.0
 40
0.0
 40
1.0
 40
1.0
 40
1.0
 40
1.0
 10
10.00000000000174
 20
-2.767365077554094
 30
0.0
 10
9.853587564625855
 20
-2.695502401142266
 30
0.0
 10
9.709215056813186
 20
-2.61517086353045
 30
0.0
 10
9.562188311997932
 20
-2.526247077623284
 30
0.0
  0
SPLINE
  5
AC
330
1F
100
AcDbEntity
  8
0
  6
Continuous
 62
     4
370
    15
100
AcDbSpline
210
0.0
220
0.0
230
1.0
 70
     8
 71
     3
 72
    14
 73
    10
 74
     0
 42
0.000000001
 43
0.00000001
 40
0.0
 40
0.0
 40
0.0
 40
0.0
 40
0.25
 40
0.25
 40
0.5
 40
0.5
 40
0.75
 40
0.75
 40
1.0
 40
1.0
 40
1.0
 40
1.0
 10
8.480289024362364
 20
-2.778532468902667
 30
0.0
 10
8.480289024362364
 20
-2.717314560777683
 30
0.0
 10
8.515462085501504
 20
-2.649937985432638
 30
0.0
 10
8.65051841399124
 20
-2.528117309827612
 30
0.0
 10
8.751270952004214
 20
-2.47447350143337
 30
0.0
 10
8.9807886111428
 20
-2.411717800353971
 30
0.0
 10
9.111727681527471
 20
-2.402218581929014
 30
0.0
 10
9.357811709171852
 20
-2.432845390718362
 30
0.0
 10
9.472591868761757
 20
-2.472057923490893
 30
0.0
 10
9.562188311997932
 20
-2.526247077623282
 30
0.0
  0
LINE
  5
AD
330
1F
100
AcDbEntity
  8
0
  6
Continuous
 62
     4
370
    15
100
AcDbLine
 10
8.480289024362364
 20
-2.778532468902667
 30
0.0
 11
8.480289024362364
 21
-3.174999999999986
 31
0.0
  0
SPLINE
  5
AE
330
1F
100
AcDbEntity
  8
0
  6
Continuous
 62
     4
370
    15
100
AcDbSpline
210
0.0
220
0.0
230
1.0
 70
     8
 71
     3
 72
     8
 73
     4
 74
     0
 42
0.000000001
 43
0.00000001
 40
0.0
 40
0.0
 40
0.0
 40
0.0
 40
1.0
 40
1.0
 40
1.0
 40
1.0
 10
8.667742645440988
 20
-2.766205414332378
 30
0.0
 10
8.546307321537185
 20
-2.825892276027275
 30
0.0
 10
8.480289024362364
 20
-2.90105015488865
 30
0.0
 10
8.480289024362365
 20
-2.962790809435913
 30
0.0
  0
LINE
  5
AF
330
1F
100
AcDbEntity
  8
0
  6
Continuous
 62
     4
370
    15
100
AcDbLine
 10
8.667742645440988
 20
-2.766205414332378
 30
0.0
 11
9.255750836439699
 21
-2.425708528781824
 31
0.0
  0
LINE
  5
B0
330
1F
100
AcDbEntity
  8
0
  6
Continuous
 62
     4
370
    15
100
AcDbLine
 10
10.0
 20
3.175000000000014
 30
0.0
 11
10.0
 21
2.731546272858827
 31
0.0
  0
LINE
  5
B1
330
1F
100
AcDbEntity
  8
0
  6
Continuous
 62
     4
370
    15
100
AcDbLine
 10
8.480289024362364
 20
2.719787462932936
 30
0.0
 11
8.480289024362364
 21
0.4930271966894481
 31
0.0
  0
LINE
  5
B2
330
1F
100
AcDbEntity
  8
0
  6
Continuous
 62
     4
370
    15
100
AcDbLine
 10
-40.8
 20
2.675000000000007
 30
0.0
 11
-40.8
 21
-2.674999999999986
 31
0.0
  0
SPLINE
  5
B3
330
1F
100
AcDbEntity
  8
0
  6
Continuous
 62
     1
370
    15
100
AcDbSpline
210
0.0
220
0.0
230
1.0
 70
     8
 71
     3
 72
    16
 73
    12
 74
     0
 42
0.000000001
 43
0.00000001
 40
0.0
 40
0.0
 40
0.0
 40
0.0
 40
0.1104869999197641
 40
0.2205852565668267
 40
0.3306985394548506
 40
0.441184066192329
 40
0.5569398873630224
 40
0.672681948620183
 40
0.7887938934444328
 40
0.9046367812537879
 40
1.0
 40
1.0
 40
1.0
 40
1.0
 10
10.00000000000174
 20
-1.26428200680428
 30
0.0
 10
10.22062250753462
 20
-1.460749993972947
 30
0.0
 10
10.66109127276399
 20
-1.852994705009002
 30
0.0
 10
11.319706743754
 20
-2.348329128616828
 30
0.0
 10
11.97826990733862
 20
-2.746386060234501
 30
0.0
 10
12.65033599318647
 20
-3.029284809398272
 30
0.0
 10
13.33145220769312
 20
-3.18010854114393
 30
0.0
 10
14.0237654376777
 20
-3.182778308027995
 30
0.0
 10
14.71832827181583
 20
-3.031482821922033
 30
0.0
 10
15.37061952492297
 20
-2.76479510108228
 30
0.0
 10
15.79137584038153
 20
-2.49491584687993
 30
0.0
 10
15.98135461137586
 20
-2.373060684767029
 30
0.0
  0
SPLINE
  5
B4
330
1F
100
AcDbEntity
  8
0
  6
Continuous
 62
     1
370
    15
100
AcDbSpline
210
0.0
220
0.0
230
1.0
 70
     8
 71
     3
 72
    26
 73
    22
 74
     0
 42
0.000000001
 43
0.00000001
 40
0.0
 40
0.0
 40
0.0
 40
0.0
 40
0.0054024701301466
 40
0.0619024016106143
 40
0.1183067572861312
 40
0.174844284724887
 40
0.2314098711538224
 40
0.2878178200926058
 40
0.3442955649019487
 40
0.4009050708025281
 40
0.4573342895047043
 40
0.5137697221313744
 40
0.5703831387577998
 40
0.6268512408546685
 40
0.6832619565754386
 40
0.7398392607397456
 40
0.7963637451029849
 40
0.8527674122362302
 40
0.9092790359787122
 40
0.9658669096156649
 40
1.0
 40
1.0
 40
1.0
 40
1.0
 10
23.66279323524665
 20
3.168474916142516
 30
0.0
 10
23.68490711224144
 20
3.17060736160128
 30
0.0
 10
23.93829159414003
 20
3.195041276462657
 30
0.0
 10
24.42209893055519
 20
3.099497195847313
 30
0.0
 10
25.11409233741907
 20
2.873686044612974
 30
0.0
 10
25.80772878074847
 20
2.496158815384848
 30
0.0
 10
26.50172096334121
 20
2.004767232675027
 30
0.0
 10
27.19376040554541
 20
1.415942502160592
 30
0.0
 10
27.88666239221964
 20
0.7605117484720787
 30
0.0
 10
28.58120677333874
 20
0.0703619774154086
 30
0.0
 10
29.27351566931841
 20
-0.6249629123882087
 30
0.0
 10
29.96590154851915
 20
-1.29050270075869
 30
0.0
 10
30.66049467573626
 20
-1.893147107706598
 30
0.0
 10
31.3532799303492
 20
-2.407350417716688
 30
0.0
 10
32.04535534912036
 20
-2.807258642944409
 30
0.0
 10
32.7394959322531
 20
-3.073260059593935
 30
0.0
 10
33.43296811378983
 20
-3.193450538050893
 30
0.0
 10
34.12495540082493
 20
-3.163285281874603
 30
0.0
 10
34.81824847320736
 20
-2.977918615626006
 30
0.0
 10
35.42133349490242
 20
-2.710749989678618
 30
0.0
 10
35.79194794079152
 20
-2.461502407779715
 30
0.0
 10
35.93138887945157
 20
-2.367724852252022
 30
0.0
  0
SPLINE
  5
B5
330
1F
100
AcDbEntity
  8
0
  6
Continuous
 62
     4
370
    15
100
AcDbSpline
210
0.0
220
0.0
230
1.0
 70
    24
 71
     3
 72
    14
 73
    10
 74
     0
 42
0.000000001
 43
0.00000001
 40
0.0
 40
0.0
 40
0.0
 40
0.0
 40
0.2500000000000001
 40
0.2500000000000001
 40
0.5000000000000001
 40
0.5000000000000001
 40
0.7500000000000001
 40
0.7500000000000001
 40
1.0
 40
1.0
 40
1.0
 40
1.0
 10
10.0
 20
2.731546272858831
 30
0.0
 10
10.0
 20
2.497403779406891
 30
0.0
 10
10.0
 20
2.223511404932376
 30
0.0
 10
10.0
 20
1.592223554833924
 30
0.0
 10
10.0
 20
1.233619586315404
 30
0.0
 10
10.0
 20
0.4706617738402012
 30
0.0
 10
10.0
 20
0.0663654172757613
 30
0.0
 10
10.0
 20
-0.6805824433058147
 30
0.0
 10
10.0
 20
-1.019634416968355
 30
0.0
 10
10.0
 20
-1.264282006802682
 30
0.0
  0
SPLINE
  5
B6
330
1F
100
AcDbEntity
  8
0
  6
Continuous
 62
     1
370
    15
100
AcDbSpline
210
0.0
220
0.0
230
1.0
 70
     8
 71
     3
 72
    20
 73
    16
 74
     0
 42
0.000000001
 43
0.00000001
 40
0.0
 40
0.0
 40
0.0
 40
0.0
 40
0.0798500398990047
 40
0.1594191312171065
 40
0.2389990821471188
 40
0.3188480573628165
 40
0.4025059261232519
 40
0.4861538504590455
 40
0.5700690932812809
 40
0.6537898859565302
 40
0.7374064843410619
 40
0.8212561624171785
 40
0.9050657747165729
 40
0.9886772504622644
 40
1.0
 40
1.0
 40
1.0
 40
1.0
 10
10.00000000000173
 20
2.731546272857942
 30
0.0
 10
10.22062250551395
 20
2.608070961462722
 30
0.0
 10
10.66109126670911
 20
2.361554780703329
 30
0.0
 10
11.31970676787551
 20
1.857996686966478
 30
0.0
 10
11.97826981672943
 20
1.282748217618333
 30
0.0
 10
12.6503363395831
 20
0.641469515516234
 30
0.0
 10
13.33145084627624
 20
-0.0419225748160059
 30
0.0
 10
14.02377051683095
 20
-0.7347077226670441
 30
0.0
 10
14.71830926940003
 20
-1.390748553133341
 30
0.0
 10
15.41121552952784
 20
-1.982463625499013
 30
0.0
 10
16.10325911916616
 20
-2.479216589055314
 30
0.0
 10
16.79722382676484
 20
-2.86128627302596
 30
0.0
 10
17.49094618843758
 20
-3.093249258551345
 30
0.0
 10
17.98318320959562
 20
-3.192844245506847
 30
0.0
 10
18.24511703031327
 20
-3.169018186179219
 30
0.0
 10
18.27635772394715
 20
-3.166176466015258
 30
0.0
  0
SPLINE
  5
B7
330
1F
100
AcDbEntity
  8
0
  6
Continuous
 62
     1
370
    15
100
AcDbSpline
210
0.0
220
0.0
230
1.0
 70
     8
 71
     3
 72
    25
 73
    21
 74
     0
 42
0.000000001
 43
0.00000001
 40
0.0
 40
0.0
 40
0.0
 40
0.0
 40
0.0443570743512273
 40
0.1007638463849471
 40
0.1572404128329932
 40
0.2138487376231906
 40
0.2702767789765276
 40
0.3267110341247101
 40
0.3833232695591586
 40
0.4397901934959183
 40
0.4961997322538984
 40
0.5527758559796865
 40
0.6092991610064467
 40
0.665701651323965
 40
0.7222120959982952
 40
0.7787987889762045
 40
0.8352119196484047
 40
0.8916695255639201
 40
0.9482842073273287
 40
1.0
 40
1.0
 40
1.0
 40
1.0
 10
25.95753350803084
 20
2.371653751129489
 30
0.0
 10
26.13911193643843
 20
2.488768703909488
 30
0.0
 10
26.55159497628021
 20
2.754813146287767
 30
0.0
 10
27.19375503807242
 20
3.022318454537179
 30
0.0
 10
27.88666383510038
 20
3.17990117875163
 30
0.0
 10
28.58120638760464
 20
3.183071585903248
 30
0.0
 10
29.27351577294949
 20
3.036052151550474
 30
0.0
 10
29.96590151911435
 20
2.744278724816819
 30
0.0
 10
30.66049468935125
 20
2.323409466496079
 30
0.0
 10
31.35327990533926
 20
1.791322431848011
 30
0.0
 10
32.04535543560148
 20
1.173668909824893
 30
0.0
 10
32.73949561040824
 20
0.5017795786895113
 30
0.0
 10
33.43296931199053
 20
-0.1944796958137993
 30
0.0
 10
34.12495093613402
 20
-0.8824248716996795
 30
0.0
 10
34.81826518187892
 20
-1.527717677645249
 30
0.0
 10
35.51253807287104
 20
-2.099614382293487
 30
0.0
 10
36.2046618638152
 20
-2.574107391267857
 30
0.0
 10
36.89732556385267
 20
-2.922375908852696
 30
0.0
 10
37.57261495993118
 20
-3.138480213168066
 30
0.0
 10
38.01522752920571
 20
-3.159286283225551
 30
0.0
 10
38.22652596564362
 20
-3.169218875241114
 30
0.0
  0
SPLINE
  5
B8
330
1F
100
AcDbEntity
  8
0
  6
Continuous
 62
     1
370
    15
100
AcDbSpline
210
0.0
220
0.0
230
1.0
 70
     8
 71
     3
 72
    26
 73
    22
 74
     0
 42
0.000000001
 43
0.00000001
 40
0.0
 40
0.0
 40
0.0
 40
0.0
 40
0.0243098315558196
 40
0.0779838050170584
 40
0.1316651039172564
 40
0.1855278753230616
 40
0.2419599666450586
 40
0.2983853498750632
 40
0.3549910549500116
 40
0.4114655921071671
 40
0.4678698441636366
 40
0.524431322009332
 40
0.5809657731616107
 40
0.6373665697006597
 40
0.6938624430145105
 40
0.7504556256444502
 40
0.8068706525422479
 40
0.8633172379710099
 40
0.9199302813445386
 40
0.9763771824006778
 40
1.0
 40
1.0
 40
1.0
 40
1.0
 10
10.36299268330128
 20
3.158026147170928
 30
0.0
 10
10.46254900691318
 20
3.161820504982149
 30
0.0
 10
10.78191695115169
 20
3.173992471663025
 30
0.0
 10
11.31967462368553
 20
3.048955943640363
 30
0.0
 10
11.97827844784694
 20
2.793394138390321
 30
0.0
 10
12.65033390571068
 20
2.404818341081085
 30
0.0
 10
13.33145148973455
 20
1.900592788430709
 30
0.0
 10
14.02377042317921
 20
1.297012835169804
 30
0.0
 10
14.71830899730495
 20
0.6337696461672717
 30
0.0
 10
15.41121670732254
 20
-0.0609559447554987
 30
0.0
 10
16.10325467980152
 20
-0.7532747153685037
 30
0.0
 10
16.79724045550353
 20
-1.408435759617573
 30
0.0
 10
17.49088422647003
 20
-1.997134341994031
 30
0.0
 10
18.18287580735484
 20
-2.491833558041905
 30
0.0
 10
18.87604097910461
 20
-2.867590924429392
 30
0.0
 10
19.57042591362031
 20
-3.107113803226173
 30
0.0
 10
20.26260482163466
 20
-3.19917704505984
 30
0.0
 10
20.95516231655574
 20
-3.140770559346608
 30
0.0
 10
21.64983198895048
 20
-2.927116440334106
 30
0.0
 10
22.20828746204214
 20
-2.662494794309422
 30
0.0
 10
22.53554260320274
 20
-2.434683209207532
 30
0.0
 10
22.63209206831754
 20
-2.367472388284942
 30
0.0
  0
SPLINE
  5
B9
330
1F
100
AcDbEntity
  8
0
  6
Continuous
 62
     1
370
    15
100
AcDbSpline
210
0.0
220
0.0
230
1.0
 70
     8
 71
     3
 72
    24
 73
    20
 74
     0
 42
0.000000001
 43
0.00000001
 40
0.0
 40
0.0
 40
0.0
 40
0.0
 40
0.0304718067715286
 40
0.0910405674751723
 40
0.1515477744599465
 40
0.2122336673788657
 40
0.2728629047741799
 40
0.3333625513098644
 40
0.3939779941586606
 40
0.4546752240950406
 40
0.5151862839157352
 40
0.5757450497239676
 40
0.6364723015905867
 40
0.697013714679177
 40
0.7575346025465902
 40
0.8182489370190996
 40
0.8788395536846114
 40
0.9393414745449421
 40
1.0
 40
1.0
 40
1.0
 40
1.0
 10
30.31190610331789
 20
3.156065047854014
 30
0.0
 10
30.42822780585161
 20
3.159687559229816
 30
0.0
 10
30.77576196710926
 20
3.170510530568897
 30
0.0
 10
31.35328558421781
 20
3.025015992544023
 30
0.0
 10
32.04535390894572
 20
2.73571915053632
 30
0.0
 10
32.73949602184281
 20
2.309548071622804
 30
0.0
 10
33.43296919365491
 20
1.775636946746389
 30
0.0
 10
34.12495099919063
 20
1.155998907219631
 30
0.0
 10
34.81826504773518
 20
0.4823190942463201
 30
0.0
 10
35.51253854628727
 20
-0.2134096713590697
 30
0.0
 10
36.20466010979687
 20
-0.9006909085154283
 30
0.0
 10
36.89733212208132
 20
-1.544810944809137
 30
0.0
 10
37.59195574762867
 20
-2.114214581058373
 30
0.0
 10
38.28442998152984
 20
-2.584811766912215
 30
0.0
 10
38.97666716362709
 20
-2.932274483051525
 30
0.0
 10
39.6711406619054
 20
-3.14061475891548
 30
0.0
 10
40.36417218861695
 20
-3.197785243563097
 30
0.0
 10
41.05618278435875
 20
-3.112518005988192
 30
0.0
 10
41.51852839488463
 20
-2.933348342253871
 30
0.0
 10
41.75000000000001
 20
-2.84364771850318
 30
0.0
  0
SPLINE
  5
BA
330
1F
100
AcDbEntity
  8
0
  6
Continuous
 62
     1
370
    15
100
AcDbSpline
210
0.0
220
0.0
230
1.0
 70
     8
 71
     3
 72
    25
 73
    21
 74
     0
 42
0.000000001
 43
0.00000001
 40
0.0
 40
0.0
 40
0.0
 40
0.0
 40
0.054886999943026
 40
0.1113154352874821
 40
0.1679242022306997
 40
0.2244017941610995
 40
0.2808090971890108
 40
0.3373736345106732
 40
0.3939111436770139
 40
0.4503149910005918
 40
0.5068139202417847
 40
0.5634101640626397
 40
0.6198282425147027
 40
0.6762778812047678
 40
0.7328939868435028
 40
0.7893439411780175
 40
0.8457618408587662
 40
0.9023577735480831
 40
0.9588571543753535
 40
1.0
 40
1.0
 40
1.0
 40
1.0
 10
12.65844256198394
 20
2.379743207602119
 30
0.0
 10
12.88282043311455
 20
2.518574553890735
 30
0.0
 10
13.33787755811154
 20
2.800136157908192
 30
0.0
 10
14.02374276029522
 20
3.063421463460728
 30
0.0
 10
14.71831640061178
 20
3.191919232879786
 30
0.0
 10
15.41121472867369
 20
3.166951593013449
 30
0.0
 10
16.10325521064902
 20
2.991878838159277
 30
0.0
 10
16.79724031580757
 20
2.675106672753095
 30
0.0
 10
17.49088425393344
 20
2.23145690998361
 30
0.0
 10
18.18287583670521
 20
1.681000405858606
 30
0.0
 10
18.87604083379884
 20
1.051209227368674
 30
0.0
 10
19.57042646571174
 20
0.3726309716934868
 30
0.0
 10
20.2626027655295
 20
-0.3253994201264938
 30
0.0
 10
20.95517000584951
 20
-1.007690932020396
 30
0.0
 10
21.64980323375676
 20
-1.640628597519302
 30
0.0
 10
22.34237536034902
 20
-2.196947309806781
 30
0.0
 10
23.03454529532152
 20
-2.65026502764792
 30
0.0
 10
23.72894247031153
 20
-2.97165082892867
 30
0.0
 10
24.35965054553
 20
-3.153981854652403
 30
0.0
 10
24.75859546036881
 20
-3.158297654255935
 30
0.0
 10
24.9266961852333
 20
-3.160116173592163
 30
0.0
  0
SPLINE
  5
BB
330
1F
100
AcDbEntity
  8
0
  6
Continuous
 62
     1
370
    15
100
AcDbSpline
210
0.0
220
0.0
230
1.0
 70
     8
 71
     3
 72
    21
 73
    17
 74
     0
 42
0.000000001
 43
0.00000001
 40
0.0
 40
0.0
 40
0.0
 40
0.0
 40
0.0145807127976175
 40
0.0904220091613801
 40
0.1661011999270291
 40
0.2419252406508477
 40
0.317851589089798
 40
0.3935450567681729
 40
0.4692982000105921
 40
0.5452621029728475
 40
0.6209935396458034
 40
0.6966993012575318
 40
0.7726470458124409
 40
0.848440031388529
 40
0.9241220671137538
 40
1.0
 40
1.0
 40
1.0
 40
1.0
 10
32.60618629909406
 20
2.372450450786695
 30
0.0
 10
32.65065987381028
 20
2.404458139369194
 30
0.0
 10
32.9264618895448
 20
2.602953202704789
 30
0.0
 10
33.43298628088365
 20
2.857665479920687
 30
0.0
 10
34.12494641524687
 20
3.106966159515655
 30
0.0
 10
34.81826627896125
 20
3.198782950979927
 30
0.0
 10
35.51253821733081
 20
3.141584180582566
 30
0.0
 10
36.20466019789581
 20
2.934296913896254
 30
0.0
 10
36.89733209839186
 20
2.587684010394109
 30
0.0
 10
37.59195575396206
 20
2.11937656604678
 30
0.0
 10
38.28442997983583
 20
1.549202943283957
 30
0.0
 10
38.97666716408257
 20
0.9052827463084914
 30
0.0
 10
39.6711406617835
 20
0.2197532988513876
 30
0.0
 10
40.36417218864936
 20
-0.4758613206016655
 30
0.0
 10
41.05618278435063
 20
-1.155395254315472
 30
0.0
 10
41.51852839488191
 20
-1.556008501496992
 30
0.0
 10
41.75
 20
-1.75657402919848
 30
0.0
  0
SPLINE
  5
BC
330
1F
100
AcDbEntity
  8
0
  6
Continuous
 62
     1
370
    15
100
AcDbSpline
210
0.0
220
0.0
230
1.0
 70
     8
 71
     3
 72
    11
 73
     7
 74
     0
 42
0.000000001
 43
0.00000001
 40
0.0
 40
0.0
 40
0.0
 40
0.0
 40
0.083068867925516
 40
0.311132731366374
 40
0.5459202526557327
 40
0.9999999999999999
 40
0.9999999999999999
 40
0.9999999999999999
 40
0.9999999999999999
 10
41.3264352659744
 20
-1.381415339062533
 30
0.0
 10
41.30988626025508
 20
-1.384273582551388
 30
0.0
 10
41.24790230068717
 20
-1.394979074582348
 30
0.0
 10
41.12342741927776
 20
-1.43938487088027
 30
0.0
 10
40.90662682854739
 20
-1.534025255056636
 30
0.0
 10
40.73710262479786
 20
-1.641579207412214
 30
0.0
 10
40.62535757446326
 20
-1.712475407210426
 30
0.0
  0
SPLINE
  5
BD
330
1F
100
AcDbEntity
  8
0
  6
Continuous
 62
     1
370
    15
100
AcDbSpline
210
0.0
220
0.0
230
1.0
 70
     8
 71
     3
 72
    10
 73
     6
 74
     0
 42
0.000000001
 43
0.00000001
 40
0.0
 40
0.0
 40
0.0
 40
0.0
 40
0.5
 40
0.5
 40
1.0
 40
1.0
 40
1.0
 40
1.0
 10
41.75
 20
-1.85613095412456
 30
0.0
 10
41.55750986783723
 20
-1.866216218463089
 30
0.0
 10
41.36740064521513
 20
-1.860257599389035
 30
0.0
 10
40.99225286963998
 20
-1.814171388584875
 30
0.0
 10
40.80710168324087
 20
-1.774802783219376
 30
0.0
 10
40.62535757445703
 20
-1.712475407223368
 30
0.0
  0
LINE
  5
BE
330
1F
100
AcDbEntity
  8
0
  6
Continuous
 62
     1
370
    15
100
AcDbLine
 10
41.75
 20
-2.843647718503183
 30
0.0
 11
41.75
 21
-1.856130954124561
 31
0.0
  0
SPLINE
  5
BF
330
1F
100
AcDbEntity
  8
0
  6
Continuous
 62
     1
370
    15
100
AcDbSpline
210
0.0
220
0.0
230
1.0
 70
     8
 71
     3
 72
    26
 73
    22
 74
     0
 42
0.000000001
 43
0.00000001
 40
0.0
 40
0.0
 40
0.0
 40
0.0
 40
0.0389908782457192
 40
0.0953921562250148
 40
0.1518885117906928
 40
0.2084821775030972
 40
0.2648976859626125
 40
0.3213447532224777
 40
0.3779582798480035
 40
0.43440566273794
 40
0.4908209924342846
 40
0.5474143470293235
 40
0.6039111541605083
 40
0.6603123907719206
 40
0.7168467917824016
 40
0.7734092502314481
 40
0.8298140799074255
 40
0.8862887015943706
 40
0.9428950770863896
 40
0.9993211753495784
 40
1.0
 40
1.0
 40
1.0
 40
1.0
 10
17.01263023671897
 20
3.158818243039539
 30
0.0
 10
17.17220026430398
 20
3.158309574826366
 30
0.0
 10
17.56259231713985
 20
3.157065105354507
 30
0.0
 10
18.1828588142376
 20
2.981582743216313
 30
0.0
 10
18.87604540854721
 20
2.665202272925162
 30
0.0
 10
19.57042523916088
 20
2.217527486685166
 30
0.0
 10
20.26260310949018
 20
1.664870270527093
 30
0.0
 10
20.95516985512207
 20
1.032767913941964
 30
0.0
 10
21.64980349191575
 20
0.3534997110004033
 30
0.0
 10
22.34237448155874
 20
-0.3443178929387054
 30
0.0
 10
23.03454855579864
 20
-1.025968946939717
 30
0.0
 10
23.7289302736641
 20
-1.65726698394552
 30
0.0
 10
24.42210080009366
 20
-2.210949813365096
 30
0.0
 10
25.1140917650148
 20
-2.660032479576891
 30
0.0
 10
25.80772919836865
 20
-2.982075039936676
 30
0.0
 10
26.50171986714704
 20
-3.16294904575998
 30
0.0
 10
27.19376436299274
 20
-3.192964280015486
 30
0.0
 10
27.88664761966285
 20
-3.074537671146372
 30
0.0
 10
28.58126196324738
 20
-2.798051846350949
 30
0.0
 10
29.04562823406441
 20
-2.554794729425895
 30
0.0
 10
29.27904992801955
 20
-2.382625560799283
 30
0.0
 10
29.28182468703708
 20
-2.380578930320802
 30
0.0
  0
SPLINE
  5
C0
330
1F
100
AcDbEntity
  8
0
  6
Continuous
 62
     1
370
    15
100
AcDbSpline
210
0.0
220
0.0
230
1.0
 70
     8
 71
     3
 72
    14
 73
    10
 74
     0
 42
0.000000001
 43
0.00000001
 40
0.0
 40
0.0
 40
0.0
 40
0.0
 40
0.1317118725287826
 40
0.2763154073767681
 40
0.4208699176086382
 40
0.5658864762380292
 40
0.7106075341299452
 40
0.8551167415495797
 40
0.9999999999999999
 40
0.9999999999999999
 40
0.9999999999999999
 40
0.9999999999999999
 10
36.96092399547456
 20
3.168688938112278
 30
0.0
 10
37.17146591789848
 20
3.159214300024433
 30
0.0
 10
37.61315713333345
 20
3.139337667548356
 30
0.0
 10
38.28444841549251
 20
2.924435990161792
 30
0.0
 10
38.97666220716357
 20
2.576875468206306
 30
0.0
 10
39.67114198836067
 20
2.10463096006925
 30
0.0
 10
40.36417183580836
 20
1.532476867972391
 30
0.0
 10
41.05618287277331
 20
0.8873401028922107
 30
0.0
 10
41.51852842438153
 20
0.4285295426853495
 30
0.0
 10
41.75
 20
0.1988277473245769
 30
0.0
  0
SPLINE
  5
C1
330
1F
100
AcDbEntity
  8
0
  6
Continuous
 62
     1
370
    15
100
AcDbSpline
210
0.0
220
0.0
230
1.0
 70
     8
 71
     3
 72
    10
 73
     6
 74
     0
 42
0.000000001
 43
0.00000001
 40
0.0
 40
0.0
 40
0.0
 40
0.0
 40
0.406212298614753
 40
0.8109953585092062
 40
1.0
 40
1.0
 40
1.0
 40
1.0
 10
10.00000000000173
 20
-2.767365077554092
 30
0.0
 10
10.22063363700207
 20
-2.862216778494711
 30
0.0
 10
10.66112462200785
 20
-3.051586449161674
 30
0.0
 10
11.2026865843727
 20
-3.17248506546736
 30
0.0
 10
11.52452760846329
 20
-3.161494679927231
 30
0.0
 10
11.6269706992066
 20
-3.157996402893181
 30
0.0
  0
SPLINE
  5
C2
330
1F
100
AcDbEntity
  8
0
  6
Continuous
 62
     1
370
    15
100
AcDbSpline
210
0.0
220
0.0
230
1.0
 70
     8
 71
     3
 72
    26
 73
    22
 74
     0
 42
0.000000001
 43
0.00000001
 40
0.0
 40
0.0
 40
0.0
 40
0.0
 40
0.0214635133851507
 40
0.0778799101571321
 40
0.1343278662263847
 40
0.1909422842823489
 40
0.2473905559866426
 40
0.3038067739926383
 40
0.360401019700489
 40
0.4168987164242599
 40
0.4733008411234154
 40
0.5298361323184314
 40
0.5863994813938026
 40
0.6428051992140988
 40
0.6992807101442999
 40
0.7558879769541568
 40
0.8123149636965576
 40
0.8687481641176714
 40
0.9253593414986915
 40
0.9818252100978195
 40
1.0
 40
1.0
 40
1.0
 40
1.0
 10
19.30724748091792
 20
2.367883113230044
 30
0.0
 10
19.39512556244808
 20
2.429267050259741
 30
0.0
 10
19.71398934637478
 20
2.651997384067596
 30
0.0
 10
20.2625789206866
 20
2.915453043446417
 30
0.0
 10
20.95517635997755
 20
3.135613497009098
 30
0.0
 10
21.64980175235734
 20
3.199633497390365
 30
0.0
 10
22.34237494711778
 20
3.113875154659158
 30
0.0
 10
23.03454842926961
 20
2.879351605695666
 30
0.0
 10
23.7289303126684
 20
2.509139945900333
 30
0.0
 10
24.42210077062462
 20
2.019326710722193
 30
0.0
 10
25.11409184393187
 20
1.432977425754665
 30
0.0
 10
25.80772891134024
 20
0.7795334286331156
 30
0.0
 10
26.50172093536884
 20
0.0894672146159798
 30
0.0
 10
27.19376038730499
 20
-0.6063054381068349
 30
0.0
 10
27.88666249342361
 20
-1.272690302729386
 30
0.0
 10
28.58120638632932
 20
-1.877643383526009
 30
0.0
 10
29.27351711084292
 20
-2.394294730394078
 30
0.0
 10
29.96589615967036
 20
-2.799804824782557
 30
0.0
 10
30.66051483615744
 20
-3.060984541405592
 30
0.0
 10
31.19694321625815
 20
-3.182059802896541
 30
0.0
 10
31.50196810967348
 20
-3.163133088870429
 30
0.0
 10
31.57624081122878
 20
-3.158524487367306
 30
0.0
  0
SPLINE
  5
C3
330
1F
100
AcDbEntity
  8
0
  6
Continuous
 62
     1
370
    15
100
AcDbSpline
210
0.0
220
0.0
230
1.0
 70
     8
 71
     3
 72
    11
 73
     7
 74
     0
 42
0.000000001
 43
0.00000001
 40
0.0
 40
0.0
 40
0.0
 40
0.0
 40
0.1662836694460312
 40
0.4442208972336954
 40
0.721751265550948
 40
0.9999999999999999
 40
0.9999999999999999
 40
0.9999999999999999
 40
0.9999999999999999
 10
39.25636083121311
 20
2.3675875905808
 30
0.0
 10
39.39472275529442
 20
2.460473348501285
 30
0.0
 10
39.76435170480668
 20
2.70861434070534
 30
0.0
 10
40.36418653016246
 20
2.974105674803874
 30
0.0
 10
41.0561791903379
 20
3.169254036634735
 30
0.0
 10
41.51852719584581
 20
3.168930350388198
 30
0.0
 10
41.75
 20
3.168768298076392
 30
0.0
  0
LINE
  5
C4
330
1F
100
AcDbEntity
  8
0
  6
Continuous
 62
     1
370
    15
100
AcDbLine
 10
41.75
 20
2.055825087590575
 30
0.0
 11
41.75
 21
3.168768298076394
 31
0.0
  0
SPLINE
  5
C5
330
1F
100
AcDbEntity
  8
0
  6
Continuous
 62
     1
370
    15
100
AcDbSpline
210
0.0
220
0.0
230
1.0
 70
     8
 71
     3
 72
    14
 73
    10
 74
     0
 42
0.000000001
 43
0.00000001
 40
0.0
 40
0.0
 40
0.0
 40
0.0
 40
0.25
 40
0.25
 40
0.5
 40
0.5
 40
0.75
 40
0.75
 40
1.0
 40
1.0
 40
1.0
 40
1.0
 10
41.75
 20
2.055825087594512
 30
0.0
 10
41.70307816179277
 20
1.922981207410253
 30
0.0
 10
41.64444338890598
 20
1.79905285653111
 30
0.0
 10
41.49570809698983
 20
1.575146922857065
 30
0.0
 10
41.40712968038948
 20
1.478577090747752
 30
0.0
 10
41.20478639439522
 20
1.328795474086712
 30
0.0
 10
41.0940058602184
 20
1.27753469631731
 30
0.0
 10
40.86133508978138
 20
1.222384388140682
 30
0.0
 10
40.74319062111326
 20
1.21924767216537
 30
0.0
 10
40.62535757446179
 20
1.23610087082433
 30
0.0
  0
SPLINE
  5
C6
330
1F
100
AcDbEntity
  8
0
  6
Continuous
 62
     1
370
    15
100
AcDbSpline
210
0.0
220
0.0
230
1.0
 70
     8
 71
     3
 72
     9
 73
     5
 74
     0
 42
0.000000001
 43
0.00000001
 40
0.0
 40
0.0
 40
0.0
 40
0.0
 40
0.6243379054501904
 40
1.0
 40
1.0
 40
1.0
 40
1.0
 10
41.75
 20
0.6124588087644348
 30
0.0
 10
41.53345596029083
 20
0.7455171421702067
 30
0.0
 10
41.18661807359703
 20
0.9586362436122817
 30
0.0
 10
40.85289054991186
 20
1.122650058801573
 30
0.0
 10
40.72752176935538
 20
1.184263832150688
 30
0.0
  0
LINE
  5
C7
330
1F
100
AcDbEntity
  8
0
  6
Continuous
 62
     1
370
    15
100
AcDbLine
 10
41.75
 20
0.1988277473245768
 30
0.0
 11
41.75
 21
0.6124588087644346
 31
0.0
  0
LINE
  5
C8
330
1F
100
AcDbEntity
  8
0
  6
Continuous
 62
     1
370
    15
100
AcDbLine
 10
41.75
 20
-1.756574029198481
 30
0.0
 11
41.75
 21
0.1988277473245768
 31
0.0
  0
LINE
  5
C9
330
1F
100
AcDbEntity
  8
0
  6
Continuous
 62
     4
370
    15
100
AcDbLine
 10
10.0
 20
-2.767365077553247
 30
0.0
 11
10.0
 21
-1.264282006802683
 31
0.0
  0
LINE
  5
CA
330
1F
100
AcDbEntity
  8
0
  6
Continuous
 62
     1
370
    15
100
AcDbLine
 10
41.75
 20
3.168768298076394
 30
0.0
 11
41.75
 21
3.175000000000017
 31
0.0
  0
LINE
  5
CB
330
1F
100
AcDbEntity
  8
0
  6
Continuous
 62
     1
370
    15
100
AcDbLine
 10
41.75
 20
0.6124588087644348
 30
0.0
 11
41.75
 21
2.055825087590575
 31
0.0
  0
LINE
  5
CC
330
1F
100
AcDbEntity
  8
0
  6
Continuous
 62
     1
370
    15
100
AcDbLine
 10
41.75
 20
-1.756574029198482
 30
0.0
 11
41.75
 21
-1.856130954124561
 31
0.0
  0
LINE
  5
CD
330
1F
100
AcDbEntity
  8
중심선
100
AcDbLine
 10
-43.3
 20
-0.0000000000000006
 30
0.0
 11
28.16254243902305
 21
-0.000000000000001
 31
0.0
  0
CIRCLE
  5
CE
330
1F
100
AcDbEntity
  8
외형선
100
AcDbCircle
 10
0.0
 20
0.0
 30
0.0
 40
3.000000000000008
  0
INSERT
  5
CF
330
1F
100
AcDbEntity
  8
0
  6
Continuous
 62
     7
100
AcDbBlockReference
 66
     1
  2
블럭10
 10
-19.77485947044653
 20
-29.35855899609678
 30
0.0
  0
ATTRIB
  5
D0
330
CF
100
AcDbEntity
  8
FORMAT
 62
     2
100
AcDbText
 10
-28.95615475918781
 20
-27.28319208326459
 30
0.0
 40
4.233333333333333
  1
E5982016 [ 3 FLUTE ]
 41
0.75
  7
SLDTEXTSTYLE0
 11
-28.95615475918781
 21
-29.39985874993126
 31
0.0
100
AcDbAttribute
  2
AUTOATTR0
 70
     0
 74
     1
  0
SEQEND
  5
D1
330
CF
100
AcDbEntity
  8
0
  6
Continuous
 62
     7
  0
HATCH
  5
D2
330
1F
100
AcDbEntity
  8
중심선
100
AcDbHatch
 10
0.0
 20
0.0
 30
0.0
210
0.0
220
0.0
230
1.0
  2
SOLID
 70
     1
 71
     0
 91
        1
 92
        0
 93
        4
 72
     1
 10
-14.05995016606568
 20
-13.11138469445284
 11
-17.50622540990296
 21
-13.11138469445284
 72
     1
 10
-17.50622540990296
 20
-13.11138469445284
 11
-19.63445526910698
 21
-15.64771027502545
 72
     1
 10
-19.63445526910698
 20
-15.64771027502545
 11
-16.18814694015655
 21
-15.64767084572296
 72
     1
 10
-16.18814694015655
 20
-15.64767084572296
 11
-14.05995016606568
 21
-13.11138469445284
 97
        0
 75
     0
 76
     1
 98
        1
 10
0.0
 20
22.68754037682326
  0
HATCH
  5
D3
330
1F
100
AcDbEntity
  8
중심선
100
AcDbHatch
 10
0.0
 20
0.0
 30
0.0
210
0.0
220
0.0
230
1.0
  2
SOLID
 70
     1
 71
     0
 91
        1
 92
        0
 93
        4
 72
     1
 10
-9.047186175029726
 20
-13.11138469445284
 11
-12.49346141886701
 21
-13.11138469445284
 72
     1
 10
-12.49346141886701
 20
-13.11138469445284
 11
-17.02459942722439
 21
-18.51138469445286
 72
     1
 10
-17.02459942722439
 20
-18.51138469445286
 11
-13.57832418338711
 21
-18.51138469445286
 72
     1
 10
-13.57832418338711
 20
-18.51138469445286
 11
-9.047186175029726
 21
-13.11138469445284
 97
        0
 75
     0
 76
     1
 98
        1
 10
0.0
 20
22.68754037682326
  0
HATCH
  5
D4
330
1F
100
AcDbEntity
  8
중심선
100
AcDbHatch
 10
0.0
 20
0.0
 30
0.0
210
0.0
220
0.0
230
1.0
  2
SOLID
 70
     1
 71
     0
 91
        1
 92
        0
 93
        4
 72
     1
 10
-4.03442218399383
 20
-13.11138469445287
 11
-7.480697427830946
 21
-13.11138469445284
 72
     1
 10
-7.480697427830946
 20
-13.11138469445284
 11
-14.5291343297202
 21
-21.51138469445286
 72
     1
 10
-14.5291343297202
 20
-21.51138469445286
 11
-11.08285908588291
 21
-21.51138469445286
 72
     1
 10
-11.08285908588291
 20
-21.51138469445286
 11
-4.03442218399383
 21
-13.11138469445287
 97
        0
 75
     0
 76
     1
 98
        1
 10
0.0
 20
22.68754037682326
  0
HATCH
  5
D5
330
1F
100
AcDbEntity
  8
중심선
100
AcDbHatch
 10
0.0
 20
0.0
 30
0.0
210
0.0
220
0.0
230
1.0
  2
SOLID
 70
     1
 71
     0
 91
        1
 92
        0
 93
        6
 72
     3
 10
0.7654682470183694
 20
-17.31138469450412
 11
3.960054785062283
 21
1.540882976769353E-10
 40
0.3939339440162628
 50
17.09539180608437
 51
320.0019657685079
 73
     0
 72
     1
 10
2.448467902718965
 20
-15.89927869909115
 11
4.753769776420002
 21
-13.96495198904323
 72
     3
 10
0.7654682469655227
 20
-17.311384694453
 11
6.600054785286829
 21
-1.278976924368180E-13
 40
0.636358354079598
 50
39.99873849337411
 51
368.4976242363725
 73
     1
 72
     1
 10
7.190800738866132
 20
-16.35138469438287
 11
-0.5544644461985548
 21
-16.35138469438284
 72
     1
 10
-0.5544644461985548
 20
-16.35138469438284
 11
-0.5544894906444886
 21
-18.27138469438276
 72
     1
 10
-0.5544894906444886
 20
-18.27138469438276
 11
3.886890278827548
 21
-18.27138469438273
 97
        0
 75
     0
 76
     1
 98
        1
 10
0.0
 20
22.68754037682326
  0
POINT
  5
D6
330
1F
100
AcDbEntity
  8
치수문자_일반주서
100
AcDbPoint
 10
-41.29999999999999
 20
-3.175000000000009
 30
0.0
  0
POINT
  5
D7
330
1F
100
AcDbEntity
  8
치수문자_일반주서
100
AcDbPoint
 10
-41.29999999999999
 20
-3.175000000000009
 30
0.0
  0
POINT
  5
D8
330
1F
100
AcDbEntity
  8
치수문자_일반주서
100
AcDbPoint
 10
-40.8
 20
-0.0000000000000005
 30
0.0
  0
DIMENSION
  5
E4
330
1F
100
AcDbEntity
  8
치수문자_일반주서
100
AcDbDimension
  2
_D_1
 10
10.0
 20
23.78841845233052
 30
0.0
 11
25.875
 21
23.78841845233052
 31
0.0
 70
   160
  1
<>
 71
     2
 42
31.75
  3
SLDDIMSTYLE2
100
AcDbAlignedDimension
 13
41.75
 23
3.175000000000017
 33
0.0
 14
10.0
 24
3.175000000000014
 34
0.0
100
AcDbRotatedDimension
1001
ACAD
1000
DSTYLE
1002
{
1070
   171
1070
     6
1070
   273
1070
     5
1002
}
  0
DIMENSION
  5
F8
330
1F
100
AcDbEntity
  8
치수문자_일반주서
100
AcDbDimension
  2
_D_2
 10
-40.8
 20
41.81110365728746
 30
0.0
 11
0.4749999999999994
 21
41.81110365728746
 31
0.0
 70
   160
  1
<>
 71
     2
 42
82.55
  3
SLDDIMSTYLE2
100
AcDbAlignedDimension
 13
41.75
 23
3.175000000000017
 33
0.0
 14
-40.8
 24
2.675000000000007
 34
0.0
100
AcDbRotatedDimension
1001
ACAD
1000
DSTYLE
1002
{
1070
   171
1070
     6
1070
   273
1070
     5
1002
}
  0
DIMENSION
  5
10B
330
1F
100
AcDbEntity
  8
치수문자_일반주서
100
AcDbDimension
  2
_D_3
 10
-48.00504542603275
 20
-3.175000000000018
 30
0.0
 11
-48.00504542603284
 21
23.12274999999998
 31
0.0
 70
   160
  1
%%c<>
 71
     2
 42
6.35
 52
-270.0
  3
SLDDIMSTYLE2
100
AcDbAlignedDimension
 13
-40.3
 23
3.175000000000011
 33
0.0
 14
-40.3
 24
-3.174999999999989
 34
0.0
 50
90.0000000000002
100
AcDbRotatedDimension
1001
ACAD
1000
DSTYLE
1002
{
1070
   171
1070
     6
1070
   273
1070
     5
1002
}
  0
INSERT
  5
126
330
1F
100
AcDbEntity
  8
외형선
100
AcDbBlockReference
  2
SW_DOWELSYMBOL_0
 10
0.0
 20
0.0
 30
0.0
  0
DIMENSION
  5
153
102
{ACAD_REACTORS
102
}
102
{ACAD_XDICTIONARY
360
154
102
}
330
1F
100
AcDbEntity
  8
치수문자_일반주서
100
AcDbDimension
  2
*D7
 10
47.62724613274148
 20
3.175000000000016
 30
0.0
 11
45.00224613274148
 21
22.46650000000001
 31
0.0
 70
    32
  1
{Ø<>[]}
 71
     5
 42
6.350000000000002
  3
SLDDIMSTYLE2
100
AcDbAlignedDimension
 13
41.75
 23
-3.174999999999986
 33
0.0
 14
41.75
 24
3.175000000000017
 34
0.0
 50
90.0
100
AcDbRotatedDimension
1001
ACAD
1000
DSTYLE
1002
{
1070
   283
1070
     1
1070
   170
1070
     1
1070
   171
1070
     6
1070
   273
1070
     5
1002
}
  0
ENDSEC
  0
SECTION
  2
OBJECTS
  0
DICTIONARY
  5
C
330
0
100
AcDbDictionary
281
     1
  3
ACAD_GROUP
350
D
  3
ACAD_IMAGE_VARS
350
14A
  3
ACAD_LAYOUT
350
1A
  3
ACAD_MLINESTYLE
350
17
  3
ACAD_PLOTSETTINGS
350
19
  3
ACAD_PLOTSTYLENAME
350
E
  3
ACAD_SCALELIST
350
47
  3
APPDATA
350
148
  3
DWGPROPS
350
169
  0
DICTIONARY
  5
154
330
153
100
AcDbDictionary
280
     1
281
     1
  0
DICTIONARY
  5
D
102
{ACAD_REACTORS
330
C
102
}
330
C
100
AcDbDictionary
281
     1
  0
RASTERVARIABLES
  5
14A
102
{ACAD_REACTORS
330
C
102
}
330
C
100
AcDbRasterVariables
 90
        0
 70
     1
 71
     1
 72
     1
  0
DICTIONARY
  5
1A
102
{ACAD_REACTORS
330
C
102
}
330
C
100
AcDbDictionary
281
     1
  3
Layout1
350
1E
  3
Layout2
350
26
  3
Model
350
22
  0
DICTIONARY
  5
17
102
{ACAD_REACTORS
330
C
102
}
330
C
100
AcDbDictionary
281
     1
  3
Standard
350
18
  0
DICTIONARY
  5
19
102
{ACAD_REACTORS
330
C
102
}
330
C
100
AcDbDictionary
281
     1
  0
ACDBDICTIONARYWDFLT
  5
E
102
{ACAD_REACTORS
330
C
102
}
330
C
100
AcDbDictionary
281
     1
  3
Normal
350
F
100
AcDbDictionaryWithDefault
340
F
  0
DICTIONARY
  5
47
102
{ACAD_REACTORS
330
C
102
}
330
C
100
AcDbDictionary
281
     1
  3
A0
350
48
  3
A1
350
49
  3
A2
350
4A
  3
A3
350
4B
  3
A4
350
4C
  3
A5
350
4D
  3
A6
350
4E
  3
A7
350
4F
  3
A8
350
50
  3
A9
350
51
  3
B0
350
52
  3
B1
350
53
  3
B2
350
54
  3
B3
350
55
  3
B4
350
56
  3
B5
350
57
  3
B6
350
58
  3
B7
350
59
  3
B8
350
5A
  3
B9
350
5B
  3
C0
350
5C
  3
C1
350
5D
  3
C2
350
5E
  3
C3
350
5F
  3
C4
350
60
  3
C5
350
61
  3
C6
350
62
  3
C7
350
63
  3
C8
350
64
  3
C9
350
65
  3
D0
350
66
  3
D1
350
67
  3
D2
350
68
  0
DICTIONARY
  5
148
102
{ACAD_REACTORS
330
C
102
}
330
C
100
AcDbDictionary
281
     1
  0
XRECORD
  5
169
102
{ACAD_REACTORS
330
C
102
}
330
C
100
AcDbXrecord
280
     1
  1
DWGPROPS COOKIE
  2

  3

  4

  6

  7

  8
12014074
  9

300
=
301
=
302
=
303
=
304
=
305
=
306
=
307
=
308
=
309
=
 40
0.0
 41
2458269.02081316
 42
2458269.453215023
  1

 90
        0
  0
LAYOUT
  5
1E
102
{ACAD_REACTORS
330
1A
102
}
330
1A
100
AcDbPlotSettings
  1

  2
none_device
  4

  6

 40
0.0
 41
0.0
 42
0.0
 43
0.0
 44
0.0
 45
0.0
 46
0.0
 47
0.0
 48
0.0
 49
0.0
140
0.0
141
0.0
142
1.0
143
1.0
 70
   688
 72
     1
 73
     0
 74
     5
  7

 75
    16
147
1.0
148
0.0
149
0.0
100
AcDbLayout
  1
Layout1
 70
     1
 71
     1
 10
0.0
 20
0.0
 11
420.0
 21
297.0
 12
0.0
 22
0.0
 32
0.0
 14
1.000000000000000E+20
 24
1.000000000000000E+20
 34
1.000000000000000E+20
 15
-1.000000000000000E+20
 25
-1.000000000000000E+20
 35
-1.000000000000000E+20
146
0.0
 13
0.0
 23
0.0
 33
0.0
 16
1.0
 26
0.0
 36
0.0
 17
0.0
 27
1.0
 37
0.0
 76
     0
330
1B
  0
LAYOUT
  5
26
102
{ACAD_REACTORS
330
1A
102
}
330
1A
100
AcDbPlotSettings
  1

  2
none_device
  4

  6

 40
0.0
 41
0.0
 42
0.0
 43
0.0
 44
0.0
 45
0.0
 46
0.0
 47
0.0
 48
0.0
 49
0.0
140
0.0
141
0.0
142
1.0
143
1.0
 70
   688
 72
     1
 73
     0
 74
     5
  7

 75
    16
147
1.0
148
0.0
149
0.0
100
AcDbLayout
  1
Layout2
 70
     1
 71
     2
 10
0.0
 20
0.0
 11
0.0
 21
0.0
 12
0.0
 22
0.0
 32
0.0
 14
0.0
 24
0.0
 34
0.0
 15
0.0
 25
0.0
 35
0.0
146
0.0
 13
0.0
 23
0.0
 33
0.0
 16
1.0
 26
0.0
 36
0.0
 17
0.0
 27
1.0
 37
0.0
 76
     0
330
23
  0
LAYOUT
  5
22
102
{ACAD_REACTORS
330
1A
102
}
330
1A
100
AcDbPlotSettings
  1

  2
none_device
  4
ANSI_A_(11.00_x_8.50_Inches)
  6

 40
6.35
 41
19.05
 42
6.35000508
 43
19.05000254
 44
279.4
 45
215.9
 46
156.4568654244992
 47
86.92714353812768
 48
0.0
 49
0.0
140
0.0
141
0.0
142
0.0814325764028508
143
1.0
 70
  1696
 72
     0
 73
     0
 74
     0
  7

 75
     0
147
0.0235690232323232
148
0.0
149
0.0
100
AcDbLayout
  1
Model
 70
     1
 71
     0
 10
0.0
 20
0.0
 11
420.0
 21
297.0
 12
0.0
 22
0.0
 32
0.0
 14
-52.38004542603286
 24
-27.28319208326459
 34
0.0
 15
48.17757946607482
 25
46.18610365728746
 35
0.0
146
0.0
 13
0.0
 23
0.0
 33
0.0
 16
1.0
 26
0.0
 36
0.0
 17
0.0
 27
1.0
 37
0.0
 76
     0
330
1F
331
29
  0
MLINESTYLE
  5
18
102
{ACAD_REACTORS
330
17
102
}
330
17
100
AcDbMlineStyle
  2
Standard
 70
     0
  3

 62
   256
 51
90.0
 52
90.0
 71
     2
 49
0.5
 62
   256
  6
BYLAYER
 49
-0.5
 62
   256
  6
BYLAYER
  0
ACDBPLACEHOLDER
  5
F
102
{ACAD_REACTORS
330
E
102
}
330
E
  0
SCALE
  5
48
102
{ACAD_REACTORS
330
47
102
}
330
47
100
AcDbScale
 70
     0
300
1:1
140
1.0
141
1.0
290
     1
  0
SCALE
  5
49
102
{ACAD_REACTORS
330
47
102
}
330
47
100
AcDbScale
 70
     0
300
1:2
140
1.0
141
2.0
290
     0
  0
SCALE
  5
4A
102
{ACAD_REACTORS
330
47
102
}
330
47
100
AcDbScale
 70
     0
300
1:4
140
1.0
141
4.0
290
     0
  0
SCALE
  5
4B
102
{ACAD_REACTORS
330
47
102
}
330
47
100
AcDbScale
 70
     0
300
1:5
140
1.0
141
5.0
290
     0
  0
SCALE
  5
4C
102
{ACAD_REACTORS
330
47
102
}
330
47
100
AcDbScale
 70
     0
300
1:8
140
1.0
141
8.0
290
     0
  0
SCALE
  5
4D
102
{ACAD_REACTORS
330
47
102
}
330
47
100
AcDbScale
 70
     0
300
1:10
140
1.0
141
10.0
290
     0
  0
SCALE
  5
4E
102
{ACAD_REACTORS
330
47
102
}
330
47
100
AcDbScale
 70
     0
300
1:16
140
1.0
141
16.0
290
     0
  0
SCALE
  5
4F
102
{ACAD_REACTORS
330
47
102
}
330
47
100
AcDbScale
 70
     0
300
1:20
140
1.0
141
20.0
290
     0
  0
SCALE
  5
50
102
{ACAD_REACTORS
330
47
102
}
330
47
100
AcDbScale
 70
     0
300
1:30
140
1.0
141
30.0
290
     0
  0
SCALE
  5
51
102
{ACAD_REACTORS
330
47
102
}
330
47
100
AcDbScale
 70
     0
300
1:40
140
1.0
141
40.0
290
     0
  0
SCALE
  5
52
102
{ACAD_REACTORS
330
47
102
}
330
47
100
AcDbScale
 70
     0
300
1:50
140
1.0
141
50.0
290
     0
  0
SCALE
  5
53
102
{ACAD_REACTORS
330
47
102
}
330
47
100
AcDbScale
 70
     0
300
1:100
140
1.0
141
100.0
290
     0
  0
SCALE
  5
54
102
{ACAD_REACTORS
330
47
102
}
330
47
100
AcDbScale
 70
     0
300
2:1
140
2.0
141
1.0
290
     0
  0
SCALE
  5
55
102
{ACAD_REACTORS
330
47
102
}
330
47
100
AcDbScale
 70
     0
300
4:1
140
4.0
141
1.0
290
     0
  0
SCALE
  5
56
102
{ACAD_REACTORS
330
47
102
}
330
47
100
AcDbScale
 70
     0
300
8:1
140
8.0
141
1.0
290
     0
  0
SCALE
  5
57
102
{ACAD_REACTORS
330
47
102
}
330
47
100
AcDbScale
 70
     0
300
10:1
140
10.0
141
1.0
290
     0
  0
SCALE
  5
58
102
{ACAD_REACTORS
330
47
102
}
330
47
100
AcDbScale
 70
     0
300
100:1
140
100.0
141
1.0
290
     0
  0
SCALE
  5
59
102
{ACAD_REACTORS
330
47
102
}
330
47
100
AcDbScale
 70
     0
300
1/128" = 1'-0"
140
0.0078125
141
12.0
290
     0
  0
SCALE
  5
5A
102
{ACAD_REACTORS
330
47
102
}
330
47
100
AcDbScale
 70
     0
300
1/64" = 1'-0"
140
0.015625
141
12.0
290
     0
  0
SCALE
  5
5B
102
{ACAD_REACTORS
330
47
102
}
330
47
100
AcDbScale
 70
     0
300
1/32" = 1'-0"
140
0.03125
141
12.0
290
     0
  0
SCALE
  5
5C
102
{ACAD_REACTORS
330
47
102
}
330
47
100
AcDbScale
 70
     0
300
1/16" = 1'-0"
140
0.0625
141
12.0
290
     0
  0
SCALE
  5
5D
102
{ACAD_REACTORS
330
47
102
}
330
47
100
AcDbScale
 70
     0
300
3/32" = 1'-0"
140
0.09375
141
12.0
290
     0
  0
SCALE
  5
5E
102
{ACAD_REACTORS
330
47
102
}
330
47
100
AcDbScale
 70
     0
300
1/8" = 1'-0"
140
0.125
141
12.0
290
     0
  0
SCALE
  5
5F
102
{ACAD_REACTORS
330
47
102
}
330
47
100
AcDbScale
 70
     0
300
3/16" = 1'-0"
140
0.1875
141
12.0
290
     0
  0
SCALE
  5
60
102
{ACAD_REACTORS
330
47
102
}
330
47
100
AcDbScale
 70
     0
300
1/4" = 1'-0"
140
0.25
141
12.0
290
     0
  0
SCALE
  5
61
102
{ACAD_REACTORS
330
47
102
}
330
47
100
AcDbScale
 70
     0
300
3/8" = 1'-0"
140
0.375
141
12.0
290
     0
  0
SCALE
  5
62
102
{ACAD_REACTORS
330
47
102
}
330
47
100
AcDbScale
 70
     0
300
1/2" = 1'-0"
140
0.5
141
12.0
290
     0
  0
SCALE
  5
63
102
{ACAD_REACTORS
330
47
102
}
330
47
100
AcDbScale
 70
     0
300
3/4" = 1'-0"
140
0.75
141
12.0
290
     0
  0
SCALE
  5
64
102
{ACAD_REACTORS
330
47
102
}
330
47
100
AcDbScale
 70
     0
300
1" = 1'-0"
140
1.0
141
12.0
290
     0
  0
SCALE
  5
65
102
{ACAD_REACTORS
330
47
102
}
330
47
100
AcDbScale
 70
     0
300
1-1/2" = 1'-0"
140
1.5
141
12.0
290
     0
  0
SCALE
  5
66
102
{ACAD_REACTORS
330
47
102
}
330
47
100
AcDbScale
 70
     0
300
3" = 1'-0"
140
3.0
141
12.0
290
     0
  0
SCALE
  5
67
102
{ACAD_REACTORS
330
47
102
}
330
47
100
AcDbScale
 70
     0
300
6" = 1'-0"
140
6.0
141
12.0
290
     0
  0
SCALE
  5
68
102
{ACAD_REACTORS
330
47
102
}
330
47
100
AcDbScale
 70
     0
300
1'-0" = 1'-0"
140
12.0
141
12.0
290
     0
  0
ENDSEC
  0
EOF
