  0
SECTION
  2
HEADER
  9
$ACADVER
  1
AC1015
  9
$ACADMAINTVER
 70
     6
  9
$DWGCODEPAGE
  3
ANSI_949
  9
$INSBASE
 10
0.0
 20
0.0
 30
0.0
  9
$EXTMIN
 10
-59.81746871652162
 20
-30.12739666994944
 30
0.0
  9
$EXTMAX
 10
49.98107002690386
 20
46.97985365728746
 30
0.0
  9
$LIMMIN
 10
0.0
 20
0.0
  9
$LIMMAX
 10
420.0
 20
297.0
  9
$ORTHOMODE
 70
     1
  9
$REGENMODE
 70
     1
  9
$FILLMODE
 70
     1
  9
$QTEXTMODE
 70
     0
  9
$MIRRTEXT
 70
     1
  9
$LTSCALE
 40
1.0
  9
$ATTMODE
 70
     1
  9
$TEXTSIZE
 40
3.5
  9
$TRACEWID
 40
1.0
  9
$TEXTSTYLE
  7
Standard
  9
$CLAYER
  8
0
  9
$CELTYPE
  6
ByLayer
  9
$CECOLOR
 62
   256
  9
$CELTSCALE
 40
1.0
  9
$DISPSILH
 70
     0
  9
$DIMSCALE
 40
1.0
  9
$DIMASZ
 40
3.302
  9
$DIMEXO
 40
1.0
  9
$DIMDLI
 40
3.75
  9
$DIMRND
 40
0.0
  9
$DIMDLE
 40
0.0
  9
$DIMEXE
 40
1.0
  9
$DIMTP
 40
0.0
  9
$DIMTM
 40
0.0
  9
$DIMTXT
 40
3.5
  9
$DIMCEN
 40
2.5
  9
$DIMTSZ
 40
0.0
  9
$DIMTOL
 70
     0
  9
$DIMLIM
 70
     0
  9
$DIMTIH
 70
     1
  9
$DIMTOH
 70
     1
  9
$DIMSE1
 70
     0
  9
$DIMSE2
 70
     0
  9
$DIMTAD
 70
     1
  9
$DIMZIN
 70
     0
  9
$DIMBLK
  1

  9
$DIMASO
 70
     1
  9
$DIMSHO
 70
     1
  9
$DIMPOST
  1

  9
$DIMAPOST
  1

  9
$DIMALT
 70
     0
  9
$DIMALTD
 70
     3
  9
$DIMALTF
 40
0.0393700787401575
  9
$DIMLFAC
 40
1.0
  9
$DIMTOFL
 70
     1
  9
$DIMTVP
 40
0.0
  9
$DIMTIX
 70
     0
  9
$DIMSOXD
 70
     0
  9
$DIMSAH
 70
     0
  9
$DIMBLK1
  1

  9
$DIMBLK2
  1

  9
$DIMSTYLE
  2
ISO-25
  9
$DIMCLRD
 70
     0
  9
$DIMCLRE
 70
     0
  9
$DIMCLRT
 70
     0
  9
$DIMTFAC
 40
1.0
  9
$DIMGAP
 40
1.524
  9
$DIMJUST
 70
     0
  9
$DIMSD1
 70
     0
  9
$DIMSD2
 70
     0
  9
$DIMTOLJ
 70
     0
  9
$DIMTZIN
 70
     0
  9
$DIMALTZ
 70
     0
  9
$DIMALTTZ
 70
     0
  9
$DIMUPT
 70
     0
  9
$DIMDEC
 70
     2
  9
$DIMTDEC
 70
     2
  9
$DIMALTU
 70
     2
  9
$DIMALTTD
 70
     3
  9
$DIMTXSTY
  7
Standard
  9
$DIMAUNIT
 70
     0
  9
$DIMADEC
 70
     2
  9
$DIMALTRND
 40
0.0
  9
$DIMAZIN
 70
     0
  9
$DIMDSEP
 70
    44
  9
$DIMATFIT
 70
     3
  9
$DIMFRAC
 70
     0
  9
$DIMLDRBLK
  1

  9
$DIMLUNIT
 70
     2
  9
$DIMLWD
 70
    -2
  9
$DIMLWE
 70
    -2
  9
$DIMTMOVE
 70
     0
  9
$LUNITS
 70
     2
  9
$LUPREC
 70
     2
  9
$SKETCHINC
 40
1.0
  9
$FILLETRAD
 40
10.0
  9
$AUNITS
 70
     0
  9
$AUPREC
 70
     2
  9
$MENU
  1
.
  9
$ELEVATION
 40
0.0
  9
$PELEVATION
 40
0.0
  9
$THICKNESS
 40
0.0
  9
$LIMCHECK
 70
     0
  9
$CHAMFERA
 40
0.0
  9
$CHAMFERB
 40
0.0
  9
$CHAMFERC
 40
0.0
  9
$CHAMFERD
 40
0.0
  9
$SKPOLY
 70
     0
  9
$TDCREATE
 40
2458269.395914444
  9
$TDUCREATE
 40
2458269.020914444
  9
$TDUPDATE
 40
2458269.834039514
  9
$TDUUPDATE
 40
2458269.459039514
  9
$TDINDWG
 40
0.0012956366
  9
$TDUSRTIMER
 40
2458269.458882269
  9
$USRTIMER
 70
     1
  9
$ANGBASE
 50
0.0
  9
$ANGDIR
 70
     0
  9
$PDMODE
 70
     0
  9
$PDSIZE
 40
-1.0
  9
$PLINEWID
 40
0.0
  9
$SPLFRAME
 70
     0
  9
$SPLINETYPE
 70
     6
  9
$SPLINESEGS
 70
     8
  9
$HANDSEED
  5
163
  9
$SURFTAB1
 70
     6
  9
$SURFTAB2
 70
     6
  9
$SURFTYPE
 70
     6
  9
$SURFU
 70
     6
  9
$SURFV
 70
     6
  9
$UCSBASE
  2

  9
$UCSNAME
  2

  9
$UCSORG
 10
0.0
 20
0.0
 30
0.0
  9
$UCSXDIR
 10
1.0
 20
0.0
 30
0.0
  9
$UCSYDIR
 10
0.0
 20
1.0
 30
0.0
  9
$UCSORTHOREF
  2

  9
$UCSORTHOVIEW
 70
     0
  9
$UCSORGTOP
 10
0.0
 20
0.0
 30
0.0
  9
$UCSORGBOTTOM
 10
0.0
 20
0.0
 30
0.0
  9
$UCSORGLEFT
 10
0.0
 20
0.0
 30
0.0
  9
$UCSORGRIGHT
 10
0.0
 20
0.0
 30
0.0
  9
$UCSORGFRONT
 10
0.0
 20
0.0
 30
0.0
  9
$UCSORGBACK
 10
0.0
 20
0.0
 30
0.0
  9
$PUCSBASE
  2

  9
$PUCSNAME
  2

  9
$PUCSORG
 10
0.0
 20
0.0
 30
0.0
  9
$PUCSXDIR
 10
1.0
 20
0.0
 30
0.0
  9
$PUCSYDIR
 10
0.0
 20
1.0
 30
0.0
  9
$PUCSORTHOREF
  2

  9
$PUCSORTHOVIEW
 70
     0
  9
$PUCSORGTOP
 10
0.0
 20
0.0
 30
0.0
  9
$PUCSORGBOTTOM
 10
0.0
 20
0.0
 30
0.0
  9
$PUCSORGLEFT
 10
0.0
 20
0.0
 30
0.0
  9
$PUCSORGRIGHT
 10
0.0
 20
0.0
 30
0.0
  9
$PUCSORGFRONT
 10
0.0
 20
0.0
 30
0.0
  9
$PUCSORGBACK
 10
0.0
 20
0.0
 30
0.0
  9
$USERI1
 70
     0
  9
$USERI2
 70
     0
  9
$USERI3
 70
     0
  9
$USERI4
 70
     0
  9
$USERI5
 70
     0
  9
$USERR1
 40
0.0
  9
$USERR2
 40
0.0
  9
$USERR3
 40
0.0
  9
$USERR4
 40
0.0
  9
$USERR5
 40
0.0
  9
$WORLDVIEW
 70
     1
  9
$SHADEDGE
 70
     3
  9
$SHADEDIF
 70
    70
  9
$TILEMODE
 70
     1
  9
$MAXACTVP
 70
    64
  9
$PINSBASE
 10
0.0
 20
0.0
 30
0.0
  9
$PLIMCHECK
 70
     0
  9
$PEXTMIN
 10
1.000000000000000E+20
 20
1.000000000000000E+20
 30
1.000000000000000E+20
  9
$PEXTMAX
 10
-1.000000000000000E+20
 20
-1.000000000000000E+20
 30
-1.000000000000000E+20
  9
$PLIMMIN
 10
0.0
 20
0.0
  9
$PLIMMAX
 10
0.0
 20
0.0
  9
$UNITMODE
 70
     0
  9
$VISRETAIN
 70
     1
  9
$PLINEGEN
 70
     0
  9
$PSLTSCALE
 70
     1
  9
$TREEDEPTH
 70
  3020
  9
$CMLSTYLE
  2
Standard
  9
$CMLJUST
 70
     0
  9
$CMLSCALE
 40
20.0
  9
$PROXYGRAPHICS
 70
     1
  9
$MEASUREMENT
 70
     1
  9
$CELWEIGHT
370
    -1
  9
$ENDCAPS
280
     0
  9
$JOINSTYLE
280
     0
  9
$LWDISPLAY
290
     1
  9
$INSUNITS
 70
     4
  9
$HYPERLINKBASE
  1

  9
$STYLESHEET
  1

  9
$XEDIT
290
     1
  9
$CEPSNTYPE
380
     0
  9
$PSTYLEMODE
290
     1
  9
$FINGERPRINTGUID
  2
{2F0B2047-2BDC-4519-8443-1F9EE88EE0F7}
  9
$VERSIONGUID
  2
{FAEB1C32-E019-11D5-929B-00C0DF256EC4}
  9
$EXTNAMES
290
     1
  9
$PSVPSCALE
 40
0.0
  9
$OLESTARTUP
290
     0
  0
ENDSEC
  0
SECTION
  2
CLASSES
  0
CLASS
  1
ACDBDICTIONARYWDFLT
  2
AcDbDictionaryWithDefault
  3
ObjectDBX Classes
 90
        0
280
     0
281
     0
  0
CLASS
  1
VISUALSTYLE
  2
AcDbVisualStyle
  3
ObjectDBX Classes
 90
     4095
280
     0
281
     0
  0
CLASS
  1
MATERIAL
  2
AcDbMaterial
  3
ObjectDBX Classes
 90
     1153
280
     0
281
     0
  0
CLASS
  1
SCALE
  2
AcDbScale
  3
ObjectDBX Classes
 90
     1153
280
     0
281
     0
  0
CLASS
  1
SUN
  2
AcDbSun
  3
SCENEOE
 90
     1153
280
     0
281
     0
  0
CLASS
  1
ACDBPLACEHOLDER
  2
AcDbPlaceHolder
  3
ObjectDBX Classes
 90
        0
280
     0
281
     0
  0
CLASS
  1
LAYOUT
  2
AcDbLayout
  3
ObjectDBX Classes
 90
        0
280
     0
281
     0
  0
CLASS
  1
TABLESTYLE
  2
AcDbTableStyle
  3
ObjectDBX Classes
 90
     4095
280
     0
281
     0
  0
CLASS
  1
MLEADERSTYLE
  2
AcDbMLeaderStyle
  3
ACDB_MLEADERSTYLE_CLASS
 90
     4095
280
     0
281
     0
  0
CLASS
  1
RASTERVARIABLES
  2
AcDbRasterVariables
  3
ISM
 90
        0
280
     0
281
     0
  0
CLASS
  1
DIMASSOC
  2
AcDbDimAssoc
  3
"AcDbDimAssoc|Product Desc:     AcDim ARX App For Dimension|Company:          Autodesk, Inc.|WEB Address:      www.autodesk.com"
 90
        0
280
     0
281
     0
  0
ENDSEC
  0
SECTION
  2
TABLES
  0
TABLE
  2
VPORT
  5
8
330
0
100
AcDbSymbolTable
 70
     1
  0
VPORT
  5
29
330
8
100
AcDbSymbolTableRecord
100
AcDbViewportTableRecord
  2
*Active
 70
     0
 10
0.0
 20
0.0
 11
1.0
 21
1.0
 12
19.21279384378965
 22
10.15137058493988
 13
0.0
 23
0.0
 14
10.0
 24
10.0
 15
10.0
 25
10.0
 16
0.0
 26
0.0
 36
1.0
 17
0.0
 27
0.0
 37
0.0
 40
107.6135431482032
 41
1.970186335403727
 42
50.0
 43
0.0
 44
0.0
 50
0.0
 51
0.0
 71
    16
 72
  2000
 73
     1
 74
     3
 75
     0
 76
     0
 77
     0
 78
     0
281
     0
 65
     1
110
0.0
120
0.0
130
0.0
111
1.0
121
0.0
131
0.0
112
0.0
122
1.0
132
0.0
 79
     0
146
0.0
  0
ENDTAB
  0
TABLE
  2
LTYPE
  5
5
330
0
100
AcDbSymbolTable
 70
     6
  0
LTYPE
  5
14
330
5
100
AcDbSymbolTableRecord
100
AcDbLinetypeTableRecord
  2
ByBlock
 70
     0
  3

 72
    65
 73
     0
 40
0.0
  0
LTYPE
  5
15
330
5
100
AcDbSymbolTableRecord
100
AcDbLinetypeTableRecord
  2
ByLayer
 70
     0
  3

 72
    65
 73
     0
 40
0.0
  0
LTYPE
  5
16
330
5
100
AcDbSymbolTableRecord
100
AcDbLinetypeTableRecord
  2
Continuous
 70
     0
  3
Solid line
 72
    65
 73
     0
 40
0.0
  0
LTYPE
  5
6A
330
5
100
AcDbSymbolTableRecord
100
AcDbLinetypeTableRecord
  2
HIDDEN
 70
     0
  3
Hidden __ __ __ __ __ __ __ __ __ __ __ __ __ __
 72
    65
 73
     2
 40
1.905
 49
1.27
 74
     0
 49
-0.635
 74
     0
  0
LTYPE
  5
6B
330
5
100
AcDbSymbolTableRecord
100
AcDbLinetypeTableRecord
  2
PHANTOM
 70
     0
  3
Phantom ______  __  __  ______  __  __  ______
 72
    65
 73
     6
 40
12.7
 49
6.35
 74
     0
 49
-1.27
 74
     0
 49
1.27
 74
     0
 49
-1.27
 74
     0
 49
1.27
 74
     0
 49
-1.27
 74
     0
  0
LTYPE
  5
6C
330
5
100
AcDbSymbolTableRecord
100
AcDbLinetypeTableRecord
  2
CENTER
 70
     0
  3
Center ____ _ ____ _ ____ _ ____ _ ____ _ ____
 72
    65
 73
     4
 40
10.16
 49
6.35
 74
     0
 49
-1.27
 74
     0
 49
1.27
 74
     0
 49
-1.27
 74
     0
  0
LTYPE
  5
6D
330
5
100
AcDbSymbolTableRecord
100
AcDbLinetypeTableRecord
  2
CENTERX2
 70
     0
  3
Center (2x) ________  __  ________  __  _____
 72
    65
 73
     4
 40
20.32
 49
12.7
 74
     0
 49
-2.54
 74
     0
 49
2.54
 74
     0
 49
-2.54
 74
     0
  0
LTYPE
  5
6E
330
5
100
AcDbSymbolTableRecord
100
AcDbLinetypeTableRecord
  2
DOT2
 70
     0
  3
Dot (.5x) ........................................
 72
    65
 73
     2
 40
0.635
 49
0.0
 74
     0
 49
-0.635
 74
     0
  0
ENDTAB
  0
TABLE
  2
LAYER
  5
2
330
0
100
AcDbSymbolTable
 70
    17
  0
LAYER
  5
10
330
2
100
AcDbSymbolTableRecord
100
AcDbLayerTableRecord
  2
0
 70
     0
 62
     7
  6
Continuous
370
    -3
390
F
  0
LAYER
  5
6F
330
2
100
AcDbSymbolTableRecord
100
AcDbLayerTableRecord
  2
FORMAT
 70
     0
 62
     2
  6
Continuous
370
    -3
390
F
  0
LAYER
  5
70
330
2
100
AcDbSymbolTableRecord
100
AcDbLayerTableRecord
  2
외형선
 70
     0
 62
   100
  6
Continuous
370
    30
390
F
  0
LAYER
  5
71
330
2
100
AcDbSymbolTableRecord
100
AcDbLayerTableRecord
  2
숨은선
 70
     0
 62
     2
  6
HIDDEN
370
    15
390
F
  0
LAYER
  5
72
330
2
100
AcDbSymbolTableRecord
100
AcDbLayerTableRecord
  2
중심선
 70
     0
 62
     1
  6
CENTERX2
370
    -3
390
F
  0
LAYER
  5
73
330
2
100
AcDbSymbolTableRecord
100
AcDbLayerTableRecord
  2
파단선
 70
     0
 62
     4
  6
Continuous
370
    -3
390
F
  0
LAYER
  5
74
330
2
100
AcDbSymbolTableRecord
100
AcDbLayerTableRecord
  2
해칭선
 70
     0
 62
     4
  6
Continuous
370
    -3
390
F
  0
LAYER
  5
75
330
2
100
AcDbSymbolTableRecord
100
AcDbLayerTableRecord
  2
가는실선
 70
     0
 62
     4
  6
Continuous
370
    -3
390
F
  0
LAYER
  5
76
330
2
100
AcDbSymbolTableRecord
100
AcDbLayerTableRecord
  2
치수_보조선
 70
     0
 62
     4
  6
Continuous
370
    -3
390
F
  0
LAYER
  5
77
330
2
100
AcDbSymbolTableRecord
100
AcDbLayerTableRecord
  2
치수문자_일반주서
 70
     0
 62
     7
  6
Continuous
370
    15
390
F
  0
LAYER
  5
78
330
2
100
AcDbSymbolTableRecord
100
AcDbLayerTableRecord
  2
개별주서
 70
     0
 62
   100
  6
Continuous
370
    30
390
F
  0
LAYER
  5
79
330
2
100
AcDbSymbolTableRecord
100
AcDbLayerTableRecord
  2
중간선
 70
     0
 62
     2
  6
Continuous
370
    15
390
F
  0
LAYER
  5
7A
330
2
100
AcDbSymbolTableRecord
100
AcDbLayerTableRecord
  2
윤곽선
 70
     0
 62
     3
  6
Continuous
370
    40
390
F
  0
LAYER
  5
7B
330
2
100
AcDbSymbolTableRecord
100
AcDbLayerTableRecord
  2
중심마크
 70
     0
 62
   100
  6
Continuous
370
    30
390
F
  0
LAYER
  5
7C
330
2
100
AcDbSymbolTableRecord
100
AcDbLayerTableRecord
  2
가상선
 70
     0
 62
     4
  6
PHANTOM
370
    -3
390
F
  0
LAYER
  5
7D
330
2
100
AcDbSymbolTableRecord
100
AcDbLayerTableRecord
  2
특수지정선
 70
     0
 62
     5
  6
CENTERX2
370
    60
390
F
  0
LAYER
  5
14A
330
2
100
AcDbSymbolTableRecord
100
AcDbLayerTableRecord
  2
Defpoints
 70
     0
 62
     7
  6
Continuous
290
     0
370
    -3
390
F
  0
ENDTAB
  0
TABLE
  2
STYLE
  5
3
330
0
100
AcDbSymbolTable
 70
     2
  0
STYLE
  5
11
330
3
100
AcDbSymbolTableRecord
100
AcDbTextStyleTableRecord
  2
Standard
 70
     0
 40
0.0
 41
1.0
 50
0.0
 71
     0
 42
3.5
  3
txt
  4

  0
STYLE
  5
93
330
3
100
AcDbSymbolTableRecord
100
AcDbTextStyleTableRecord
  2
SLDTEXTSTYLE0
 70
     0
 40
0.0
 41
0.75
 50
0.0
 71
     0
 42
3.5
  3
TXT
  4

  0
ENDTAB
  0
TABLE
  2
VIEW
  5
6
330
0
100
AcDbSymbolTable
 70
     0
  0
ENDTAB
  0
TABLE
  2
UCS
  5
7
330
0
100
AcDbSymbolTable
 70
     0
  0
ENDTAB
  0
TABLE
  2
APPID
  5
9
330
0
100
AcDbSymbolTable
 70
     2
  0
APPID
  5
12
330
9
100
AcDbSymbolTableRecord
100
AcDbRegAppTableRecord
  2
ACAD
 70
     0
  0
APPID
  5
161
330
9
100
AcDbSymbolTableRecord
100
AcDbRegAppTableRecord
  2
PE_DIMMEASUREMENT
 70
     0
  0
ENDTAB
  0
TABLE
  2
DIMSTYLE
  5
A
330
0
100
AcDbSymbolTable
 70
     5
100
AcDbDimStyleTable
  0
DIMSTYLE
105
27
330
A
100
AcDbSymbolTableRecord
100
AcDbDimStyleTableRecord
  2
ISO-25
 70
     0
 41
2.5
 42
0.625
 43
3.75
 44
1.25
 73
     0
 74
     0
 77
     1
 78
     8
140
2.5
141
2.5
143
0.03937007874016
147
0.625
171
     3
172
     1
178
     0
271
     2
272
     2
274
     3
278
    44
283
     0
284
     8
340
11
  0
DIMSTYLE
105
D6
330
A
100
AcDbSymbolTableRecord
100
AcDbDimStyleTableRecord
  2
SLDDIMSTYLE0
 70
     0
 41
3.302
 44
0.0
 45
0.000000001
 73
     0
 74
     0
 77
     1
 78
    12
 79
     3
140
3.5
147
0.875
173
     1
178
     0
271
     2
272
     2
276
     2
284
    12
340
93
  0
DIMSTYLE
105
E1
102
{ACAD_REACTORS
330
E0
102
}
330
A
100
AcDbSymbolTableRecord
100
AcDbDimStyleTableRecord
  2
SLDDIMSTYLE1
 70
     0
 41
3.302
 44
0.0
 45
0.000000001
 73
     0
 74
     0
 77
     1
 78
    12
 79
     3
140
3.5
143
0.0393700787401575
147
0.875
148
0.000000001
170
     1
173
     1
178
     0
271
     2
272
     2
276
     2
284
    12
340
93
  0
DIMSTYLE
105
F5
102
{ACAD_REACTORS
330
F4
102
}
330
A
100
AcDbSymbolTableRecord
100
AcDbDimStyleTableRecord
  2
SLDDIMSTYLE2
 70
     0
 41
3.302
 44
0.0
 45
0.000000001
 73
     0
 74
     0
 77
     1
 78
     4
 79
     1
140
3.5
143
0.0393700787401575
147
0.875
148
0.000000001
170
     1
173
     1
178
     0
271
     2
272
     2
276
     2
284
    12
340
93
  0
DIMSTYLE
105
109
102
{ACAD_REACTORS
330
108
330
14B
102
}
330
A
100
AcDbSymbolTableRecord
100
AcDbDimStyleTableRecord
  2
SLDDIMSTYLE3
 70
     0
 41
3.302
 44
0.0
 45
0.000000001
 73
     0
 74
     0
 77
     1
 78
    12
 79
     3
140
3.5
143
0.0393700787401575
147
0.875
148
0.000000001
170
     1
172
     1
173
     1
178
     0
271
     2
272
     2
276
     2
284
    12
289
     0
340
93
  0
ENDTAB
  0
TABLE
  2
BLOCK_RECORD
  5
1
330
0
100
AcDbSymbolTable
 70
     8
  0
BLOCK_RECORD
  5
1F
330
1
100
AcDbSymbolTableRecord
100
AcDbBlockTableRecord
  2
*Model_Space
340
22
  0
BLOCK_RECORD
  5
1B
330
1
100
AcDbSymbolTableRecord
100
AcDbBlockTableRecord
  2
*Paper_Space
340
1E
  0
BLOCK_RECORD
  5
23
330
1
100
AcDbSymbolTableRecord
100
AcDbBlockTableRecord
  2
*Paper_Space0
340
26
  0
BLOCK_RECORD
  5
7E
330
1
100
AcDbSymbolTableRecord
100
AcDbBlockTableRecord
  2
블럭10
340
0
102
{BLKREFS
331
CB
102
}
  0
BLOCK_RECORD
  5
D7
330
1
100
AcDbSymbolTableRecord
100
AcDbBlockTableRecord
  2
_D
340
0
  0
BLOCK_RECORD
  5
E2
330
1
100
AcDbSymbolTableRecord
100
AcDbBlockTableRecord
  2
_D_1
340
0
  0
BLOCK_RECORD
  5
F6
330
1
100
AcDbSymbolTableRecord
100
AcDbBlockTableRecord
  2
_D_2
340
0
  0
BLOCK_RECORD
  5
10A
330
1
100
AcDbSymbolTableRecord
100
AcDbBlockTableRecord
  2
_D_3
340
0
  0
BLOCK_RECORD
  5
11D
330
1
100
AcDbSymbolTableRecord
100
AcDbBlockTableRecord
  2
SW_DOWELSYMBOL_0
340
0
102
{BLKREFS
331
123
102
}
  0
BLOCK_RECORD
  5
14E
330
1
100
AcDbSymbolTableRecord
100
AcDbBlockTableRecord
  2
*D7
340
0
  0
ENDTAB
  0
ENDSEC
  0
SECTION
  2
BLOCKS
  0
BLOCK
  5
20
330
1F
100
AcDbEntity
  8
0
100
AcDbBlockBegin
  2
*Model_Space
 70
     0
 10
0.0
 20
0.0
 30
0.0
  3
*Model_Space
  1
*Model_Space
  0
ENDBLK
  5
21
330
1F
100
AcDbEntity
  8
0
100
AcDbBlockEnd
  0
BLOCK
  5
1C
330
1B
100
AcDbEntity
 67
     1
  8
0
100
AcDbBlockBegin
  2
*Paper_Space
 70
     0
 10
0.0
 20
0.0
 30
0.0
  3
*Paper_Space
  1
*Paper_Space
  0
ENDBLK
  5
1D
330
1B
100
AcDbEntity
 67
     1
  8
0
100
AcDbBlockEnd
  0
BLOCK
  5
24
330
23
100
AcDbEntity
  8
0
100
AcDbBlockBegin
  2
*Paper_Space0
 70
     0
 10
0.0
 20
0.0
 30
0.0
  3
*Paper_Space0
  1
*Paper_Space0
  0
ENDBLK
  5
25
330
23
100
AcDbEntity
  8
0
100
AcDbBlockEnd
  0
BLOCK
  5
7F
330
7E
100
AcDbEntity
  8
0
100
AcDbBlockBegin
  2
블럭10
 70
     2
 10
0.0
 20
0.0
 30
0.0
  3
블럭10
  1
블럭10
  0
ELLIPSE
  5
81
330
7E
100
AcDbEntity
  8
중심선
100
AcDbEllipse
 10
20.54032771741204
 20
12.0471743016438
 30
0.0
 11
6.600054785286829
 21
-1.261213355974178E-13
 31
0.0
210
0.0
220
0.0
230
1.0
 40
0.636358354079598
 41
0.9219305317359503
 42
6.513795318482858
  0
ELLIPSE
  5
82
330
7E
100
AcDbEntity
  8
중심선
100
AcDbEllipse
 10
20.54032771746488
 20
12.04717430159265
 30
0.0
 11
3.960054785062283
 21
1.540847449632565E-10
 31
0.0
210
0.0
220
0.0
230
1.0
 40
0.3939339440162632
 41
1.131841032648279
 42
5.62031148352944
  0
LINE
  5
83
330
7E
100
AcDbEntity
  8
중심선
100
AcDbLine
 10
2.268634060543552
 20
16.24717430164393
 30
0.0
 11
5.714909304380834
 21
16.24717430164393
 31
0.0
  0
LINE
  5
84
330
7E
100
AcDbEntity
  8
중심선
100
AcDbLine
 10
5.245725140726316
 20
7.84717430164391
 30
0.0
 11
8.692000384563599
 21
7.84717430164391
 31
0.0
  0
LINE
  5
85
330
7E
100
AcDbEntity
  8
중심선
100
AcDbLine
 10
15.74043728645272
 20
16.24717430164393
 30
0.0
 11
8.692000384563599
 21
7.84717430164391
 31
0.0
  0
LINE
  5
86
330
7E
100
AcDbEntity
  8
중심선
100
AcDbLine
 10
0.1404042013395286
 20
13.71084872107135
 30
0.0
 11
3.58671253028996
 21
13.71088815037384
 31
0.0
  0
LINE
  5
87
330
7E
100
AcDbEntity
  8
중심선
100
AcDbLine
 10
2.750260043222114
 20
10.84717430164391
 30
0.0
 11
6.196535287059397
 21
10.84717430164391
 31
0.0
  0
LINE
  5
88
330
7E
100
AcDbEntity
  8
중심선
100
AcDbLine
 10
12.29416204261559
 20
16.24717430164393
 30
0.0
 11
5.245725140726316
 21
7.84717430164391
 31
0.0
  0
LINE
  5
89
330
7E
100
AcDbEntity
  8
중심선
100
AcDbLine
 10
10.72767329541681
 20
16.24717430164393
 30
0.0
 11
6.196535287059397
 21
10.84717430164391
 31
0.0
  0
LINE
  5
8A
330
7E
100
AcDbEntity
  8
중심선
100
AcDbLine
 10
7.28139805157953
 20
16.24717430164393
 30
0.0
 11
2.750260043222114
 21
10.84717430164391
 31
0.0
  0
LINE
  5
8B
330
7E
100
AcDbEntity
  8
중심선
100
AcDbLine
 10
5.714909304380834
 20
16.24717430164393
 30
0.0
 11
3.58671253028996
 21
13.71088815037384
 31
0.0
  0
LINE
  5
8C
330
7E
100
AcDbEntity
  8
중심선
100
AcDbLine
 10
2.268634060543552
 20
16.24717430164393
 30
0.0
 11
0.1404042013395286
 21
13.71084872107135
 31
0.0
  0
LINE
  5
8D
330
7E
100
AcDbEntity
  8
중심선
100
AcDbLine
 10
7.28139805157953
 20
16.24717430164393
 30
0.0
 11
10.72767329541681
 21
16.24717430164393
 31
0.0
  0
LINE
  5
8E
330
7E
100
AcDbEntity
  8
중심선
100
AcDbLine
 10
12.29416204261559
 20
16.24717430164393
 30
0.0
 11
15.74043728645272
 21
16.24717430164393
 31
0.0
  0
LINE
  5
8F
330
7E
100
AcDbEntity
  8
중심선
100
AcDbLine
 10
19.22036997980202
 20
11.08717430171403
 30
0.0
 11
23.66174974927406
 21
11.08717430171406
 31
0.0
  0
LINE
  5
90
330
7E
100
AcDbEntity
  8
중심선
100
AcDbLine
 10
19.22039502424796
 20
13.00717430171391
 30
0.0
 11
19.22036997980202
 21
11.08717430171403
 31
0.0
  0
LINE
  5
91
330
7E
100
AcDbEntity
  8
중심선
100
AcDbLine
 10
19.22039502424796
 20
13.00717430171391
 30
0.0
 11
26.96566020931264
 21
13.00717430171391
 31
0.0
  0
LINE
  5
92
330
7E
100
AcDbEntity
  8
중심선
100
AcDbLine
 10
22.22332737316547
 20
13.45928029700563
 30
0.0
 11
24.52862924686651
 21
15.39360700705356
 31
0.0
  0
ATTDEF
  5
94
330
7E
100
AcDbEntity
  8
FORMAT
 62
     2
100
AcDbText
 10
-9.18129528874128
 20
2.075366912832191
 30
0.0
 40
4.233333333333333
  1
E5982020 [ 3 FLUTE ]
 41
0.75
  7
SLDTEXTSTYLE0
 11
-9.18129528874128
 21
-0.0412997538344756
 31
0.0
100
AcDbAttributeDefinition
  3

  2
AUTOATTR0
 70
     0
 74
     1
  0
ENDBLK
  5
80
330
7E
100
AcDbEntity
  8
0
100
AcDbBlockEnd
  0
BLOCK
  5
D8
330
D7
100
AcDbEntity
  8
0
100
AcDbBlockBegin
  2
_D
 70
     0
 10
0.0
 20
0.0
 30
0.0
  3
_D
  1
_D
  0
SOLID
  5
DA
330
D7
100
AcDbEntity
  8
치수문자_일반주서
100
AcDbTrace
 10
-49.65
 20
-0.4854796965059789
 30
0.0
 11
-46.348
 21
-0.9934796965059789
 31
0.0
 12
-46.348
 22
0.0225203034940211
 32
0.0
 13
-46.348
 23
0.0225203034940211
 33
0.0
  0
SOLID
  5
DB
330
D7
100
AcDbEntity
  8
치수문자_일반주서
100
AcDbTrace
 10
21.81254243902306
 20
-0.4854796965059746
 30
0.0
 11
18.51054243902306
 21
0.0225203034940255
 31
0.0
 12
18.51054243902306
 22
-0.9934796965059746
 32
0.0
 13
18.51054243902306
 23
-0.9934796965059746
 33
0.0
  0
LINE
  5
DC
330
D7
100
AcDbEntity
  8
치수문자_일반주서
100
AcDbLine
 10
-49.65
 20
-0.9816608253754013
 30
0.0
 11
-49.65
 21
-1.485479696505979
 31
0.0
  0
LINE
  5
DD
330
D7
100
AcDbEntity
  8
치수문자_일반주서
100
AcDbLine
 10
21.81254243902306
 20
-0.9816608253754013
 30
0.0
 11
21.81254243902306
 21
-1.485479696505974
 31
0.0
  0
LINE
  5
DE
330
D7
100
AcDbEntity
  8
치수문자_일반주서
100
AcDbLine
 10
-49.65
 20
-0.4854796965059789
 30
0.0
 11
21.81254243902306
 21
-0.4854796965059746
 31
0.0
  0
MTEXT
  5
DF
330
D7
100
AcDbEntity
  8
치수문자_일반주서
100
AcDbMText
 10
10.62950331063597
 20
4.02625721807292
 30
0.0
 40
3.5
 41
0.0
 71
     1
 72
     1
  1
71.46
  7
SLDTEXTSTYLE0
 73
     1
 44
1.0
  0
ENDBLK
  5
D9
330
D7
100
AcDbEntity
  8
0
100
AcDbBlockEnd
  0
BLOCK
  5
E3
330
E2
100
AcDbEntity
  8
0
100
AcDbBlockBegin
  2
_D_1
 70
     0
 10
0.0
 20
0.0
 30
0.0
  3
_D_1
  1
_D_1
  0
LINE
  5
E5
330
E2
100
AcDbEntity
  8
치수문자_일반주서
 62
     0
370
    -2
100
AcDbLine
 10
41.75
 20
4.031250000000018
 30
0.0
 11
41.75
 21
24.58216845233052
 31
0.0
  0
LINE
  5
E6
330
E2
100
AcDbEntity
  8
치수문자_일반주서
 62
     0
370
    -2
100
AcDbLine
 10
10.0
 20
4.031250000000014
 30
0.0
 11
10.0
 21
24.58216845233052
 31
0.0
  0
LINE
  5
E7
330
E2
100
AcDbEntity
  8
치수문자_일반주서
 62
     0
370
    -2
100
AcDbLine
 10
38.448
 20
24.58216845233052
 30
0.0
 11
13.302
 21
24.58216845233052
 31
0.0
  0
SOLID
  5
E8
330
E2
100
AcDbEntity
  8
치수문자_일반주서
 62
     0
100
AcDbTrace
 10
38.448
 20
24.03183511899718
 30
0.0
 11
38.448
 21
25.13250178566385
 31
0.0
 12
41.75
 22
24.58216845233052
 32
0.0
 13
41.75
 23
24.58216845233052
 33
0.0
  0
SOLID
  5
E9
330
E2
100
AcDbEntity
  8
치수문자_일반주서
 62
     0
100
AcDbTrace
 10
13.302
 20
25.13250178566385
 30
0.0
 11
13.302
 21
24.03183511899718
 31
0.0
 12
10.0
 22
24.58216845233052
 32
0.0
 13
10.0
 23
24.58216845233052
 33
0.0
  0
MTEXT
  5
EA
330
E2
100
AcDbEntity
  8
치수문자_일반주서
 62
     0
100
AcDbMText
 10
25.875
 20
28.95716845233052
 30
0.0
 40
3.5
 41
0.0
 71
     2
 72
     1
  1
\A1;31.75 [1 1/4]
  7
SLDTEXTSTYLE0
 73
     1
 44
1.0
  0
POINT
  5
EB
330
E2
100
AcDbEntity
  8
Defpoints
 62
     0
100
AcDbPoint
 10
41.75
 20
3.968750000000018
 30
0.0
  0
POINT
  5
EC
330
E2
100
AcDbEntity
  8
Defpoints
 62
     0
100
AcDbPoint
 10
10.0
 20
3.968750000000014
 30
0.0
  0
POINT
  5
ED
330
E2
100
AcDbEntity
  8
Defpoints
 62
     0
100
AcDbPoint
 10
10.0
 20
24.58216845233052
 30
0.0
  0
ENDBLK
  5
E4
330
E2
100
AcDbEntity
  8
0
100
AcDbBlockEnd
  0
BLOCK
  5
F7
330
F6
100
AcDbEntity
  8
0
100
AcDbBlockBegin
  2
_D_2
 70
     0
 10
0.0
 20
0.0
 30
0.0
  3
_D_2
  1
_D_2
  0
LINE
  5
F9
330
F6
100
AcDbEntity
  8
치수문자_일반주서
 62
     0
370
    -2
100
AcDbLine
 10
41.75
 20
4.031250000000018
 30
0.0
 11
41.75
 21
42.60485365728746
 31
0.0
  0
LINE
  5
FA
330
F6
100
AcDbEntity
  8
치수문자_일반주서
 62
     0
370
    -2
100
AcDbLine
 10
-47.15000000000001
 20
3.531250000000007
 30
0.0
 11
-47.15000000000001
 21
42.60485365728746
 31
0.0
  0
LINE
  5
FB
330
F6
100
AcDbEntity
  8
치수문자_일반주서
 62
     0
370
    -2
100
AcDbLine
 10
38.448
 20
42.60485365728746
 30
0.0
 11
-43.84800000000001
 21
42.60485365728746
 31
0.0
  0
SOLID
  5
FC
330
F6
100
AcDbEntity
  8
치수문자_일반주서
 62
     0
100
AcDbTrace
 10
38.448
 20
42.05452032395413
 30
0.0
 11
38.448
 21
43.1551869906208
 31
0.0
 12
41.75
 22
42.60485365728746
 32
0.0
 13
41.75
 23
42.60485365728746
 33
0.0
  0
SOLID
  5
FD
330
F6
100
AcDbEntity
  8
치수문자_일반주서
 62
     0
100
AcDbTrace
 10
-43.84800000000001
 20
43.1551869906208
 30
0.0
 11
-43.84800000000001
 21
42.05452032395413
 31
0.0
 12
-47.15000000000001
 22
42.60485365728746
 32
0.0
 13
-47.15000000000001
 23
42.60485365728746
 33
0.0
  0
MTEXT
  5
FE
330
F6
100
AcDbEntity
  8
치수문자_일반주서
 62
     0
100
AcDbMText
 10
-2.700000000000005
 20
46.97985365728746
 30
0.0
 40
3.5
 41
0.0
 71
     2
 72
     1
  1
\A1;88.90 [3 1/2]
  7
SLDTEXTSTYLE0
 73
     1
 44
1.0
  0
POINT
  5
FF
330
F6
100
AcDbEntity
  8
Defpoints
 62
     0
100
AcDbPoint
 10
41.75
 20
3.968750000000018
 30
0.0
  0
POINT
  5
100
330
F6
100
AcDbEntity
  8
Defpoints
 62
     0
100
AcDbPoint
 10
-47.15000000000001
 20
3.468750000000007
 30
0.0
  0
POINT
  5
101
330
F6
100
AcDbEntity
  8
Defpoints
 62
     0
100
AcDbPoint
 10
-47.15000000000001
 20
42.60485365728746
 30
0.0
  0
ENDBLK
  5
F8
330
F6
100
AcDbEntity
  8
0
100
AcDbBlockEnd
  0
BLOCK
  5
10B
330
10A
100
AcDbEntity
  8
0
100
AcDbBlockBegin
  2
_D_3
 70
     0
 10
0.0
 20
0.0
 30
0.0
  3
_D_3
  1
_D_3
  0
LINE
  5
10D
330
10A
100
AcDbEntity
  8
치수문자_일반주서
 62
     0
370
    -2
100
AcDbLine
 10
-46.71250000000001
 20
3.96875000000001
 30
0.0
 11
-55.44246871652152
 21
3.968749999999979
 31
0.0
  0
LINE
  5
10E
330
10A
100
AcDbEntity
  8
치수문자_일반주서
 62
     0
370
    -2
100
AcDbLine
 10
-46.71250000000001
 20
-3.96874999999999
 30
0.0
 11
-55.4424687165215
 21
-3.968750000000021
 31
0.0
  0
LINE
  5
10F
330
10A
100
AcDbEntity
  8
치수문자_일반주서
 62
     0
370
    -2
100
AcDbLine
 10
-55.44246871652152
 20
3.968749999999979
 30
0.0
 11
-55.44246871652165
 21
38.57274999999998
 31
0.0
  0
LINE
  5
110
330
10A
100
AcDbEntity
  8
치수문자_일반주서
 62
     0
370
    -2
100
AcDbLine
 10
-55.44246871652152
 20
3.968749999999979
 30
0.0
 11
-55.4424687165215
 21
-3.968750000000021
 31
0.0
  0
LINE
  5
111
330
10A
100
AcDbEntity
  8
치수문자_일반주서
 62
     0
370
    -2
100
AcDbLine
 10
-55.44246871652154
 20
7.270749999999978
 30
0.0
 11
-55.44246871652155
 21
10.57274999999998
 31
0.0
  0
LINE
  5
112
330
10A
100
AcDbEntity
  8
치수문자_일반주서
 62
     0
370
    -2
100
AcDbLine
 10
-55.44246871652148
 20
-7.270750000000021
 30
0.0
 11
-55.44246871652147
 21
-10.57275000000002
 31
0.0
  0
SOLID
  5
113
330
10A
100
AcDbEntity
  8
치수문자_일반주서
 62
     0
100
AcDbTrace
 10
-55.99280204985487
 20
7.270749999999977
 30
0.0
 11
-54.8921353831882
 21
7.27074999999998
 31
0.0
 12
-55.44246871652152
 22
3.968749999999979
 32
0.0
 13
-55.44246871652152
 23
3.968749999999979
 33
0.0
  0
SOLID
  5
114
330
10A
100
AcDbEntity
  8
치수문자_일반주서
 62
     0
100
AcDbTrace
 10
-54.89213538318815
 20
-7.270750000000019
 30
0.0
 11
-55.99280204985482
 21
-7.270750000000023
 31
0.0
 12
-55.4424687165215
 22
-3.968750000000021
 32
0.0
 13
-55.4424687165215
 23
-3.968750000000021
 33
0.0
  0
MTEXT
  5
115
330
10A
100
AcDbEntity
  8
치수문자_일반주서
 62
     0
100
AcDbMText
 10
-59.8174687165216
 20
24.57274999999996
 30
0.0
 40
3.5
 41
0.0
 71
     2
 72
     1
  1
\A1;%%c7.94 [5/16]
  7
SLDTEXTSTYLE0
 11
-3.580687802255623E-15
 21
1.0
 31
0.0
 73
     1
 44
1.0
  0
POINT
  5
116
330
10A
100
AcDbEntity
  8
Defpoints
 62
     0
100
AcDbPoint
 10
-46.65000000000001
 20
3.968750000000011
 30
0.0
  0
POINT
  5
117
330
10A
100
AcDbEntity
  8
Defpoints
 62
     0
100
AcDbPoint
 10
-46.65000000000001
 20
-3.968749999999989
 30
0.0
  0
POINT
  5
118
330
10A
100
AcDbEntity
  8
Defpoints
 62
     0
100
AcDbPoint
 10
-55.44246871652149
 20
-3.968750000000022
 30
0.0
  0
ENDBLK
  5
10C
330
10A
100
AcDbEntity
  8
0
100
AcDbBlockEnd
  0
BLOCK
  5
11E
330
11D
100
AcDbEntity
  8
0
100
AcDbBlockBegin
  2
SW_DOWELSYMBOL_0
 70
     0
 10
0.0
 20
0.0
 30
0.0
  3
SW_DOWELSYMBOL_0
  1
SW_DOWELSYMBOL_0
  0
CIRCLE
  5
120
330
11D
100
AcDbEntity
  8
외형선
 62
     0
100
AcDbCircle
 10
0.0
 20
0.0
 30
0.0
 40
3.000000000000008
  0
HATCH
  5
121
330
11D
100
AcDbEntity
  8
0
  6
Continuous
 62
     0
370
    30
100
AcDbHatch
 10
0.0
 20
0.0
 30
0.0
210
0.0
220
0.0
230
1.0
  2
SOLID
 70
     1
 71
     0
 91
        1
 92
        0
 93
        3
 72
     2
 10
0.0000000000000087
 20
0.0
 40
3.000000000000008
 50
0.0
 51
90.0
 73
     1
 72
     1
 10
0.0000000000000087
 20
3.000000000000008
 11
0.0000000000000087
 21
0.0
 72
     1
 10
0.0000000000000087
 20
0.0
 11
3.000000000000017
 21
0.0
 97
        0
 75
     0
 76
     1
 98
        1
 10
0.0
 20
0.0
  0
HATCH
  5
122
330
11D
100
AcDbEntity
  8
0
  6
Continuous
 62
     0
370
    30
100
AcDbHatch
 10
0.0
 20
0.0
 30
0.0
210
0.0
220
0.0
230
1.0
  2
SOLID
 70
     1
 71
     0
 91
        1
 92
        0
 93
        3
 72
     2
 10
0.0000000000000087
 20
0.0
 40
3.000000000000008
 50
180.0
 51
270.0000000000008
 73
     1
 72
     1
 10
0.0000000000000087
 20
-3.000000000000008
 11
0.0000000000000087
 21
0.0
 72
     1
 10
0.0000000000000087
 20
0.0
 11
-3.0
 21
0.0
 97
        0
 75
     0
 76
     1
 98
        1
 10
0.0
 20
0.0
  0
ENDBLK
  5
11F
330
11D
100
AcDbEntity
  8
0
100
AcDbBlockEnd
  0
BLOCK
  5
14F
330
14E
100
AcDbEntity
  8
0
100
AcDbBlockBegin
  2
*D7
 70
     1
 10
0.0
 20
0.0
 30
0.0
  3
*D7
  1
*D7
  0
LINE
  5
151
330
14E
100
AcDbEntity
  8
치수문자_일반주서
 62
     0
370
    -2
100
AcDbLine
 10
41.8125
 20
-3.968749999999986
 30
0.0
 11
49.43073669357052
 21
-3.968749999999987
 31
0.0
  0
LINE
  5
152
330
14E
100
AcDbEntity
  8
치수문자_일반주서
 62
     0
370
    -2
100
AcDbLine
 10
41.8125
 20
3.968750000000018
 30
0.0
 11
49.43073669357052
 21
3.968750000000017
 31
0.0
  0
LINE
  5
153
330
14E
100
AcDbEntity
  8
치수문자_일반주서
 62
     0
370
    -2
100
AcDbLine
 10
49.43073669357052
 20
7.270750000000017
 30
0.0
 11
49.43073669357052
 21
38.57275000000001
 31
0.0
  0
LINE
  5
154
330
14E
100
AcDbEntity
  8
치수문자_일반주서
 62
     0
370
    -2
100
AcDbLine
 10
49.43073669357052
 20
-3.968749999999987
 30
0.0
 11
49.43073669357052
 21
3.968750000000017
 31
0.0
  0
LINE
  5
155
330
14E
100
AcDbEntity
  8
치수문자_일반주서
 62
     0
370
    -2
100
AcDbLine
 10
49.43073669357052
 20
-7.270749999999987
 30
0.0
 11
49.43073669357052
 21
-10.57274999999999
 31
0.0
  0
SOLID
  5
156
330
14E
100
AcDbEntity
  8
치수문자_일반주서
 62
     0
100
AcDbTrace
 10
49.98107002690386
 20
-7.270749999999987
 30
0.0
 11
48.88040336023719
 21
-7.270749999999987
 31
0.0
 12
49.43073669357052
 22
-3.968749999999987
 32
0.0
 13
49.43073669357052
 23
-3.968749999999987
 33
0.0
  0
SOLID
  5
157
330
14E
100
AcDbEntity
  8
치수문자_일반주서
 62
     0
100
AcDbTrace
 10
48.88040336023719
 20
7.270750000000017
 30
0.0
 11
49.98107002690386
 21
7.270750000000017
 31
0.0
 12
49.43073669357052
 22
3.968750000000017
 32
0.0
 13
49.43073669357052
 23
3.968750000000017
 33
0.0
  0
MTEXT
  5
158
330
14E
100
AcDbEntity
  8
치수문자_일반주서
 62
     0
100
AcDbMText
 10
46.80573669357052
 20
24.57275000000002
 30
0.0
 40
3.5
 41
0.0
 71
     5
 72
     1
  1
\A1;{Ø7.94 [5/16]}
  7
SLDTEXTSTYLE0
 11
0.0
 21
1.0
 31
0.0
 73
     1
 44
1.0
  0
POINT
  5
159
330
14E
100
AcDbEntity
  8
Defpoints
 62
     0
100
AcDbPoint
 10
41.75
 20
-3.968749999999986
 30
0.0
  0
POINT
  5
15A
330
14E
100
AcDbEntity
  8
Defpoints
 62
     0
100
AcDbPoint
 10
41.75
 20
3.968750000000018
 30
0.0
  0
POINT
  5
15B
330
14E
100
AcDbEntity
  8
Defpoints
 62
     0
100
AcDbPoint
 10
49.43073669357052
 20
3.968750000000017
 30
0.0
  0
ENDBLK
  5
150
330
14E
100
AcDbEntity
  8
0
100
AcDbBlockEnd
  0
ENDSEC
  0
SECTION
  2
ENTITIES
  0
LINE
  5
95
330
1F
100
AcDbEntity
  8
0
  6
Continuous
 62
     4
370
    15
100
AcDbLine
 10
10.0
 20
3.968750000000014
 30
0.0
 11
-46.65000000000001
 21
3.968750000000011
 31
0.0
  0
LINE
  5
96
330
1F
100
AcDbEntity
  8
0
  6
Continuous
 62
     4
370
    15
100
AcDbLine
 10
-46.65000000000001
 20
-3.968749999999989
 30
0.0
 11
8.480275367840246
 21
-3.968749999999986
 31
0.0
  0
LINE
  5
97
330
1F
100
AcDbEntity
  8
0
  6
Continuous
 62
     4
370
    15
100
AcDbLine
 10
-46.65000000000001
 20
3.968750000000007
 30
0.0
 11
-47.15000000000001
 21
3.468750000000007
 31
0.0
  0
LINE
  5
98
330
1F
100
AcDbEntity
  8
0
  6
Continuous
 62
     4
370
    15
100
AcDbLine
 10
-47.15000000000001
 20
-3.468749999999986
 30
0.0
 11
-46.65000000000001
 21
-3.968749999999986
 31
0.0
  0
LINE
  5
99
330
1F
100
AcDbEntity
  8
0
  6
Continuous
 62
     1
370
    15
100
AcDbLine
 10
29.03320402279135
 20
-3.968749999999989
 30
0.0
 11
31.60819913242095
 21
-3.968749999999989
 31
0.0
  0
LINE
  5
9A
330
1F
100
AcDbEntity
  8
0
  6
Continuous
 62
     1
370
    15
100
AcDbLine
 10
19.13999336776784
 20
3.968750000000018
 30
0.0
 11
16.56505801287489
 21
3.968750000000018
 31
0.0
  0
LINE
  5
9B
102
{ACAD_REACTORS
102
}
330
1F
100
AcDbEntity
  8
0
  6
Continuous
 62
     1
370
    15
100
AcDbLine
 10
41.75
 20
3.968750000000018
 30
0.0
 11
41.50134914710076
 21
3.968750000000018
 31
0.0
  0
LINE
  5
9C
330
1F
100
AcDbEntity
  8
0
  6
Continuous
 62
     1
370
    15
100
AcDbLine
 10
37.34519507928992
 20
-3.968749999999989
 30
0.0
 11
39.92120445851393
 21
-3.968749999999989
 31
0.0
  0
LINE
  5
9D
330
1F
100
AcDbEntity
  8
0
  6
Continuous
 62
     1
370
    15
100
AcDbLine
 10
12.40876390176262
 20
-3.968749999999989
 30
0.0
 11
14.98475015004166
 21
-3.968749999999989
 31
0.0
  0
LINE
  5
9E
330
1F
100
AcDbEntity
  8
0
  6
Continuous
 62
     1
370
    15
100
AcDbLine
 10
27.45297833081997
 20
3.968750000000018
 30
0.0
 11
24.87697699713831
 21
3.968750000000018
 31
0.0
  0
LINE
  5
9F
330
1F
100
AcDbEntity
  8
0
  6
Continuous
 62
     1
370
    15
100
AcDbLine
 10
20.72176611390611
 20
-3.968749999999989
 30
0.0
 11
23.2971288975939
 21
-3.968749999999989
 31
0.0
  0
LINE
  5
A0
330
1F
100
AcDbEntity
  8
0
  6
Continuous
 62
     1
370
    15
100
AcDbLine
 10
10.829080877674
 20
3.968750000000018
 30
0.0
 11
10.0
 21
3.968750000000018
 31
0.0
  0
LINE
  5
A1
330
1F
100
AcDbEntity
  8
0
  6
Continuous
 62
     1
370
    15
100
AcDbLine
 10
35.76529776984516
 20
3.968750000000018
 30
0.0
 11
33.18995874628161
 21
3.968750000000018
 31
0.0
  0
SPLINE
  5
A2
330
1F
100
AcDbEntity
  8
0
  6
Continuous
 62
     4
370
    15
100
AcDbSpline
210
0.0
220
0.0
230
1.0
 70
     8
 71
     3
 72
     8
 73
     4
 74
     0
 42
0.000000001
 43
0.00000001
 40
0.0
 40
0.0
 40
0.0
 40
0.0
 40
1.0
 40
1.0
 40
1.0
 40
1.0
 10
8.714489507585126
 20
0.0363665565501213
 30
0.0
 10
8.562758482476898
 20
0.1883521658582497
 30
0.0
 10
8.480275367840248
 20
0.3986963662666093
 30
0.0
 10
8.480275367840248
 20
0.6107914317823409
 30
0.0
  0
SPLINE
  5
A3
330
1F
100
AcDbEntity
  8
0
  6
Continuous
 62
     4
370
    15
100
AcDbSpline
210
0.0
220
0.0
230
1.0
 70
     8
 71
     3
 72
    14
 73
    10
 74
     0
 42
0.000000001
 43
0.00000001
 40
0.0
 40
0.0
 40
0.0
 40
0.0
 40
0.25
 40
0.25
 40
0.5
 40
0.5
 40
0.75
 40
0.75
 40
1.0
 40
1.0
 40
1.0
 40
1.0
 10
8.480275367840246
 20
3.396904620074687
 30
0.0
 10
8.480275367840246
 20
3.478731114241304
 30
0.0
 10
8.524301549324761
 20
3.550445818683287
 30
0.0
 10
8.69333631469647
 20
3.66044388773207
 30
0.0
 10
8.819418911863252
 20
3.698875114659401
 30
0.0
 10
9.106579717920035
 20
3.741604253921598
 30
0.0
 10
9.270394549782221
 20
3.747112137046196
 30
0.0
 10
9.578087813356921
 20
3.72710644483853
 30
0.0
 10
9.721556462171845
 20
3.701824790221264
 30
0.0
 10
9.833458608435768
 20
3.658384781296818
 30
0.0
  0
SPLINE
  5
A4
330
1F
100
AcDbEntity
  8
0
  6
Continuous
 62
     4
370
    15
100
AcDbSpline
210
0.0
220
0.0
230
1.0
 70
    24
 71
     3
 72
    16
 73
    12
 74
     0
 42
0.000000001
 43
0.00000001
 40
0.0
 40
0.0
 40
0.0
 40
0.0
 40
0.25
 40
0.25
 40
0.5
 40
0.5
 40
0.75
 40
0.75
 40
0.875
 40
0.875
 40
1.0
 40
1.0
 40
1.0
 40
1.0
 10
10.0
 20
3.590356077475897
 30
0.0
 10
10.0
 20
3.2869797658846
 30
0.0
 10
10.0
 20
2.935988441773368
 30
0.0
 10
10.0
 20
2.139959920241751
 30
0.0
 10
10.0
 20
1.693514597456762
 30
0.0
 10
10.0
 20
0.7618876733218362
 30
0.0
 10
10.0
 20
0.2770808335008341
 30
0.0
 10
10.0
 20
-0.3754436636350051
 30
0.0
 10
10.0
 20
-0.5798643955743655
 30
0.0
 10
10.0
 20
-0.9429088888200393
 30
0.0
 10
10.0
 20
-1.101360216740316
 30
0.0
 10
10.0
 20
-1.229188595879698
 30
0.0
  0
SPLINE
  5
A5
330
1F
100
AcDbEntity
  8
0
  6
Continuous
 62
     4
370
    15
100
AcDbSpline
210
0.0
220
0.0
230
1.0
 70
     8
 71
     3
 72
    10
 73
     6
 74
     0
 42
0.000000001
 43
0.00000001
 40
0.0
 40
0.0
 40
0.0
 40
0.0
 40
0.5000000000000001
 40
0.5000000000000001
 40
1.0
 40
1.0
 40
1.0
 40
1.0
 10
10.0
 20
-1.229188595881781
 30
0.0
 10
9.787634977032562
 20
-1.025975596747293
 30
0.0
 10
9.571640054183092
 20
-0.8162280355657282
 30
0.0
 10
9.140809179664018
 20
-0.3917533090071695
 30
0.0
 10
8.928339374749898
 20
-0.1778421218550789
 30
0.0
 10
8.714489507585126
 20
0.0363665565501215
 30
0.0
  0
SPLINE
  5
A6
330
1F
100
AcDbEntity
  8
0
  6
Continuous
 62
     4
370
    15
100
AcDbSpline
210
0.0
220
0.0
230
1.0
 70
     8
 71
     3
 72
     8
 73
     4
 74
     0
 42
0.000000001
 43
0.00000001
 40
0.0
 40
0.0
 40
0.0
 40
0.0
 40
1.0
 40
1.0
 40
1.0
 40
1.0
 10
10.0
 20
3.5903560774759
 30
0.0
 10
9.944706813128594
 20
3.614069340712096
 30
0.0
 10
9.889168830501006
 20
3.636758274348605
 30
0.0
 10
9.833458608435771
 20
3.658384781296819
 30
0.0
  0
LINE
  5
A7
330
1F
100
AcDbEntity
  8
0
  6
Continuous
 62
     4
370
    15
100
AcDbLine
 10
10.0
 20
3.968750000000014
 30
0.0
 11
10.0
 21
3.5903560774759
 31
0.0
  0
LINE
  5
A8
330
1F
100
AcDbEntity
  8
0
  6
Continuous
 62
     4
370
    15
100
AcDbLine
 10
10.0
 20
-1.229188595879698
 30
0.0
 11
10.0
 21
-3.259841771331187
 31
0.0
  0
SPLINE
  5
A9
330
1F
100
AcDbEntity
  8
0
  6
Continuous
 62
     4
370
    15
100
AcDbSpline
210
0.0
220
0.0
230
1.0
 70
     8
 71
     3
 72
     8
 73
     4
 74
     0
 42
0.000000001
 43
0.00000001
 40
0.0
 40
0.0
 40
0.0
 40
0.0
 40
1.0
 40
1.0
 40
1.0
 40
1.0
 10
10.0
 20
-3.259841771331187
 30
0.0
 10
9.944706813128594
 20
-3.228101847192705
 30
0.0
 10
9.88916883050101
 20
-3.195353499898844
 30
0.0
 10
9.833458608435775
 20
-3.161633014412537
 30
0.0
  0
SPLINE
  5
AA
330
1F
100
AcDbEntity
  8
0
  6
Continuous
 62
     4
370
    15
100
AcDbSpline
210
0.0
220
0.0
230
1.0
 70
     8
 71
     3
 72
    14
 73
    10
 74
     0
 42
0.000000001
 43
0.00000001
 40
0.0
 40
0.0
 40
0.0
 40
0.0
 40
0.25
 40
0.25
 40
0.5
 40
0.5
 40
0.75
 40
0.75
 40
1.0
 40
1.0
 40
1.0
 40
1.0
 10
8.480275367840246
 20
-3.47581318320336
 30
0.0
 10
8.480275367840246
 20
-3.399435901274416
 30
0.0
 10
8.524301549324763
 20
-3.315342759386816
 30
0.0
 10
8.693336314696472
 20
-3.163294032926148
 30
0.0
 10
8.819418911863258
 20
-3.096352349011152
 30
0.0
 10
9.106579717920042
 20
-3.018126204271042
 30
0.0
 10
9.270394549782226
 20
-3.006365665114346
 30
0.0
 10
9.578087813356928
 20
-3.044824897124423
 30
0.0
 10
9.721556462171856
 20
-3.093900477023601
 30
0.0
 10
9.833458608435778
 20
-3.161633014412537
 30
0.0
  0
LINE
  5
AB
330
1F
100
AcDbEntity
  8
0
  6
Continuous
 62
     4
370
    15
100
AcDbLine
 10
8.480275367840246
 20
-3.475813183203361
 30
0.0
 11
8.480275367840246
 21
-3.968749999999986
 31
0.0
  0
SPLINE
  5
AC
330
1F
100
AcDbEntity
  8
0
  6
Continuous
 62
     4
370
    15
100
AcDbSpline
210
0.0
220
0.0
230
1.0
 70
     8
 71
     3
 72
     8
 73
     4
 74
     0
 42
0.000000001
 43
0.00000001
 40
0.0
 40
0.0
 40
0.0
 40
0.0
 40
1.0
 40
1.0
 40
1.0
 40
1.0
 10
8.714489507585126
 20
-3.455077301524586
 30
0.0
 10
8.562758482476896
 20
-3.529863960480314
 30
0.0
 10
8.480275367840248
 20
-3.624048177371491
 30
0.0
 10
8.480275367840248
 20
-3.70148652622307
 30
0.0
  0
SPLINE
  5
AD
330
1F
100
AcDbEntity
  8
0
  6
Continuous
 62
     4
370
    15
100
AcDbSpline
210
0.0
220
0.0
230
1.0
 70
     8
 71
     3
 72
     9
 73
     5
 74
     0
 42
0.000000001
 43
0.00000001
 40
0.0
 40
0.0
 40
0.0
 40
0.0
 40
0.1203978339163952
 40
1.0
 40
1.0
 40
1.0
 40
1.0
 10
9.444156867144747
 20
-3.034694699090758
 30
0.0
 10
9.414844249133182
 20
-3.055020275102181
 30
0.0
 10
9.17137958653868
 20
-3.223840388805704
 30
0.0
 10
8.928301510125552
 20
-3.346864780292066
 30
0.0
 10
8.714489507585126
 20
-3.455077301524587
 30
0.0
  0
LINE
  5
AE
330
1F
100
AcDbEntity
  8
0
  6
Continuous
 62
     4
370
    15
100
AcDbLine
 10
-46.65000000000001
 20
3.968750000000007
 30
0.0
 11
-46.65000000000001
 21
-3.968749999999983
 31
0.0
  0
LINE
  5
AF
330
1F
100
AcDbEntity
  8
0
  6
Continuous
 62
     4
370
    15
100
AcDbLine
 10
8.480275367840246
 20
3.396904620074686
 30
0.0
 11
8.480275367840246
 21
0.6107914317823405
 31
0.0
  0
LINE
  5
B0
330
1F
100
AcDbEntity
  8
0
  6
Continuous
 62
     4
370
    15
100
AcDbLine
 10
-47.15000000000001
 20
3.468750000000007
 30
0.0
 11
-47.15000000000001
 21
-3.468749999999986
 31
0.0
  0
SPLINE
  5
B1
330
1F
100
AcDbEntity
  8
0
  6
Continuous
 62
     1
370
    15
100
AcDbSpline
210
0.0
220
0.0
230
1.0
 70
     8
 71
     3
 72
    27
 73
    23
 74
     0
 42
0.000000001
 43
0.00000001
 40
0.0
 40
0.0
 40
0.0
 40
0.0
 40
0.0139190506957752
 40
0.0680901429204213
 40
0.1223306103240488
 40
0.1766401977454189
 40
0.2308346902236303
 40
0.2850121656903735
 40
0.3392866260641207
 40
0.393569478905522
 40
0.4477493186687711
 40
0.5019399314053185
 40
0.5562451226053438
 40
0.6104926498299218
 40
0.6646645874850633
 40
0.7188750725181855
 40
0.7731926486830147
 40
0.8274113449667557
 40
0.8815821425562439
 40
0.9358192062036452
 40
0.9901306411683909
 40
0.9999999999999999
 40
0.9999999999999999
 40
0.9999999999999999
 40
0.9999999999999999
 10
34.47700018769486
 20
-2.964111954330289
 30
0.0
 10
34.40584852967154
 20
-3.014776109810328
 30
0.0
 10
34.05778409124666
 20
-3.262618413353724
 30
0.0
 10
33.43300032412603
 20
-3.576968870406679
 30
0.0
 10
32.60107984760914
 20
-3.875396363517376
 30
0.0
 10
31.76807238954408
 20
-3.994173052064578
 30
0.0
 10
30.93693013239606
 20
-3.940969979760387
 30
0.0
 10
30.10605503388736
 20
-3.714393007793625
 30
0.0
 10
29.27362134353539
 20
-3.325695170233268
 30
0.0
 10
28.44104830799629
 20
-2.791601006696096
 30
0.0
 10
27.6101345186218
 20
-2.134798589049197
 30
0.0
 10
26.77905445734381
 20
-1.384404799624962
 30
0.0
 10
25.94610801226814
 20
-0.5745313079150155
 30
0.0
 10
25.11412013647697
 20
0.261195556749287
 30
0.0
 10
24.28333258726558
 20
1.085750414092458
 30
0.0
 10
23.45194519119185
 20
1.862760217113328
 30
0.0
 10
22.61878873687216
 20
2.5574973860945
 30
0.0
 10
21.7872751813666
 20
3.14020130874713
 30
0.0
 10
20.95648664668459
 20
3.589500433141337
 30
0.0
 10
20.12474240215617
 20
3.866005731012738
 30
0.0
 10
19.51839486563956
 20
3.98635648720516
 30
0.0
 10
19.19042648684157
 20
3.959875274587442
 30
0.0
 10
19.13999336776784
 20
3.955803143749522
 30
0.0
  0
SPLINE
  5
B2
330
1F
100
AcDbEntity
  8
0
  6
Continuous
 62
     1
370
    15
100
AcDbSpline
210
0.0
220
0.0
230
1.0
 70
     8
 71
     3
 72
    10
 73
     6
 74
     0
 42
0.000000001
 43
0.00000001
 40
0.0
 40
0.0
 40
0.0
 40
0.0
 40
0.3653484168105782
 40
0.7301861040203085
 40
1.0
 40
1.0
 40
1.0
 40
1.0
 10
9.999999999998249
 20
-3.259841771330183
 30
0.0
 10
10.2935377489225
 20
-3.410362254028547
 30
0.0
 10
10.8802029030814
 20
-3.711192803114404
 30
0.0
 10
11.68278103496482
 20
-3.939341071663543
 30
0.0
 10
12.19219370619787
 20
-3.946845626705034
 30
0.0
 10
12.40876390176262
 20
-3.950036091027463
 30
0.0
  0
SPLINE
  5
B3
330
1F
100
AcDbEntity
  8
0
  6
Continuous
 62
     1
370
    15
100
AcDbSpline
210
0.0
220
0.0
230
1.0
 70
     8
 71
     3
 72
    26
 73
    22
 74
     0
 42
0.000000001
 43
0.00000001
 40
0.0
 40
0.0
 40
0.0
 40
0.0
 40
0.0397632256186532
 40
0.0940828695458892
 40
0.148295418264671
 40
0.2024694181380499
 40
0.2567190104584103
 40
0.311026268949371
 40
0.365218944615079
 40
0.4194008468973831
 40
0.4736857661793434
 40
0.5279622926741642
 40
0.5821418305699578
 40
0.6363383861250242
 40
0.6906500410046851
 40
0.7448925732353421
 40
0.7990657276460418
 40
0.8532836661487161
 40
0.9076035439970935
 40
0.9618187452954055
 40
1.0
 40
1.0
 40
1.0
 40
1.0
 10
22.00877965656657
 20
2.963802500709893
 30
0.0
 10
22.21197441322079
 20
3.096724831275853
 30
0.0
 10
22.69274893503776
 20
3.411229353778832
 30
0.0
 10
23.45196028595338
 20
3.739652790925068
 30
0.0
 10
24.28332854942441
 20
3.953968652377982
 30
0.0
 10
25.1141212196676
 20
3.990527196489754
 30
0.0
 10
25.94610772174669
 20
3.853610063466109
 30
0.0
 10
26.77905453409347
 20
3.548071734161367
 30
0.0
 10
27.6101345016076
 20
3.08688691959664
 30
0.0
 10
28.4410482993946
 20
2.490455917575772
 30
0.0
 10
29.27362139510461
 20
1.785675039531623
 30
0.0
 10
30.10605483643278
 20
1.002717562669271
 30
0.0
 10
30.93693086932416
 20
0.1752513715559011
 30
0.0
 10
31.76806963532319
 20
-0.65998912802625
 30
0.0
 10
32.60109014529926
 20
-1.465135613794918
 30
0.0
 10
33.43296197051303
 20
-2.207163304357524
 30
0.0
 10
34.26373657793633
 20
-2.852227368105463
 30
0.0
 10
35.09520768135486
 20
-3.374096485886797
 30
0.0
 10
35.92837582023528
 20
-3.741472443502808
 30
0.0
 10
36.67805558179909
 20
-3.946738688265246
 30
0.0
 10
37.15012179351107
 20
-3.949514081481917
 30
0.0
 10
37.34519507928993
 20
-3.950660965246677
 30
0.0
  0
SPLINE
  5
B4
330
1F
100
AcDbEntity
  8
0
  6
Continuous
 62
     1
370
    15
100
AcDbSpline
210
0.0
220
0.0
230
1.0
 70
     8
 71
     3
 72
    15
 73
    11
 74
     0
 42
0.000000001
 43
0.00000001
 40
0.0
 40
0.0
 40
0.0
 40
0.0
 40
0.1390945706473404
 40
0.2779326788161496
 40
0.4168063946148334
 40
0.5559747992492309
 40
0.6949803484442486
 40
0.8338001526279937
 40
0.9727267282061174
 40
1.0
 40
1.0
 40
1.0
 40
1.0
 10
41.75
 20
0.2485346841557189
 30
0.0
 10
41.47232806486453
 20
0.5242461711793841
 30
0.0
 10
40.91749616592627
 20
1.075160788566979
 30
0.0
 10
40.08660177118325
 20
1.852449023312627
 30
0.0
 10
39.25549350523217
 20
2.549704823559775
 30
0.0
 10
38.42250629949967
 20
3.133218496305622
 30
0.0
 10
37.5905838551717
 20
3.584381864531567
 30
0.0
 10
36.75977865463284
 20
3.863466313954836
 30
0.0
 10
36.15160233366282
 20
3.985423852934767
 30
0.0
 10
35.81975385867878
 20
3.959308855049973
 30
0.0
 10
35.76529776984516
 20
3.955023403249198
 30
0.0
  0
SPLINE
  5
B5
330
1F
100
AcDbEntity
  8
0
  6
Continuous
 62
     1
370
    15
100
AcDbSpline
210
0.0
220
0.0
230
1.0
 70
     8
 71
     3
 72
    27
 73
    23
 74
     0
 42
0.000000001
 43
0.00000001
 40
0.0
 40
0.0
 40
0.0
 40
0.0
 40
0.0142887685794942
 40
0.0685382928743563
 40
0.1227122248170249
 40
0.1769247055567587
 40
0.2312442813706562
 40
0.285464973663298
 40
0.3396377654983429
 40
0.3938768258308218
 40
0.4481902602185532
 40
0.5023888152221325
 40
0.5565672308913789
 40
0.6108395390444614
 40
0.6651283161070659
 40
0.719311460500207
 40
0.7735022558056162
 40
0.8278068975259137
 40
0.8820600778916962
 40
0.9393497816097245
 40
0.9966517998407055
 40
1.0
 40
1.0
 40
1.0
 40
1.0
 10
26.16524077081068
 20
-2.963890958318139
 30
0.0
 10
26.09214326692641
 20
-3.015811031781965
 30
0.0
 10
25.74151976135757
 20
-3.264853710395197
 30
0.0
 10
25.11411518912146
 20
-3.579283604286574
 30
0.0
 10
24.28333398583251
 20
-3.876711806076026
 30
0.0
 10
23.45194454355203
 20
-3.994430558640787
 30
0.0
 10
22.61878992677757
 20
-3.940077853138246
 30
0.0
 10
21.78727107950579
 20
-3.71251428702515
 30
0.0
 10
20.9565018608445
 20
-3.322558266950976
 30
0.0
 10
20.12468553358155
 20
-2.787128840348073
 30
0.0
 10
19.29163394490998
 20
-2.130523876988991
 30
0.0
 10
18.46046359325655
 20
-1.379686752859698
 30
0.0
 10
17.62960446831175
 20
-0.5684922776129895
 30
0.0
 10
16.79723984345166
 20
0.2669997927887579
 30
0.0
 10
15.96460179522394
 20
1.090626664290822
 30
0.0
 10
15.13366561608097
 20
1.867256903954004
 30
0.0
 10
14.30261956409051
 20
2.562486270924742
 30
0.0
 10
13.46969165131918
 20
3.143333380839271
 30
0.0
 10
12.62180769367936
 20
3.601098894724847
 30
0.0
 10
11.75896280147994
 20
3.878319314669437
 30
0.0
 10
11.15641131578949
 20
3.997108916282265
 30
0.0
 10
10.84620579809982
 20
3.9651731845082
 30
0.0
 10
10.82908087767399
 20
3.963410169880205
 30
0.0
  0
SPLINE
  5
B6
330
1F
100
AcDbEntity
  8
0
  6
Continuous
 62
     1
370
    15
100
AcDbSpline
210
0.0
220
0.0
230
1.0
 70
     8
 71
     3
 72
    26
 73
    22
 74
     0
 42
0.000000001
 43
0.00000001
 40
0.0
 40
0.0
 40
0.0
 40
0.0
 40
0.0394807359404467
 40
0.0936720825808952
 40
0.1478557782312355
 40
0.2021451076257419
 40
0.2564179679431721
 40
0.3105969348215078
 40
0.3647960412390733
 40
0.4191100282095693
 40
0.4733496403681344
 40
0.5275229833550518
 40
0.5817442272869037
 40
0.6360643557460484
 40
0.6902773880414484
 40
0.7444518711475893
 40
0.7987019473749971
 40
0.8530096902873883
 40
0.9072028493524464
 40
0.9613852349380021
 40
1.0
 40
1.0
 40
1.0
 40
1.0
 10
13.69707350465956
 20
2.963591535659374
 30
0.0
 10
13.89907590599792
 20
3.095601126830339
 30
0.0
 10
14.37834725616344
 20
3.408807378717066
 30
0.0
 10
15.13366637625618
 20
3.737866448185332
 30
0.0
 10
15.96460159110052
 20
3.95320210248148
 30
0.0
 10
16.79723989818446
 20
3.990857439066585
 30
0.0
 10
17.62960445364494
 20
3.855238454198614
 30
0.0
 10
18.46046359730252
 20
3.550409227033002
 30
0.0
 10
19.29163394338383
 20
3.090067444856803
 30
0.0
 10
20.12468553563289
 20
2.495328578993597
 30
0.0
 10
20.95650185417959
 20
1.790750505191598
 30
0.0
 10
21.7872711040951
 20
1.007657536277401
 30
0.0
 10
22.61878983491398
 20
0.1803781042074566
 30
0.0
 10
23.45194488677354
 20
-0.653601313423101
 30
0.0
 10
24.28333270819245
 20
-1.460204826279696
 30
0.0
 10
25.11411995666494
 20
-2.202871612606502
 30
0.0
 10
25.946108611714
 20
-2.84844861447298
 30
0.0
 10
26.77905223919143
 20
-3.370620842169628
 30
0.0
 10
27.61014277120962
 20
-3.739772688606397
 30
0.0
 10
28.36097161905679
 20
-3.946157296950898
 30
0.0
 10
28.83567173512084
 20
-3.949479007208122
 30
0.0
 10
29.03320402279135
 20
-3.950861237807788
 30
0.0
  0
SPLINE
  5
B7
330
1F
100
AcDbEntity
  8
0
  6
Continuous
 62
     1
370
    15
100
AcDbSpline
210
0.0
220
0.0
230
1.0
 70
     8
 71
     3
 72
    11
 73
     7
 74
     0
 42
0.000000001
 43
0.00000001
 40
0.0
 40
0.0
 40
0.0
 40
0.0
 40
0.1995770339982021
 40
0.466266108195332
 40
0.7328868025281283
 40
1.0
 40
1.0
 40
1.0
 40
1.0
 10
38.63340680602525
 20
2.96420327806872
 30
0.0
 10
38.84092550683583
 20
3.09935745354841
 30
0.0
 10
39.32574550373774
 20
3.415114282602357
 30
0.0
 10
40.08660416735682
 20
3.741714252982821
 30
0.0
 10
40.91749556565588
 20
3.963362419157618
 30
0.0
 10
41.47232786465134
 20
3.961761547184592
 30
0.0
 10
41.75
 20
3.960960372595487
 30
0.0
  0
LINE
  5
B8
330
1F
100
AcDbEntity
  8
0
  6
Continuous
 62
     1
370
    15
100
AcDbLine
 10
41.75
 20
2.569781359489963
 30
0.0
 11
41.75
 21
3.960960372595489
 31
0.0
  0
SPLINE
  5
B9
330
1F
100
AcDbEntity
  8
0
  6
Continuous
 62
     1
370
    15
100
AcDbSpline
210
0.0
220
0.0
230
1.0
 70
     8
 71
     3
 72
    14
 73
    10
 74
     0
 42
0.000000001
 43
0.00000001
 40
0.0
 40
0.0
 40
0.0
 40
0.0
 40
0.2500000000000001
 40
0.2500000000000001
 40
0.5000000000000001
 40
0.5000000000000001
 40
0.75
 40
0.75
 40
1.0
 40
1.0
 40
1.0
 40
1.0
 10
41.75
 20
2.56978135949314
 30
0.0
 10
41.69131957045733
 20
2.403755798948277
 30
0.0
 10
41.61800910112076
 20
2.248871468223103
 30
0.0
 10
41.43210606878419
 20
1.96901734150584
 30
0.0
 10
41.32140325992319
 20
1.848285091350716
 30
0.0
 10
41.06852828809328
 20
1.661021696335768
 30
0.0
 10
40.93006363223312
 20
1.59691984231226
 30
0.0
 10
40.63924219387162
 20
1.528081168860245
 30
0.0
 10
40.49153799028046
 20
1.524179354715023
 30
0.0
 10
40.34423620251799
 20
1.545082965725832
 30
0.0
  0
SPLINE
  5
BA
330
1F
100
AcDbEntity
  8
0
  6
Continuous
 62
     1
370
    15
100
AcDbSpline
210
0.0
220
0.0
230
1.0
 70
     8
 71
     3
 72
     9
 73
     5
 74
     0
 42
0.000000001
 43
0.00000001
 40
0.0
 40
0.0
 40
0.0
 40
0.0
 40
0.6295384839670792
 40
1.0
 40
1.0
 40
1.0
 40
1.0
 10
41.75000000000001
 20
0.7655735109555409
 30
0.0
 10
41.47746343619017
 20
0.933022130908576
 30
0.0
 10
41.04454857752669
 20
1.199008443449545
 30
0.0
 10
40.62807803069403
 20
1.403604394640461
 30
0.0
 10
40.47379172053135
 20
1.479399320892845
 30
0.0
  0
LINE
  5
BB
330
1F
100
AcDbEntity
  8
0
  6
Continuous
 62
     1
370
    15
100
AcDbLine
 10
41.75
 20
0.2485346841557168
 30
0.0
 11
41.75
 21
0.7655735109555404
 31
0.0
  0
SPLINE
  5
BC
330
1F
100
AcDbEntity
  8
0
  6
Continuous
 62
     1
370
    15
100
AcDbSpline
210
0.0
220
0.0
230
1.0
 70
     8
 71
     3
 72
    25
 73
    21
 74
     0
 42
0.000000001
 43
0.00000001
 40
0.0
 40
0.0
 40
0.0
 40
0.0
 40
0.058226211549129
 40
0.1163450656474252
 40
0.1744788254129966
 40
0.2327359445189762
 40
0.290924890904618
 40
0.3490360827936593
 40
0.407191970128163
 40
0.4654601425322855
 40
0.5236189660275834
 40
0.5817297502544678
 40
0.6399149550974212
 40
0.6981743068381361
 40
0.7563101931449296
 40
0.814427824846896
 40
0.8726494948610457
 40
0.9308801677004469
 40
0.9890003356467175
 40
1.0
 40
1.0
 40
1.0
 40
1.0
 10
41.75
 20
-3.554559648128982
 30
0.0
 10
41.47232805635694
 20
-3.662829321584093
 30
0.0
 10
40.91749614041919
 20
-3.8791690409411
 30
0.0
 10
40.0866018730031
 20
-3.992568882949582
 30
0.0
 10
39.25549312293266
 20
-3.942174222481262
 30
0.0
 10
38.42250772941033
 20
-3.716553771820682
 30
0.0
 10
37.59057852887984
 20
-3.328931259427627
 30
0.0
 10
36.75979851021643
 20
-2.795236506912414
 30
0.0
 10
35.92836861695105
 20
-2.139097176452185
 30
0.0
 10
35.09520960821558
 20
-1.3904482137791
 30
0.0
 10
34.26373606566469
 20
-0.5798522186970927
 30
0.0
 10
33.43296209627337
 20
0.2560638041596167
 30
0.0
 10
32.60109015508444
 20
1.080636650994662
 30
0.0
 10
31.76806947006389
 20
1.857029172810961
 30
0.0
 10
30.93693151883131
 20
2.553562950695008
 30
0.0
 10
30.10605240207931
 20
3.137041436558594
 30
0.0
 10
29.27363050155427
 20
3.586958950636441
 30
0.0
 10
28.44101433639999
 20
3.864584309332498
 30
0.0
 10
27.8346680373009
 20
3.985855533572671
 30
0.0
 10
27.50538079006888
 20
3.959594235922117
 30
0.0
 10
27.45297833081998
 20
3.955415037998345
 30
0.0
  0
SPLINE
  5
BD
330
1F
100
AcDbEntity
  8
0
  6
Continuous
 62
     1
370
    15
100
AcDbSpline
210
0.0
220
0.0
230
1.0
 70
     8
 71
     3
 72
    17
 73
    13
 74
     0
 42
0.000000001
 43
0.00000001
 40
0.0
 40
0.0
 40
0.0
 40
0.0
 40
0.0285026149673904
 40
0.1344904017069205
 40
0.2405103503966172
 40
0.3463240102214247
 40
0.4521526114276738
 40
0.5582035420308639
 40
0.664153974327398
 40
0.7760343992931156
 40
0.8879388731341633
 40
1.0
 40
1.0
 40
1.0
 40
1.0
 10
17.85362961295424
 20
-2.963729117974786
 30
0.0
 10
17.77906325402554
 20
-3.016776202099138
 30
0.0
 10
17.42721976255586
 20
-3.267080381607836
 30
0.0
 10
16.79721181904398
 20
-3.581874247445827
 30
0.0
 10
15.96460923969617
 20
-3.877929187367125
 30
0.0
 10
15.13366380625367
 20
-3.994652132674924
 30
0.0
 10
14.30261936480587
 20
-3.938996985545621
 30
0.0
 10
13.46969426830897
 20
-3.710438597836107
 30
0.0
 10
12.62179719802118
 20
-3.312394443075807
 30
0.0
 10
11.75900457668556
 20
-2.750340067778977
 30
0.0
 10
10.880197280541
 20
-2.047709581251542
 30
0.0
 10
10.2935358738696
 20
-1.502156120359292
 30
0.0
 10
9.999999999999694
 20
-1.229188595881488
 30
0.0
  0
SPLINE
  5
BE
330
1F
100
AcDbEntity
  8
0
  6
Continuous
 62
     4
370
    15
100
AcDbSpline
210
0.0
220
0.0
230
1.0
 70
    24
 71
     3
 72
    16
 73
    12
 74
     0
 42
0.000000001
 43
0.00000001
 40
0.0
 40
0.0
 40
0.0
 40
0.0
 40
0.25
 40
0.25
 40
0.4999999999999999
 40
0.4999999999999999
 40
0.75
 40
0.75
 40
0.875
 40
0.875
 40
1.0
 40
1.0
 40
1.0
 40
1.0
 10
10.0
 20
3.590356077502624
 30
0.0
 10
10.0
 20
3.286979765911818
 30
0.0
 10
10.0
 20
2.935988441800592
 30
0.0
 10
10.0
 20
2.139959920267128
 30
0.0
 10
10.0
 20
1.693514597480229
 30
0.0
 10
10.0
 20
0.7618876733394069
 30
0.0
 10
10.0
 20
0.2770808335143736
 30
0.0
 10
10.0
 20
-0.3754436636274041
 30
0.0
 10
10.0
 20
-0.5798643955687006
 30
0.0
 10
10.0
 20
-0.9429088888177093
 30
0.0
 10
10.0
 20
-1.101360216739377
 30
0.0
 10
10.0
 20
-1.229188595879698
 30
0.0
  0
SPLINE
  5
BF
330
1F
100
AcDbEntity
  8
0
  6
Continuous
 62
     1
370
    15
100
AcDbSpline
210
0.0
220
0.0
230
1.0
 70
     8
 71
     3
 72
    20
 73
    16
 74
     0
 42
0.000000001
 43
0.00000001
 40
0.0
 40
0.0
 40
0.0
 40
0.0
 40
0.0820830642853431
 40
0.1640513826220796
 40
0.2460020855248571
 40
0.3236091593468401
 40
0.4012898466438661
 40
0.4788076810525441
 40
0.5563145711274672
 40
0.6339725646459448
 40
0.7116070000270296
 40
0.789107125845518
 40
0.8666360602019717
 40
0.9443293250693082
 40
0.9999999999999999
 40
0.9999999999999999
 40
0.9999999999999999
 40
0.9999999999999999
 10
9.999999999998245
 20
3.590356077476657
 30
0.0
 10
10.29353587292297
 20
3.448373142599253
 30
0.0
 10
10.88019727770532
 20
3.164605754305758
 30
0.0
 10
11.75900458800441
 20
2.536816781447245
 30
0.0
 10
12.62179715653143
 20
1.810870784855645
 30
0.0
 10
13.4696944141506
 20
1.012744648707351
 30
0.0
 10
14.30261881942125
 20
0.1868347424164716
 30
0.0
 10
15.13366583698965
 20
-0.6485976002966496
 30
0.0
 10
15.96460165524889
 20
-1.455477532288291
 30
0.0
 10
16.79724018267926
 20
-2.198006806487258
 30
0.0
 10
17.62960325296531
 20
-2.844172399366693
 30
0.0
 10
18.4604681078382
 20
-3.367911780988059
 30
0.0
 10
19.291617076743
 20
-3.738018511866612
 30
0.0
 10
20.0463191902401
 20
-3.945527131322073
 30
0.0
 10
20.52284706315813
 20
-3.949464575971631
 30
0.0
 10
20.72176611390611
 20
-3.951108200188755
 30
0.0
  0
SPLINE
  5
C0
330
1F
100
AcDbEntity
  8
0
  6
Continuous
 62
     1
370
    15
100
AcDbSpline
210
0.0
220
0.0
230
1.0
 70
     8
 71
     3
 72
    21
 73
    17
 74
     0
 42
0.000000001
 43
0.00000001
 40
0.0
 40
0.0
 40
0.0
 40
0.0
 40
0.0538407264032035
 40
0.1265698902522505
 40
0.1994535118440748
 40
0.2722443741744739
 40
0.3449421348163342
 40
0.417699993549848
 40
0.4905946499691257
 40
0.5633488355063907
 40
0.6360471061418138
 40
0.7088426492174201
 40
0.7817234777382562
 40
0.8544499812414339
 40
0.9271578374548493
 40
1.0
 40
1.0
 40
1.0
 40
1.0
 10
30.32185955548759
 20
2.964034040876173
 30
0.0
 10
30.5268664892455
 20
3.097983773867591
 30
0.0
 10
31.00880101799557
 20
3.412875569291684
 30
0.0
 10
31.76805486473702
 20
3.741981348360481
 30
0.0
 10
32.60109406668757
 20
3.954722440116129
 30
0.0
 10
33.4329610502514
 20
3.99022163547105
 30
0.0
 10
34.26373634603544
 20
3.852192651913255
 30
0.0
 10
35.09520953290196
 20
3.545096038162633
 30
0.0
 10
35.92836863710443
 20
3.083622192325172
 30
0.0
 10
36.75979850482564
 20
2.486496361535084
 30
0.0
 10
37.59057853032593
 20
1.780495437687971
 30
0.0
 10
38.42250772902212
 20
0.9968460868699012
 30
0.0
 10
39.25549312303646
 20
0.1699078910082623
 30
0.0
 10
40.08660187297547
 20
-0.663799300201482
 30
0.0
 10
40.9174961404261
 20
-1.475231950526984
 30
0.0
 10
41.47232805635924
 20
-1.955407980306803
 30
0.0
 10
41.75
 20
-2.195717536498106
 30
0.0
  0
SPLINE
  5
C1
330
1F
100
AcDbEntity
  8
0
  6
Continuous
 62
     1
370
    15
100
AcDbSpline
210
0.0
220
0.0
230
1.0
 70
     8
 71
     3
 72
    10
 73
     6
 74
     0
 42
0.000000001
 43
0.00000001
 40
0.0
 40
0.0
 40
0.0
 40
0.0
 40
0.0935607625311524
 40
0.5505358610161355
 40
1.0
 40
1.0
 40
1.0
 40
1.0
 10
41.22461659805688
 20
-1.731298701482618
 30
0.0
 10
41.20263365878345
 20
-1.733205894210063
 30
0.0
 10
41.07328032654082
 20
-1.744428312261406
 30
0.0
 10
40.76017874110511
 20
-1.881107137600577
 30
0.0
 10
40.48211568436037
 20
-2.054547371431981
 30
0.0
 10
40.34423620251887
 20
-2.140548905943964
 30
0.0
  0
SPLINE
  5
C2
330
1F
100
AcDbEntity
  8
0
  6
Continuous
 62
     1
370
    15
100
AcDbSpline
210
0.0
220
0.0
230
1.0
 70
     8
 71
     3
 72
    10
 73
     6
 74
     0
 42
0.000000001
 43
0.00000001
 40
0.0
 40
0.0
 40
0.0
 40
0.0
 40
0.5
 40
0.5
 40
1.0
 40
1.0
 40
1.0
 40
1.0
 10
41.75
 20
-2.320163692655706
 30
0.0
 10
41.50936187352143
 20
-2.332603915210763
 30
0.0
 10
41.27170373310715
 20
-2.325139225930419
 30
0.0
 10
40.80273964018883
 20
-2.267780205891681
 30
0.0
 10
40.57129946506123
 20
-2.218782419422846
 30
0.0
 10
40.34423620251507
 20
-2.140548905951849
 30
0.0
  0
LINE
  5
C3
330
1F
100
AcDbEntity
  8
0
  6
Continuous
 62
     1
370
    15
100
AcDbLine
 10
41.75
 20
-3.554559648128985
 30
0.0
 11
41.75
 21
-2.320163692655707
 31
0.0
  0
LINE
  5
C4
330
1F
100
AcDbEntity
  8
0
  6
Continuous
 62
     1
370
    15
100
AcDbLine
 10
41.75
 20
3.960960372595489
 30
0.0
 11
41.75
 21
3.968750000000018
 31
0.0
  0
LINE
  5
C5
330
1F
100
AcDbEntity
  8
0
  6
Continuous
 62
     4
370
    15
100
AcDbLine
 10
10.0
 20
3.590356077502626
 30
0.0
 11
10.0
 21
3.968750000000018
 31
0.0
  0
LINE
  5
C6
330
1F
100
AcDbEntity
  8
0
  6
Continuous
 62
     1
370
    15
100
AcDbLine
 10
41.75
 20
-2.195717536498107
 30
0.0
 11
41.75
 21
0.2485346841557168
 31
0.0
  0
LINE
  5
C7
330
1F
100
AcDbEntity
  8
0
  6
Continuous
 62
     1
370
    15
100
AcDbLine
 10
41.75
 20
0.7655735109555408
 30
0.0
 11
41.75
 21
2.569781359489963
 31
0.0
  0
LINE
  5
C8
330
1F
100
AcDbEntity
  8
0
  6
Continuous
 62
     1
370
    15
100
AcDbLine
 10
41.75
 20
-2.195717536498107
 30
0.0
 11
41.75
 21
-2.320163692655707
 31
0.0
  0
LINE
  5
C9
330
1F
100
AcDbEntity
  8
중심선
100
AcDbLine
 10
-49.65000000000001
 20
-0.0000000000000015
 30
0.0
 11
21.81254243902304
 21
-0.0000000000000014
 31
0.0
  0
CIRCLE
  5
CA
330
1F
100
AcDbEntity
  8
외형선
100
AcDbCircle
 10
0.0
 20
0.0
 30
0.0
 40
3.000000000000008
  0
INSERT
  5
CB
330
1F
100
AcDbEntity
  8
0
  6
Continuous
 62
     7
100
AcDbBlockReference
 66
     1
  2
블럭10
 10
-19.77485947044653
 20
-32.20276358278163
 30
0.0
  0
ATTRIB
  5
CC
330
CB
100
AcDbEntity
  8
FORMAT
 62
     2
100
AcDbText
 10
-28.95615475918781
 20
-30.12739666994944
 30
0.0
 40
4.233333333333333
  1
E5982020 [ 3 FLUTE ]
 41
0.75
  7
SLDTEXTSTYLE0
 11
-28.95615475918781
 21
-32.24406333661611
 31
0.0
100
AcDbAttribute
  2
AUTOATTR0
 70
     0
 74
     1
  0
SEQEND
  5
CD
330
CB
100
AcDbEntity
  8
0
  6
Continuous
 62
     7
  0
HATCH
  5
CE
330
1F
100
AcDbEntity
  8
중심선
100
AcDbHatch
 10
0.0
 20
0.0
 30
0.0
210
0.0
220
0.0
230
1.0
  2
SOLID
 70
     1
 71
     0
 91
        1
 92
        0
 93
        4
 72
     1
 10
-14.05995016606568
 20
-15.95558928113769
 11
-17.50622540990296
 21
-15.95558928113769
 72
     1
 10
-17.50622540990296
 20
-15.95558928113769
 11
-19.63445526910698
 21
-18.49191486171029
 72
     1
 10
-19.63445526910698
 20
-18.49191486171029
 11
-16.18814694015655
 21
-18.4918754324078
 72
     1
 10
-16.18814694015655
 20
-18.4918754324078
 11
-14.05995016606568
 21
-15.95558928113769
 97
        0
 75
     0
 76
     1
 98
        1
 10
0.0
 20
19.84333579013841
  0
HATCH
  5
CF
330
1F
100
AcDbEntity
  8
중심선
100
AcDbHatch
 10
0.0
 20
0.0
 30
0.0
210
0.0
220
0.0
230
1.0
  2
SOLID
 70
     1
 71
     0
 91
        1
 92
        0
 93
        4
 72
     1
 10
-9.047186175029726
 20
-15.95558928113769
 11
-12.49346141886701
 21
-15.95558928113769
 72
     1
 10
-12.49346141886701
 20
-15.95558928113769
 11
-17.02459942722439
 21
-21.35558928113771
 72
     1
 10
-17.02459942722439
 20
-21.35558928113771
 11
-13.57832418338711
 21
-21.35558928113771
 72
     1
 10
-13.57832418338711
 20
-21.35558928113771
 11
-9.047186175029726
 21
-15.95558928113769
 97
        0
 75
     0
 76
     1
 98
        1
 10
0.0
 20
19.84333579013841
  0
HATCH
  5
D0
330
1F
100
AcDbEntity
  8
중심선
100
AcDbHatch
 10
0.0
 20
0.0
 30
0.0
210
0.0
220
0.0
230
1.0
  2
SOLID
 70
     1
 71
     0
 91
        1
 92
        0
 93
        4
 72
     1
 10
-4.03442218399383
 20
-15.95558928113772
 11
-7.480697427830946
 21
-15.95558928113769
 72
     1
 10
-7.480697427830946
 20
-15.95558928113769
 11
-14.5291343297202
 21
-24.35558928113771
 72
     1
 10
-14.5291343297202
 20
-24.35558928113771
 11
-11.08285908588291
 21
-24.35558928113771
 72
     1
 10
-11.08285908588291
 20
-24.35558928113771
 11
-4.03442218399383
 21
-15.95558928113772
 97
        0
 75
     0
 76
     1
 98
        1
 10
0.0
 20
19.84333579013841
  0
HATCH
  5
D1
330
1F
100
AcDbEntity
  8
중심선
100
AcDbHatch
 10
0.0
 20
0.0
 30
0.0
210
0.0
220
0.0
230
1.0
  2
SOLID
 70
     1
 71
     0
 91
        1
 92
        0
 93
        6
 72
     3
 10
0.7654682470183694
 20
-20.15558928118897
 11
3.960054785062283
 21
1.540882976769353E-10
 40
0.3939339440162628
 50
17.09539180608437
 51
320.0019657685079
 73
     0
 72
     1
 10
2.448467902718965
 20
-18.74348328577599
 11
4.753769776420002
 21
-16.80915657572807
 72
     3
 10
0.7654682469655227
 20
-20.15558928113784
 11
6.600054785286829
 21
-1.278976924368180E-13
 40
0.636358354079598
 50
39.99873849337411
 51
368.4976242363725
 73
     1
 72
     1
 10
7.190800738866132
 20
-19.19558928106772
 11
-0.5544644461985548
 21
-19.19558928106769
 72
     1
 10
-0.5544644461985548
 20
-19.19558928106769
 11
-0.5544894906444886
 21
-21.11558928106761
 72
     1
 10
-0.5544894906444886
 20
-21.11558928106761
 11
3.886890278827548
 21
-21.11558928106758
 97
        0
 75
     0
 76
     1
 98
        1
 10
0.0
 20
19.84333579013841
  0
POINT
  5
D2
330
1F
100
AcDbEntity
  8
치수문자_일반주서
100
AcDbPoint
 10
-41.29999999999999
 20
-3.175000000000009
 30
0.0
  0
POINT
  5
D3
330
1F
100
AcDbEntity
  8
치수문자_일반주서
100
AcDbPoint
 10
-41.29999999999999
 20
-3.175000000000009
 30
0.0
  0
POINT
  5
D4
330
1F
100
AcDbEntity
  8
치수문자_일반주서
100
AcDbPoint
 10
-47.15000000000001
 20
-0.0000000000000014
 30
0.0
  0
DIMENSION
  5
E0
330
1F
100
AcDbEntity
  8
치수문자_일반주서
100
AcDbDimension
  2
_D_1
 10
10.0
 20
24.58216845233052
 30
0.0
 11
25.875
 21
24.58216845233052
 31
0.0
 70
   160
  1
<>
 71
     2
 42
31.75
  3
SLDDIMSTYLE1
100
AcDbAlignedDimension
 13
41.75
 23
3.968750000000018
 33
0.0
 14
10.0
 24
3.968750000000014
 34
0.0
100
AcDbRotatedDimension
1001
ACAD
1000
DSTYLE
1002
{
1070
   171
1070
     6
1070
   273
1070
     5
1002
}
  0
DIMENSION
  5
F4
330
1F
100
AcDbEntity
  8
치수문자_일반주서
100
AcDbDimension
  2
_D_2
 10
-47.15000000000001
 20
42.60485365728746
 30
0.0
 11
-2.700000000000005
 21
42.60485365728746
 31
0.0
 70
   160
  1
<>
 71
     2
 42
88.9
  3
SLDDIMSTYLE2
100
AcDbAlignedDimension
 13
41.75
 23
3.968750000000018
 33
0.0
 14
-47.15000000000001
 24
3.468750000000007
 34
0.0
 50
0.0000000000000046
100
AcDbRotatedDimension
1001
ACAD
1000
DSTYLE
1002
{
1070
   171
1070
     6
1070
   273
1070
     5
1002
}
  0
DIMENSION
  5
108
330
1F
100
AcDbEntity
  8
치수문자_일반주서
100
AcDbDimension
  2
_D_3
 10
-55.4424687165215
 20
-3.968750000000021
 30
0.0
 11
-55.4424687165216
 21
24.57274999999998
 31
0.0
 70
   160
  1
%%c<>
 71
     2
 42
7.9375
 52
-270.0
  3
SLDDIMSTYLE3
100
AcDbAlignedDimension
 13
-46.65000000000001
 23
3.968750000000011
 33
0.0
 14
-46.65000000000001
 24
-3.968749999999989
 34
0.0
 50
90.0000000000002
100
AcDbRotatedDimension
1001
ACAD
1000
DSTYLE
1002
{
1070
   171
1070
     6
1070
   273
1070
     5
1002
}
  0
INSERT
  5
123
330
1F
100
AcDbEntity
  8
외형선
100
AcDbBlockReference
  2
SW_DOWELSYMBOL_0
 10
0.0
 20
0.0
 30
0.0
  0
DIMENSION
  5
14B
102
{ACAD_REACTORS
102
}
102
{ACAD_XDICTIONARY
360
14C
102
}
330
1F
100
AcDbEntity
  8
치수문자_일반주서
100
AcDbDimension
  2
*D7
 10
49.43073669357052
 20
3.968750000000017
 30
0.0
 11
46.80573669357052
 21
24.57275000000002
 31
0.0
 70
    32
  1
{Ø<>[]}
 71
     5
 42
7.937500000000004
  3
SLDDIMSTYLE3
100
AcDbAlignedDimension
 13
41.75
 23
-3.968749999999986
 33
0.0
 14
41.75
 24
3.968750000000018
 34
0.0
 50
90.0
100
AcDbRotatedDimension
1001
ACAD
1000
DSTYLE
1002
{
1070
   283
1070
     1
1070
   170
1070
     1
1070
   171
1070
     6
1070
   273
1070
     5
1002
}
  0
ENDSEC
  0
SECTION
  2
OBJECTS
  0
DICTIONARY
  5
C
330
0
100
AcDbDictionary
281
     1
  3
ACAD_GROUP
350
D
  3
ACAD_IMAGE_VARS
350
147
  3
ACAD_LAYOUT
350
1A
  3
ACAD_MLINESTYLE
350
17
  3
ACAD_PLOTSETTINGS
350
19
  3
ACAD_PLOTSTYLENAME
350
E
  3
ACAD_SCALELIST
350
47
  3
APPDATA
350
145
  3
DWGPROPS
350
162
  0
DICTIONARY
  5
14C
330
14B
100
AcDbDictionary
280
     1
281
     1
  0
DICTIONARY
  5
D
102
{ACAD_REACTORS
330
C
102
}
330
C
100
AcDbDictionary
281
     1
  0
RASTERVARIABLES
  5
147
102
{ACAD_REACTORS
330
C
102
}
330
C
100
AcDbRasterVariables
 90
        0
 70
     1
 71
     1
 72
     1
  0
DICTIONARY
  5
1A
102
{ACAD_REACTORS
330
C
102
}
330
C
100
AcDbDictionary
281
     1
  3
Layout1
350
1E
  3
Layout2
350
26
  3
Model
350
22
  0
DICTIONARY
  5
17
102
{ACAD_REACTORS
330
C
102
}
330
C
100
AcDbDictionary
281
     1
  3
Standard
350
18
  0
DICTIONARY
  5
19
102
{ACAD_REACTORS
330
C
102
}
330
C
100
AcDbDictionary
281
     1
  0
ACDBDICTIONARYWDFLT
  5
E
102
{ACAD_REACTORS
330
C
102
}
330
C
100
AcDbDictionary
281
     1
  3
Normal
350
F
100
AcDbDictionaryWithDefault
340
F
  0
DICTIONARY
  5
47
102
{ACAD_REACTORS
330
C
102
}
330
C
100
AcDbDictionary
281
     1
  3
A0
350
48
  3
A1
350
49
  3
A2
350
4A
  3
A3
350
4B
  3
A4
350
4C
  3
A5
350
4D
  3
A6
350
4E
  3
A7
350
4F
  3
A8
350
50
  3
A9
350
51
  3
B0
350
52
  3
B1
350
53
  3
B2
350
54
  3
B3
350
55
  3
B4
350
56
  3
B5
350
57
  3
B6
350
58
  3
B7
350
59
  3
B8
350
5A
  3
B9
350
5B
  3
C0
350
5C
  3
C1
350
5D
  3
C2
350
5E
  3
C3
350
5F
  3
C4
350
60
  3
C5
350
61
  3
C6
350
62
  3
C7
350
63
  3
C8
350
64
  3
C9
350
65
  3
D0
350
66
  3
D1
350
67
  3
D2
350
68
  0
DICTIONARY
  5
145
102
{ACAD_REACTORS
330
C
102
}
330
C
100
AcDbDictionary
281
     1
  0
XRECORD
  5
162
102
{ACAD_REACTORS
330
C
102
}
330
C
100
AcDbXrecord
280
     1
  1
DWGPROPS COOKIE
  2

  3

  4

  6

  7

  8
12014074
  9

300
=
301
=
302
=
303
=
304
=
305
=
306
=
307
=
308
=
309
=
 40
0.0
 41
2458269.020914444
 42
2458269.459039514
  1

 90
        0
  0
LAYOUT
  5
1E
102
{ACAD_REACTORS
330
1A
102
}
330
1A
100
AcDbPlotSettings
  1

  2
none_device
  4

  6

 40
0.0
 41
0.0
 42
0.0
 43
0.0
 44
0.0
 45
0.0
 46
0.0
 47
0.0
 48
0.0
 49
0.0
140
0.0
141
0.0
142
1.0
143
1.0
 70
   688
 72
     1
 73
     0
 74
     5
  7

 75
    16
147
1.0
148
0.0
149
0.0
100
AcDbLayout
  1
Layout1
 70
     1
 71
     1
 10
0.0
 20
0.0
 11
420.0
 21
297.0
 12
0.0
 22
0.0
 32
0.0
 14
1.000000000000000E+20
 24
1.000000000000000E+20
 34
1.000000000000000E+20
 15
-1.000000000000000E+20
 25
-1.000000000000000E+20
 35
-1.000000000000000E+20
146
0.0
 13
0.0
 23
0.0
 33
0.0
 16
1.0
 26
0.0
 36
0.0
 17
0.0
 27
1.0
 37
0.0
 76
     0
330
1B
  0
LAYOUT
  5
26
102
{ACAD_REACTORS
330
1A
102
}
330
1A
100
AcDbPlotSettings
  1

  2
none_device
  4

  6

 40
0.0
 41
0.0
 42
0.0
 43
0.0
 44
0.0
 45
0.0
 46
0.0
 47
0.0
 48
0.0
 49
0.0
140
0.0
141
0.0
142
1.0
143
1.0
 70
   688
 72
     1
 73
     0
 74
     5
  7

 75
    16
147
1.0
148
0.0
149
0.0
100
AcDbLayout
  1
Layout2
 70
     1
 71
     2
 10
0.0
 20
0.0
 11
0.0
 21
0.0
 12
0.0
 22
0.0
 32
0.0
 14
0.0
 24
0.0
 34
0.0
 15
0.0
 25
0.0
 35
0.0
146
0.0
 13
0.0
 23
0.0
 33
0.0
 16
1.0
 26
0.0
 36
0.0
 17
0.0
 27
1.0
 37
0.0
 76
     0
330
23
  0
LAYOUT
  5
22
102
{ACAD_REACTORS
330
1A
102
}
330
1A
100
AcDbPlotSettings
  1

  2
none_device
  4
ANSI_A_(11.00_x_8.50_Inches)
  6

 40
6.35
 41
19.05
 42
6.35000508
 43
19.05000254
 44
279.4
 45
215.9
 46
162.7978017408396
 47
86.1275479587343
 48
0.0
 49
0.0
140
0.0
141
0.0
142
0.0808118462784574
143
1.0
 70
  1696
 72
     0
 73
     0
 74
     0
  7

 75
     0
147
0.0235690232323232
148
0.0
149
0.0
100
AcDbLayout
  1
Model
 70
     1
 71
     0
 10
0.0
 20
0.0
 11
420.0
 21
297.0
 12
0.0
 22
0.0
 32
0.0
 14
-59.81746871652162
 24
-30.12739666994944
 34
0.0
 15
49.98107002690386
 25
46.97985365728746
 35
0.0
146
0.0
 13
0.0
 23
0.0
 33
0.0
 16
1.0
 26
0.0
 36
0.0
 17
0.0
 27
1.0
 37
0.0
 76
     0
330
1F
331
29
  0
MLINESTYLE
  5
18
102
{ACAD_REACTORS
330
17
102
}
330
17
100
AcDbMlineStyle
  2
Standard
 70
     0
  3

 62
   256
 51
90.0
 52
90.0
 71
     2
 49
0.5
 62
   256
  6
BYLAYER
 49
-0.5
 62
   256
  6
BYLAYER
  0
ACDBPLACEHOLDER
  5
F
102
{ACAD_REACTORS
330
E
102
}
330
E
  0
SCALE
  5
48
102
{ACAD_REACTORS
330
47
102
}
330
47
100
AcDbScale
 70
     0
300
1:1
140
1.0
141
1.0
290
     1
  0
SCALE
  5
49
102
{ACAD_REACTORS
330
47
102
}
330
47
100
AcDbScale
 70
     0
300
1:2
140
1.0
141
2.0
290
     0
  0
SCALE
  5
4A
102
{ACAD_REACTORS
330
47
102
}
330
47
100
AcDbScale
 70
     0
300
1:4
140
1.0
141
4.0
290
     0
  0
SCALE
  5
4B
102
{ACAD_REACTORS
330
47
102
}
330
47
100
AcDbScale
 70
     0
300
1:5
140
1.0
141
5.0
290
     0
  0
SCALE
  5
4C
102
{ACAD_REACTORS
330
47
102
}
330
47
100
AcDbScale
 70
     0
300
1:8
140
1.0
141
8.0
290
     0
  0
SCALE
  5
4D
102
{ACAD_REACTORS
330
47
102
}
330
47
100
AcDbScale
 70
     0
300
1:10
140
1.0
141
10.0
290
     0
  0
SCALE
  5
4E
102
{ACAD_REACTORS
330
47
102
}
330
47
100
AcDbScale
 70
     0
300
1:16
140
1.0
141
16.0
290
     0
  0
SCALE
  5
4F
102
{ACAD_REACTORS
330
47
102
}
330
47
100
AcDbScale
 70
     0
300
1:20
140
1.0
141
20.0
290
     0
  0
SCALE
  5
50
102
{ACAD_REACTORS
330
47
102
}
330
47
100
AcDbScale
 70
     0
300
1:30
140
1.0
141
30.0
290
     0
  0
SCALE
  5
51
102
{ACAD_REACTORS
330
47
102
}
330
47
100
AcDbScale
 70
     0
300
1:40
140
1.0
141
40.0
290
     0
  0
SCALE
  5
52
102
{ACAD_REACTORS
330
47
102
}
330
47
100
AcDbScale
 70
     0
300
1:50
140
1.0
141
50.0
290
     0
  0
SCALE
  5
53
102
{ACAD_REACTORS
330
47
102
}
330
47
100
AcDbScale
 70
     0
300
1:100
140
1.0
141
100.0
290
     0
  0
SCALE
  5
54
102
{ACAD_REACTORS
330
47
102
}
330
47
100
AcDbScale
 70
     0
300
2:1
140
2.0
141
1.0
290
     0
  0
SCALE
  5
55
102
{ACAD_REACTORS
330
47
102
}
330
47
100
AcDbScale
 70
     0
300
4:1
140
4.0
141
1.0
290
     0
  0
SCALE
  5
56
102
{ACAD_REACTORS
330
47
102
}
330
47
100
AcDbScale
 70
     0
300
8:1
140
8.0
141
1.0
290
     0
  0
SCALE
  5
57
102
{ACAD_REACTORS
330
47
102
}
330
47
100
AcDbScale
 70
     0
300
10:1
140
10.0
141
1.0
290
     0
  0
SCALE
  5
58
102
{ACAD_REACTORS
330
47
102
}
330
47
100
AcDbScale
 70
     0
300
100:1
140
100.0
141
1.0
290
     0
  0
SCALE
  5
59
102
{ACAD_REACTORS
330
47
102
}
330
47
100
AcDbScale
 70
     0
300
1/128" = 1'-0"
140
0.0078125
141
12.0
290
     0
  0
SCALE
  5
5A
102
{ACAD_REACTORS
330
47
102
}
330
47
100
AcDbScale
 70
     0
300
1/64" = 1'-0"
140
0.015625
141
12.0
290
     0
  0
SCALE
  5
5B
102
{ACAD_REACTORS
330
47
102
}
330
47
100
AcDbScale
 70
     0
300
1/32" = 1'-0"
140
0.03125
141
12.0
290
     0
  0
SCALE
  5
5C
102
{ACAD_REACTORS
330
47
102
}
330
47
100
AcDbScale
 70
     0
300
1/16" = 1'-0"
140
0.0625
141
12.0
290
     0
  0
SCALE
  5
5D
102
{ACAD_REACTORS
330
47
102
}
330
47
100
AcDbScale
 70
     0
300
3/32" = 1'-0"
140
0.09375
141
12.0
290
     0
  0
SCALE
  5
5E
102
{ACAD_REACTORS
330
47
102
}
330
47
100
AcDbScale
 70
     0
300
1/8" = 1'-0"
140
0.125
141
12.0
290
     0
  0
SCALE
  5
5F
102
{ACAD_REACTORS
330
47
102
}
330
47
100
AcDbScale
 70
     0
300
3/16" = 1'-0"
140
0.1875
141
12.0
290
     0
  0
SCALE
  5
60
102
{ACAD_REACTORS
330
47
102
}
330
47
100
AcDbScale
 70
     0
300
1/4" = 1'-0"
140
0.25
141
12.0
290
     0
  0
SCALE
  5
61
102
{ACAD_REACTORS
330
47
102
}
330
47
100
AcDbScale
 70
     0
300
3/8" = 1'-0"
140
0.375
141
12.0
290
     0
  0
SCALE
  5
62
102
{ACAD_REACTORS
330
47
102
}
330
47
100
AcDbScale
 70
     0
300
1/2" = 1'-0"
140
0.5
141
12.0
290
     0
  0
SCALE
  5
63
102
{ACAD_REACTORS
330
47
102
}
330
47
100
AcDbScale
 70
     0
300
3/4" = 1'-0"
140
0.75
141
12.0
290
     0
  0
SCALE
  5
64
102
{ACAD_REACTORS
330
47
102
}
330
47
100
AcDbScale
 70
     0
300
1" = 1'-0"
140
1.0
141
12.0
290
     0
  0
SCALE
  5
65
102
{ACAD_REACTORS
330
47
102
}
330
47
100
AcDbScale
 70
     0
300
1-1/2" = 1'-0"
140
1.5
141
12.0
290
     0
  0
SCALE
  5
66
102
{ACAD_REACTORS
330
47
102
}
330
47
100
AcDbScale
 70
     0
300
3" = 1'-0"
140
3.0
141
12.0
290
     0
  0
SCALE
  5
67
102
{ACAD_REACTORS
330
47
102
}
330
47
100
AcDbScale
 70
     0
300
6" = 1'-0"
140
6.0
141
12.0
290
     0
  0
SCALE
  5
68
102
{ACAD_REACTORS
330
47
102
}
330
47
100
AcDbScale
 70
     0
300
1'-0" = 1'-0"
140
12.0
141
12.0
290
     0
  0
ENDSEC
  0
EOF
