  0
SECTION
  2
HEADER
  9
$ACADVER
  1
AC1015
  9
$ACADMAINTVER
 70
     6
  9
$DWGCODEPAGE
  3
ANSI_949
  9
$INSBASE
 10
0.0
 20
0.0
 30
0.0
  9
$EXTMIN
 10
-53.87660442485285
 20
-30.78562813020247
 30
0.0
  9
$EXTMAX
 10
56.99468864511792
 20
47.77360365728745
 30
0.0
  9
$LIMMIN
 10
0.0
 20
0.0
  9
$LIMMAX
 10
420.0
 20
297.0
  9
$ORTHOMODE
 70
     0
  9
$REGENMODE
 70
     1
  9
$FILLMODE
 70
     1
  9
$QTEXTMODE
 70
     0
  9
$MIRRTEXT
 70
     1
  9
$LTSCALE
 40
1.0
  9
$ATTMODE
 70
     1
  9
$TEXTSIZE
 40
3.5
  9
$TRACEWID
 40
1.0
  9
$TEXTSTYLE
  7
Standard
  9
$CLAYER
  8
0
  9
$CELTYPE
  6
ByLayer
  9
$CECOLOR
 62
   256
  9
$CELTSCALE
 40
1.0
  9
$DISPSILH
 70
     0
  9
$DIMSCALE
 40
1.0
  9
$DIMASZ
 40
3.302
  9
$DIMEXO
 40
1.0
  9
$DIMDLI
 40
3.75
  9
$DIMRND
 40
0.0
  9
$DIMDLE
 40
0.0
  9
$DIMEXE
 40
1.0
  9
$DIMTP
 40
0.0
  9
$DIMTM
 40
0.0
  9
$DIMTXT
 40
3.5
  9
$DIMCEN
 40
2.5
  9
$DIMTSZ
 40
0.0
  9
$DIMTOL
 70
     0
  9
$DIMLIM
 70
     0
  9
$DIMTIH
 70
     1
  9
$DIMTOH
 70
     1
  9
$DIMSE1
 70
     0
  9
$DIMSE2
 70
     0
  9
$DIMTAD
 70
     1
  9
$DIMZIN
 70
     0
  9
$DIMBLK
  1

  9
$DIMASO
 70
     1
  9
$DIMSHO
 70
     1
  9
$DIMPOST
  1

  9
$DIMAPOST
  1

  9
$DIMALT
 70
     0
  9
$DIMALTD
 70
     3
  9
$DIMALTF
 40
0.0393700787401575
  9
$DIMLFAC
 40
1.0
  9
$DIMTOFL
 70
     1
  9
$DIMTVP
 40
0.0
  9
$DIMTIX
 70
     0
  9
$DIMSOXD
 70
     0
  9
$DIMSAH
 70
     0
  9
$DIMBLK1
  1

  9
$DIMBLK2
  1

  9
$DIMSTYLE
  2
ISO-25
  9
$DIMCLRD
 70
     0
  9
$DIMCLRE
 70
     0
  9
$DIMCLRT
 70
     0
  9
$DIMTFAC
 40
1.0
  9
$DIMGAP
 40
1.524
  9
$DIMJUST
 70
     0
  9
$DIMSD1
 70
     0
  9
$DIMSD2
 70
     0
  9
$DIMTOLJ
 70
     0
  9
$DIMTZIN
 70
     0
  9
$DIMALTZ
 70
     0
  9
$DIMALTTZ
 70
     0
  9
$DIMUPT
 70
     0
  9
$DIMDEC
 70
     2
  9
$DIMTDEC
 70
     2
  9
$DIMALTU
 70
     2
  9
$DIMALTTD
 70
     3
  9
$DIMTXSTY
  7
Standard
  9
$DIMAUNIT
 70
     0
  9
$DIMADEC
 70
     2
  9
$DIMALTRND
 40
0.0
  9
$DIMAZIN
 70
     0
  9
$DIMDSEP
 70
    44
  9
$DIMATFIT
 70
     3
  9
$DIMFRAC
 70
     0
  9
$DIMLDRBLK
  1

  9
$DIMLUNIT
 70
     2
  9
$DIMLWD
 70
    -2
  9
$DIMLWE
 70
    -2
  9
$DIMTMOVE
 70
     0
  9
$LUNITS
 70
     2
  9
$LUPREC
 70
     2
  9
$SKETCHINC
 40
1.0
  9
$FILLETRAD
 40
10.0
  9
$AUNITS
 70
     0
  9
$AUPREC
 70
     2
  9
$MENU
  1
.
  9
$ELEVATION
 40
0.0
  9
$PELEVATION
 40
0.0
  9
$THICKNESS
 40
0.0
  9
$LIMCHECK
 70
     0
  9
$CHAMFERA
 40
0.0
  9
$CHAMFERB
 40
0.0
  9
$CHAMFERC
 40
0.0
  9
$CHAMFERD
 40
0.0
  9
$SKPOLY
 70
     0
  9
$TDCREATE
 40
2458269.396312488
  9
$TDUCREATE
 40
2458269.021312488
  9
$TDUPDATE
 40
2458269.833860046
  9
$TDUUPDATE
 40
2458269.458860046
  9
$TDINDWG
 40
0.0014085648
  9
$TDUSRTIMER
 40
2458269.458713275
  9
$USRTIMER
 70
     1
  9
$ANGBASE
 50
0.0
  9
$ANGDIR
 70
     0
  9
$PDMODE
 70
     0
  9
$PDSIZE
 40
-1.0
  9
$PLINEWID
 40
0.0
  9
$SPLFRAME
 70
     0
  9
$SPLINETYPE
 70
     6
  9
$SPLINESEGS
 70
     8
  9
$HANDSEED
  5
160
  9
$SURFTAB1
 70
     6
  9
$SURFTAB2
 70
     6
  9
$SURFTYPE
 70
     6
  9
$SURFU
 70
     6
  9
$SURFV
 70
     6
  9
$UCSBASE
  2

  9
$UCSNAME
  2

  9
$UCSORG
 10
0.0
 20
0.0
 30
0.0
  9
$UCSXDIR
 10
1.0
 20
0.0
 30
0.0
  9
$UCSYDIR
 10
0.0
 20
1.0
 30
0.0
  9
$UCSORTHOREF
  2

  9
$UCSORTHOVIEW
 70
     0
  9
$UCSORGTOP
 10
0.0
 20
0.0
 30
0.0
  9
$UCSORGBOTTOM
 10
0.0
 20
0.0
 30
0.0
  9
$UCSORGLEFT
 10
0.0
 20
0.0
 30
0.0
  9
$UCSORGRIGHT
 10
0.0
 20
0.0
 30
0.0
  9
$UCSORGFRONT
 10
0.0
 20
0.0
 30
0.0
  9
$UCSORGBACK
 10
0.0
 20
0.0
 30
0.0
  9
$PUCSBASE
  2

  9
$PUCSNAME
  2

  9
$PUCSORG
 10
0.0
 20
0.0
 30
0.0
  9
$PUCSXDIR
 10
1.0
 20
0.0
 30
0.0
  9
$PUCSYDIR
 10
0.0
 20
1.0
 30
0.0
  9
$PUCSORTHOREF
  2

  9
$PUCSORTHOVIEW
 70
     0
  9
$PUCSORGTOP
 10
0.0
 20
0.0
 30
0.0
  9
$PUCSORGBOTTOM
 10
0.0
 20
0.0
 30
0.0
  9
$PUCSORGLEFT
 10
0.0
 20
0.0
 30
0.0
  9
$PUCSORGRIGHT
 10
0.0
 20
0.0
 30
0.0
  9
$PUCSORGFRONT
 10
0.0
 20
0.0
 30
0.0
  9
$PUCSORGBACK
 10
0.0
 20
0.0
 30
0.0
  9
$USERI1
 70
     0
  9
$USERI2
 70
     0
  9
$USERI3
 70
     0
  9
$USERI4
 70
     0
  9
$USERI5
 70
     0
  9
$USERR1
 40
0.0
  9
$USERR2
 40
0.0
  9
$USERR3
 40
0.0
  9
$USERR4
 40
0.0
  9
$USERR5
 40
0.0
  9
$WORLDVIEW
 70
     1
  9
$SHADEDGE
 70
     3
  9
$SHADEDIF
 70
    70
  9
$TILEMODE
 70
     1
  9
$MAXACTVP
 70
    64
  9
$PINSBASE
 10
0.0
 20
0.0
 30
0.0
  9
$PLIMCHECK
 70
     0
  9
$PEXTMIN
 10
1.000000000000000E+20
 20
1.000000000000000E+20
 30
1.000000000000000E+20
  9
$PEXTMAX
 10
-1.000000000000000E+20
 20
-1.000000000000000E+20
 30
-1.000000000000000E+20
  9
$PLIMMIN
 10
0.0
 20
0.0
  9
$PLIMMAX
 10
0.0
 20
0.0
  9
$UNITMODE
 70
     0
  9
$VISRETAIN
 70
     1
  9
$PLINEGEN
 70
     0
  9
$PSLTSCALE
 70
     1
  9
$TREEDEPTH
 70
  3020
  9
$CMLSTYLE
  2
Standard
  9
$CMLJUST
 70
     0
  9
$CMLSCALE
 40
20.0
  9
$PROXYGRAPHICS
 70
     1
  9
$MEASUREMENT
 70
     1
  9
$CELWEIGHT
370
    -1
  9
$ENDCAPS
280
     0
  9
$JOINSTYLE
280
     0
  9
$LWDISPLAY
290
     1
  9
$INSUNITS
 70
     4
  9
$HYPERLINKBASE
  1

  9
$STYLESHEET
  1

  9
$XEDIT
290
     1
  9
$CEPSNTYPE
380
     0
  9
$PSTYLEMODE
290
     1
  9
$FINGERPRINTGUID
  2
{9175365D-7D27-4F4B-B36A-3DC44E2A13CD}
  9
$VERSIONGUID
  2
{FAEB1C32-E019-11D5-929B-00C0DF256EC4}
  9
$EXTNAMES
290
     1
  9
$PSVPSCALE
 40
0.0
  9
$OLESTARTUP
290
     0
  0
ENDSEC
  0
SECTION
  2
CLASSES
  0
CLASS
  1
ACDBDICTIONARYWDFLT
  2
AcDbDictionaryWithDefault
  3
ObjectDBX Classes
 90
        0
280
     0
281
     0
  0
CLASS
  1
VISUALSTYLE
  2
AcDbVisualStyle
  3
ObjectDBX Classes
 90
     4095
280
     0
281
     0
  0
CLASS
  1
MATERIAL
  2
AcDbMaterial
  3
ObjectDBX Classes
 90
     1153
280
     0
281
     0
  0
CLASS
  1
SCALE
  2
AcDbScale
  3
ObjectDBX Classes
 90
     1153
280
     0
281
     0
  0
CLASS
  1
SUN
  2
AcDbSun
  3
SCENEOE
 90
     1153
280
     0
281
     0
  0
CLASS
  1
ACDBPLACEHOLDER
  2
AcDbPlaceHolder
  3
ObjectDBX Classes
 90
        0
280
     0
281
     0
  0
CLASS
  1
LAYOUT
  2
AcDbLayout
  3
ObjectDBX Classes
 90
        0
280
     0
281
     0
  0
CLASS
  1
TABLESTYLE
  2
AcDbTableStyle
  3
ObjectDBX Classes
 90
     4095
280
     0
281
     0
  0
CLASS
  1
MLEADERSTYLE
  2
AcDbMLeaderStyle
  3
ACDB_MLEADERSTYLE_CLASS
 90
     4095
280
     0
281
     0
  0
CLASS
  1
RASTERVARIABLES
  2
AcDbRasterVariables
  3
ISM
 90
        0
280
     0
281
     0
  0
CLASS
  1
DIMASSOC
  2
AcDbDimAssoc
  3
"AcDbDimAssoc|Product Desc:     AcDim ARX App For Dimension|Company:          Autodesk, Inc.|WEB Address:      www.autodesk.com"
 90
        0
280
     0
281
     0
  0
ENDSEC
  0
SECTION
  2
TABLES
  0
TABLE
  2
VPORT
  5
8
330
0
100
AcDbSymbolTable
 70
     1
  0
VPORT
  5
29
330
8
100
AcDbSymbolTableRecord
100
AcDbViewportTableRecord
  2
*Active
 70
     0
 10
0.0
 20
0.0
 11
1.0
 21
1.0
 12
20.31632662973467
 22
3.438551719399292
 13
0.0
 23
0.0
 14
10.0
 24
10.0
 15
10.0
 25
10.0
 16
0.0
 26
0.0
 36
1.0
 17
0.0
 27
0.0
 37
0.0
 40
86.73853451856257
 41
1.970186335403727
 42
50.0
 43
0.0
 44
0.0
 50
0.0
 51
0.0
 71
    16
 72
  2000
 73
     1
 74
     3
 75
     0
 76
     0
 77
     0
 78
     0
281
     0
 65
     1
110
0.0
120
0.0
130
0.0
111
1.0
121
0.0
131
0.0
112
0.0
122
1.0
132
0.0
 79
     0
146
0.0
  0
ENDTAB
  0
TABLE
  2
LTYPE
  5
5
330
0
100
AcDbSymbolTable
 70
     6
  0
LTYPE
  5
14
330
5
100
AcDbSymbolTableRecord
100
AcDbLinetypeTableRecord
  2
ByBlock
 70
     0
  3

 72
    65
 73
     0
 40
0.0
  0
LTYPE
  5
15
330
5
100
AcDbSymbolTableRecord
100
AcDbLinetypeTableRecord
  2
ByLayer
 70
     0
  3

 72
    65
 73
     0
 40
0.0
  0
LTYPE
  5
16
330
5
100
AcDbSymbolTableRecord
100
AcDbLinetypeTableRecord
  2
Continuous
 70
     0
  3
Solid line
 72
    65
 73
     0
 40
0.0
  0
LTYPE
  5
6A
330
5
100
AcDbSymbolTableRecord
100
AcDbLinetypeTableRecord
  2
HIDDEN
 70
     0
  3
Hidden __ __ __ __ __ __ __ __ __ __ __ __ __ __
 72
    65
 73
     2
 40
1.905
 49
1.27
 74
     0
 49
-0.635
 74
     0
  0
LTYPE
  5
6B
330
5
100
AcDbSymbolTableRecord
100
AcDbLinetypeTableRecord
  2
PHANTOM
 70
     0
  3
Phantom ______  __  __  ______  __  __  ______
 72
    65
 73
     6
 40
12.7
 49
6.35
 74
     0
 49
-1.27
 74
     0
 49
1.27
 74
     0
 49
-1.27
 74
     0
 49
1.27
 74
     0
 49
-1.27
 74
     0
  0
LTYPE
  5
6C
330
5
100
AcDbSymbolTableRecord
100
AcDbLinetypeTableRecord
  2
CENTER
 70
     0
  3
Center ____ _ ____ _ ____ _ ____ _ ____ _ ____
 72
    65
 73
     4
 40
10.16
 49
6.35
 74
     0
 49
-1.27
 74
     0
 49
1.27
 74
     0
 49
-1.27
 74
     0
  0
LTYPE
  5
6D
330
5
100
AcDbSymbolTableRecord
100
AcDbLinetypeTableRecord
  2
CENTERX2
 70
     0
  3
Center (2x) ________  __  ________  __  _____
 72
    65
 73
     4
 40
20.32
 49
12.7
 74
     0
 49
-2.54
 74
     0
 49
2.54
 74
     0
 49
-2.54
 74
     0
  0
LTYPE
  5
6E
330
5
100
AcDbSymbolTableRecord
100
AcDbLinetypeTableRecord
  2
DOT2
 70
     0
  3
Dot (.5x) ........................................
 72
    65
 73
     2
 40
0.635
 49
0.0
 74
     0
 49
-0.635
 74
     0
  0
ENDTAB
  0
TABLE
  2
LAYER
  5
2
330
0
100
AcDbSymbolTable
 70
    17
  0
LAYER
  5
10
330
2
100
AcDbSymbolTableRecord
100
AcDbLayerTableRecord
  2
0
 70
     0
 62
     7
  6
Continuous
370
    -3
390
F
  0
LAYER
  5
6F
330
2
100
AcDbSymbolTableRecord
100
AcDbLayerTableRecord
  2
FORMAT
 70
     0
 62
     2
  6
Continuous
370
    -3
390
F
  0
LAYER
  5
70
330
2
100
AcDbSymbolTableRecord
100
AcDbLayerTableRecord
  2
외형선
 70
     0
 62
   100
  6
Continuous
370
    30
390
F
  0
LAYER
  5
71
330
2
100
AcDbSymbolTableRecord
100
AcDbLayerTableRecord
  2
숨은선
 70
     0
 62
     2
  6
HIDDEN
370
    15
390
F
  0
LAYER
  5
72
330
2
100
AcDbSymbolTableRecord
100
AcDbLayerTableRecord
  2
중심선
 70
     0
 62
     1
  6
CENTERX2
370
    -3
390
F
  0
LAYER
  5
73
330
2
100
AcDbSymbolTableRecord
100
AcDbLayerTableRecord
  2
파단선
 70
     0
 62
     4
  6
Continuous
370
    -3
390
F
  0
LAYER
  5
74
330
2
100
AcDbSymbolTableRecord
100
AcDbLayerTableRecord
  2
해칭선
 70
     0
 62
     4
  6
Continuous
370
    -3
390
F
  0
LAYER
  5
75
330
2
100
AcDbSymbolTableRecord
100
AcDbLayerTableRecord
  2
가는실선
 70
     0
 62
     4
  6
Continuous
370
    -3
390
F
  0
LAYER
  5
76
330
2
100
AcDbSymbolTableRecord
100
AcDbLayerTableRecord
  2
치수_보조선
 70
     0
 62
     4
  6
Continuous
370
    -3
390
F
  0
LAYER
  5
77
330
2
100
AcDbSymbolTableRecord
100
AcDbLayerTableRecord
  2
치수문자_일반주서
 70
     0
 62
     7
  6
Continuous
370
    15
390
F
  0
LAYER
  5
78
330
2
100
AcDbSymbolTableRecord
100
AcDbLayerTableRecord
  2
개별주서
 70
     0
 62
   100
  6
Continuous
370
    30
390
F
  0
LAYER
  5
79
330
2
100
AcDbSymbolTableRecord
100
AcDbLayerTableRecord
  2
중간선
 70
     0
 62
     2
  6
Continuous
370
    15
390
F
  0
LAYER
  5
7A
330
2
100
AcDbSymbolTableRecord
100
AcDbLayerTableRecord
  2
윤곽선
 70
     0
 62
     3
  6
Continuous
370
    40
390
F
  0
LAYER
  5
7B
330
2
100
AcDbSymbolTableRecord
100
AcDbLayerTableRecord
  2
중심마크
 70
     0
 62
   100
  6
Continuous
370
    30
390
F
  0
LAYER
  5
7C
330
2
100
AcDbSymbolTableRecord
100
AcDbLayerTableRecord
  2
가상선
 70
     0
 62
     4
  6
PHANTOM
370
    -3
390
F
  0
LAYER
  5
7D
330
2
100
AcDbSymbolTableRecord
100
AcDbLayerTableRecord
  2
특수지정선
 70
     0
 62
     5
  6
CENTERX2
370
    60
390
F
  0
LAYER
  5
147
330
2
100
AcDbSymbolTableRecord
100
AcDbLayerTableRecord
  2
Defpoints
 70
     0
 62
     7
  6
Continuous
290
     0
370
    -3
390
F
  0
ENDTAB
  0
TABLE
  2
STYLE
  5
3
330
0
100
AcDbSymbolTable
 70
     2
  0
STYLE
  5
11
330
3
100
AcDbSymbolTableRecord
100
AcDbTextStyleTableRecord
  2
Standard
 70
     0
 40
0.0
 41
1.0
 50
0.0
 71
     0
 42
3.5
  3
txt
  4

  0
STYLE
  5
93
330
3
100
AcDbSymbolTableRecord
100
AcDbTextStyleTableRecord
  2
SLDTEXTSTYLE0
 70
     0
 40
0.0
 41
0.75
 50
0.0
 71
     0
 42
3.5
  3
TXT
  4

  0
ENDTAB
  0
TABLE
  2
VIEW
  5
6
330
0
100
AcDbSymbolTable
 70
     0
  0
ENDTAB
  0
TABLE
  2
UCS
  5
7
330
0
100
AcDbSymbolTable
 70
     0
  0
ENDTAB
  0
TABLE
  2
APPID
  5
9
330
0
100
AcDbSymbolTable
 70
     2
  0
APPID
  5
12
330
9
100
AcDbSymbolTableRecord
100
AcDbRegAppTableRecord
  2
ACAD
 70
     0
  0
APPID
  5
15E
330
9
100
AcDbSymbolTableRecord
100
AcDbRegAppTableRecord
  2
PE_DIMMEASUREMENT
 70
     0
  0
ENDTAB
  0
TABLE
  2
DIMSTYLE
  5
A
330
0
100
AcDbSymbolTable
 70
     4
100
AcDbDimStyleTable
  0
DIMSTYLE
105
27
330
A
100
AcDbSymbolTableRecord
100
AcDbDimStyleTableRecord
  2
ISO-25
 70
     0
 41
2.5
 42
0.625
 43
3.75
 44
1.25
 73
     0
 74
     0
 77
     1
 78
     8
140
2.5
141
2.5
143
0.03937007874016
147
0.625
171
     3
172
     1
178
     0
271
     2
272
     2
274
     3
278
    44
283
     0
284
     8
340
11
  0
DIMSTYLE
105
D3
330
A
100
AcDbSymbolTableRecord
100
AcDbDimStyleTableRecord
  2
SLDDIMSTYLE0
 70
     0
 41
3.302
 44
0.0
 45
0.000000001
 73
     0
 74
     0
 77
     1
 78
    12
 79
     3
140
3.5
147
0.875
173
     1
178
     0
271
     2
272
     2
276
     2
284
    12
340
93
  0
DIMSTYLE
105
DE
102
{ACAD_REACTORS
330
DD
330
F1
102
}
330
A
100
AcDbSymbolTableRecord
100
AcDbDimStyleTableRecord
  2
SLDDIMSTYLE1
 70
     0
 41
3.302
 44
0.0
 45
0.000000001
 73
     0
 74
     0
 77
     1
 78
     4
 79
     1
140
3.5
143
0.0393700787401575
147
0.875
148
0.000000001
170
     1
173
     1
178
     0
271
     2
272
     2
276
     2
284
    12
340
93
  0
DIMSTYLE
105
105
102
{ACAD_REACTORS
330
104
330
148
102
}
330
A
100
AcDbSymbolTableRecord
100
AcDbDimStyleTableRecord
  2
SLDDIMSTYLE2
 70
     0
 41
3.302
 44
0.0
 45
0.000000001
 73
     0
 74
     0
 77
     1
 78
    12
 79
     3
140
3.5
143
0.0393700787401575
147
0.875
148
0.000000001
170
     1
172
     1
173
     1
178
     0
271
     2
272
     2
276
     2
284
    12
289
     0
340
93
  0
ENDTAB
  0
TABLE
  2
BLOCK_RECORD
  5
1
330
0
100
AcDbSymbolTable
 70
     8
  0
BLOCK_RECORD
  5
1F
330
1
100
AcDbSymbolTableRecord
100
AcDbBlockTableRecord
  2
*Model_Space
340
22
  0
BLOCK_RECORD
  5
1B
330
1
100
AcDbSymbolTableRecord
100
AcDbBlockTableRecord
  2
*Paper_Space
340
1E
  0
BLOCK_RECORD
  5
23
330
1
100
AcDbSymbolTableRecord
100
AcDbBlockTableRecord
  2
*Paper_Space0
340
26
  0
BLOCK_RECORD
  5
7E
330
1
100
AcDbSymbolTableRecord
100
AcDbBlockTableRecord
  2
블럭10
340
0
102
{BLKREFS
331
CA
102
}
  0
BLOCK_RECORD
  5
D4
330
1
100
AcDbSymbolTableRecord
100
AcDbBlockTableRecord
  2
_D
340
0
  0
BLOCK_RECORD
  5
DF
330
1
100
AcDbSymbolTableRecord
100
AcDbBlockTableRecord
  2
_D_1
340
0
  0
BLOCK_RECORD
  5
F2
330
1
100
AcDbSymbolTableRecord
100
AcDbBlockTableRecord
  2
_D_2
340
0
  0
BLOCK_RECORD
  5
106
330
1
100
AcDbSymbolTableRecord
100
AcDbBlockTableRecord
  2
_D_3
340
0
  0
BLOCK_RECORD
  5
119
330
1
100
AcDbSymbolTableRecord
100
AcDbBlockTableRecord
  2
SW_DOWELSYMBOL_0
340
0
102
{BLKREFS
331
11F
102
}
  0
BLOCK_RECORD
  5
14B
330
1
100
AcDbSymbolTableRecord
100
AcDbBlockTableRecord
  2
*D7
340
0
  0
ENDTAB
  0
ENDSEC
  0
SECTION
  2
BLOCKS
  0
BLOCK
  5
20
330
1F
100
AcDbEntity
  8
0
100
AcDbBlockBegin
  2
*Model_Space
 70
     0
 10
0.0
 20
0.0
 30
0.0
  3
*Model_Space
  1
*Model_Space
  0
ENDBLK
  5
21
330
1F
100
AcDbEntity
  8
0
100
AcDbBlockEnd
  0
BLOCK
  5
1C
330
1B
100
AcDbEntity
 67
     1
  8
0
100
AcDbBlockBegin
  2
*Paper_Space
 70
     0
 10
0.0
 20
0.0
 30
0.0
  3
*Paper_Space
  1
*Paper_Space
  0
ENDBLK
  5
1D
330
1B
100
AcDbEntity
 67
     1
  8
0
100
AcDbBlockEnd
  0
BLOCK
  5
24
330
23
100
AcDbEntity
  8
0
100
AcDbBlockBegin
  2
*Paper_Space0
 70
     0
 10
0.0
 20
0.0
 30
0.0
  3
*Paper_Space0
  1
*Paper_Space0
  0
ENDBLK
  5
25
330
23
100
AcDbEntity
  8
0
100
AcDbBlockEnd
  0
BLOCK
  5
7F
330
7E
100
AcDbEntity
  8
0
100
AcDbBlockBegin
  2
블럭10
 70
     2
 10
0.0
 20
0.0
 30
0.0
  3
블럭10
  1
블럭10
  0
ELLIPSE
  5
81
330
7E
100
AcDbEntity
  8
중심선
100
AcDbEllipse
 10
20.54032771741204
 20
12.0471743016438
 30
0.0
 11
6.600054785286829
 21
-1.261213355974178E-13
 31
0.0
210
0.0
220
0.0
230
1.0
 40
0.636358354079598
 41
0.9219305317359503
 42
6.513795318482858
  0
ELLIPSE
  5
82
330
7E
100
AcDbEntity
  8
중심선
100
AcDbEllipse
 10
20.54032771746488
 20
12.04717430159265
 30
0.0
 11
3.960054785062283
 21
1.540847449632565E-10
 31
0.0
210
0.0
220
0.0
230
1.0
 40
0.3939339440162632
 41
1.131841032648279
 42
5.62031148352944
  0
LINE
  5
83
330
7E
100
AcDbEntity
  8
중심선
100
AcDbLine
 10
2.268634060543552
 20
16.24717430164393
 30
0.0
 11
5.714909304380834
 21
16.24717430164393
 31
0.0
  0
LINE
  5
84
330
7E
100
AcDbEntity
  8
중심선
100
AcDbLine
 10
5.245725140726316
 20
7.84717430164391
 30
0.0
 11
8.692000384563599
 21
7.84717430164391
 31
0.0
  0
LINE
  5
85
330
7E
100
AcDbEntity
  8
중심선
100
AcDbLine
 10
15.74043728645272
 20
16.24717430164393
 30
0.0
 11
8.692000384563599
 21
7.84717430164391
 31
0.0
  0
LINE
  5
86
330
7E
100
AcDbEntity
  8
중심선
100
AcDbLine
 10
0.1404042013395286
 20
13.71084872107135
 30
0.0
 11
3.58671253028996
 21
13.71088815037384
 31
0.0
  0
LINE
  5
87
330
7E
100
AcDbEntity
  8
중심선
100
AcDbLine
 10
2.750260043222114
 20
10.84717430164391
 30
0.0
 11
6.196535287059397
 21
10.84717430164391
 31
0.0
  0
LINE
  5
88
330
7E
100
AcDbEntity
  8
중심선
100
AcDbLine
 10
12.29416204261559
 20
16.24717430164393
 30
0.0
 11
5.245725140726316
 21
7.84717430164391
 31
0.0
  0
LINE
  5
89
330
7E
100
AcDbEntity
  8
중심선
100
AcDbLine
 10
10.72767329541681
 20
16.24717430164393
 30
0.0
 11
6.196535287059397
 21
10.84717430164391
 31
0.0
  0
LINE
  5
8A
330
7E
100
AcDbEntity
  8
중심선
100
AcDbLine
 10
7.28139805157953
 20
16.24717430164393
 30
0.0
 11
2.750260043222114
 21
10.84717430164391
 31
0.0
  0
LINE
  5
8B
330
7E
100
AcDbEntity
  8
중심선
100
AcDbLine
 10
5.714909304380834
 20
16.24717430164393
 30
0.0
 11
3.58671253028996
 21
13.71088815037384
 31
0.0
  0
LINE
  5
8C
330
7E
100
AcDbEntity
  8
중심선
100
AcDbLine
 10
2.268634060543552
 20
16.24717430164393
 30
0.0
 11
0.1404042013395286
 21
13.71084872107135
 31
0.0
  0
LINE
  5
8D
330
7E
100
AcDbEntity
  8
중심선
100
AcDbLine
 10
7.28139805157953
 20
16.24717430164393
 30
0.0
 11
10.72767329541681
 21
16.24717430164393
 31
0.0
  0
LINE
  5
8E
330
7E
100
AcDbEntity
  8
중심선
100
AcDbLine
 10
12.29416204261559
 20
16.24717430164393
 30
0.0
 11
15.74043728645272
 21
16.24717430164393
 31
0.0
  0
LINE
  5
8F
330
7E
100
AcDbEntity
  8
중심선
100
AcDbLine
 10
19.22036997980202
 20
11.08717430171403
 30
0.0
 11
23.66174974927406
 21
11.08717430171406
 31
0.0
  0
LINE
  5
90
330
7E
100
AcDbEntity
  8
중심선
100
AcDbLine
 10
19.22039502424796
 20
13.00717430171391
 30
0.0
 11
19.22036997980202
 21
11.08717430171403
 31
0.0
  0
LINE
  5
91
330
7E
100
AcDbEntity
  8
중심선
100
AcDbLine
 10
19.22039502424796
 20
13.00717430171391
 30
0.0
 11
26.96566020931264
 21
13.00717430171391
 31
0.0
  0
LINE
  5
92
330
7E
100
AcDbEntity
  8
중심선
100
AcDbLine
 10
22.22332737316547
 20
13.45928029700563
 30
0.0
 11
24.52862924686651
 21
15.39360700705356
 31
0.0
  0
ATTDEF
  5
94
330
7E
100
AcDbEntity
  8
FORMAT
 62
     2
100
AcDbText
 10
-9.18129528874128
 20
2.075366912832191
 30
0.0
 40
4.233333333333333
  1
E5982024 [ 3 FLUTE ]
 41
0.75
  7
SLDTEXTSTYLE0
 11
-9.18129528874128
 21
-0.0412997538344756
 31
0.0
100
AcDbAttributeDefinition
  3

  2
AUTOATTR0
 70
     0
 74
     1
  0
ENDBLK
  5
80
330
7E
100
AcDbEntity
  8
0
100
AcDbBlockEnd
  0
BLOCK
  5
D5
330
D4
100
AcDbEntity
  8
0
100
AcDbBlockBegin
  2
_D
 70
     0
 10
0.0
 20
0.0
 30
0.0
  3
_D
  1
_D
  0
SOLID
  5
D7
330
D4
100
AcDbEntity
  8
치수문자_일반주서
100
AcDbTrace
 10
-43.3
 20
-0.5038188711305914
 30
0.0
 11
-39.998
 21
-1.011818871130592
 31
0.0
 12
-39.998
 22
0.0041811288694086
 32
0.0
 13
-39.998
 23
0.0041811288694086
 33
0.0
  0
SOLID
  5
D8
330
D4
100
AcDbEntity
  8
치수문자_일반주서
100
AcDbTrace
 10
28.16254243902305
 20
-0.5038188711305871
 30
0.0
 11
24.86054243902305
 21
0.0041811288694129
 31
0.0
 12
24.86054243902305
 22
-1.011818871130587
 32
0.0
 13
24.86054243902305
 23
-1.011818871130587
 33
0.0
  0
LINE
  5
D9
330
D4
100
AcDbEntity
  8
치수문자_일반주서
100
AcDbLine
 10
-43.3
 20
-1.0
 30
0.0
 11
-43.3
 21
-1.503818871130591
 31
0.0
  0
LINE
  5
DA
330
D4
100
AcDbEntity
  8
치수문자_일반주서
100
AcDbLine
 10
28.16254243902305
 20
-1.0
 30
0.0
 11
28.16254243902305
 21
-1.503818871130587
 31
0.0
  0
LINE
  5
DB
330
D4
100
AcDbEntity
  8
치수문자_일반주서
100
AcDbLine
 10
-43.3
 20
-0.5038188711305914
 30
0.0
 11
28.16254243902305
 21
-0.5038188711305871
 31
0.0
  0
MTEXT
  5
DC
330
D4
100
AcDbEntity
  8
치수문자_일반주서
100
AcDbMText
 10
16.97950331063597
 20
4.007918043448307
 30
0.0
 40
3.5
 41
0.0
 71
     1
 72
     1
  1
71.46
  7
SLDTEXTSTYLE0
 73
     1
 44
1.0
  0
ENDBLK
  5
D6
330
D4
100
AcDbEntity
  8
0
100
AcDbBlockEnd
  0
BLOCK
  5
E0
330
DF
100
AcDbEntity
  8
0
100
AcDbBlockBegin
  2
_D_1
 70
     0
 10
0.0
 20
0.0
 30
0.0
  3
_D_1
  1
_D_1
  0
LINE
  5
E2
330
DF
100
AcDbEntity
  8
치수문자_일반주서
 62
     0
370
    -2
100
AcDbLine
 10
48.10000000000616
 20
4.82500000000002
 30
0.0
 11
48.10000000000616
 21
25.37591845233051
 31
0.0
  0
LINE
  5
E3
330
DF
100
AcDbEntity
  8
치수문자_일반주서
 62
     0
370
    -2
100
AcDbLine
 10
10.00000000000616
 20
4.825000000000016
 30
0.0
 11
10.00000000000616
 21
25.37591845233051
 31
0.0
  0
LINE
  5
E4
330
DF
100
AcDbEntity
  8
치수문자_일반주서
 62
     0
370
    -2
100
AcDbLine
 10
44.79800000000616
 20
25.37591845233051
 30
0.0
 11
13.30200000000616
 21
25.37591845233051
 31
0.0
  0
SOLID
  5
E5
330
DF
100
AcDbEntity
  8
치수문자_일반주서
 62
     0
100
AcDbTrace
 10
44.79800000000616
 20
24.82558511899718
 30
0.0
 11
44.79800000000616
 21
25.92625178566385
 31
0.0
 12
48.10000000000616
 22
25.37591845233051
 32
0.0
 13
48.10000000000616
 23
25.37591845233051
 33
0.0
  0
SOLID
  5
E6
330
DF
100
AcDbEntity
  8
치수문자_일반주서
 62
     0
100
AcDbTrace
 10
13.30200000000616
 20
25.92625178566385
 30
0.0
 11
13.30200000000616
 21
24.82558511899718
 31
0.0
 12
10.00000000000616
 22
25.37591845233051
 32
0.0
 13
10.00000000000616
 23
25.37591845233051
 33
0.0
  0
MTEXT
  5
E7
330
DF
100
AcDbEntity
  8
치수문자_일반주서
 62
     0
100
AcDbMText
 10
29.05000000000615
 20
29.75091845233051
 30
0.0
 40
3.5
 41
0.0
 71
     2
 72
     1
  1
\A1;38.10 [1 1/2]
  7
SLDTEXTSTYLE0
 73
     1
 44
1.0
  0
POINT
  5
E8
330
DF
100
AcDbEntity
  8
Defpoints
 62
     0
100
AcDbPoint
 10
48.10000000000616
 20
4.76250000000002
 30
0.0
  0
POINT
  5
E9
330
DF
100
AcDbEntity
  8
Defpoints
 62
     0
100
AcDbPoint
 10
10.00000000000616
 20
4.762500000000016
 30
0.0
  0
POINT
  5
EA
330
DF
100
AcDbEntity
  8
Defpoints
 62
     0
100
AcDbPoint
 10
10.00000000000616
 20
25.37591845233051
 30
0.0
  0
ENDBLK
  5
E1
330
DF
100
AcDbEntity
  8
0
100
AcDbBlockEnd
  0
BLOCK
  5
F3
330
F2
100
AcDbEntity
  8
0
100
AcDbBlockBegin
  2
_D_2
 70
     0
 10
0.0
 20
0.0
 30
0.0
  3
_D_2
  1
_D_2
  0
LINE
  5
F5
330
F2
100
AcDbEntity
  8
치수문자_일반주서
 62
     0
370
    -2
100
AcDbLine
 10
48.10000000000616
 20
4.82500000000002
 30
0.0
 11
48.10000000000616
 21
43.39860365728745
 31
0.0
  0
LINE
  5
F6
330
F2
100
AcDbEntity
  8
치수문자_일반주서
 62
     0
370
    -2
100
AcDbLine
 10
-40.79999999999384
 20
4.325000000000009
 30
0.0
 11
-40.79999999999384
 21
43.39860365728745
 31
0.0
  0
LINE
  5
F7
330
F2
100
AcDbEntity
  8
치수문자_일반주서
 62
     0
370
    -2
100
AcDbLine
 10
44.79800000000616
 20
43.39860365728745
 30
0.0
 11
-37.49799999999384
 21
43.39860365728745
 31
0.0
  0
SOLID
  5
F8
330
F2
100
AcDbEntity
  8
치수문자_일반주서
 62
     0
100
AcDbTrace
 10
44.79800000000616
 20
42.84827032395412
 30
0.0
 11
44.79800000000616
 21
43.94893699062079
 31
0.0
 12
48.10000000000616
 22
43.39860365728745
 32
0.0
 13
48.10000000000616
 23
43.39860365728745
 33
0.0
  0
SOLID
  5
F9
330
F2
100
AcDbEntity
  8
치수문자_일반주서
 62
     0
100
AcDbTrace
 10
-37.49799999999384
 20
43.94893699062079
 30
0.0
 11
-37.49799999999384
 21
42.84827032395412
 31
0.0
 12
-40.79999999999384
 22
43.39860365728745
 32
0.0
 13
-40.79999999999384
 23
43.39860365728745
 33
0.0
  0
MTEXT
  5
FA
330
F2
100
AcDbEntity
  8
치수문자_일반주서
 62
     0
100
AcDbMText
 10
3.650000000006155
 20
47.77360365728745
 30
0.0
 40
3.5
 41
0.0
 71
     2
 72
     1
  1
\A1;88.90 [3 1/2]
  7
SLDTEXTSTYLE0
 73
     1
 44
1.0
  0
POINT
  5
FB
330
F2
100
AcDbEntity
  8
Defpoints
 62
     0
100
AcDbPoint
 10
48.10000000000616
 20
4.76250000000002
 30
0.0
  0
POINT
  5
FC
330
F2
100
AcDbEntity
  8
Defpoints
 62
     0
100
AcDbPoint
 10
-40.79999999999384
 20
4.262500000000009
 30
0.0
  0
POINT
  5
FD
330
F2
100
AcDbEntity
  8
Defpoints
 62
     0
100
AcDbPoint
 10
-40.79999999999384
 20
43.39860365728745
 30
0.0
  0
ENDBLK
  5
F4
330
F2
100
AcDbEntity
  8
0
100
AcDbBlockEnd
  0
BLOCK
  5
107
330
106
100
AcDbEntity
  8
0
100
AcDbBlockBegin
  2
_D_3
 70
     0
 10
0.0
 20
0.0
 30
0.0
  3
_D_3
  1
_D_3
  0
LINE
  5
109
330
106
100
AcDbEntity
  8
치수문자_일반주서
 62
     0
370
    -2
100
AcDbLine
 10
-40.36249999999384
 20
4.762500000000014
 30
0.0
 11
-49.50160442485273
 21
4.762499999999978
 31
0.0
  0
LINE
  5
10A
330
106
100
AcDbEntity
  8
치수문자_일반주서
 62
     0
370
    -2
100
AcDbLine
 10
-40.36249999999384
 20
-4.762499999999987
 30
0.0
 11
-49.50160442485269
 21
-4.762500000000024
 31
0.0
  0
LINE
  5
10B
330
106
100
AcDbEntity
  8
치수문자_일반주서
 62
     0
370
    -2
100
AcDbLine
 10
-49.50160442485273
 20
4.762499999999978
 30
0.0
 11
-49.50160442485285
 21
37.83524999999998
 31
0.0
  0
LINE
  5
10C
330
106
100
AcDbEntity
  8
치수문자_일반주서
 62
     0
370
    -2
100
AcDbLine
 10
-49.50160442485273
 20
4.762499999999978
 30
0.0
 11
-49.50160442485269
 21
-4.762500000000024
 31
0.0
  0
LINE
  5
10D
330
106
100
AcDbEntity
  8
치수문자_일반주서
 62
     0
370
    -2
100
AcDbLine
 10
-49.50160442485274
 20
8.064499999999978
 30
0.0
 11
-49.50160442485276
 21
11.36649999999998
 31
0.0
  0
LINE
  5
10E
330
106
100
AcDbEntity
  8
치수문자_일반주서
 62
     0
370
    -2
100
AcDbLine
 10
-49.50160442485268
 20
-8.064500000000024
 30
0.0
 11
-49.50160442485267
 21
-11.36650000000002
 31
0.0
  0
SOLID
  5
10F
330
106
100
AcDbEntity
  8
치수문자_일반주서
 62
     0
100
AcDbTrace
 10
-50.05193775818608
 20
8.064499999999976
 30
0.0
 11
-48.95127109151941
 21
8.06449999999998
 31
0.0
 12
-49.50160442485273
 22
4.762499999999978
 32
0.0
 13
-49.50160442485273
 23
4.762499999999978
 33
0.0
  0
SOLID
  5
110
330
106
100
AcDbEntity
  8
치수문자_일반주서
 62
     0
100
AcDbTrace
 10
-48.95127109151935
 20
-8.064500000000022
 30
0.0
 11
-50.05193775818601
 21
-8.064500000000026
 31
0.0
 12
-49.50160442485269
 22
-4.762500000000024
 32
0.0
 13
-49.50160442485269
 23
-4.762500000000024
 33
0.0
  0
MTEXT
  5
111
330
106
100
AcDbEntity
  8
치수문자_일반주서
 62
     0
100
AcDbMText
 10
-53.8766044248528
 20
24.71024999999996
 30
0.0
 40
3.5
 41
0.0
 71
     2
 72
     1
  1
\A1;%%c9.53 [3/8]
  7
SLDTEXTSTYLE0
 11
-3.729883127349607E-15
 21
1.0
 31
0.0
 73
     1
 44
1.0
  0
POINT
  5
112
330
106
100
AcDbEntity
  8
Defpoints
 62
     0
100
AcDbPoint
 10
-40.29999999999384
 20
4.762500000000014
 30
0.0
  0
POINT
  5
113
330
106
100
AcDbEntity
  8
Defpoints
 62
     0
100
AcDbPoint
 10
-40.29999999999384
 20
-4.762499999999987
 30
0.0
  0
POINT
  5
114
330
106
100
AcDbEntity
  8
Defpoints
 62
     0
100
AcDbPoint
 10
-49.50160442485269
 20
-4.762500000000021
 30
0.0
  0
ENDBLK
  5
108
330
106
100
AcDbEntity
  8
0
100
AcDbBlockEnd
  0
BLOCK
  5
11A
330
119
100
AcDbEntity
  8
0
100
AcDbBlockBegin
  2
SW_DOWELSYMBOL_0
 70
     0
 10
0.0
 20
0.0
 30
0.0
  3
SW_DOWELSYMBOL_0
  1
SW_DOWELSYMBOL_0
  0
CIRCLE
  5
11C
330
119
100
AcDbEntity
  8
외형선
 62
     0
100
AcDbCircle
 10
0.0
 20
0.0
 30
0.0
 40
3.000000000000008
  0
HATCH
  5
11D
330
119
100
AcDbEntity
  8
0
  6
Continuous
 62
     0
370
    30
100
AcDbHatch
 10
0.0
 20
0.0
 30
0.0
210
0.0
220
0.0
230
1.0
  2
SOLID
 70
     1
 71
     0
 91
        1
 92
        0
 93
        3
 72
     2
 10
0.0
 20
0.0
 40
3.000000000000008
 50
0.0
 51
90.0
 73
     1
 72
     1
 10
0.0
 20
3.000000000000008
 11
0.0
 21
0.0
 72
     1
 10
0.0
 20
0.0
 11
3.000000000000008
 21
0.0
 97
        0
 75
     0
 76
     1
 98
        1
 10
0.0
 20
0.0
  0
HATCH
  5
11E
330
119
100
AcDbEntity
  8
0
  6
Continuous
 62
     0
370
    30
100
AcDbHatch
 10
0.0
 20
0.0
 30
0.0
210
0.0
220
0.0
230
1.0
  2
SOLID
 70
     1
 71
     0
 91
        1
 92
        0
 93
        3
 72
     2
 10
0.0
 20
0.0
 40
3.000000000000008
 50
180.0
 51
270.0000000000008
 73
     1
 72
     1
 10
0.0
 20
-3.000000000000008
 11
0.0
 21
0.0
 72
     1
 10
0.0
 20
0.0
 11
-3.000000000000008
 21
0.0
 97
        0
 75
     0
 76
     1
 98
        1
 10
0.0
 20
0.0
  0
ENDBLK
  5
11B
330
119
100
AcDbEntity
  8
0
100
AcDbBlockEnd
  0
BLOCK
  5
14C
330
14B
100
AcDbEntity
  8
0
100
AcDbBlockBegin
  2
*D7
 70
     1
 10
0.0
 20
0.0
 30
0.0
  3
*D7
  1
*D7
  0
LINE
  5
14E
330
14B
100
AcDbEntity
  8
치수문자_일반주서
 62
     0
370
    -2
100
AcDbLine
 10
48.16250000000616
 20
-4.762499999999984
 30
0.0
 11
56.44435531179073
 21
-4.762499999999983
 31
0.0
  0
LINE
  5
14F
330
14B
100
AcDbEntity
  8
치수문자_일반주서
 62
     0
370
    -2
100
AcDbLine
 10
48.16250000000616
 20
4.76250000000002
 30
0.0
 11
56.44435531179073
 21
4.762500000000019
 31
0.0
  0
LINE
  5
150
330
14B
100
AcDbEntity
  8
치수문자_일반주서
 62
     0
370
    -2
100
AcDbLine
 10
56.44435531179073
 20
8.064500000000018
 30
0.0
 11
56.44435531179073
 21
37.61650000000002
 31
0.0
  0
LINE
  5
151
330
14B
100
AcDbEntity
  8
치수문자_일반주서
 62
     0
370
    -2
100
AcDbLine
 10
56.44435531179073
 20
-4.762499999999983
 30
0.0
 11
56.44435531179073
 21
4.762500000000019
 31
0.0
  0
LINE
  5
152
330
14B
100
AcDbEntity
  8
치수문자_일반주서
 62
     0
370
    -2
100
AcDbLine
 10
56.44435531179073
 20
-8.064499999999983
 30
0.0
 11
56.44435531179073
 21
-11.36649999999998
 31
0.0
  0
SOLID
  5
153
330
14B
100
AcDbEntity
  8
치수문자_일반주서
 62
     0
100
AcDbTrace
 10
56.99468864512406
 20
-8.064499999999983
 30
0.0
 11
55.8940219784574
 21
-8.064499999999983
 31
0.0
 12
56.44435531179073
 22
-4.762499999999983
 32
0.0
 13
56.44435531179073
 23
-4.762499999999983
 33
0.0
  0
SOLID
  5
154
330
14B
100
AcDbEntity
  8
치수문자_일반주서
 62
     0
100
AcDbTrace
 10
55.8940219784574
 20
8.064500000000018
 30
0.0
 11
56.99468864512406
 21
8.064500000000018
 31
0.0
 12
56.44435531179073
 22
4.762500000000019
 32
0.0
 13
56.44435531179073
 23
4.762500000000019
 33
0.0
  0
MTEXT
  5
155
330
14B
100
AcDbEntity
  8
치수문자_일반주서
 62
     0
100
AcDbMText
 10
53.81935531179073
 20
24.49150000000002
 30
0.0
 40
3.5
 41
0.0
 71
     5
 72
     1
  1
\A1;{Ø9.53 [3/8]}
  7
SLDTEXTSTYLE0
 11
0.0
 21
1.0
 31
0.0
 73
     1
 44
1.0
  0
POINT
  5
156
330
14B
100
AcDbEntity
  8
Defpoints
 62
     0
100
AcDbPoint
 10
48.10000000000616
 20
-4.762499999999984
 30
0.0
  0
POINT
  5
157
330
14B
100
AcDbEntity
  8
Defpoints
 62
     0
100
AcDbPoint
 10
48.10000000000616
 20
4.76250000000002
 30
0.0
  0
POINT
  5
158
330
14B
100
AcDbEntity
  8
Defpoints
 62
     0
100
AcDbPoint
 10
56.44435531179073
 20
4.762500000000019
 30
0.0
  0
ENDBLK
  5
14D
330
14B
100
AcDbEntity
  8
0
100
AcDbBlockEnd
  0
ENDSEC
  0
SECTION
  2
ENTITIES
  0
LINE
  5
95
330
1F
100
AcDbEntity
  8
0
  6
Continuous
 62
     4
370
    15
100
AcDbLine
 10
10.00000000000616
 20
4.762500000000016
 30
0.0
 11
-40.29999999999384
 21
4.762500000000014
 31
0.0
  0
LINE
  5
96
330
1F
100
AcDbEntity
  8
0
  6
Continuous
 62
     4
370
    15
100
AcDbLine
 10
-40.29999999999384
 20
-4.762499999999987
 30
0.0
 11
8.480409939280301
 21
-4.762499999999984
 31
0.0
  0
LINE
  5
97
330
1F
100
AcDbEntity
  8
0
  6
Continuous
 62
     4
370
    15
100
AcDbLine
 10
-40.29999999999384
 20
4.76250000000001
 30
0.0
 11
-40.79999999999384
 21
4.262500000000009
 31
0.0
  0
LINE
  5
98
330
1F
100
AcDbEntity
  8
0
  6
Continuous
 62
     4
370
    15
100
AcDbLine
 10
-40.79999999999384
 20
-4.262499999999985
 30
0.0
 11
-40.29999999999384
 21
-4.762499999999983
 31
0.0
  0
LINE
  5
99
330
1F
100
AcDbEntity
  8
0
  6
Continuous
 62
     1
370
    15
100
AcDbLine
 10
32.83930215133022
 20
-4.762499999999988
 30
0.0
 11
35.92998622264656
 21
-4.762499999999988
 31
0.0
  0
LINE
  5
9A
330
1F
100
AcDbEntity
  8
0
  6
Continuous
 62
     1
370
    15
100
AcDbLine
 10
20.96836992945601
 20
4.76250000000002
 30
0.0
 11
17.87729188034749
 21
4.76250000000002
 31
0.0
  0
LINE
  5
9B
102
{ACAD_REACTORS
102
}
330
1F
100
AcDbEntity
  8
0
  6
Continuous
 62
     1
370
    15
100
AcDbLine
 10
48.10000000000616
 20
4.76250000000002
 30
0.0
 11
47.80161067852825
 21
4.76250000000002
 31
0.0
  0
LINE
  5
9C
330
1F
100
AcDbEntity
  8
0
  6
Continuous
 62
     1
370
    15
100
AcDbLine
 10
42.81433509292368
 20
-4.762499999999988
 30
0.0
 11
45.90548835653627
 21
-4.762499999999988
 31
0.0
  0
LINE
  5
9D
330
1F
100
AcDbEntity
  8
0
  6
Continuous
 62
     1
370
    15
100
AcDbLine
 10
12.8909597882374
 20
-4.762499999999988
 30
0.0
 11
15.98181132964614
 21
-4.762499999999988
 31
0.0
  0
LINE
  5
9E
330
1F
100
AcDbEntity
  8
0
  6
Continuous
 62
     1
370
    15
100
AcDbLine
 10
30.94382186357455
 20
4.76250000000002
 30
0.0
 11
27.85273904604528
 21
4.76250000000002
 31
0.0
  0
LINE
  5
9F
330
1F
100
AcDbEntity
  8
0
  6
Continuous
 62
     1
370
    15
100
AcDbLine
 10
22.86544446299511
 20
-4.762499999999988
 30
0.0
 11
25.95572928769858
 21
-4.762499999999988
 31
0.0
  0
LINE
  5
A0
330
1F
100
AcDbEntity
  8
0
  6
Continuous
 62
     1
370
    15
100
AcDbLine
 10
10.9939409637226
 20
4.76250000000002
 30
0.0
 11
10.00000000000616
 21
4.76250000000002
 31
0.0
  0
LINE
  5
A1
330
1F
100
AcDbEntity
  8
0
  6
Continuous
 62
     1
370
    15
100
AcDbLine
 10
40.91812779823006
 20
4.76250000000002
 30
0.0
 11
37.82777025005528
 21
4.76250000000002
 31
0.0
  0
SPLINE
  5
A2
330
1F
100
AcDbEntity
  8
0
  6
Continuous
 62
     1
370
    15
100
AcDbSpline
210
0.0
220
0.0
230
1.0
 70
    24
 71
     3
 72
     8
 73
     4
 74
     0
 42
0.000000001
 43
0.00000001
 40
0.0
 40
0.0
 40
0.0
 40
0.0
 40
1.0
 40
1.0
 40
1.0
 40
1.0
 10
10.00000000000616
 20
4.302160010974721
 30
0.0
 10
10.00000000000616
 20
3.987870106669162
 30
0.0
 10
10.00000000000616
 20
3.665375142360477
 30
0.0
 10
10.00000000000616
 20
3.333745675979857
 30
0.0
  0
SPLINE
  5
A3
330
1F
100
AcDbEntity
  8
0
  6
Continuous
 62
     4
370
    15
100
AcDbSpline
210
0.0
220
0.0
230
1.0
 70
     8
 71
     3
 72
    10
 73
     6
 74
     0
 42
0.000000001
 43
0.00000001
 40
0.0
 40
0.0
 40
0.0
 40
0.0
 40
0.5000000000000001
 40
0.5000000000000001
 40
1.0
 40
1.0
 40
1.0
 40
1.0
 10
8.76073766476867
 20
-0.2609589757564191
 30
0.0
 10
8.669922349913882
 20
-0.1699277194517173
 30
0.0
 10
8.59935116527931
 20
-0.0619508140132443
 30
0.0
 10
8.504208142866993
 20
0.1747016150674216
 30
0.0
 10
8.480409939280303
 20
0.3017121388163105
 30
0.0
 10
8.480409939280301
 20
0.4298019847049641
 30
0.0
  0
SPLINE
  5
A4
330
1F
100
AcDbEntity
  8
0
  6
Continuous
 62
     4
370
    15
100
AcDbSpline
210
0.0
220
0.0
230
1.0
 70
     8
 71
     3
 72
    16
 73
    12
 74
     0
 42
0.000000001
 43
0.00000001
 40
0.0
 40
0.0
 40
0.0
 40
0.0
 40
0.1249999999999999
 40
0.1249999999999999
 40
0.2499999999999999
 40
0.2499999999999999
 40
0.4999999999999999
 40
0.4999999999999999
 40
0.7499999999999999
 40
0.7499999999999999
 40
1.0
 40
1.0
 40
1.0
 40
1.0
 10
8.480409939280301
 20
3.910101620656189
 30
0.0
 10
8.480409939280301
 20
3.96096309374256
 30
0.0
 10
8.491586098284085
 20
4.008686389988822
 30
0.0
 10
8.537152880893844
 20
4.098297316781609
 30
0.0
 10
8.571710845605764
 20
4.139638056967584
 30
0.0
 10
8.706031491439491
 20
4.248686992535212
 30
0.0
 10
8.840261724526954
 20
4.303216555202645
 30
0.0
 10
9.153700351954456
 20
4.370141493000885
 30
0.0
 10
9.33240539189277
 20
4.38377761456249
 30
0.0
 10
9.686289794431117
 20
4.372543354146023
 30
0.0
 10
9.857009790930965
 20
4.347853968016188
 30
0.0
 10
10.00000000000579
 20
4.302160010973999
 30
0.0
  0
SPLINE
  5
A5
330
1F
100
AcDbEntity
  8
0
  6
Continuous
 62
     4
370
    15
100
AcDbSpline
210
0.0
220
0.0
230
1.0
 70
     8
 71
     3
 72
     8
 73
     4
 74
     0
 42
0.000000001
 43
0.00000001
 40
0.0
 40
0.0
 40
0.0
 40
0.0
 40
1.0
 40
1.0
 40
1.0
 40
1.0
 10
10.0000000000009
 20
-1.475026315053104
 30
0.0
 10
9.591163889227172
 20
-1.083809291345936
 30
0.0
 10
9.171101962672065
 20
-0.6722990414763336
 30
0.0
 10
8.76073766476867
 20
-0.2609589757564197
 30
0.0
  0
SPLINE
  5
A6
330
1F
100
AcDbEntity
  8
0
  6
Continuous
 62
     4
370
    15
100
AcDbSpline
210
0.0
220
0.0
230
1.0
 70
     8
 71
     3
 72
    16
 73
    12
 74
     0
 42
0.000000001
 43
0.00000001
 40
0.0
 40
0.0
 40
0.0
 40
0.0
 40
0.1250000000000002
 40
0.1250000000000002
 40
0.2500000000000003
 40
0.2500000000000003
 40
0.5000000000000002
 40
0.5000000000000002
 40
0.7500000000000001
 40
0.7500000000000001
 40
1.0
 40
1.0
 40
1.0
 40
1.0
 10
8.480409939280301
 20
-4.309702307812683
 30
0.0
 10
8.480409939280301
 20
-4.271788151739139
 30
0.0
 10
8.491586098284087
 20
-4.232423816394109
 30
0.0
 10
8.537152880893844
 20
-4.151406376384384
 30
0.0
 10
8.571710845605764
 20
-4.110135087366038
 30
0.0
 10
8.706031491439491
 20
-3.992416909094473
 30
0.0
 10
8.840261724526956
 20
-3.920143325444863
 30
0.0
 10
9.153700351954457
 20
-3.825914509490252
 30
0.0
 10
9.332405391892772
 20
-3.803744209429033
 30
0.0
 10
9.686289794431119
 20
-3.820852947604546
 30
0.0
 10
9.857009790930965
 20
-3.859658527333746
 30
0.0
 10
10.00000000000579
 20
-3.920152959743611
 30
0.0
  0
LINE
  5
A7
330
1F
100
AcDbEntity
  8
0
  6
Continuous
 62
     4
370
    15
100
AcDbLine
 10
8.480409939280301
 20
-4.309702307812683
 30
0.0
 11
8.480409939280301
 21
-4.762499999999984
 31
0.0
  0
LINE
  5
A8
330
1F
100
AcDbEntity
  8
0
  6
Continuous
 62
     4
370
    15
100
AcDbLine
 10
8.847520693777017
 20
-3.935800056137097
 30
0.0
 11
8.76073766476867
 21
-3.987770139964764
 31
0.0
  0
LINE
  5
A9
330
1F
100
AcDbEntity
  8
0
  6
Continuous
 62
     4
370
    15
100
AcDbLine
 10
-40.29999999999384
 20
4.76250000000001
 30
0.0
 11
-40.29999999999384
 21
-4.762499999999987
 31
0.0
  0
LINE
  5
AA
330
1F
100
AcDbEntity
  8
0
  6
Continuous
 62
     4
370
    15
100
AcDbLine
 10
10.00000000000616
 20
4.762500000000016
 30
0.0
 11
10.00000000000616
 21
4.302160010974331
 31
0.0
  0
LINE
  5
AB
330
1F
100
AcDbEntity
  8
0
  6
Continuous
 62
     4
370
    15
100
AcDbLine
 10
10.00000000000616
 20
-1.475026315055638
 30
0.0
 11
10.00000000000616
 21
-3.920152959743172
 31
0.0
  0
LINE
  5
AC
330
1F
100
AcDbEntity
  8
0
  6
Continuous
 62
     4
370
    15
100
AcDbLine
 10
8.480409939280301
 20
3.910101620656187
 30
0.0
 11
8.480409939280301
 21
0.4298019847049805
 31
0.0
  0
LINE
  5
AD
330
1F
100
AcDbEntity
  8
0
  6
Continuous
 62
     4
370
    15
100
AcDbLine
 10
-40.79999999999384
 20
4.262500000000009
 30
0.0
 11
-40.79999999999384
 21
-4.262499999999987
 31
0.0
  0
SPLINE
  5
AE
330
1F
100
AcDbEntity
  8
0
  6
Continuous
 62
     4
370
    15
100
AcDbSpline
210
0.0
220
0.0
230
1.0
 70
    24
 71
     3
 72
    14
 73
    10
 74
     0
 42
0.000000001
 43
0.00000001
 40
0.0
 40
0.0
 40
0.0
 40
0.0
 40
0.25
 40
0.25
 40
0.5
 40
0.5
 40
0.75
 40
0.75
 40
1.0
 40
1.0
 40
1.0
 40
1.0
 10
10.00000000000616
 20
3.333745675980138
 30
0.0
 10
10.00000000000616
 20
2.969306659814376
 30
0.0
 10
10.00000000000616
 20
2.567212734360626
 30
0.0
 10
10.00000000000616
 20
1.709910248110744
 30
0.0
 10
10.00000000000616
 20
1.254360238870849
 30
0.0
 10
10.00000000000616
 20
0.3506153602338138
 30
0.0
 10
10.00000000000616
 20
-0.0967663305340838
 30
0.0
 10
10.00000000000616
 20
-0.887685265660319
 30
0.0
 10
10.00000000000616
 20
-1.229133065728128
 30
0.0
 10
10.00000000000616
 20
-1.475026315055637
 30
0.0
  0
SPLINE
  5
AF
330
1F
100
AcDbEntity
  8
0
  6
Continuous
 62
     1
370
    15
100
AcDbSpline
210
0.0
220
0.0
230
1.0
 70
     8
 71
     3
 72
    27
 73
    23
 74
     0
 42
0.000000001
 43
0.00000001
 40
0.0
 40
0.0
 40
0.0
 40
0.0
 40
0.0101975264540645
 40
0.0639596651374832
 40
0.1178189527057023
 40
0.171690494167637
 40
0.2254558483167418
 40
0.279235955695966
 40
0.333134207777162
 40
0.3869588569456179
 40
0.4407156905977104
 40
0.4945261993835711
 40
0.5484305077570131
 40
0.602220247280194
 40
0.6559810539320603
 40
0.7098343175767802
 40
0.763711420514988
 40
0.8174786579744606
 40
0.8712559207395442
 40
0.925151174566075
 40
0.9789809002813923
 40
1.0
 40
1.0
 40
1.0
 40
1.0
 10
39.37257904406562
 20
-3.560035561838311
 30
0.0
 10
39.31003675694394
 20
-3.604982292218188
 30
0.0
 10
38.91776675310987
 20
-3.88689161964885
 30
0.0
 10
38.19571269075352
 20
-4.256770964143116
 30
0.0
 10
37.20438516270062
 20
-4.628541171000061
 30
0.0
 10
36.2128909787872
 20
-4.787837420601453
 30
0.0
 10
35.22341202591279
 20
-4.744377591451227
 30
0.0
 10
34.2336652788253
 20
-4.495198566796727
 30
0.0
 10
33.24162268016845
 20
-4.053171632011714
 30
0.0
 10
32.25103517469412
 20
-3.435933382583583
 30
0.0
 10
31.26172568264375
 20
-2.670377582083511
 30
0.0
 10
30.27141106586222
 20
-1.789659383479445
 30
0.0
 10
29.27924680920002
 20
-0.8331801197607623
 30
0.0
 10
28.28932354546106
 20
0.1607503439244139
 30
0.0
 10
27.29993692333836
 20
1.147686243072886
 30
0.0
 10
26.30878865750159
 20
2.084410537138679
 30
0.0
 10
25.31716768811279
 20
2.931285926404485
 30
0.0
 10
24.32765813627357
 20
3.651839301968335
 30
0.0
 10
23.33795866630232
 20
4.218254938986018
 30
0.0
 10
22.34598887510159
 20
4.589296114041042
 30
0.0
 10
21.55611241026395
 20
4.766294618759689
 30
0.0
 10
21.09723281861637
 20
4.744224053044389
 30
0.0
 10
20.96836992945601
 20
4.738026181281851
 30
0.0
  0
SPLINE
  5
B0
330
1F
100
AcDbEntity
  8
0
  6
Continuous
 62
     1
370
    15
100
AcDbSpline
210
0.0
220
0.0
230
1.0
 70
     8
 71
     3
 72
    11
 73
     7
 74
     0
 42
0.000000001
 43
0.00000001
 40
0.0
 40
0.0
 40
0.0
 40
0.0
 40
0.2969521919938533
 40
0.5932781105329342
 40
0.8906408453548377
 40
1.0
 40
1.0
 40
1.0
 40
1.0
 10
10.0
 20
-3.911810125593894
 30
0.0
 10
10.28633862507886
 20
-4.063220237000116
 30
0.0
 10
10.85841198584025
 20
-4.365721135234012
 30
0.0
 10
11.71490969892938
 20
-4.635837652677233
 30
0.0
 10
12.39400662235969
 20
-4.766891568522813
 30
0.0
 10
12.7856538896026
 20
-4.749275252903554
 30
0.0
 10
12.8909597882374
 20
-4.744538587791654
 30
0.0
  0
SPLINE
  5
B1
330
1F
100
AcDbEntity
  8
0
  6
Continuous
 62
     1
370
    15
100
AcDbSpline
210
0.0
220
0.0
230
1.0
 70
     8
 71
     3
 72
    26
 73
    22
 74
     0
 42
0.000000001
 43
0.00000001
 40
0.0
 40
0.0
 40
0.0
 40
0.0
 40
0.0492462851144654
 40
0.1031255448936325
 40
0.1569809644249624
 40
0.2107439232621443
 40
0.2645358161288991
 40
0.3184422824324048
 40
0.3722549453932871
 40
0.4260139310716457
 40
0.4798407349811997
 40
0.53374114475001
 40
0.5875234050872085
 40
0.641290911603677
 40
0.6951646096839303
 40
0.7490260533799131
 40
0.8027903443019719
 40
0.8565788433878673
 40
0.9104837807189412
 40
0.9643009755948836
 40
1.0
 40
1.0
 40
1.0
 40
1.0
 10
24.4109067727094
 20
3.565945310687697
 30
0.0
 10
24.71278137234109
 20
3.75590906615564
 30
0.0
 10
25.34493022385765
 20
4.153707920366436
 30
0.0
 10
26.30879114086798
 20
4.544763247068847
 30
0.0
 10
27.2999362593559
 20
4.765187182594158
 30
0.0
 10
28.28932372325614
 20
4.776611713494912
 30
0.0
 10
29.27924676174709
 20
4.582880745308088
 30
0.0
 10
30.27141107739099
 20
4.191971123555135
 30
0.0
 10
31.2617256839279
 20
3.619925641987662
 30
0.0
 10
32.25103515805998
 20
2.891674295331272
 30
0.0
 10
33.24162274555837
 20
2.038888293551666
 30
0.0
 10
34.23366503379724
 20
1.099334460283925
 30
0.0
 10
35.22341293821665
 20
0.1109340477934124
 30
0.0
 10
36.21288757192319
 20
-0.8822187353264347
 30
0.0
 10
37.20439790422039
 20
-1.836275555522379
 30
0.0
 10
38.19566519010738
 20
-2.711601595023009
 30
0.0
 10
39.18507801195963
 20
-3.470137534080932
 30
0.0
 10
40.17493767696196
 20
-4.081111534214563
 30
0.0
 10
41.16707605579504
 20
-4.507446204159793
 30
0.0
 10
42.04669636671306
 20
-4.740673716151718
 30
0.0
 10
42.59548032081634
 20
-4.739888506852677
 30
0.0
 10
42.8143350929237
 20
-4.739575365768807
 30
0.0
  0
SPLINE
  5
B2
330
1F
100
AcDbEntity
  8
0
  6
Continuous
 62
     1
370
    15
100
AcDbSpline
210
0.0
220
0.0
230
1.0
 70
     8
 71
     3
 72
    15
 73
    11
 74
     0
 42
0.000000001
 43
0.00000001
 40
0.0
 40
0.0
 40
0.0
 40
0.0
 40
0.1380332022366274
 40
0.2758054415896184
 40
0.4136276009886497
 40
0.5517511821327279
 40
0.6896671794676634
 40
0.8274214683518438
 40
0.9653253870368838
 40
1.0
 40
1.0
 40
1.0
 40
1.0
 10
48.10000000000616
 20
0.2982416209868615
 30
0.0
 10
47.76932818863763
 20
0.6265834331775223
 30
0.0
 10
47.10860972758654
 20
1.282646300923924
 30
0.0
 10
46.11916778261784
 20
2.20914752437161
 30
0.0
 10
45.12936527220384
 20
3.041593668494169
 30
0.0
 10
44.13727185907545
 20
3.740388668150684
 30
0.0
 10
43.14678172049364
 20
4.283352873687022
 30
0.0
 10
42.15746638211608
 20
4.6252429778374
 30
0.0
 10
41.41470928948664
 20
4.777888695069031
 30
0.0
 10
41.00120866557354
 20
4.748948770127485
 30
0.0
 10
40.91812779823006
 20
4.743134137873134
 30
0.0
  0
SPLINE
  5
B3
330
1F
100
AcDbEntity
  8
0
  6
Continuous
 62
     1
370
    15
100
AcDbSpline
210
0.0
220
0.0
230
1.0
 70
     8
 71
     3
 72
    27
 73
    23
 74
     0
 42
0.000000001
 43
0.00000001
 40
0.0
 40
0.0
 40
0.0
 40
0.0
 40
0.0064469445879526
 40
0.0602354447084321
 40
0.1139950126242573
 40
0.1678470354025771
 40
0.2217228969250889
 40
0.2754888955003442
 40
0.329264919150211
 40
0.38315893114282
 40
0.4369874165340892
 40
0.490743379589418
 40
0.5445482988219368
 40
0.5984524040826208
 40
0.6522444805245005
 40
0.706002900306818
 40
0.759849079619503
 40
0.8137300138362213
 40
0.867498079298286
 40
0.9140898673484591
 40
0.9608061707681288
 40
1.0
 40
1.0
 40
1.0
 40
1.0
 10
29.39761332746418
 20
-3.563747697729422
 30
0.0
 10
29.35802878013044
 20
-3.592391782905728
 30
0.0
 10
28.98818027597463
 20
-3.86002076363022
 30
0.0
 10
28.28936342909207
 20
-4.223174007945899
 30
0.0
 10
27.29992623117305
 20
-4.609939008201125
 30
0.0
 10
26.30879147922528
 20
-4.783131812386603
 30
0.0
 10
25.31716710865992
 20
-4.754271187571894
 30
0.0
 10
24.32765763976155
 20
-4.519332039219458
 30
0.0
 10
23.33796123467098
 20
-4.089598810684836
 30
0.0
 10
22.34597907958938
 20
-3.48439505001712
 30
0.0
 10
21.35529267024213
 20
-2.728468470299494
 30
0.0
 10
20.36597607771354
 20
-1.854635287699866
 30
0.0
 10
19.37574448892823
 20
-0.9007957474079018
 30
0.0
 10
18.38355948997565
 20
0.0903875309639993
 30
0.0
 10
17.39356922131037
 20
1.079272335958238
 30
0.0
 10
16.40420766804818
 20
2.021490047210929
 30
0.0
 10
15.41316422410686
 20
2.876131249671973
 30
0.0
 10
14.42148116406004
 20
3.606101584965879
 30
0.0
 10
13.47581926412862
 20
4.157283674401918
 30
0.0
 10
12.57462783523401
 20
4.524810963844157
 30
0.0
 10
11.76025050697985
 20
4.731684825841891
 30
0.0
 10
11.23401813574028
 20
4.745804765306372
 30
0.0
 10
10.99394096372259
 20
4.752246549052415
 30
0.0
  0
SPLINE
  5
B4
330
1F
100
AcDbEntity
  8
0
  6
Continuous
 62
     1
370
    15
100
AcDbSpline
210
0.0
220
0.0
230
1.0
 70
     8
 71
     3
 72
    26
 73
    22
 74
     0
 42
0.000000001
 43
0.00000001
 40
0.0
 40
0.0
 40
0.0
 40
0.0
 40
0.0531193329399841
 40
0.1069674025301758
 40
0.1607277095091895
 40
0.214521674329287
 40
0.2684276719009758
 40
0.3222344799625604
 40
0.3759923301283417
 40
0.4298227051759699
 40
0.4837186091252585
 40
0.5374965205898078
 40
0.5912644066278139
 40
0.6451421594698304
 40
0.6989960727307925
 40
0.7527575278836192
 40
0.8065479162567695
 40
0.8604528748621914
 40
0.9142640327485548
 40
0.9680215148536827
 40
1.0
 40
1.0
 40
1.0
 40
1.0
 10
14.43510538029763
 20
3.570798343264232
 30
0.0
 10
14.76117290608906
 20
3.772154018520111
 30
0.0
 10
15.41778123215289
 20
4.17762773919288
 30
0.0
 10
16.40422607118728
 20
4.566841524432123
 30
0.0
 10
17.39356429050769
 20
4.772757855962538
 30
0.0
 10
18.38356081460598
 20
4.769637783810007
 30
0.0
 10
19.37574413466879
 20
4.562093235375694
 30
0.0
 10
20.36597617146437
 20
4.157406141278285
 30
0.0
 10
21.35529264881829
 20
3.573419728253996
 30
0.0
 10
22.34597907141385
 20
2.835508650663673
 30
0.0
 10
23.33796128886467
 20
1.976328357249598
 30
0.0
 10
24.32765743171569
 20
1.030650356720636
 30
0.0
 10
25.31716788735541
 20
0.0405217140991237
 30
0.0
 10
26.30878856653899
 20
-0.9502031747347023
 30
0.0
 10
27.29993708762064
 20
-1.900341907873524
 30
0.0
 10
28.28932298007832
 20
-2.769369498555822
 30
0.0
 10
29.27924890997275
 20
-3.518297689656371
 30
0.0
 10
30.27140321634176
 20
-4.117045738219566
 30
0.0
 10
31.2617549053878
 20
-4.530132038321828
 30
0.0
 10
32.11702870183383
 20
-4.747651030483492
 30
0.0
 10
32.64308825995303
 20
-4.740391406013841
 30
0.0
 10
32.83930215133022
 20
-4.737683653355153
 30
0.0
  0
SPLINE
  5
B5
330
1F
100
AcDbEntity
  8
0
  6
Continuous
 62
     1
370
    15
100
AcDbSpline
210
0.0
220
0.0
230
1.0
 70
     8
 71
     3
 72
    11
 73
     7
 74
     0
 42
0.000000001
 43
0.00000001
 40
0.0
 40
0.0
 40
0.0
 40
0.0
 40
0.2056816106672043
 40
0.4703512686071993
 40
0.734925061545749
 40
1.0
 40
1.0
 40
1.0
 40
1.0
 10
44.35995633931462
 20
3.55842515581355
 30
0.0
 10
44.6166178336092
 20
3.724579365096491
 30
0.0
 10
45.20354954351006
 20
4.104539648697665
 30
0.0
 10
46.11917542997638
 20
4.495136484793056
 30
0.0
 10
47.10860781181061
 20
4.756424677955042
 30
0.0
 10
47.76932754964295
 20
4.754243878541067
 30
0.0
 10
48.10000000000616
 20
4.753152447114583
 30
0.0
  0
LINE
  5
B6
330
1F
100
AcDbEntity
  8
0
  6
Continuous
 62
     1
370
    15
100
AcDbLine
 10
48.10000000000616
 20
3.083737631389118
 30
0.0
 11
48.10000000000616
 21
4.753152447114585
 31
0.0
  0
SPLINE
  5
B7
330
1F
100
AcDbEntity
  8
0
  6
Continuous
 62
     1
370
    15
100
AcDbSpline
210
0.0
220
0.0
230
1.0
 70
     8
 71
     3
 72
    12
 73
     8
 74
     0
 42
0.000000001
 43
0.00000001
 40
0.0
 40
0.0
 40
0.0
 40
0.0
 40
0.1455391025569112
 40
0.2946207896157929
 40
0.5421598319426346
 40
0.7899740652398785
 40
0.9999999999999999
 40
0.9999999999999999
 40
0.9999999999999999
 40
0.9999999999999999
 10
48.10000000000616
 20
3.083737631391766
 30
0.0
 10
48.05720190217949
 20
2.974315992789359
 30
0.0
 10
47.97056395296703
 20
2.752809270542746
 30
0.0
 10
47.74925828888776
 20
2.387927072048484
 30
0.0
 10
47.40387367013359
 20
2.043879783152803
 30
0.0
 10
46.93965965157534
 20
1.835628073053208
 30
0.0
 10
46.62590593764416
 20
1.849625312831176
 30
0.0
 10
46.48197706977648
 20
1.856046294591914
 30
0.0
  0
SPLINE
  5
B8
330
1F
100
AcDbEntity
  8
0
  6
Continuous
 62
     1
370
    15
100
AcDbSpline
210
0.0
220
0.0
230
1.0
 70
     8
 71
     3
 72
     9
 73
     5
 74
     0
 42
0.000000001
 43
0.00000001
 40
0.0
 40
0.0
 40
0.0
 40
0.0
 40
0.6297958958787427
 40
0.9999999999999999
 40
0.9999999999999999
 40
0.9999999999999999
 40
0.9999999999999999
 10
48.10000000000616
 20
0.918688213146648
 30
0.0
 10
47.77295505750941
 20
1.119630536430904
 30
0.0
 10
47.25366786520333
 20
1.438689972351624
 30
0.0
 10
46.75410578169725
 20
1.68411108461651
 30
0.0
 10
46.56916584811994
 20
1.774966987614974
 30
0.0
  0
LINE
  5
B9
330
1F
100
AcDbEntity
  8
0
  6
Continuous
 62
     1
370
    15
100
AcDbLine
 10
48.10000000000616
 20
0.2982416209868605
 30
0.0
 11
48.10000000000616
 21
0.9186882131466471
 31
0.0
  0
SPLINE
  5
BA
330
1F
100
AcDbEntity
  8
0
  6
Continuous
 62
     1
370
    15
100
AcDbSpline
210
0.0
220
0.0
230
1.0
 70
     8
 71
     3
 72
    25
 73
    21
 74
     0
 42
0.000000001
 43
0.00000001
 40
0.0
 40
0.0
 40
0.0
 40
0.0
 40
0.0577832004617379
 40
0.1154571571301427
 40
0.1731520112346764
 40
0.2309730459452914
 40
0.2887071823107117
 40
0.3463736245875002
 40
0.4041027046111352
 40
0.4619259049475326
 40
0.5196242033303964
 40
0.5772965338970156
 40
0.6350730791160945
 40
0.6928627694708842
 40
0.7505385493682873
 40
0.8082301555178674
 40
0.866048499190799
 40
0.9237878867132094
 40
0.9814545264065152
 40
1.0
 40
1.0
 40
1.0
 40
1.0
 10
48.10000000000616
 20
-4.265471577754779
 30
0.0
 10
47.76932818545004
 20
-4.394543499796727
 30
0.0
 10
47.1086097180298
 20
-4.65244332301878
 30
0.0
 10
46.11916782076625
 20
-4.789925124937887
 30
0.0
 10
45.12936512894825
 20
-4.733848518586504
 30
0.0
 10
44.13727239485424
 20
-4.470590467970013
 30
0.0
 10
43.14677972537127
 20
-4.015317201004324
 30
0.0
 10
42.15747382205558
 20
-3.386521218879139
 30
0.0
 10
41.16707215365179
 20
-2.611782050757822
 30
0.0
 10
40.17493871966232
 20
-1.725672900760196
 30
0.0
 10
39.18507773704133
 20
-0.7637569240422066
 30
0.0
 10
38.19566524874745
 20
0.231044104895771
 30
0.0
 10
37.20439794519277
 20
1.215100357324327
 30
0.0
 10
36.21288734948151
 20
2.146569016098615
 30
0.0
 10
35.22341378523127
 20
2.986751343363245
 30
0.0
 10
34.23366186359442
 20
3.697015371214459
 30
0.0
 10
33.24163460029754
 20
4.250950235993567
 30
0.0
 10
32.25099100922694
 20
4.607808592600773
 30
0.0
 10
31.48572018972238
 20
4.772177107945322
 30
0.0
 10
31.04987945145536
 20
4.746354419365671
 30
0.0
 10
30.94382186357455
 20
4.740070720246022
 30
0.0
  0
SPLINE
  5
BB
330
1F
100
AcDbEntity
  8
0
  6
Continuous
 62
     1
370
    15
100
AcDbSpline
210
0.0
220
0.0
230
1.0
 70
     8
 71
     3
 72
    18
 73
    14
 74
     0
 42
0.000000001
 43
0.00000001
 40
0.0
 40
0.0
 40
0.0
 40
0.0
 40
0.00510519874216
 40
0.1103707509419598
 40
0.2154175299070179
 40
0.32039858313863
 40
0.4255510158112004
 40
0.5307713189019333
 40
0.6357712085060263
 40
0.7267570485150376
 40
0.8179860458691908
 40
0.9088969545765635
 40
0.9999999999999999
 40
0.9999999999999999
 40
0.9999999999999999
 40
0.9999999999999999
 10
19.42417298570805
 20
-3.568315774772179
 30
0.0
 10
19.40813733209512
 20
-3.580037032651286
 30
0.0
 10
19.06145795280124
 20
-3.833442257293721
 30
0.0
 10
18.38346815385059
 20
-4.188364986214371
 30
0.0
 10
17.39359363149581
 20
-4.590201229158561
 30
0.0
 10
16.40420120442964
 20
-4.777403792408232
 30
0.0
 10
15.41316563271919
 20
-4.763015217201947
 30
0.0
 10
14.42148200340733
 20
-4.542437567616875
 30
0.0
 10
13.47581476162174
 20
-4.144481456193863
 30
0.0
 10
12.57464249631285
 20
-3.613838865276681
 30
0.0
 10
11.71496218182737
 20
-2.993273567344182
 30
0.0
 10
10.85839885190313
 20
-2.276314057850841
 30
0.0
 10
10.28633424402029
 20
-1.742310130225446
 30
0.0
 10
10.00000000000053
 20
-1.475026315052754
 30
0.0
  0
SPLINE
  5
BC
330
1F
100
AcDbEntity
  8
0
  6
Continuous
 62
     4
370
    15
100
AcDbSpline
210
0.0
220
0.0
230
1.0
 70
    24
 71
     3
 72
    18
 73
    14
 74
     0
 42
0.000000001
 43
0.00000001
 40
0.0
 40
0.0
 40
0.0
 40
0.0
 40
0.25
 40
0.25
 40
0.5
 40
0.5
 40
0.625
 40
0.625
 40
0.75
 40
0.75
 40
0.875
 40
0.875
 40
1.0
 40
1.0
 40
1.0
 40
1.0
 10
10.00000000000616
 20
4.308427292984844
 30
0.0
 10
10.00000000000616
 20
3.944375719075539
 30
0.0
 10
10.00000000000616
 20
3.523186130142065
 30
0.0
 10
10.00000000000616
 20
2.567951904303172
 30
0.0
 10
10.00000000000616
 20
2.032217516960204
 30
0.0
 10
10.00000000000616
 20
1.193753285236493
 30
0.0
 10
10.00000000000616
 20
0.9091991993128786
 30
0.0
 10
10.00000000000616
 20
0.3480183868302764
 30
0.0
 10
10.00000000000616
 20
0.0714872013526213
 30
0.0
 10
10.00000000000616
 20
-0.4505323963580895
 30
0.0
 10
10.00000000000616
 20
-0.6958372746863214
 30
0.0
 10
10.00000000000616
 20
-1.131490666582848
 30
0.0
 10
10.00000000000616
 20
-1.321632260087895
 30
0.0
 10
10.00000000000616
 20
-1.475026315055637
 30
0.0
  0
SPLINE
  5
BD
330
1F
100
AcDbEntity
  8
0
  6
Continuous
 62
     1
370
    15
100
AcDbSpline
210
0.0
220
0.0
230
1.0
 70
     8
 71
     3
 72
    21
 73
    17
 74
     0
 42
0.000000001
 43
0.00000001
 40
0.0
 40
0.0
 40
0.0
 40
0.0
 40
0.0667342326155396
 40
0.1333277224464205
 40
0.2001542165819097
 40
0.2668025946208683
 40
0.3437164565546412
 40
0.4207917743960695
 40
0.4978173762235893
 40
0.5747174402556902
 40
0.6516656492906744
 40
0.7287741127262601
 40
0.8057406930494352
 40
0.8826372427955226
 40
0.9596375339145923
 40
1.0
 40
1.0
 40
1.0
 40
1.0
 10
9.999999999999996
 20
4.308427292973724
 30
0.0
 10
10.28633424462578
 20
4.173112789223097
 30
0.0
 10
10.85839885371941
 20
3.902769160594368
 30
0.0
 10
11.71496217456769
 20
3.331763285611956
 30
0.0
 10
12.57464252361304
 20
2.665586568793558
 30
0.0
 10
13.47581465340178
 20
1.869540740958535
 30
0.0
 10
14.42148247761194
 20
0.9617776506855902
 30
0.0
 10
15.41316386771814
 20
-0.0286582660428837
 30
0.0
 10
16.40420777953499
 20
-1.018375002360219
 30
0.0
 10
17.39356913110349
 20
-1.964718477428999
 30
0.0
 10
18.38355973976274
 20
-2.826540274208615
 30
0.0
 10
19.37574357878113
 20
-3.56460412315255
 30
0.0
 10
20.36597945966952
 20
-4.152905948101829
 30
0.0
 10
21.35528005517365
 20
-4.551755289281464
 30
0.0
 10
22.18848040426328
 20
-4.754364954250345
 30
0.0
 10
22.69220686477416
 20
-4.741289871410922
 30
0.0
 10
22.86544446299511
 20
-4.736793192905403
 30
0.0
  0
SPLINE
  5
BE
330
1F
100
AcDbEntity
  8
0
  6
Continuous
 62
     1
370
    15
100
AcDbSpline
210
0.0
220
0.0
230
1.0
 70
     8
 71
     3
 72
    21
 73
    17
 74
     0
 42
0.000000001
 43
0.00000001
 40
0.0
 40
0.0
 40
0.0
 40
0.0
 40
0.0610612876900359
 40
0.1332148400344439
 40
0.2055108966356509
 40
0.2777905084095973
 40
0.3499397455723166
 40
0.4221214689916936
 40
0.4944594472490332
 40
0.5666796791156746
 40
0.6388215499102362
 40
0.7110481073614184
 40
0.7833833763776596
 40
0.8555607909360693
 40
0.9277120623845931
 40
1.0
 40
1.0
 40
1.0
 40
1.0
 10
34.38640231804231
 20
3.561841508353129
 30
0.0
 10
34.66545704746665
 20
3.740061190255004
 30
0.0
 10
35.2742589995287
 20
4.128875565347553
 30
0.0
 10
36.21286196354312
 20
4.521873708711207
 30
0.0
 10
37.20440475168209
 20
4.756703883995946
 30
0.0
 10
38.19566342882726
 20
4.782500302295987
 30
0.0
 10
39.18507822452649
 20
4.603226028717404
 30
0.0
 10
40.17493858869392
 20
4.224969912214838
 30
0.0
 10
41.16707218871429
 20
3.665565381696972
 30
0.0
 10
42.1574738126788
 20
2.947441630436928
 30
0.0
 10
43.14677972788579
 20
2.10207001046032
 30
0.0
 10
44.13727239417899
 20
1.166323429721422
 30
0.0
 10
45.1293651291288
 20
0.1809736181217602
 30
0.0
 10
46.11916782071818
 20
-0.8115582667906742
 30
0.0
 10
47.10860971804183
 20
-1.777136277994977
 30
0.0
 10
47.76932818545406
 20
-2.348772497385604
 30
0.0
 10
48.10000000000616
 20
-2.634861043797727
 30
0.0
  0
SPLINE
  5
BF
330
1F
100
AcDbEntity
  8
0
  6
Continuous
 62
     1
370
    15
100
AcDbSpline
210
0.0
220
0.0
230
1.0
 70
     8
 71
     3
 72
    10
 73
     6
 74
     0
 42
0.000000001
 43
0.00000001
 40
0.0
 40
0.0
 40
0.0
 40
0.0
 40
0.0933332441509584
 40
0.5504230444607402
 40
1.0
 40
1.0
 40
1.0
 40
1.0
 10
47.46932366109594
 20
-2.077582808160967
 30
0.0
 10
47.44301380887607
 20
-2.079866904863187
 30
0.0
 10
47.28785420749387
 20
-2.093337126241604
 30
0.0
 10
46.91221004705882
 20
-2.257335176250646
 30
0.0
 10
46.57853734868391
 20
-2.465459037220648
 30
0.0
 10
46.41308344302981
 20
-2.568658687132097
 30
0.0
  0
SPLINE
  5
C0
330
1F
100
AcDbEntity
  8
0
  6
Continuous
 62
     1
370
    15
100
AcDbSpline
210
0.0
220
0.0
230
1.0
 70
     8
 71
     3
 72
    10
 73
     6
 74
     0
 42
0.000000001
 43
0.00000001
 40
0.0
 40
0.0
 40
0.0
 40
0.0
 40
0.5
 40
0.5
 40
1.0
 40
1.0
 40
1.0
 40
1.0
 10
48.10000000000616
 20
-2.784196431186849
 30
0.0
 10
47.81123424823198
 20
-2.799124698252912
 30
0.0
 10
47.52604447973495
 20
-2.790167071116509
 30
0.0
 10
46.96328756823316
 20
-2.721336247070082
 30
0.0
 10
46.68555935808011
 20
-2.662538903307541
 30
0.0
 10
46.4130834430248
 20
-2.568658687142425
 30
0.0
  0
LINE
  5
C1
330
1F
100
AcDbEntity
  8
0
  6
Continuous
 62
     1
370
    15
100
AcDbLine
 10
48.10000000000616
 20
-4.265471577754783
 30
0.0
 11
48.10000000000616
 21
-2.784196431186849
 31
0.0
  0
LINE
  5
C2
330
1F
100
AcDbEntity
  8
0
  6
Continuous
 62
     1
370
    15
100
AcDbLine
 10
48.10000000000616
 20
4.753152447114585
 30
0.0
 11
48.10000000000616
 21
4.76250000000002
 31
0.0
  0
LINE
  5
C3
330
1F
100
AcDbEntity
  8
0
  6
Continuous
 62
     4
370
    15
100
AcDbLine
 10
10.00000000000616
 20
-3.911810125608195
 30
0.0
 11
10.00000000000616
 21
-1.475026315055638
 31
0.0
  0
LINE
  5
C4
330
1F
100
AcDbEntity
  8
0
  6
Continuous
 62
     1
370
    15
100
AcDbLine
 10
48.10000000000616
 20
-2.634861043797728
 30
0.0
 11
48.10000000000616
 21
0.2982416209868605
 31
0.0
  0
LINE
  5
C5
330
1F
100
AcDbEntity
  8
0
  6
Continuous
 62
     4
370
    15
100
AcDbLine
 10
10.00000000000616
 20
4.308427292984848
 30
0.0
 11
10.00000000000616
 21
4.76250000000002
 31
0.0
  0
LINE
  5
C6
330
1F
100
AcDbEntity
  8
0
  6
Continuous
 62
     1
370
    15
100
AcDbLine
 10
48.10000000000616
 20
0.918688213146648
 30
0.0
 11
48.10000000000616
 21
3.083737631389118
 31
0.0
  0
LINE
  5
C7
330
1F
100
AcDbEntity
  8
0
  6
Continuous
 62
     1
370
    15
100
AcDbLine
 10
48.10000000000616
 20
-2.634861043797728
 30
0.0
 11
48.10000000000616
 21
-2.784196431186849
 31
0.0
  0
LINE
  5
C8
330
1F
100
AcDbEntity
  8
중심선
100
AcDbLine
 10
-43.29999999999386
 20
0.000000000000001
 30
0.0
 11
28.1625424390292
 21
0.0000000000000005
 31
0.0
  0
CIRCLE
  5
C9
330
1F
100
AcDbEntity
  8
외형선
100
AcDbCircle
 10
0.0
 20
0.0
 30
0.0
 40
3.000000000000008
  0
INSERT
  5
CA
330
1F
100
AcDbEntity
  8
0
  6
Continuous
 62
     7
100
AcDbBlockReference
 66
     1
  2
블럭10
 10
-10.56772902307873
 20
-32.86099504303466
 30
0.0
  0
ATTRIB
  5
CB
330
CA
100
AcDbEntity
  8
FORMAT
 62
     2
100
AcDbText
 10
-19.74902431182
 20
-30.78562813020247
 30
0.0
 40
4.233333333333333
  1
E5982024 [ 3 FLUTE ]
 41
0.75
  7
SLDTEXTSTYLE0
 11
-19.74902431182
 21
-32.90229479686914
 31
0.0
100
AcDbAttribute
  2
AUTOATTR0
 70
     0
 74
     1
  0
SEQEND
  5
CC
330
CA
100
AcDbEntity
  8
0
  6
Continuous
 62
     7
  0
HATCH
  5
CD
330
1F
100
AcDbEntity
  8
중심선
100
AcDbHatch
 10
0.0
 20
0.0
 30
0.0
210
0.0
220
0.0
230
1.0
  2
SOLID
 70
     1
 71
     0
 91
        1
 92
        0
 93
        4
 72
     1
 10
-4.852819718697875
 20
-16.61382074139073
 11
-8.299094962535158
 21
-16.61382074139073
 72
     1
 10
-8.299094962535158
 20
-16.61382074139073
 11
-10.42732482173918
 21
-19.15014632196332
 72
     1
 10
-10.42732482173918
 20
-19.15014632196332
 11
-6.981016492788747
 21
-19.15010689266083
 72
     1
 10
-6.981016492788747
 20
-19.15010689266083
 11
-4.852819718697875
 21
-16.61382074139073
 97
        0
 75
     0
 76
     1
 98
        1
 10
9.207130447367803
 20
19.20344350450998
  0
HATCH
  5
CE
330
1F
100
AcDbEntity
  8
중심선
100
AcDbHatch
 10
0.0
 20
0.0
 30
0.0
210
0.0
220
0.0
230
1.0
  2
SOLID
 70
     1
 71
     0
 91
        1
 92
        0
 93
        4
 72
     1
 10
0.1599442723380768
 20
-16.61382074139073
 11
-3.286330971499206
 21
-16.61382074139073
 72
     1
 10
-3.286330971499206
 20
-16.61382074139073
 11
-7.817468979856592
 21
-22.01382074139075
 72
     1
 10
-7.817468979856592
 20
-22.01382074139075
 11
-4.371193736019311
 21
-22.01382074139075
 72
     1
 10
-4.371193736019311
 20
-22.01382074139075
 11
0.1599442723380768
 21
-16.61382074139073
 97
        0
 75
     0
 76
     1
 98
        1
 10
9.207130447367803
 20
19.20344350450998
  0
HATCH
  5
CF
330
1F
100
AcDbEntity
  8
중심선
100
AcDbHatch
 10
0.0
 20
0.0
 30
0.0
210
0.0
220
0.0
230
1.0
  2
SOLID
 70
     1
 71
     0
 91
        1
 92
        0
 93
        4
 72
     1
 10
5.172708263373972
 20
-16.61382074139075
 11
1.726433019536857
 21
-16.61382074139073
 72
     1
 10
1.726433019536857
 20
-16.61382074139073
 11
-5.322003882352393
 21
-25.01382074139075
 72
     1
 10
-5.322003882352393
 20
-25.01382074139075
 11
-1.87572863851511
 21
-25.01382074139075
 72
     1
 10
-1.87572863851511
 20
-25.01382074139075
 11
5.172708263373972
 21
-16.61382074139075
 97
        0
 75
     0
 76
     1
 98
        1
 10
9.207130447367803
 20
19.20344350450998
  0
HATCH
  5
D0
330
1F
100
AcDbEntity
  8
중심선
100
AcDbHatch
 10
0.0
 20
0.0
 30
0.0
210
0.0
220
0.0
230
1.0
  2
SOLID
 70
     1
 71
     0
 91
        1
 92
        0
 93
        6
 72
     3
 10
9.972598694386171
 20
-20.813820741442
 11
3.960054785062283
 21
1.540882976769353E-10
 40
0.3939339440162628
 50
17.09539180608437
 51
320.0019657685081
 73
     0
 72
     1
 10
11.65559835008677
 20
-19.40171474602903
 11
13.9609002237878
 21
-17.46738803598111
 72
     3
 10
9.972598694333325
 20
-20.81382074139088
 11
6.600054785286829
 21
-1.278976924368180E-13
 40
0.636358354079598
 50
39.99873849337411
 51
368.4976242363725
 73
     1
 72
     1
 10
16.39793118623393
 20
-19.85382074132075
 11
8.652666001169246
 21
-19.85382074132072
 72
     1
 10
8.652666001169248
 20
-19.85382074132072
 11
8.652640956723314
 21
-21.77382074132064
 72
     1
 10
8.652640956723314
 20
-21.77382074132064
 11
13.09402072619535
 21
-21.77382074132061
 97
        0
 75
     0
 76
     1
 98
        1
 10
9.207130447367803
 20
19.20344350450998
  0
POINT
  5
D1
330
1F
100
AcDbEntity
  8
치수문자_일반주서
100
AcDbPoint
 10
-40.79999999999386
 20
0.0000000000000005
 30
0.0
  0
DIMENSION
  5
DD
330
1F
100
AcDbEntity
  8
치수문자_일반주서
100
AcDbDimension
  2
_D_1
 10
10.00000000000616
 20
25.37591845233051
 30
0.0
 11
29.05000000000615
 21
25.37591845233051
 31
0.0
 70
   160
  1
<>
 71
     2
 42
38.10000000000001
  3
SLDDIMSTYLE1
100
AcDbAlignedDimension
 13
48.10000000000616
 23
4.76250000000002
 33
0.0
 14
10.00000000000616
 24
4.762500000000016
 34
0.0
 50
0.0000000000000214
100
AcDbRotatedDimension
1001
ACAD
1000
DSTYLE
1002
{
1070
   171
1070
     6
1070
   273
1070
     5
1002
}
  0
DIMENSION
  5
F1
330
1F
100
AcDbEntity
  8
치수문자_일반주서
100
AcDbDimension
  2
_D_2
 10
-40.79999999999384
 20
43.39860365728745
 30
0.0
 11
3.650000000006155
 21
43.39860365728745
 31
0.0
 70
   160
  1
<>
 71
     2
 42
88.9
  3
SLDDIMSTYLE1
100
AcDbAlignedDimension
 13
48.10000000000616
 23
4.76250000000002
 33
0.0
 14
-40.79999999999384
 24
4.262500000000009
 34
0.0
100
AcDbRotatedDimension
1001
ACAD
1000
DSTYLE
1002
{
1070
   171
1070
     6
1070
   273
1070
     5
1002
}
  0
DIMENSION
  5
104
330
1F
100
AcDbEntity
  8
치수문자_일반주서
100
AcDbDimension
  2
_D_3
 10
-49.50160442485269
 20
-4.762500000000024
 30
0.0
 11
-49.5016044248528
 21
24.71024999999998
 31
0.0
 70
   160
  1
%%c<>
 71
     2
 42
9.525
 52
-270.0
  3
SLDDIMSTYLE2
100
AcDbAlignedDimension
 13
-40.29999999999384
 23
4.762500000000014
 33
0.0
 14
-40.29999999999384
 24
-4.762499999999987
 34
0.0
 50
90.0000000000002
100
AcDbRotatedDimension
1001
ACAD
1000
DSTYLE
1002
{
1070
   171
1070
     6
1070
   273
1070
     5
1002
}
  0
INSERT
  5
11F
330
1F
100
AcDbEntity
  8
외형선
100
AcDbBlockReference
  2
SW_DOWELSYMBOL_0
 10
0.0
 20
0.0
 30
0.0
  0
DIMENSION
  5
148
102
{ACAD_REACTORS
102
}
102
{ACAD_XDICTIONARY
360
149
102
}
330
1F
100
AcDbEntity
  8
치수문자_일반주서
100
AcDbDimension
  2
*D7
 10
56.44435531179073
 20
4.762500000000019
 30
0.0
 11
53.81935531179073
 21
24.49150000000002
 31
0.0
 70
    32
  1
{Ø<>[]}
 71
     5
 42
9.525000000000004
  3
SLDDIMSTYLE2
100
AcDbAlignedDimension
 13
48.10000000000616
 23
-4.762499999999984
 33
0.0
 14
48.10000000000616
 24
4.76250000000002
 34
0.0
 50
90.0
100
AcDbRotatedDimension
1001
ACAD
1000
DSTYLE
1002
{
1070
   283
1070
     1
1070
   170
1070
     1
1070
   171
1070
     6
1070
   273
1070
     5
1002
}
  0
ENDSEC
  0
SECTION
  2
OBJECTS
  0
DICTIONARY
  5
C
330
0
100
AcDbDictionary
281
     1
  3
ACAD_GROUP
350
D
  3
ACAD_IMAGE_VARS
350
143
  3
ACAD_LAYOUT
350
1A
  3
ACAD_MLINESTYLE
350
17
  3
ACAD_PLOTSETTINGS
350
19
  3
ACAD_PLOTSTYLENAME
350
E
  3
ACAD_SCALELIST
350
47
  3
APPDATA
350
141
  3
DWGPROPS
350
15F
  0
DICTIONARY
  5
149
330
148
100
AcDbDictionary
280
     1
281
     1
  0
DICTIONARY
  5
D
102
{ACAD_REACTORS
330
C
102
}
330
C
100
AcDbDictionary
281
     1
  0
RASTERVARIABLES
  5
143
102
{ACAD_REACTORS
330
C
102
}
330
C
100
AcDbRasterVariables
 90
        0
 70
     1
 71
     1
 72
     1
  0
DICTIONARY
  5
1A
102
{ACAD_REACTORS
330
C
102
}
330
C
100
AcDbDictionary
281
     1
  3
Layout1
350
1E
  3
Layout2
350
26
  3
Model
350
22
  0
DICTIONARY
  5
17
102
{ACAD_REACTORS
330
C
102
}
330
C
100
AcDbDictionary
281
     1
  3
Standard
350
18
  0
DICTIONARY
  5
19
102
{ACAD_REACTORS
330
C
102
}
330
C
100
AcDbDictionary
281
     1
  0
ACDBDICTIONARYWDFLT
  5
E
102
{ACAD_REACTORS
330
C
102
}
330
C
100
AcDbDictionary
281
     1
  3
Normal
350
F
100
AcDbDictionaryWithDefault
340
F
  0
DICTIONARY
  5
47
102
{ACAD_REACTORS
330
C
102
}
330
C
100
AcDbDictionary
281
     1
  3
A0
350
48
  3
A1
350
49
  3
A2
350
4A
  3
A3
350
4B
  3
A4
350
4C
  3
A5
350
4D
  3
A6
350
4E
  3
A7
350
4F
  3
A8
350
50
  3
A9
350
51
  3
B0
350
52
  3
B1
350
53
  3
B2
350
54
  3
B3
350
55
  3
B4
350
56
  3
B5
350
57
  3
B6
350
58
  3
B7
350
59
  3
B8
350
5A
  3
B9
350
5B
  3
C0
350
5C
  3
C1
350
5D
  3
C2
350
5E
  3
C3
350
5F
  3
C4
350
60
  3
C5
350
61
  3
C6
350
62
  3
C7
350
63
  3
C8
350
64
  3
C9
350
65
  3
D0
350
66
  3
D1
350
67
  3
D2
350
68
  0
DICTIONARY
  5
141
102
{ACAD_REACTORS
330
C
102
}
330
C
100
AcDbDictionary
281
     1
  0
XRECORD
  5
15F
102
{ACAD_REACTORS
330
C
102
}
330
C
100
AcDbXrecord
280
     1
  1
DWGPROPS COOKIE
  2

  3

  4

  6

  7

  8
12014074
  9

300
=
301
=
302
=
303
=
304
=
305
=
306
=
307
=
308
=
309
=
 40
0.0
 41
2458269.021312488
 42
2458269.458860046
  1

 90
        0
  0
LAYOUT
  5
1E
102
{ACAD_REACTORS
330
1A
102
}
330
1A
100
AcDbPlotSettings
  1

  2
none_device
  4

  6

 40
0.0
 41
0.0
 42
0.0
 43
0.0
 44
0.0
 45
0.0
 46
0.0
 47
0.0
 48
0.0
 49
0.0
140
0.0
141
0.0
142
1.0
143
1.0
 70
   688
 72
     1
 73
     0
 74
     5
  7

 75
    16
147
1.0
148
0.0
149
0.0
100
AcDbLayout
  1
Layout1
 70
     1
 71
     1
 10
0.0
 20
0.0
 11
420.0
 21
297.0
 12
0.0
 22
0.0
 32
0.0
 14
1.000000000000000E+20
 24
1.000000000000000E+20
 34
1.000000000000000E+20
 15
-1.000000000000000E+20
 25
-1.000000000000000E+20
 35
-1.000000000000000E+20
146
0.0
 13
0.0
 23
0.0
 33
0.0
 16
1.0
 26
0.0
 36
0.0
 17
0.0
 27
1.0
 37
0.0
 76
     0
330
1B
  0
LAYOUT
  5
26
102
{ACAD_REACTORS
330
1A
102
}
330
1A
100
AcDbPlotSettings
  1

  2
none_device
  4

  6

 40
0.0
 41
0.0
 42
0.0
 43
0.0
 44
0.0
 45
0.0
 46
0.0
 47
0.0
 48
0.0
 49
0.0
140
0.0
141
0.0
142
1.0
143
1.0
 70
   688
 72
     1
 73
     0
 74
     5
  7

 75
    16
147
1.0
148
0.0
149
0.0
100
AcDbLayout
  1
Layout2
 70
     1
 71
     2
 10
0.0
 20
0.0
 11
0.0
 21
0.0
 12
0.0
 22
0.0
 32
0.0
 14
0.0
 24
0.0
 34
0.0
 15
0.0
 25
0.0
 35
0.0
146
0.0
 13
0.0
 23
0.0
 33
0.0
 16
1.0
 26
0.0
 36
0.0
 17
0.0
 27
1.0
 37
0.0
 76
     0
330
23
  0
LAYOUT
  5
22
102
{ACAD_REACTORS
330
1A
102
}
330
1A
100
AcDbPlotSettings
  1

  2
none_device
  4
ANSI_A_(11.00_x_8.50_Inches)
  6

 40
6.35
 41
19.05
 42
6.35000508
 43
19.05000254
 44
279.4
 45
215.9
 46
149.6394903326361
 47
85.37740880163304
 48
0.0
 49
0.0
140
0.0
141
0.0
142
0.0802005077533458
143
1.0
 70
  1696
 72
     0
 73
     0
 74
     0
  7

 75
     0
147
0.0235690232323232
148
0.0
149
0.0
100
AcDbLayout
  1
Model
 70
     1
 71
     0
 10
0.0
 20
0.0
 11
420.0
 21
297.0
 12
0.0
 22
0.0
 32
0.0
 14
-53.87660442485285
 24
-30.78562813020247
 34
0.0
 15
56.99468864511792
 25
47.77360365728745
 35
0.0
146
0.0
 13
0.0
 23
0.0
 33
0.0
 16
1.0
 26
0.0
 36
0.0
 17
0.0
 27
1.0
 37
0.0
 76
     0
330
1F
331
29
  0
MLINESTYLE
  5
18
102
{ACAD_REACTORS
330
17
102
}
330
17
100
AcDbMlineStyle
  2
Standard
 70
     0
  3

 62
   256
 51
90.0
 52
90.0
 71
     2
 49
0.5
 62
   256
  6
BYLAYER
 49
-0.5
 62
   256
  6
BYLAYER
  0
ACDBPLACEHOLDER
  5
F
102
{ACAD_REACTORS
330
E
102
}
330
E
  0
SCALE
  5
48
102
{ACAD_REACTORS
330
47
102
}
330
47
100
AcDbScale
 70
     0
300
1:1
140
1.0
141
1.0
290
     1
  0
SCALE
  5
49
102
{ACAD_REACTORS
330
47
102
}
330
47
100
AcDbScale
 70
     0
300
1:2
140
1.0
141
2.0
290
     0
  0
SCALE
  5
4A
102
{ACAD_REACTORS
330
47
102
}
330
47
100
AcDbScale
 70
     0
300
1:4
140
1.0
141
4.0
290
     0
  0
SCALE
  5
4B
102
{ACAD_REACTORS
330
47
102
}
330
47
100
AcDbScale
 70
     0
300
1:5
140
1.0
141
5.0
290
     0
  0
SCALE
  5
4C
102
{ACAD_REACTORS
330
47
102
}
330
47
100
AcDbScale
 70
     0
300
1:8
140
1.0
141
8.0
290
     0
  0
SCALE
  5
4D
102
{ACAD_REACTORS
330
47
102
}
330
47
100
AcDbScale
 70
     0
300
1:10
140
1.0
141
10.0
290
     0
  0
SCALE
  5
4E
102
{ACAD_REACTORS
330
47
102
}
330
47
100
AcDbScale
 70
     0
300
1:16
140
1.0
141
16.0
290
     0
  0
SCALE
  5
4F
102
{ACAD_REACTORS
330
47
102
}
330
47
100
AcDbScale
 70
     0
300
1:20
140
1.0
141
20.0
290
     0
  0
SCALE
  5
50
102
{ACAD_REACTORS
330
47
102
}
330
47
100
AcDbScale
 70
     0
300
1:30
140
1.0
141
30.0
290
     0
  0
SCALE
  5
51
102
{ACAD_REACTORS
330
47
102
}
330
47
100
AcDbScale
 70
     0
300
1:40
140
1.0
141
40.0
290
     0
  0
SCALE
  5
52
102
{ACAD_REACTORS
330
47
102
}
330
47
100
AcDbScale
 70
     0
300
1:50
140
1.0
141
50.0
290
     0
  0
SCALE
  5
53
102
{ACAD_REACTORS
330
47
102
}
330
47
100
AcDbScale
 70
     0
300
1:100
140
1.0
141
100.0
290
     0
  0
SCALE
  5
54
102
{ACAD_REACTORS
330
47
102
}
330
47
100
AcDbScale
 70
     0
300
2:1
140
2.0
141
1.0
290
     0
  0
SCALE
  5
55
102
{ACAD_REACTORS
330
47
102
}
330
47
100
AcDbScale
 70
     0
300
4:1
140
4.0
141
1.0
290
     0
  0
SCALE
  5
56
102
{ACAD_REACTORS
330
47
102
}
330
47
100
AcDbScale
 70
     0
300
8:1
140
8.0
141
1.0
290
     0
  0
SCALE
  5
57
102
{ACAD_REACTORS
330
47
102
}
330
47
100
AcDbScale
 70
     0
300
10:1
140
10.0
141
1.0
290
     0
  0
SCALE
  5
58
102
{ACAD_REACTORS
330
47
102
}
330
47
100
AcDbScale
 70
     0
300
100:1
140
100.0
141
1.0
290
     0
  0
SCALE
  5
59
102
{ACAD_REACTORS
330
47
102
}
330
47
100
AcDbScale
 70
     0
300
1/128" = 1'-0"
140
0.0078125
141
12.0
290
     0
  0
SCALE
  5
5A
102
{ACAD_REACTORS
330
47
102
}
330
47
100
AcDbScale
 70
     0
300
1/64" = 1'-0"
140
0.015625
141
12.0
290
     0
  0
SCALE
  5
5B
102
{ACAD_REACTORS
330
47
102
}
330
47
100
AcDbScale
 70
     0
300
1/32" = 1'-0"
140
0.03125
141
12.0
290
     0
  0
SCALE
  5
5C
102
{ACAD_REACTORS
330
47
102
}
330
47
100
AcDbScale
 70
     0
300
1/16" = 1'-0"
140
0.0625
141
12.0
290
     0
  0
SCALE
  5
5D
102
{ACAD_REACTORS
330
47
102
}
330
47
100
AcDbScale
 70
     0
300
3/32" = 1'-0"
140
0.09375
141
12.0
290
     0
  0
SCALE
  5
5E
102
{ACAD_REACTORS
330
47
102
}
330
47
100
AcDbScale
 70
     0
300
1/8" = 1'-0"
140
0.125
141
12.0
290
     0
  0
SCALE
  5
5F
102
{ACAD_REACTORS
330
47
102
}
330
47
100
AcDbScale
 70
     0
300
3/16" = 1'-0"
140
0.1875
141
12.0
290
     0
  0
SCALE
  5
60
102
{ACAD_REACTORS
330
47
102
}
330
47
100
AcDbScale
 70
     0
300
1/4" = 1'-0"
140
0.25
141
12.0
290
     0
  0
SCALE
  5
61
102
{ACAD_REACTORS
330
47
102
}
330
47
100
AcDbScale
 70
     0
300
3/8" = 1'-0"
140
0.375
141
12.0
290
     0
  0
SCALE
  5
62
102
{ACAD_REACTORS
330
47
102
}
330
47
100
AcDbScale
 70
     0
300
1/2" = 1'-0"
140
0.5
141
12.0
290
     0
  0
SCALE
  5
63
102
{ACAD_REACTORS
330
47
102
}
330
47
100
AcDbScale
 70
     0
300
3/4" = 1'-0"
140
0.75
141
12.0
290
     0
  0
SCALE
  5
64
102
{ACAD_REACTORS
330
47
102
}
330
47
100
AcDbScale
 70
     0
300
1" = 1'-0"
140
1.0
141
12.0
290
     0
  0
SCALE
  5
65
102
{ACAD_REACTORS
330
47
102
}
330
47
100
AcDbScale
 70
     0
300
1-1/2" = 1'-0"
140
1.5
141
12.0
290
     0
  0
SCALE
  5
66
102
{ACAD_REACTORS
330
47
102
}
330
47
100
AcDbScale
 70
     0
300
3" = 1'-0"
140
3.0
141
12.0
290
     0
  0
SCALE
  5
67
102
{ACAD_REACTORS
330
47
102
}
330
47
100
AcDbScale
 70
     0
300
6" = 1'-0"
140
6.0
141
12.0
290
     0
  0
SCALE
  5
68
102
{ACAD_REACTORS
330
47
102
}
330
47
100
AcDbScale
 70
     0
300
1'-0" = 1'-0"
140
12.0
141
12.0
290
     0
  0
ENDSEC
  0
EOF
