  0
SECTION
  2
HEADER
  9
$ACADVER
  1
AC1015
  9
$ACADMAINTVER
 70
     6
  9
$DWGCODEPAGE
  3
ANSI_949
  9
$INSBASE
 10
0.0
 20
0.0
 30
0.0
  9
$EXTMIN
 10
-54.73302688928089
 20
-33.27414383349431
 30
0.0
  9
$EXTMAX
 10
68.4434646873424
 20
48.56735365728746
 30
0.0
  9
$LIMMIN
 10
0.0
 20
0.0
  9
$LIMMAX
 10
420.0
 20
297.0
  9
$ORTHOMODE
 70
     0
  9
$REGENMODE
 70
     1
  9
$FILLMODE
 70
     1
  9
$QTEXTMODE
 70
     0
  9
$MIRRTEXT
 70
     1
  9
$LTSCALE
 40
1.0
  9
$ATTMODE
 70
     1
  9
$TEXTSIZE
 40
3.5
  9
$TRACEWID
 40
1.0
  9
$TEXTSTYLE
  7
Standard
  9
$CLAYER
  8
0
  9
$CELTYPE
  6
ByLayer
  9
$CECOLOR
 62
   256
  9
$CELTSCALE
 40
1.0
  9
$DISPSILH
 70
     0
  9
$DIMSCALE
 40
1.0
  9
$DIMASZ
 40
3.302
  9
$DIMEXO
 40
1.0
  9
$DIMDLI
 40
3.75
  9
$DIMRND
 40
0.0
  9
$DIMDLE
 40
0.0
  9
$DIMEXE
 40
1.0
  9
$DIMTP
 40
0.0
  9
$DIMTM
 40
0.0
  9
$DIMTXT
 40
3.5
  9
$DIMCEN
 40
2.5
  9
$DIMTSZ
 40
0.0
  9
$DIMTOL
 70
     0
  9
$DIMLIM
 70
     0
  9
$DIMTIH
 70
     1
  9
$DIMTOH
 70
     1
  9
$DIMSE1
 70
     0
  9
$DIMSE2
 70
     0
  9
$DIMTAD
 70
     1
  9
$DIMZIN
 70
     0
  9
$DIMBLK
  1

  9
$DIMASO
 70
     1
  9
$DIMSHO
 70
     1
  9
$DIMPOST
  1

  9
$DIMAPOST
  1

  9
$DIMALT
 70
     0
  9
$DIMALTD
 70
     3
  9
$DIMALTF
 40
0.0393700787401575
  9
$DIMLFAC
 40
1.0
  9
$DIMTOFL
 70
     1
  9
$DIMTVP
 40
0.0
  9
$DIMTIX
 70
     0
  9
$DIMSOXD
 70
     0
  9
$DIMSAH
 70
     0
  9
$DIMBLK1
  1

  9
$DIMBLK2
  1

  9
$DIMSTYLE
  2
ISO-25
  9
$DIMCLRD
 70
     0
  9
$DIMCLRE
 70
     0
  9
$DIMCLRT
 70
     0
  9
$DIMTFAC
 40
1.0
  9
$DIMGAP
 40
1.524
  9
$DIMJUST
 70
     0
  9
$DIMSD1
 70
     0
  9
$DIMSD2
 70
     0
  9
$DIMTOLJ
 70
     0
  9
$DIMTZIN
 70
     0
  9
$DIMALTZ
 70
     0
  9
$DIMALTTZ
 70
     0
  9
$DIMUPT
 70
     0
  9
$DIMDEC
 70
     2
  9
$DIMTDEC
 70
     2
  9
$DIMALTU
 70
     2
  9
$DIMALTTD
 70
     3
  9
$DIMTXSTY
  7
Standard
  9
$DIMAUNIT
 70
     0
  9
$DIMADEC
 70
     2
  9
$DIMALTRND
 40
0.0
  9
$DIMAZIN
 70
     0
  9
$DIMDSEP
 70
    44
  9
$DIMATFIT
 70
     3
  9
$DIMFRAC
 70
     0
  9
$DIMLDRBLK
  1

  9
$DIMLUNIT
 70
     2
  9
$DIMLWD
 70
    -2
  9
$DIMLWE
 70
    -2
  9
$DIMTMOVE
 70
     0
  9
$LUNITS
 70
     2
  9
$LUPREC
 70
     2
  9
$SKETCHINC
 40
1.0
  9
$FILLETRAD
 40
10.0
  9
$AUNITS
 70
     0
  9
$AUPREC
 70
     2
  9
$MENU
  1
.
  9
$ELEVATION
 40
0.0
  9
$PELEVATION
 40
0.0
  9
$THICKNESS
 40
0.0
  9
$LIMCHECK
 70
     0
  9
$CHAMFERA
 40
0.0
  9
$CHAMFERB
 40
0.0
  9
$CHAMFERC
 40
0.0
  9
$CHAMFERD
 40
0.0
  9
$SKPOLY
 70
     0
  9
$TDCREATE
 40
2458269.396693634
  9
$TDUCREATE
 40
2458269.021693634
  9
$TDUPDATE
 40
2458269.833678449
  9
$TDUUPDATE
 40
2458269.458678449
  9
$TDINDWG
 40
0.0005574306
  9
$TDUSRTIMER
 40
2458269.458471366
  9
$USRTIMER
 70
     1
  9
$ANGBASE
 50
0.0
  9
$ANGDIR
 70
     0
  9
$PDMODE
 70
     0
  9
$PDSIZE
 40
-1.0
  9
$PLINEWID
 40
0.0
  9
$SPLFRAME
 70
     0
  9
$SPLINETYPE
 70
     6
  9
$SPLINESEGS
 70
     8
  9
$HANDSEED
  5
163
  9
$SURFTAB1
 70
     6
  9
$SURFTAB2
 70
     6
  9
$SURFTYPE
 70
     6
  9
$SURFU
 70
     6
  9
$SURFV
 70
     6
  9
$UCSBASE
  2

  9
$UCSNAME
  2

  9
$UCSORG
 10
0.0
 20
0.0
 30
0.0
  9
$UCSXDIR
 10
1.0
 20
0.0
 30
0.0
  9
$UCSYDIR
 10
0.0
 20
1.0
 30
0.0
  9
$UCSORTHOREF
  2

  9
$UCSORTHOVIEW
 70
     0
  9
$UCSORGTOP
 10
0.0
 20
0.0
 30
0.0
  9
$UCSORGBOTTOM
 10
0.0
 20
0.0
 30
0.0
  9
$UCSORGLEFT
 10
0.0
 20
0.0
 30
0.0
  9
$UCSORGRIGHT
 10
0.0
 20
0.0
 30
0.0
  9
$UCSORGFRONT
 10
0.0
 20
0.0
 30
0.0
  9
$UCSORGBACK
 10
0.0
 20
0.0
 30
0.0
  9
$PUCSBASE
  2

  9
$PUCSNAME
  2

  9
$PUCSORG
 10
0.0
 20
0.0
 30
0.0
  9
$PUCSXDIR
 10
1.0
 20
0.0
 30
0.0
  9
$PUCSYDIR
 10
0.0
 20
1.0
 30
0.0
  9
$PUCSORTHOREF
  2

  9
$PUCSORTHOVIEW
 70
     0
  9
$PUCSORGTOP
 10
0.0
 20
0.0
 30
0.0
  9
$PUCSORGBOTTOM
 10
0.0
 20
0.0
 30
0.0
  9
$PUCSORGLEFT
 10
0.0
 20
0.0
 30
0.0
  9
$PUCSORGRIGHT
 10
0.0
 20
0.0
 30
0.0
  9
$PUCSORGFRONT
 10
0.0
 20
0.0
 30
0.0
  9
$PUCSORGBACK
 10
0.0
 20
0.0
 30
0.0
  9
$USERI1
 70
     0
  9
$USERI2
 70
     0
  9
$USERI3
 70
     0
  9
$USERI4
 70
     0
  9
$USERI5
 70
     0
  9
$USERR1
 40
0.0
  9
$USERR2
 40
0.0
  9
$USERR3
 40
0.0
  9
$USERR4
 40
0.0
  9
$USERR5
 40
0.0
  9
$WORLDVIEW
 70
     1
  9
$SHADEDGE
 70
     3
  9
$SHADEDIF
 70
    70
  9
$TILEMODE
 70
     1
  9
$MAXACTVP
 70
    64
  9
$PINSBASE
 10
0.0
 20
0.0
 30
0.0
  9
$PLIMCHECK
 70
     0
  9
$PEXTMIN
 10
1.000000000000000E+20
 20
1.000000000000000E+20
 30
1.000000000000000E+20
  9
$PEXTMAX
 10
-1.000000000000000E+20
 20
-1.000000000000000E+20
 30
-1.000000000000000E+20
  9
$PLIMMIN
 10
0.0
 20
0.0
  9
$PLIMMAX
 10
0.0
 20
0.0
  9
$UNITMODE
 70
     0
  9
$VISRETAIN
 70
     1
  9
$PLINEGEN
 70
     0
  9
$PSLTSCALE
 70
     1
  9
$TREEDEPTH
 70
  3020
  9
$CMLSTYLE
  2
Standard
  9
$CMLJUST
 70
     0
  9
$CMLSCALE
 40
20.0
  9
$PROXYGRAPHICS
 70
     1
  9
$MEASUREMENT
 70
     1
  9
$CELWEIGHT
370
    -1
  9
$ENDCAPS
280
     0
  9
$JOINSTYLE
280
     0
  9
$LWDISPLAY
290
     1
  9
$INSUNITS
 70
     4
  9
$HYPERLINKBASE
  1

  9
$STYLESHEET
  1

  9
$XEDIT
290
     1
  9
$CEPSNTYPE
380
     0
  9
$PSTYLEMODE
290
     1
  9
$FINGERPRINTGUID
  2
{A2B4C341-FF30-4975-B576-64EA07149835}
  9
$VERSIONGUID
  2
{FAEB1C32-E019-11D5-929B-00C0DF256EC4}
  9
$EXTNAMES
290
     1
  9
$PSVPSCALE
 40
0.0
  9
$OLESTARTUP
290
     0
  0
ENDSEC
  0
SECTION
  2
CLASSES
  0
CLASS
  1
ACDBDICTIONARYWDFLT
  2
AcDbDictionaryWithDefault
  3
ObjectDBX Classes
 90
        0
280
     0
281
     0
  0
CLASS
  1
VISUALSTYLE
  2
AcDbVisualStyle
  3
ObjectDBX Classes
 90
     4095
280
     0
281
     0
  0
CLASS
  1
MATERIAL
  2
AcDbMaterial
  3
ObjectDBX Classes
 90
     1153
280
     0
281
     0
  0
CLASS
  1
SCALE
  2
AcDbScale
  3
ObjectDBX Classes
 90
     1153
280
     0
281
     0
  0
CLASS
  1
SUN
  2
AcDbSun
  3
SCENEOE
 90
     1153
280
     0
281
     0
  0
CLASS
  1
ACDBPLACEHOLDER
  2
AcDbPlaceHolder
  3
ObjectDBX Classes
 90
        0
280
     0
281
     0
  0
CLASS
  1
LAYOUT
  2
AcDbLayout
  3
ObjectDBX Classes
 90
        0
280
     0
281
     0
  0
CLASS
  1
TABLESTYLE
  2
AcDbTableStyle
  3
ObjectDBX Classes
 90
     4095
280
     0
281
     0
  0
CLASS
  1
MLEADERSTYLE
  2
AcDbMLeaderStyle
  3
ACDB_MLEADERSTYLE_CLASS
 90
     4095
280
     0
281
     0
  0
CLASS
  1
RASTERVARIABLES
  2
AcDbRasterVariables
  3
ISM
 90
        0
280
     0
281
     0
  0
CLASS
  1
DIMASSOC
  2
AcDbDimAssoc
  3
"AcDbDimAssoc|Product Desc:     AcDim ARX App For Dimension|Company:          Autodesk, Inc.|WEB Address:      www.autodesk.com"
 90
        0
280
     0
281
     0
  0
ENDSEC
  0
SECTION
  2
TABLES
  0
TABLE
  2
VPORT
  5
8
330
0
100
AcDbSymbolTable
 70
     1
  0
VPORT
  5
29
330
8
100
AcDbSymbolTableRecord
100
AcDbViewportTableRecord
  2
*Active
 70
     0
 10
0.0
 20
0.0
 11
1.0
 21
1.0
 12
36.17760050475537
 22
10.29424327449031
 13
0.0
 23
0.0
 14
10.0
 24
10.0
 15
10.0
 25
10.0
 16
0.0
 26
0.0
 36
1.0
 17
0.0
 27
0.0
 37
0.0
 40
109.2327931482031
 41
1.970186335403727
 42
50.0
 43
0.0
 44
0.0
 50
0.0
 51
0.0
 71
    16
 72
  2000
 73
     1
 74
     3
 75
     0
 76
     0
 77
     0
 78
     0
281
     0
 65
     1
110
0.0
120
0.0
130
0.0
111
1.0
121
0.0
131
0.0
112
0.0
122
1.0
132
0.0
 79
     0
146
0.0
  0
ENDTAB
  0
TABLE
  2
LTYPE
  5
5
330
0
100
AcDbSymbolTable
 70
     6
  0
LTYPE
  5
14
330
5
100
AcDbSymbolTableRecord
100
AcDbLinetypeTableRecord
  2
ByBlock
 70
     0
  3

 72
    65
 73
     0
 40
0.0
  0
LTYPE
  5
15
330
5
100
AcDbSymbolTableRecord
100
AcDbLinetypeTableRecord
  2
ByLayer
 70
     0
  3

 72
    65
 73
     0
 40
0.0
  0
LTYPE
  5
16
330
5
100
AcDbSymbolTableRecord
100
AcDbLinetypeTableRecord
  2
Continuous
 70
     0
  3
Solid line
 72
    65
 73
     0
 40
0.0
  0
LTYPE
  5
6A
330
5
100
AcDbSymbolTableRecord
100
AcDbLinetypeTableRecord
  2
HIDDEN
 70
     0
  3
Hidden __ __ __ __ __ __ __ __ __ __ __ __ __ __
 72
    65
 73
     2
 40
1.905
 49
1.27
 74
     0
 49
-0.635
 74
     0
  0
LTYPE
  5
6B
330
5
100
AcDbSymbolTableRecord
100
AcDbLinetypeTableRecord
  2
PHANTOM
 70
     0
  3
Phantom ______  __  __  ______  __  __  ______
 72
    65
 73
     6
 40
12.7
 49
6.35
 74
     0
 49
-1.27
 74
     0
 49
1.27
 74
     0
 49
-1.27
 74
     0
 49
1.27
 74
     0
 49
-1.27
 74
     0
  0
LTYPE
  5
6C
330
5
100
AcDbSymbolTableRecord
100
AcDbLinetypeTableRecord
  2
CENTER
 70
     0
  3
Center ____ _ ____ _ ____ _ ____ _ ____ _ ____
 72
    65
 73
     4
 40
10.16
 49
6.35
 74
     0
 49
-1.27
 74
     0
 49
1.27
 74
     0
 49
-1.27
 74
     0
  0
LTYPE
  5
6D
330
5
100
AcDbSymbolTableRecord
100
AcDbLinetypeTableRecord
  2
CENTERX2
 70
     0
  3
Center (2x) ________  __  ________  __  _____
 72
    65
 73
     4
 40
20.32
 49
12.7
 74
     0
 49
-2.54
 74
     0
 49
2.54
 74
     0
 49
-2.54
 74
     0
  0
LTYPE
  5
6E
330
5
100
AcDbSymbolTableRecord
100
AcDbLinetypeTableRecord
  2
DOT2
 70
     0
  3
Dot (.5x) ........................................
 72
    65
 73
     2
 40
0.635
 49
0.0
 74
     0
 49
-0.635
 74
     0
  0
ENDTAB
  0
TABLE
  2
LAYER
  5
2
330
0
100
AcDbSymbolTable
 70
    17
  0
LAYER
  5
10
330
2
100
AcDbSymbolTableRecord
100
AcDbLayerTableRecord
  2
0
 70
     0
 62
     7
  6
Continuous
370
    -3
390
F
  0
LAYER
  5
6F
330
2
100
AcDbSymbolTableRecord
100
AcDbLayerTableRecord
  2
FORMAT
 70
     0
 62
     2
  6
Continuous
370
    -3
390
F
  0
LAYER
  5
70
330
2
100
AcDbSymbolTableRecord
100
AcDbLayerTableRecord
  2
외형선
 70
     0
 62
   100
  6
Continuous
370
    30
390
F
  0
LAYER
  5
71
330
2
100
AcDbSymbolTableRecord
100
AcDbLayerTableRecord
  2
숨은선
 70
     0
 62
     2
  6
HIDDEN
370
    15
390
F
  0
LAYER
  5
72
330
2
100
AcDbSymbolTableRecord
100
AcDbLayerTableRecord
  2
중심선
 70
     0
 62
     1
  6
CENTERX2
370
    -3
390
F
  0
LAYER
  5
73
330
2
100
AcDbSymbolTableRecord
100
AcDbLayerTableRecord
  2
파단선
 70
     0
 62
     4
  6
Continuous
370
    -3
390
F
  0
LAYER
  5
74
330
2
100
AcDbSymbolTableRecord
100
AcDbLayerTableRecord
  2
해칭선
 70
     0
 62
     4
  6
Continuous
370
    -3
390
F
  0
LAYER
  5
75
330
2
100
AcDbSymbolTableRecord
100
AcDbLayerTableRecord
  2
가는실선
 70
     0
 62
     4
  6
Continuous
370
    -3
390
F
  0
LAYER
  5
76
330
2
100
AcDbSymbolTableRecord
100
AcDbLayerTableRecord
  2
치수_보조선
 70
     0
 62
     4
  6
Continuous
370
    -3
390
F
  0
LAYER
  5
77
330
2
100
AcDbSymbolTableRecord
100
AcDbLayerTableRecord
  2
치수문자_일반주서
 70
     0
 62
     7
  6
Continuous
370
    15
390
F
  0
LAYER
  5
78
330
2
100
AcDbSymbolTableRecord
100
AcDbLayerTableRecord
  2
개별주서
 70
     0
 62
   100
  6
Continuous
370
    30
390
F
  0
LAYER
  5
79
330
2
100
AcDbSymbolTableRecord
100
AcDbLayerTableRecord
  2
중간선
 70
     0
 62
     2
  6
Continuous
370
    15
390
F
  0
LAYER
  5
7A
330
2
100
AcDbSymbolTableRecord
100
AcDbLayerTableRecord
  2
윤곽선
 70
     0
 62
     3
  6
Continuous
370
    40
390
F
  0
LAYER
  5
7B
330
2
100
AcDbSymbolTableRecord
100
AcDbLayerTableRecord
  2
중심마크
 70
     0
 62
   100
  6
Continuous
370
    30
390
F
  0
LAYER
  5
7C
330
2
100
AcDbSymbolTableRecord
100
AcDbLayerTableRecord
  2
가상선
 70
     0
 62
     4
  6
PHANTOM
370
    -3
390
F
  0
LAYER
  5
7D
330
2
100
AcDbSymbolTableRecord
100
AcDbLayerTableRecord
  2
특수지정선
 70
     0
 62
     5
  6
CENTERX2
370
    60
390
F
  0
LAYER
  5
14A
330
2
100
AcDbSymbolTableRecord
100
AcDbLayerTableRecord
  2
Defpoints
 70
     0
 62
     7
  6
Continuous
290
     0
370
    -3
390
F
  0
ENDTAB
  0
TABLE
  2
STYLE
  5
3
330
0
100
AcDbSymbolTable
 70
     2
  0
STYLE
  5
11
330
3
100
AcDbSymbolTableRecord
100
AcDbTextStyleTableRecord
  2
Standard
 70
     0
 40
0.0
 41
1.0
 50
0.0
 71
     0
 42
3.5
  3
txt
  4

  0
STYLE
  5
93
330
3
100
AcDbSymbolTableRecord
100
AcDbTextStyleTableRecord
  2
SLDTEXTSTYLE0
 70
     0
 40
0.0
 41
0.75
 50
0.0
 71
     0
 42
3.5
  3
TXT
  4

  0
ENDTAB
  0
TABLE
  2
VIEW
  5
6
330
0
100
AcDbSymbolTable
 70
     0
  0
ENDTAB
  0
TABLE
  2
UCS
  5
7
330
0
100
AcDbSymbolTable
 70
     0
  0
ENDTAB
  0
TABLE
  2
APPID
  5
9
330
0
100
AcDbSymbolTable
 70
     2
  0
APPID
  5
12
330
9
100
AcDbSymbolTableRecord
100
AcDbRegAppTableRecord
  2
ACAD
 70
     0
  0
APPID
  5
160
330
9
100
AcDbSymbolTableRecord
100
AcDbRegAppTableRecord
  2
PE_DIMMEASUREMENT
 70
     0
  0
ENDTAB
  0
TABLE
  2
DIMSTYLE
  5
A
330
0
100
AcDbSymbolTable
 70
     4
100
AcDbDimStyleTable
  0
DIMSTYLE
105
27
330
A
100
AcDbSymbolTableRecord
100
AcDbDimStyleTableRecord
  2
ISO-25
 70
     0
 41
2.5
 42
0.625
 43
3.75
 44
1.25
 73
     0
 74
     0
 77
     1
 78
     8
140
2.5
141
2.5
143
0.03937007874016
147
0.625
171
     3
172
     1
178
     0
271
     2
272
     2
274
     3
278
    44
283
     0
284
     8
340
11
  0
DIMSTYLE
105
D7
330
A
100
AcDbSymbolTableRecord
100
AcDbDimStyleTableRecord
  2
SLDDIMSTYLE0
 70
     0
 41
3.302
 44
0.0
 45
0.000000001
 73
     0
 74
     0
 77
     1
 78
    12
 79
     3
140
3.5
147
0.875
173
     1
178
     0
271
     2
272
     2
276
     2
284
    12
340
93
  0
DIMSTYLE
105
E2
102
{ACAD_REACTORS
330
E1
330
F5
102
}
330
A
100
AcDbSymbolTableRecord
100
AcDbDimStyleTableRecord
  2
SLDDIMSTYLE1
 70
     0
 41
3.302
 44
0.0
 45
0.000000001
 73
     0
 74
     0
 77
     1
 78
     4
 79
     1
140
3.5
143
0.0393700787401575
147
0.875
148
0.000000001
170
     1
173
     1
178
     0
271
     2
272
     2
276
     2
284
    12
340
93
  0
DIMSTYLE
105
109
102
{ACAD_REACTORS
330
108
330
14B
102
}
330
A
100
AcDbSymbolTableRecord
100
AcDbDimStyleTableRecord
  2
SLDDIMSTYLE2
 70
     0
 41
3.302
 44
0.0
 45
0.000000001
 73
     0
 74
     0
 77
     1
 78
    12
 79
     3
140
3.5
143
0.0393700787401575
147
0.875
148
0.000000001
170
     1
172
     1
173
     1
178
     0
271
     2
272
     2
276
     2
284
    12
289
     0
340
93
  0
ENDTAB
  0
TABLE
  2
BLOCK_RECORD
  5
1
330
0
100
AcDbSymbolTable
 70
     8
  0
BLOCK_RECORD
  5
1F
330
1
100
AcDbSymbolTableRecord
100
AcDbBlockTableRecord
  2
*Model_Space
340
22
  0
BLOCK_RECORD
  5
1B
330
1
100
AcDbSymbolTableRecord
100
AcDbBlockTableRecord
  2
*Paper_Space
340
1E
  0
BLOCK_RECORD
  5
23
330
1
100
AcDbSymbolTableRecord
100
AcDbBlockTableRecord
  2
*Paper_Space0
340
26
  0
BLOCK_RECORD
  5
7E
330
1
100
AcDbSymbolTableRecord
100
AcDbBlockTableRecord
  2
블럭10
340
0
102
{BLKREFS
331
CE
102
}
  0
BLOCK_RECORD
  5
D8
330
1
100
AcDbSymbolTableRecord
100
AcDbBlockTableRecord
  2
_D
340
0
  0
BLOCK_RECORD
  5
E3
330
1
100
AcDbSymbolTableRecord
100
AcDbBlockTableRecord
  2
_D_1
340
0
  0
BLOCK_RECORD
  5
F6
330
1
100
AcDbSymbolTableRecord
100
AcDbBlockTableRecord
  2
_D_2
340
0
  0
BLOCK_RECORD
  5
10A
330
1
100
AcDbSymbolTableRecord
100
AcDbBlockTableRecord
  2
_D_3
340
0
  0
BLOCK_RECORD
  5
11D
330
1
100
AcDbSymbolTableRecord
100
AcDbBlockTableRecord
  2
SW_DOWELSYMBOL_0
340
0
102
{BLKREFS
331
123
102
}
  0
BLOCK_RECORD
  5
14E
330
1
100
AcDbSymbolTableRecord
100
AcDbBlockTableRecord
  2
*D7
340
0
  0
ENDTAB
  0
ENDSEC
  0
SECTION
  2
BLOCKS
  0
BLOCK
  5
20
330
1F
100
AcDbEntity
  8
0
100
AcDbBlockBegin
  2
*Model_Space
 70
     0
 10
0.0
 20
0.0
 30
0.0
  3
*Model_Space
  1
*Model_Space
  0
ENDBLK
  5
21
330
1F
100
AcDbEntity
  8
0
100
AcDbBlockEnd
  0
BLOCK
  5
1C
330
1B
100
AcDbEntity
 67
     1
  8
0
100
AcDbBlockBegin
  2
*Paper_Space
 70
     0
 10
0.0
 20
0.0
 30
0.0
  3
*Paper_Space
  1
*Paper_Space
  0
ENDBLK
  5
1D
330
1B
100
AcDbEntity
 67
     1
  8
0
100
AcDbBlockEnd
  0
BLOCK
  5
24
330
23
100
AcDbEntity
  8
0
100
AcDbBlockBegin
  2
*Paper_Space0
 70
     0
 10
0.0
 20
0.0
 30
0.0
  3
*Paper_Space0
  1
*Paper_Space0
  0
ENDBLK
  5
25
330
23
100
AcDbEntity
  8
0
100
AcDbBlockEnd
  0
BLOCK
  5
7F
330
7E
100
AcDbEntity
  8
0
100
AcDbBlockBegin
  2
블럭10
 70
     2
 10
0.0
 20
0.0
 30
0.0
  3
블럭10
  1
블럭10
  0
ELLIPSE
  5
81
330
7E
100
AcDbEntity
  8
중심선
100
AcDbEllipse
 10
20.54032771741204
 20
12.0471743016438
 30
0.0
 11
6.600054785286829
 21
-1.261213355974178E-13
 31
0.0
210
0.0
220
0.0
230
1.0
 40
0.636358354079598
 41
0.9219305317359503
 42
6.513795318482858
  0
ELLIPSE
  5
82
330
7E
100
AcDbEntity
  8
중심선
100
AcDbEllipse
 10
20.54032771746488
 20
12.04717430159265
 30
0.0
 11
3.960054785062283
 21
1.540847449632565E-10
 31
0.0
210
0.0
220
0.0
230
1.0
 40
0.3939339440162632
 41
1.131841032648279
 42
5.62031148352944
  0
LINE
  5
83
330
7E
100
AcDbEntity
  8
중심선
100
AcDbLine
 10
2.268634060543552
 20
16.24717430164393
 30
0.0
 11
5.714909304380834
 21
16.24717430164393
 31
0.0
  0
LINE
  5
84
330
7E
100
AcDbEntity
  8
중심선
100
AcDbLine
 10
5.245725140726316
 20
7.84717430164391
 30
0.0
 11
8.692000384563599
 21
7.84717430164391
 31
0.0
  0
LINE
  5
85
330
7E
100
AcDbEntity
  8
중심선
100
AcDbLine
 10
15.74043728645272
 20
16.24717430164393
 30
0.0
 11
8.692000384563599
 21
7.84717430164391
 31
0.0
  0
LINE
  5
86
330
7E
100
AcDbEntity
  8
중심선
100
AcDbLine
 10
0.1404042013395286
 20
13.71084872107135
 30
0.0
 11
3.58671253028996
 21
13.71088815037384
 31
0.0
  0
LINE
  5
87
330
7E
100
AcDbEntity
  8
중심선
100
AcDbLine
 10
2.750260043222114
 20
10.84717430164391
 30
0.0
 11
6.196535287059397
 21
10.84717430164391
 31
0.0
  0
LINE
  5
88
330
7E
100
AcDbEntity
  8
중심선
100
AcDbLine
 10
12.29416204261559
 20
16.24717430164393
 30
0.0
 11
5.245725140726316
 21
7.84717430164391
 31
0.0
  0
LINE
  5
89
330
7E
100
AcDbEntity
  8
중심선
100
AcDbLine
 10
10.72767329541681
 20
16.24717430164393
 30
0.0
 11
6.196535287059397
 21
10.84717430164391
 31
0.0
  0
LINE
  5
8A
330
7E
100
AcDbEntity
  8
중심선
100
AcDbLine
 10
7.28139805157953
 20
16.24717430164393
 30
0.0
 11
2.750260043222114
 21
10.84717430164391
 31
0.0
  0
LINE
  5
8B
330
7E
100
AcDbEntity
  8
중심선
100
AcDbLine
 10
5.714909304380834
 20
16.24717430164393
 30
0.0
 11
3.58671253028996
 21
13.71088815037384
 31
0.0
  0
LINE
  5
8C
330
7E
100
AcDbEntity
  8
중심선
100
AcDbLine
 10
2.268634060543552
 20
16.24717430164393
 30
0.0
 11
0.1404042013395286
 21
13.71084872107135
 31
0.0
  0
LINE
  5
8D
330
7E
100
AcDbEntity
  8
중심선
100
AcDbLine
 10
7.28139805157953
 20
16.24717430164393
 30
0.0
 11
10.72767329541681
 21
16.24717430164393
 31
0.0
  0
LINE
  5
8E
330
7E
100
AcDbEntity
  8
중심선
100
AcDbLine
 10
12.29416204261559
 20
16.24717430164393
 30
0.0
 11
15.74043728645272
 21
16.24717430164393
 31
0.0
  0
LINE
  5
8F
330
7E
100
AcDbEntity
  8
중심선
100
AcDbLine
 10
19.22036997980202
 20
11.08717430171403
 30
0.0
 11
23.66174974927406
 21
11.08717430171406
 31
0.0
  0
LINE
  5
90
330
7E
100
AcDbEntity
  8
중심선
100
AcDbLine
 10
19.22039502424796
 20
13.00717430171391
 30
0.0
 11
19.22036997980202
 21
11.08717430171403
 31
0.0
  0
LINE
  5
91
330
7E
100
AcDbEntity
  8
중심선
100
AcDbLine
 10
19.22039502424796
 20
13.00717430171391
 30
0.0
 11
26.96566020931264
 21
13.00717430171391
 31
0.0
  0
LINE
  5
92
330
7E
100
AcDbEntity
  8
중심선
100
AcDbLine
 10
22.22332737316547
 20
13.45928029700563
 30
0.0
 11
24.52862924686651
 21
15.39360700705356
 31
0.0
  0
ATTDEF
  5
94
330
7E
100
AcDbEntity
  8
FORMAT
 62
     2
100
AcDbText
 10
-9.18129528874128
 20
2.075366912832191
 30
0.0
 40
4.233333333333333
  1
E5982028 [ 3 FLUTE ]
 41
0.75
  7
SLDTEXTSTYLE0
 11
-9.18129528874128
 21
-0.0412997538344756
 31
0.0
100
AcDbAttributeDefinition
  3

  2
AUTOATTR0
 70
     0
 74
     1
  0
ENDBLK
  5
80
330
7E
100
AcDbEntity
  8
0
100
AcDbBlockEnd
  0
BLOCK
  5
D9
330
D8
100
AcDbEntity
  8
0
100
AcDbBlockBegin
  2
_D
 70
     0
 10
0.0
 20
0.0
 30
0.0
  3
_D
  1
_D
  0
SOLID
  5
DB
330
D8
100
AcDbEntity
  8
치수문자_일반주서
100
AcDbTrace
 10
-43.3
 20
-0.4854796965059789
 30
0.0
 11
-39.998
 21
-0.9934796965059789
 31
0.0
 12
-39.998
 22
0.0225203034940211
 32
0.0
 13
-39.998
 23
0.0225203034940211
 33
0.0
  0
SOLID
  5
DC
330
D8
100
AcDbEntity
  8
치수문자_일반주서
100
AcDbTrace
 10
28.16254243902305
 20
-0.4854796965059746
 30
0.0
 11
24.86054243902305
 21
0.0225203034940255
 31
0.0
 12
24.86054243902305
 22
-0.9934796965059746
 32
0.0
 13
24.86054243902305
 23
-0.9934796965059746
 33
0.0
  0
LINE
  5
DD
330
D8
100
AcDbEntity
  8
치수문자_일반주서
100
AcDbLine
 10
-43.3
 20
-0.9816608253754013
 30
0.0
 11
-43.3
 21
-1.485479696505979
 31
0.0
  0
LINE
  5
DE
330
D8
100
AcDbEntity
  8
치수문자_일반주서
100
AcDbLine
 10
28.16254243902305
 20
-0.9816608253754013
 30
0.0
 11
28.16254243902305
 21
-1.485479696505974
 31
0.0
  0
LINE
  5
DF
330
D8
100
AcDbEntity
  8
치수문자_일반주서
100
AcDbLine
 10
-43.3
 20
-0.4854796965059789
 30
0.0
 11
28.16254243902305
 21
-0.4854796965059746
 31
0.0
  0
MTEXT
  5
E0
330
D8
100
AcDbEntity
  8
치수문자_일반주서
100
AcDbMText
 10
16.97950331063597
 20
4.02625721807292
 30
0.0
 40
3.5
 41
0.0
 71
     1
 72
     1
  1
71.46
  7
SLDTEXTSTYLE0
 73
     1
 44
1.0
  0
ENDBLK
  5
DA
330
D8
100
AcDbEntity
  8
0
100
AcDbBlockEnd
  0
BLOCK
  5
E4
330
E3
100
AcDbEntity
  8
0
100
AcDbBlockBegin
  2
_D_1
 70
     0
 10
0.0
 20
0.0
 30
0.0
  3
_D_1
  1
_D_1
  0
LINE
  5
E6
330
E3
100
AcDbEntity
  8
치수문자_일반주서
 62
     0
370
    -2
100
AcDbLine
 10
60.8
 20
5.61875000000002
 30
0.0
 11
60.8
 21
26.1696684523305
 31
0.0
  0
LINE
  5
E7
330
E3
100
AcDbEntity
  8
치수문자_일반주서
 62
     0
370
    -2
100
AcDbLine
 10
9.999999999999996
 20
4.303111362685222
 30
0.0
 11
9.999999999999996
 21
26.1696684523305
 31
0.0
  0
LINE
  5
E8
330
E3
100
AcDbEntity
  8
치수문자_일반주서
 62
     0
370
    -2
100
AcDbLine
 10
57.498
 20
26.1696684523305
 30
0.0
 11
13.302
 21
26.1696684523305
 31
0.0
  0
SOLID
  5
E9
330
E3
100
AcDbEntity
  8
치수문자_일반주서
 62
     0
100
AcDbTrace
 10
57.498
 20
25.61933511899717
 30
0.0
 11
57.498
 21
26.72000178566384
 31
0.0
 12
60.8
 22
26.1696684523305
 32
0.0
 13
60.8
 23
26.1696684523305
 33
0.0
  0
SOLID
  5
EA
330
E3
100
AcDbEntity
  8
치수문자_일반주서
 62
     0
100
AcDbTrace
 10
13.302
 20
26.72000178566384
 30
0.0
 11
13.302
 21
25.61933511899717
 31
0.0
 12
9.999999999999996
 22
26.1696684523305
 32
0.0
 13
9.999999999999996
 23
26.1696684523305
 33
0.0
  0
MTEXT
  5
EB
330
E3
100
AcDbEntity
  8
치수문자_일반주서
 62
     0
100
AcDbMText
 10
35.39999999999998
 20
30.5446684523305
 30
0.0
 40
3.5
 41
0.0
 71
     2
 72
     1
  1
\A1;50.80 [2]
  7
SLDTEXTSTYLE0
 73
     1
 44
1.0
  0
POINT
  5
EC
330
E3
100
AcDbEntity
  8
Defpoints
 62
     0
100
AcDbPoint
 10
60.8
 20
5.55625000000002
 30
0.0
  0
POINT
  5
ED
330
E3
100
AcDbEntity
  8
Defpoints
 62
     0
100
AcDbPoint
 10
9.999999999999996
 20
4.240611362685222
 30
0.0
  0
POINT
  5
EE
330
E3
100
AcDbEntity
  8
Defpoints
 62
     0
100
AcDbPoint
 10
9.999999999999996
 20
26.1696684523305
 30
0.0
  0
ENDBLK
  5
E5
330
E3
100
AcDbEntity
  8
0
100
AcDbBlockEnd
  0
BLOCK
  5
F7
330
F6
100
AcDbEntity
  8
0
100
AcDbBlockBegin
  2
_D_2
 70
     0
 10
0.0
 20
0.0
 30
0.0
  3
_D_2
  1
_D_2
  0
LINE
  5
F9
330
F6
100
AcDbEntity
  8
치수문자_일반주서
 62
     0
370
    -2
100
AcDbLine
 10
60.8
 20
5.61875000000002
 30
0.0
 11
60.8
 21
44.19235365728746
 31
0.0
  0
LINE
  5
FA
330
F6
100
AcDbEntity
  8
치수문자_일반주서
 62
     0
370
    -2
100
AcDbLine
 10
-40.8
 20
5.118750000000009
 30
0.0
 11
-40.8
 21
44.19235365728746
 31
0.0
  0
LINE
  5
FB
330
F6
100
AcDbEntity
  8
치수문자_일반주서
 62
     0
370
    -2
100
AcDbLine
 10
57.498
 20
44.19235365728746
 30
0.0
 11
-37.498
 21
44.19235365728746
 31
0.0
  0
SOLID
  5
FC
330
F6
100
AcDbEntity
  8
치수문자_일반주서
 62
     0
100
AcDbTrace
 10
57.498
 20
43.64202032395412
 30
0.0
 11
57.498
 21
44.74268699062079
 31
0.0
 12
60.8
 22
44.19235365728746
 32
0.0
 13
60.8
 23
44.19235365728746
 33
0.0
  0
SOLID
  5
FD
330
F6
100
AcDbEntity
  8
치수문자_일반주서
 62
     0
100
AcDbTrace
 10
-37.498
 20
44.74268699062079
 30
0.0
 11
-37.498
 21
43.64202032395412
 31
0.0
 12
-40.8
 22
44.19235365728746
 32
0.0
 13
-40.8
 23
44.19235365728746
 33
0.0
  0
MTEXT
  5
FE
330
F6
100
AcDbEntity
  8
치수문자_일반주서
 62
     0
100
AcDbMText
 10
9.999999999999998
 20
48.56735365728746
 30
0.0
 40
3.5
 41
0.0
 71
     2
 72
     1
  1
\A1;101.60 [4]
  7
SLDTEXTSTYLE0
 73
     1
 44
1.0
  0
POINT
  5
FF
330
F6
100
AcDbEntity
  8
Defpoints
 62
     0
100
AcDbPoint
 10
60.8
 20
5.55625000000002
 30
0.0
  0
POINT
  5
100
330
F6
100
AcDbEntity
  8
Defpoints
 62
     0
100
AcDbPoint
 10
-40.8
 20
5.056250000000009
 30
0.0
  0
POINT
  5
101
330
F6
100
AcDbEntity
  8
Defpoints
 62
     0
100
AcDbPoint
 10
-40.8
 20
44.19235365728746
 30
0.0
  0
ENDBLK
  5
F8
330
F6
100
AcDbEntity
  8
0
100
AcDbBlockEnd
  0
BLOCK
  5
10B
330
10A
100
AcDbEntity
  8
0
100
AcDbBlockBegin
  2
_D_3
 70
     0
 10
0.0
 20
0.0
 30
0.0
  3
_D_3
  1
_D_3
  0
LINE
  5
10D
330
10A
100
AcDbEntity
  8
치수문자_일반주서
 62
     0
370
    -2
100
AcDbLine
 10
-40.3625
 20
5.556250000000012
 30
0.0
 11
-50.35802688928079
 21
5.556249999999974
 31
0.0
  0
LINE
  5
10E
330
10A
100
AcDbEntity
  8
치수문자_일반주서
 62
     0
370
    -2
100
AcDbLine
 10
-40.3625
 20
-5.556249999999989
 30
0.0
 11
-50.35802688928076
 21
-5.556250000000027
 31
0.0
  0
LINE
  5
10F
330
10A
100
AcDbEntity
  8
치수문자_일반주서
 62
     0
370
    -2
100
AcDbLine
 10
-50.35802688928079
 20
5.556249999999974
 30
0.0
 11
-50.3580268892809
 21
39.28524999999998
 31
0.0
  0
LINE
  5
110
330
10A
100
AcDbEntity
  8
치수문자_일반주서
 62
     0
370
    -2
100
AcDbLine
 10
-50.35802688928079
 20
5.556249999999974
 30
0.0
 11
-50.35802688928076
 21
-5.556250000000027
 31
0.0
  0
LINE
  5
111
330
10A
100
AcDbEntity
  8
치수문자_일반주서
 62
     0
370
    -2
100
AcDbLine
 10
-50.3580268892808
 20
8.858249999999973
 30
0.0
 11
-50.35802688928081
 21
12.16024999999997
 31
0.0
  0
LINE
  5
112
330
10A
100
AcDbEntity
  8
치수문자_일반주서
 62
     0
370
    -2
100
AcDbLine
 10
-50.35802688928075
 20
-8.858250000000027
 30
0.0
 11
-50.35802688928074
 21
-12.16025000000003
 31
0.0
  0
SOLID
  5
113
330
10A
100
AcDbEntity
  8
치수문자_일반주서
 62
     0
100
AcDbTrace
 10
-50.90836022261414
 20
8.858249999999972
 30
0.0
 11
-49.80769355594747
 21
8.858249999999975
 31
0.0
 12
-50.35802688928079
 22
5.556249999999974
 32
0.0
 13
-50.35802688928079
 23
5.556249999999974
 33
0.0
  0
SOLID
  5
114
330
10A
100
AcDbEntity
  8
치수문자_일반주서
 62
     0
100
AcDbTrace
 10
-49.80769355594742
 20
-8.858250000000025
 30
0.0
 11
-50.90836022261409
 21
-8.858250000000028
 31
0.0
 12
-50.35802688928076
 22
-5.556250000000027
 32
0.0
 13
-50.35802688928076
 23
-5.556250000000027
 33
0.0
  0
MTEXT
  5
115
330
10A
100
AcDbEntity
  8
치수문자_일반주서
 62
     0
100
AcDbMText
 10
-54.73302688928086
 20
25.72274999999996
 30
0.0
 40
3.5
 41
0.0
 71
     2
 72
     1
  1
\A1;%%c11.11 [7/16]
  7
SLDTEXTSTYLE0
 11
-3.197042680585377E-15
 21
1.0
 31
0.0
 73
     1
 44
1.0
  0
POINT
  5
116
330
10A
100
AcDbEntity
  8
Defpoints
 62
     0
100
AcDbPoint
 10
-40.3
 20
5.556250000000012
 30
0.0
  0
POINT
  5
117
330
10A
100
AcDbEntity
  8
Defpoints
 62
     0
100
AcDbPoint
 10
-40.3
 20
-5.556249999999989
 30
0.0
  0
POINT
  5
118
330
10A
100
AcDbEntity
  8
Defpoints
 62
     0
100
AcDbPoint
 10
-50.35802688928076
 20
-5.556250000000026
 30
0.0
  0
ENDBLK
  5
10C
330
10A
100
AcDbEntity
  8
0
100
AcDbBlockEnd
  0
BLOCK
  5
11E
330
11D
100
AcDbEntity
  8
0
100
AcDbBlockBegin
  2
SW_DOWELSYMBOL_0
 70
     0
 10
0.0
 20
0.0
 30
0.0
  3
SW_DOWELSYMBOL_0
  1
SW_DOWELSYMBOL_0
  0
CIRCLE
  5
120
330
11D
100
AcDbEntity
  8
외형선
 62
     0
100
AcDbCircle
 10
0.0
 20
0.0
 30
0.0
 40
3.000000000000008
  0
HATCH
  5
121
330
11D
100
AcDbEntity
  8
0
  6
Continuous
 62
     0
370
    30
100
AcDbHatch
 10
0.0
 20
0.0
 30
0.0
210
0.0
220
0.0
230
1.0
  2
SOLID
 70
     1
 71
     0
 91
        1
 92
        0
 93
        3
 72
     2
 10
0.0000000000000087
 20
0.0
 40
3.000000000000008
 50
0.0
 51
90.0
 73
     1
 72
     1
 10
0.0000000000000087
 20
3.000000000000008
 11
0.0000000000000087
 21
0.0
 72
     1
 10
0.0000000000000087
 20
0.0
 11
3.000000000000017
 21
0.0
 97
        0
 75
     0
 76
     1
 98
        1
 10
0.0
 20
0.0
  0
HATCH
  5
122
330
11D
100
AcDbEntity
  8
0
  6
Continuous
 62
     0
370
    30
100
AcDbHatch
 10
0.0
 20
0.0
 30
0.0
210
0.0
220
0.0
230
1.0
  2
SOLID
 70
     1
 71
     0
 91
        1
 92
        0
 93
        3
 72
     2
 10
0.0000000000000087
 20
0.0
 40
3.000000000000008
 50
180.0
 51
270.0000000000008
 73
     1
 72
     1
 10
0.0000000000000087
 20
-3.000000000000008
 11
0.0000000000000087
 21
0.0
 72
     1
 10
0.0000000000000087
 20
0.0
 11
-3.0
 21
0.0
 97
        0
 75
     0
 76
     1
 98
        1
 10
0.0
 20
0.0
  0
ENDBLK
  5
11F
330
11D
100
AcDbEntity
  8
0
100
AcDbBlockEnd
  0
BLOCK
  5
14F
330
14E
100
AcDbEntity
  8
0
100
AcDbBlockBegin
  2
*D7
 70
     1
 10
0.0
 20
0.0
 30
0.0
  3
*D7
  1
*D7
  0
LINE
  5
151
330
14E
100
AcDbEntity
  8
치수문자_일반주서
 62
     0
370
    -2
100
AcDbLine
 10
60.8625
 20
-5.556249999999986
 30
0.0
 11
67.89313135400907
 21
-5.556249999999986
 31
0.0
  0
LINE
  5
152
330
14E
100
AcDbEntity
  8
치수문자_일반주서
 62
     0
370
    -2
100
AcDbLine
 10
60.8625
 20
5.55625000000002
 30
0.0
 11
67.89313135400907
 21
5.55625000000002
 31
0.0
  0
LINE
  5
153
330
14E
100
AcDbEntity
  8
치수문자_일반주서
 62
     0
370
    -2
100
AcDbLine
 10
67.89313135400907
 20
8.85825000000002
 30
0.0
 11
67.89313135400907
 21
39.28525000000002
 31
0.0
  0
LINE
  5
154
330
14E
100
AcDbEntity
  8
치수문자_일반주서
 62
     0
370
    -2
100
AcDbLine
 10
67.89313135400907
 20
-5.556249999999986
 30
0.0
 11
67.89313135400907
 21
5.55625000000002
 31
0.0
  0
LINE
  5
155
330
14E
100
AcDbEntity
  8
치수문자_일반주서
 62
     0
370
    -2
100
AcDbLine
 10
67.89313135400907
 20
-8.858249999999986
 30
0.0
 11
67.89313135400907
 21
-12.16024999999999
 31
0.0
  0
SOLID
  5
156
330
14E
100
AcDbEntity
  8
치수문자_일반주서
 62
     0
100
AcDbTrace
 10
68.4434646873424
 20
-8.858249999999986
 30
0.0
 11
67.34279802067574
 21
-8.858249999999986
 31
0.0
 12
67.89313135400907
 22
-5.556249999999986
 32
0.0
 13
67.89313135400907
 23
-5.556249999999986
 33
0.0
  0
SOLID
  5
157
330
14E
100
AcDbEntity
  8
치수문자_일반주서
 62
     0
100
AcDbTrace
 10
67.34279802067574
 20
8.85825000000002
 30
0.0
 11
68.4434646873424
 21
8.85825000000002
 31
0.0
 12
67.89313135400907
 22
5.55625000000002
 32
0.0
 13
67.89313135400907
 23
5.55625000000002
 33
0.0
  0
MTEXT
  5
158
330
14E
100
AcDbEntity
  8
치수문자_일반주서
 62
     0
100
AcDbMText
 10
65.26813135400907
 20
25.72275000000002
 30
0.0
 40
3.5
 41
0.0
 71
     5
 72
     1
  1
\A1;{Ø11.11 [7/16]}
  7
SLDTEXTSTYLE0
 11
0.0
 21
1.0
 31
0.0
 73
     1
 44
1.0
  0
POINT
  5
159
330
14E
100
AcDbEntity
  8
Defpoints
 62
     0
100
AcDbPoint
 10
60.8
 20
-5.556249999999986
 30
0.0
  0
POINT
  5
15A
330
14E
100
AcDbEntity
  8
Defpoints
 62
     0
100
AcDbPoint
 10
60.8
 20
5.55625000000002
 30
0.0
  0
POINT
  5
15B
330
14E
100
AcDbEntity
  8
Defpoints
 62
     0
100
AcDbPoint
 10
67.89313135400907
 20
5.55625000000002
 30
0.0
  0
ENDBLK
  5
150
330
14E
100
AcDbEntity
  8
0
100
AcDbBlockEnd
  0
ENDSEC
  0
SECTION
  2
ENTITIES
  0
LINE
  5
95
330
1F
100
AcDbEntity
  8
0
  6
Continuous
 62
     4
370
    15
100
AcDbLine
 10
7.970346928418383
 20
5.556250000000015
 30
0.0
 11
-40.3
 21
5.556250000000012
 31
0.0
  0
LINE
  5
96
330
1F
100
AcDbEntity
  8
0
  6
Continuous
 62
     4
370
    15
100
AcDbLine
 10
-40.3
 20
-5.556249999999989
 30
0.0
 11
9.999999999999996
 21
-5.556249999999986
 31
0.0
  0
LINE
  5
97
330
1F
100
AcDbEntity
  8
0
  6
Continuous
 62
     4
370
    15
100
AcDbLine
 10
-40.3
 20
5.556250000000008
 30
0.0
 11
-40.8
 21
5.056250000000009
 31
0.0
  0
LINE
  5
98
330
1F
100
AcDbEntity
  8
0
  6
Continuous
 62
     4
370
    15
100
AcDbLine
 10
-40.8
 20
-5.056249999999988
 30
0.0
 11
-40.3
 21
-5.556249999999985
 31
0.0
  0
LINE
  5
99
330
1F
100
AcDbEntity
  8
0
  6
Continuous
 62
     1
370
    15
100
AcDbLine
 10
42.9970759244126
 20
-5.556249999999991
 30
0.0
 11
46.60104977370821
 21
-5.556249999999991
 31
0.0
  0
LINE
  5
9A
330
1F
100
AcDbEntity
  8
0
  6
Continuous
 62
     1
370
    15
100
AcDbLine
 10
10.0
 20
-5.556249999999991
 30
0.0
 11
11.69159862788301
 21
-5.556249999999991
 31
0.0
  0
LINE
  5
9B
330
1F
100
AcDbEntity
  8
0
  6
Continuous
 62
     1
370
    15
100
AcDbLine
 10
29.1460208524416
 20
5.55625000000002
 30
0.0
 11
25.54175428434137
 21
5.55625000000002
 31
0.0
  0
LINE
  5
9C
330
1F
100
AcDbEntity
  8
0
  6
Continuous
 62
     1
370
    15
100
AcDbLine
 10
60.8
 20
5.55625000000002
 30
0.0
 11
60.45186163887663
 21
5.55625000000002
 31
0.0
  0
LINE
  5
9D
330
1F
100
AcDbEntity
  8
0
  6
Continuous
 62
     1
370
    15
100
AcDbLine
 10
31.35908646183957
 20
-5.556249999999991
 30
0.0
 11
34.96557790149601
 21
-5.556249999999991
 31
0.0
  0
LINE
  5
9E
330
1F
100
AcDbEntity
  8
0
  6
Continuous
 62
     1
370
    15
100
AcDbLine
 10
17.50998559165427
 20
5.55625000000002
 30
0.0
 11
13.90323780594595
 21
5.55625000000002
 31
0.0
  0
LINE
  5
9F
330
1F
100
AcDbEntity
  8
0
  6
Continuous
 62
     1
370
    15
100
AcDbLine
 10
52.42074753438837
 20
5.55625000000002
 30
0.0
 11
48.81510893985452
 21
5.55625000000002
 31
0.0
  0
LINE
  5
A0
330
1F
100
AcDbEntity
  8
0
  6
Continuous
 62
     1
370
    15
100
AcDbLine
 10
54.6327377435894
 20
-5.556249999999991
 30
0.0
 11
58.23941417700552
 21
-5.556249999999991
 31
0.0
  0
LINE
  5
A1
330
1F
100
AcDbEntity
  8
0
  6
Continuous
 62
     1
370
    15
100
AcDbLine
 10
19.72239083629491
 20
-5.556249999999991
 30
0.0
 11
23.32741234939419
 21
-5.556249999999991
 31
0.0
  0
LINE
  5
A2
330
1F
100
AcDbEntity
  8
0
  6
Continuous
 62
     1
370
    15
100
AcDbLine
 10
40.78350582495676
 20
5.55625000000002
 30
0.0
 11
37.17732659155501
 21
5.55625000000002
 31
0.0
  0
SPLINE
  5
A3
330
1F
100
AcDbEntity
  8
0
  6
Continuous
 62
     4
370
    15
100
AcDbSpline
210
0.0
220
0.0
230
1.0
 70
     8
 71
     3
 72
    10
 73
     6
 74
     0
 42
0.000000001
 43
0.00000001
 40
0.0
 40
0.0
 40
0.0
 40
0.0
 40
0.5
 40
0.5
 40
1.0
 40
1.0
 40
1.0
 40
1.0
 10
8.297816764893385
 20
-4.551621726253488
 30
0.0
 10
8.191737009455823
 20
-4.490611370721784
 30
0.0
 10
8.10929465816733
 20
-4.415742031786429
 30
0.0
 10
7.998151037243955
 20
-4.24256948654936
 30
0.0
 10
7.970346928418383
 20
-4.14539625618005
 30
0.0
 10
7.970346928418383
 20
-4.042381807230731
 30
0.0
  0
SPLINE
  5
A4
330
1F
100
AcDbEntity
  8
0
  6
Continuous
 62
     4
370
    15
100
AcDbSpline
210
0.0
220
0.0
230
1.0
 70
     8
 71
     3
 72
    18
 73
    14
 74
     0
 42
0.000000001
 43
0.00000001
 40
0.0
 40
0.0
 40
0.0
 40
0.0
 40
0.125
 40
0.125
 40
0.25
 40
0.25
 40
0.5
 40
0.5
 40
0.75
 40
0.75
 40
0.875
 40
0.875
 40
1.0
 40
1.0
 40
1.0
 40
1.0
 10
7.970346928418385
 20
0.3220886096232038
 30
0.0
 10
7.970346928418385
 20
0.4327566002718631
 30
0.0
 10
7.985145166910059
 20
0.5407149034892142
 30
0.0
 10
8.045768621652183
 20
0.7510602366415742
 30
0.0
 10
8.091359900339565
 20
0.8511007558785197
 30
0.0
 10
8.26914986058
 20
1.123565018576872
 30
0.0
 10
8.44593297456181
 20
1.268822765108556
 30
0.0
 10
8.848455724423834
 20
1.435145239533764
 30
0.0
 10
9.078061328829449
 20
1.458593722775273
 30
0.0
 10
9.401263932339461
 20
1.397753000359883
 30
0.0
 10
9.50574121913549
 20
1.361967291909077
 30
0.0
 10
9.700245410856757
 20
1.261171552083921
 30
0.0
 10
9.78808338799219
 20
1.197735073695166
 30
0.0
 10
9.866326390734558
 20
1.120698997574006
 30
0.0
  0
LINE
  5
A5
330
1F
100
AcDbEntity
  8
0
  6
Continuous
 62
     4
370
    15
100
AcDbLine
 10
-40.3
 20
5.556250000000008
 30
0.0
 11
-40.3
 21
-5.556249999999989
 31
0.0
  0
LINE
  5
A6
330
1F
100
AcDbEntity
  8
0
  6
Continuous
 62
     1
370
    15
100
AcDbLine
 10
10.0
 20
-5.301059239890679
 30
0.0
 11
9.999999999999996
 21
-5.556249999999986
 31
0.0
  0
SPLINE
  5
A7
330
1F
100
AcDbEntity
  8
0
  6
Continuous
 62
     4
370
    15
100
AcDbSpline
210
0.0
220
0.0
230
1.0
 70
     8
 71
     3
 72
     8
 73
     4
 74
     0
 42
0.000000001
 43
0.00000001
 40
0.0
 40
0.0
 40
0.0
 40
0.0
 40
0.8368183051931598
 40
0.8368183051931598
 40
0.8368183051931598
 40
0.8368183051931598
 10
9.999999999999996
 20
4.240611362685222
 30
0.0
 10
9.962637308279424
 20
4.216390304563795
 30
0.0
 10
9.925374278491963
 20
4.191901438043411
 30
0.0
 10
9.888120060525791
 20
4.167130601674552
 30
0.0
  0
LINE
  5
A8
330
1F
100
AcDbEntity
  8
0
  6
Continuous
 62
     4
370
    15
100
AcDbLine
 10
7.970346928418383
 20
5.556250000000015
 30
0.0
 11
7.970346928418381
 21
5.322447867303987
 31
0.0
  0
SPLINE
  5
A9
330
1F
100
AcDbEntity
  8
0
  6
Continuous
 62
     4
370
    15
100
AcDbSpline
210
0.0
220
0.0
230
1.0
 70
     8
 71
     3
 72
    10
 73
     6
 74
     0
 42
0.000000001
 43
0.00000001
 40
0.0
 40
0.0
 40
0.0
 40
0.0
 40
0.5
 40
0.5
 40
1.0
 40
1.0
 40
1.0
 40
1.0
 10
8.297816764893385
 20
5.035519234077915
 30
0.0
 10
8.191737009455823
 20
5.080482916361082
 30
0.0
 10
8.109294658167325
 20
5.130910980751577
 30
0.0
 10
7.998151037243949
 20
5.230737913604377
 30
0.0
 10
7.970346928418383
 20
5.279349369118692
 30
0.0
 10
7.970346928418383
 20
5.322447867303987
 30
0.0
  0
SPLINE
  5
AA
330
1F
100
AcDbEntity
  8
0
  6
Continuous
 62
     4
370
    15
100
AcDbSpline
210
0.0
220
0.0
230
1.0
 70
     8
 71
     3
 72
    10
 73
     6
 74
     0
 42
0.000000001
 43
0.00000001
 40
0.0
 40
0.0
 40
0.0
 40
0.0
 40
0.5
 40
0.5
 40
1.0
 40
1.0
 40
1.0
 40
1.0
 10
10.0
 20
4.092061356762885
 30
0.0
 10
9.717426552867073
 20
4.283839313008513
 30
0.0
 10
9.43398689591991
 20
4.459813927863538
 30
0.0
 10
8.863616961563913
 20
4.776082660095006
 30
0.0
 10
8.580589846127246
 20
4.915661124202138
 30
0.0
 10
8.297816764893385
 20
5.035519234077915
 30
0.0
  0
LINE
  5
AB
330
1F
100
AcDbEntity
  8
0
  6
Continuous
 62
     4
370
    15
100
AcDbLine
 10
10.0
 20
4.092061356762886
 30
0.0
 11
9.999999999999996
 21
0.988849670175526
 31
0.0
  0
SPLINE
  5
AC
330
1F
100
AcDbEntity
  8
0
  6
Continuous
 62
     4
370
    15
100
AcDbSpline
210
0.0
220
0.0
230
1.0
 70
     8
 71
     3
 72
     8
 73
     4
 74
     0
 42
0.000000001
 43
0.00000001
 40
0.0
 40
0.0
 40
0.0
 40
0.0
 40
1.0
 40
1.0
 40
1.0
 40
1.0
 10
9.999999999999996
 20
0.9888496701755258
 30
0.0
 10
9.955351488502693
 20
1.032929795543988
 30
0.0
 10
9.910845297342362
 20
1.076866811205057
 30
0.0
 10
9.866326390734558
 20
1.120698997574008
 30
0.0
  0
SPLINE
  5
AD
330
1F
100
AcDbEntity
  8
0
  6
Continuous
 62
     4
370
    15
100
AcDbSpline
210
0.0
220
0.0
230
1.0
 70
     8
 71
     3
 72
    10
 73
     6
 74
     0
 42
0.000000001
 43
0.00000001
 40
0.0
 40
0.0
 40
0.0
 40
0.0
 40
0.5000000000000001
 40
0.5000000000000001
 40
1.0
 40
1.0
 40
1.0
 40
1.0
 10
10.0
 20
-5.301059239890681
 30
0.0
 10
9.717426552867073
 20
-5.216127877499844
 30
0.0
 10
9.43398689591991
 20
-5.110381035868089
 30
0.0
 10
8.863616961563913
 20
-4.859146730556853
 30
0.0
 10
8.580589846127246
 20
-4.714254889854883
 30
0.0
 10
8.297816764893385
 20
-4.551621726253489
 30
0.0
  0
LINE
  5
AE
330
1F
100
AcDbEntity
  8
0
  6
Continuous
 62
     4
370
    15
100
AcDbLine
 10
7.970346928418385
 20
0.3220886096232038
 30
0.0
 11
7.970346928418383
 21
-4.042381807230731
 31
0.0
  0
LINE
  5
AF
330
1F
100
AcDbEntity
  8
0
  6
Continuous
 62
     4
370
    15
100
AcDbLine
 10
-40.8
 20
5.056250000000009
 30
0.0
 11
-40.8
 21
-5.056249999999988
 31
0.0
  0
SPLINE
  5
B0
330
1F
100
AcDbEntity
  8
0
  6
Continuous
 62
     4
370
    15
100
AcDbSpline
210
0.0
220
0.0
230
1.0
 70
    24
 71
     3
 72
    18
 73
    14
 74
     0
 42
0.000000001
 43
0.00000001
 40
0.0
 40
0.0
 40
0.0
 40
0.0
 40
0.25
 40
0.25
 40
0.5
 40
0.5
 40
0.625
 40
0.625
 40
0.75
 40
0.75
 40
0.875
 40
0.875
 40
1.0
 40
1.0
 40
1.0
 40
1.0
 10
9.999999999999996
 20
0.9888496701755256
 30
0.0
 10
9.999999999999996
 20
0.8550302476062593
 30
0.0
 10
10.0
 20
0.6549554167515099
 30
0.0
 10
10.0
 20
0.048672893214326
 30
0.0
 10
10.0
 20
-0.359991226852476
 30
0.0
 10
10.0
 20
-1.165088135898758
 30
0.0
 10
10.0
 20
-1.465007573137502
 30
0.0
 10
10.0
 20
-2.123436247283165
 30
0.0
 10
10.0
 20
-2.482001971212511
 30
0.0
 10
10.0
 20
-3.242843307938941
 30
0.0
 10
10.0
 20
-3.645050880951954
 30
0.0
 10
10.0
 20
-4.467638471727895
 30
0.0
 10
10.0
 20
-4.887809434589079
 30
0.0
 10
10.0
 20
-5.301059239890679
 30
0.0
  0
LINE
  5
B1
330
1F
100
AcDbEntity
  8
0
  6
Continuous
 62
     4
370
    15
100
AcDbLine
 10
9.999999999999996
 20
4.240611362685222
 30
0.0
 11
9.999999999999996
 21
4.162361701782545
 31
0.0
  0
SPLINE
  5
B2
330
1F
100
AcDbEntity
  8
0
  6
Continuous
 62
     1
370
    15
100
AcDbSpline
210
0.0
220
0.0
230
1.0
 70
     8
 71
     3
 72
    23
 73
    19
 74
     0
 42
0.000000001
 43
0.00000001
 40
0.0
 40
0.0
 40
0.0
 40
0.0
 40
0.0659792294831159
 40
0.1318799350824717
 40
0.1977411841266958
 40
0.2636196754826844
 40
0.3271402816694722
 40
0.3906384709189314
 40
0.4540568121586261
 40
0.5174783318758956
 40
0.5809860016956563
 40
0.6444978583842987
 40
0.7079208973899023
 40
0.7713380183061759
 40
0.8348322686872236
 40
0.8983561835744269
 40
0.9617849123462759
 40
1.0
 40
1.0
 40
1.0
 40
1.0
 10
10.0
 20
4.09206135676289
 30
0.0
 10
10.38169688669909
 20
3.81747531210572
 30
0.0
 10
11.14463639104627
 20
3.26863001597799
 30
0.0
 10
12.28763999920726
 20
2.26083967969537
 30
0.0
 10
13.42978242008276
 20
1.170350735817118
 30
0.0
 10
14.55817791480926
 20
0.0408955977044675
 30
0.0
 10
15.67401836012484
 20
-1.073778794164233
 30
0.0
 10
16.77531074540546
 20
-2.13285442932139
 30
0.0
 10
17.87506836845531
 20
-3.108781899154834
 30
0.0
 10
18.97488744583454
 20
-3.963117968534092
 30
0.0
 10
20.07634854185542
 20
-4.662057496328467
 30
0.0
 10
21.17789067863453
 20
-5.17869819763393
 30
0.0
 10
22.27773633010842
 20
-5.49316687066266
 30
0.0
 10
23.37747745131718
 20
-5.592156077718569
 30
0.0
 10
24.47867653983212
 20
-5.474314014256858
 30
0.0
 10
25.58046356096436
 20
-5.135408429862241
 30
0.0
 10
26.53477421843886
 20
-4.690007777515359
 30
0.0
 10
27.12213906318896
 20
-4.295838490674229
 30
0.0
 10
27.34297098210138
 20
-4.147642423498124
 30
0.0
  0
SPLINE
  5
B3
330
1F
100
AcDbEntity
  8
0
  6
Continuous
 62
     1
370
    15
100
AcDbSpline
210
0.0
220
0.0
230
1.0
 70
     8
 71
     3
 72
    26
 73
    22
 74
     0
 42
0.000000001
 43
0.00000001
 40
0.0
 40
0.0
 40
0.0
 40
0.0
 40
0.0102111501795274
 40
0.0651859373061597
 40
0.1202396212836977
 40
0.1752239484527224
 40
0.2301637891954229
 40
0.285131203724855
 40
0.3401820235725853
 40
0.3951755591230706
 40
0.4501167575437577
 40
0.5050776555983774
 40
0.5601229484715865
 40
0.6151265431399907
 40
0.670069960778125
 40
0.725025199825752
 40
0.7800623042781505
 40
0.8350768067298892
 40
0.8900233046659266
 40
0.9449737433433502
 40
1.0
 40
1.0
 40
1.0
 40
1.0
 10
40.78350582495678
 20
5.539798058833409
 30
0.0
 10
40.85160568388927
 20
5.544964031406088
 30
0.0
 10
41.28634154193512
 20
5.57794256549161
 30
0.0
 10
42.08836719374532
 20
5.426736718649699
 30
0.0
 10
43.19047566997015
 20
5.079766756517935
 30
0.0
 10
44.29104675269333
 20
4.514361895733556
 30
0.0
 10
45.39066446626967
 20
3.777629249624628
 30
0.0
 10
46.49086275323407
 20
2.89147477765227
 30
0.0
 10
47.59291099382219
 20
1.893581804108646
 30
0.0
 10
48.69368499936873
 20
0.8207226396014101
 30
0.0
 10
49.793330004362
 20
-0.2841631041389303
 30
0.0
 10
50.89338630734571
 20
-1.378199629976449
 30
0.0
 10
51.99531160280275
 20
-2.417361945217588
 30
0.0
 10
53.09630901109699
 20
-3.362645135339827
 30
0.0
 10
54.1959982113105
 20
-4.17644973523375
 30
0.0
 10
55.29593236100274
 20
-4.827026571438941
 30
0.0
 10
56.39767546832442
 20
-5.288135199620562
 30
0.0
 10
57.49891578118466
 20
-5.543665115256708
 30
0.0
 10
58.59866632080981
 20
-5.578647707284312
 30
0.0
 10
59.69849807862708
 20
-5.409280932945523
 30
0.0
 10
60.43266398145007
 20
-5.120748953924096
 30
0.0
 10
60.8
 20
-4.976383507380576
 30
0.0
  0
LINE
  5
B4
330
1F
100
AcDbEntity
  8
0
  6
Continuous
 62
     4
370
    15
100
AcDbLine
 10
9.999999999999996
 20
4.240611362685218
 30
0.0
 11
9.999999999999996
 21
4.09206135676289
 31
0.0
  0
SPLINE
  5
B5
330
1F
100
AcDbEntity
  8
0
  6
Continuous
 62
     1
370
    15
100
AcDbSpline
210
0.0
220
0.0
230
1.0
 70
     8
 71
     3
 72
    22
 73
    18
 74
     0
 42
0.000000001
 43
0.00000001
 40
0.0
 40
0.0
 40
0.0
 40
0.0
 40
0.0688362493342053
 40
0.1375776525778498
 40
0.2063141260684437
 40
0.2751356712335994
 40
0.3439854908453088
 40
0.4127328992126937
 40
0.4814655193400507
 40
0.5502734191849737
 40
0.6191334822733581
 40
0.6878879698941768
 40
0.7566178138449436
 40
0.8254131300254273
 40
0.8942801071984564
 40
0.9630427467400522
 40
1.0
 40
1.0
 40
1.0
 40
1.0
 10
60.8
 20
-3.074004551097351
 30
0.0
 10
60.43266398144991
 20
-2.756691301309901
 30
0.0
 10
59.69849807862656
 20
-2.122502012093158
 30
0.0
 10
58.5986663208118
 20
-1.055240616828371
 30
0.0
 10
57.49891578117701
 20
0.0446263673081149
 30
0.0
 10
56.39767546835288
 20
1.144724049957998
 30
0.0
 10
55.29593236089649
 20
2.199090283898697
 30
0.0
 10
54.19599821170633
 20
3.168394004366731
 30
0.0
 10
53.09630900961934
 20
4.013512131727508
 30
0.0
 10
51.99531160832597
 20
4.701560906282695
 30
0.0
 10
50.89338628672952
 20
5.205419862965803
 30
0.0
 10
49.79333008115761
 20
5.506252732891691
 30
0.0
 10
48.69368471274851
 20
5.591002472163651
 30
0.0
 10
47.59291206512583
 20
5.459153800390535
 30
0.0
 10
46.49085875312374
 20
5.106083507563217
 30
0.0
 10
45.56006325740483
 20
4.663366157868821
 30
0.0
 10
44.99644517054821
 20
4.28067746670258
 30
0.0
 10
44.79941719571902
 20
4.14689826484794
 30
0.0
  0
SPLINE
  5
B6
330
1F
100
AcDbEntity
  8
0
  6
Continuous
 62
     1
370
    15
100
AcDbSpline
210
0.0
220
0.0
230
1.0
 70
     8
 71
     3
 72
    27
 73
    23
 74
     0
 42
0.000000001
 43
0.00000001
 40
0.0
 40
0.0
 40
0.0
 40
0.0
 40
0.0129223685173275
 40
0.0644303996797011
 40
0.1160175935808073
 40
0.1675632995361589
 40
0.2190537156715919
 40
0.2705563223544213
 40
0.3221362178802671
 40
0.3736920265384969
 40
0.4251852079209663
 40
0.4766831946500499
 40
0.5282532992078317
 40
0.5798200041284857
 40
0.6313167572318763
 40
0.6828109294876993
 40
0.7343699364126214
 40
0.7859471453530746
 40
0.8394389005066409
 40
0.8929166553165403
 40
0.9464264479030018
 40
1.0
 40
1.0
 40
1.0
 40
1.0
 10
31.35908646183957
 20
-5.535803245082275
 30
0.0
 10
31.26712381759425
 20
-5.541941654938239
 30
0.0
 10
30.80860184336147
 20
-5.572547514838246
 30
0.0
 10
29.98300424111272
 20
-5.410791268093235
 30
0.0
 10
28.88104669516765
 20
-5.048732590540388
 30
0.0
 10
27.78008684121923
 20
-4.471635115677012
 30
0.0
 10
26.68040467947499
 20
-3.724202853218042
 30
0.0
 10
25.58045359221278
 20
-2.829641925064925
 30
0.0
 10
24.47867921136136
 20
-1.825506477071637
 30
0.0
 10
23.37747673659678
 20
-0.7495241673167967
 30
0.0
 10
22.2777365215298
 20
0.356047901478059
 30
0.0
 10
21.17789062726104
 20
1.447786432294462
 30
0.0
 10
20.07634855562864
 20
2.482282445200094
 30
0.0
 10
18.97488744214967
 20
3.419805860035932
 30
0.0
 10
17.87506836944197
 20
4.224009660530377
 30
0.0
 10
16.77531074514073
 20
4.862879843430301
 30
0.0
 10
15.67401836019573
 20
5.311406480609508
 30
0.0
 10
14.55817791478946
 20
5.555094913281847
 30
0.0
 10
13.42978242008812
 20
5.575825971667546
 30
0.0
 10
12.2876399992058
 20
5.358161592496338
 30
0.0
 10
11.14463639104662
 20
4.92722807514009
 30
0.0
 10
10.3816968866992
 20
4.469574432136497
 30
0.0
 10
9.999999999999996
 20
4.240611362685219
 30
0.0
  0
SPLINE
  5
B7
330
1F
100
AcDbEntity
  8
0
  6
Continuous
 62
     1
370
    15
100
AcDbSpline
210
0.0
220
0.0
230
1.0
 70
     8
 71
     3
 72
    12
 73
     8
 74
     0
 42
0.000000001
 43
0.00000001
 40
0.0
 40
0.0
 40
0.0
 40
0.0
 40
0.0807208735753058
 40
0.3091839619083681
 40
0.544419270476685
 40
0.7697833049142646
 40
0.9999999999999999
 40
0.9999999999999999
 40
0.9999999999999999
 40
0.9999999999999999
 10
60.05594959932952
 20
-2.418064353744658
 30
0.0
 10
60.02785073617191
 20
-2.422930118696649
 30
0.0
 10
59.92022407838939
 20
-2.441567385848718
 30
0.0
 10
59.70315683065326
 20
-2.518648294721615
 30
0.0
 10
59.41898309746315
 20
-2.644735271019075
 30
0.0
 10
59.12399730372077
 20
-2.805846757345463
 30
0.0
 10
58.93007428615639
 20
-2.932562933223981
 30
0.0
 10
58.83207998281649
 20
-2.996595885748506
 30
0.0
  0
SPLINE
  5
B8
330
1F
100
AcDbEntity
  8
0
  6
Continuous
 62
     1
370
    15
100
AcDbSpline
210
0.0
220
0.0
230
1.0
 70
     8
 71
     3
 72
    10
 73
     6
 74
     0
 42
0.000000001
 43
0.00000001
 40
0.0
 40
0.0
 40
0.0
 40
0.0
 40
0.5
 40
0.5
 40
1.0
 40
1.0
 40
1.0
 40
1.0
 10
60.8
 20
-3.248229169717992
 30
0.0
 10
60.46308775842719
 20
-3.26546842813056
 30
0.0
 10
60.13035213438335
 20
-3.255015965293491
 30
0.0
 10
59.47378962389995
 20
-3.175044515879403
 30
0.0
 10
59.14984827584059
 20
-3.106284430314443
 30
0.0
 10
58.83207998281649
 20
-2.996595885748451
 30
0.0
  0
LINE
  5
B9
330
1F
100
AcDbEntity
  8
0
  6
Continuous
 62
     1
370
    15
100
AcDbLine
 10
60.8
 20
-4.976383507380581
 30
0.0
 11
60.8
 21
-3.248229169717992
 31
0.0
  0
SPLINE
  5
BA
330
1F
100
AcDbEntity
  8
0
  6
Continuous
 62
     1
370
    15
100
AcDbSpline
210
0.0
220
0.0
230
1.0
 70
     8
 71
     3
 72
    13
 73
     9
 74
     0
 42
0.000000001
 43
0.00000001
 40
0.0
 40
0.0
 40
0.0
 40
0.0
 40
0.2005193135783805
 40
0.4007999830350515
 40
0.6009607389763151
 40
0.8011738965073916
 40
0.9942211395631287
 40
1.0
 40
1.0
 40
1.0
 40
1.0
 10
10.0
 20
-5.301059239890685
 30
0.0
 10
10.38169713426897
 20
-5.393652747593551
 30
0.0
 10
11.14463713346127
 20
-5.578729564655155
 30
0.0
 10
12.28763703440986
 20
-5.559874007965534
 30
0.0
 10
13.42979353230896
 20
-5.327663662567408
 30
0.0
 10
14.55813704385275
 20
-4.853085322669902
 30
0.0
 10
15.31779053468404
 20
-4.448482520644811
 30
0.0
 10
15.69608554925168
 20
-4.172830120267383
 30
0.0
 10
15.70708065530038
 20
-4.164818311340448
 30
0.0
  0
SPLINE
  5
BB
330
1F
100
AcDbEntity
  8
0
  6
Continuous
 62
     1
370
    15
100
AcDbSpline
210
0.0
220
0.0
230
1.0
 70
     8
 71
     3
 72
    27
 73
    23
 74
     0
 42
0.000000001
 43
0.00000001
 40
0.0
 40
0.0
 40
0.0
 40
0.0
 40
0.0389763666294687
 40
0.090215602892336
 40
0.1414353680699373
 40
0.192702824023838
 40
0.2440255887811345
 40
0.2952710204286516
 40
0.3464896408609003
 40
0.3977486317113857
 40
0.4490736927044881
 40
0.5003261176703988
 40
0.5515443968311783
 40
0.6027957177151214
 40
0.6541205917319434
 40
0.7053808065070584
 40
0.7565995479408529
 40
0.8078439955768109
 40
0.8591661994525825
 40
0.910434998921477
 40
0.9616550060771375
 40
0.9999999999999999
 40
0.9999999999999999
 40
0.9999999999999999
 40
0.9999999999999999
 10
29.1460208524416
 20
5.53634608292746
 30
0.0
 10
29.42516473568423
 20
5.532187987431706
 30
0.0
 10
30.07127764712734
 20
5.522563563082469
 30
0.0
 10
31.08307493846327
 20
5.252108708368509
 30
0.0
 10
32.18271207327571
 20
4.779021533086864
 30
0.0
 10
33.28345484898514
 20
4.111846953945302
 30
0.0
 10
34.38551629769086
 20
3.28645841698778
 30
0.0
 10
35.48573764946308
 20
2.331165923800129
 30
0.0
 10
36.58535301449377
 20
1.285052959474374
 30
0.0
 10
37.68589416320693
 20
0.1884329000339822
 30
0.0
 10
38.7880105998191
 20
-0.9144844389124088
 30
0.0
 10
39.88839649584442
 20
-1.982752194457828
 30
0.0
 10
40.98800458022001
 20
-2.973196569568171
 30
0.0
 10
42.08836444065822
 20
-3.847526721383088
 30
0.0
 10
43.19047638071716
 20
-4.57062819233
 30
0.0
 10
44.29104666075217
 20
-5.115623724506914
 30
0.0
 10
45.39066412457627
 20
-5.460494563916339
 30
0.0
 10
46.49086421383563
 20
-5.591365950573286
 30
0.0
 10
47.59290548669743
 20
-5.505064806575049
 30
0.0
 10
48.69370553229636
 20
-5.197926385682658
 30
0.0
 10
49.7010323519096
 20
-4.748979058347065
 30
0.0
 10
50.34192208708615
 20
-4.330837076532768
 30
0.0
 10
50.61630284636313
 20
-4.151820144042521
 30
0.0
  0
SPLINE
  5
BC
330
1F
100
AcDbEntity
  8
0
  6
Continuous
 62
     4
370
    15
100
AcDbSpline
210
0.0
220
0.0
230
1.0
 70
    24
 71
     3
 72
    18
 73
    14
 74
     0
 42
0.000000001
 43
0.00000001
 40
0.0
 40
0.0
 40
0.0
 40
0.0
 40
0.2500000000000002
 40
0.2500000000000002
 40
0.5000000000000001
 40
0.5000000000000001
 40
0.6250000000000001
 40
0.6250000000000001
 40
0.7500000000000001
 40
0.7500000000000001
 40
0.8750000000000001
 40
0.8750000000000001
 40
1.0
 40
1.0
 40
1.0
 40
1.0
 10
9.999999999999996
 20
0.9888496701755232
 30
0.0
 10
9.999999999999996
 20
0.8550302476062566
 30
0.0
 10
9.999999999999996
 20
0.6549554167515079
 30
0.0
 10
10.0
 20
0.0486728932143246
 30
0.0
 10
10.0
 20
-0.3599912268524794
 30
0.0
 10
10.0
 20
-1.165088135898762
 30
0.0
 10
10.0
 20
-1.465007573137509
 30
0.0
 10
10.0
 20
-2.123436247283171
 30
0.0
 10
10.0
 20
-2.482001971212516
 30
0.0
 10
10.0
 20
-3.242843307938944
 30
0.0
 10
10.0
 20
-3.645050880951959
 30
0.0
 10
10.0
 20
-4.4676384717279
 30
0.0
 10
10.0
 20
-4.88780943458908
 30
0.0
 10
10.0
 20
-5.301059239890679
 30
0.0
  0
SPLINE
  5
BD
330
1F
100
AcDbEntity
  8
0
  6
Continuous
 62
     1
370
    15
100
AcDbSpline
210
0.0
220
0.0
230
1.0
 70
     8
 71
     3
 72
    28
 73
    24
 74
     0
 42
0.000000001
 43
0.00000001
 40
0.0
 40
0.0
 40
0.0
 40
0.0
 40
0.0203497105254177
 40
0.0715692894382253
 40
0.1228449668298523
 40
0.1741595162935734
 40
0.2253953908721786
 40
0.2766129009769636
 40
0.3278792010162858
 40
0.3791989028589416
 40
0.4304408522525147
 40
0.48165709669714
 40
0.5329148124611992
 40
0.5842371843147316
 40
0.635486006621209
 40
0.6867017888153553
 40
0.7379517151499749
 40
0.7892742739706727
 40
0.8405307658697704
 40
0.8917468893187489
 40
0.9429898226759096
 40
0.9943100853727465
 40
1.0
 40
1.0
 40
1.0
 40
1.0
 10
54.6327377435894
 20
-5.530187477284027
 30
0.0
 10
54.48712791153871
 20
-5.536719550906833
 30
0.0
 10
53.97502272940013
 20
-5.559692647608059
 30
0.0
 10
53.09633304735232
 20
-5.371337096225912
 30
0.0
 10
51.99530515357437
 20
-4.976082451558641
 30
0.0
 10
50.8933880329628
 20
-4.373065178654579
 30
0.0
 10
49.79332954273831
 20
-3.602051143814995
 30
0.0
 10
48.69368512222075
 20
-2.689315563524687
 30
0.0
 10
47.59291096439546
 20
-1.671573322178441
 30
0.0
 10
46.49086274787261
 20
-0.589274392762339
 30
0.0
 10
45.39066451699927
 20
0.517142683786294
 30
0.0
 10
44.29104655515354
 20
1.603042523776618
 30
0.0
 10
43.19047641048616
 20
2.626392652536707
 30
0.0
 10
42.08836442737372
 20
3.54614892470507
 30
0.0
 10
40.98800460357361
 20
4.328123899293003
 30
0.0
 10
39.88839641572428
 20
4.940598957178955
 30
0.0
 10
38.78801089735968
 20
5.359795217909827
 30
0.0
 10
37.68589305215093
 20
5.56943325651052
 30
0.0
 10
36.58535715335533
 20
5.560300847212361
 30
0.0
 10
35.4857222125774
 20
5.337880270716338
 30
0.0
 10
34.38557398094301
 20
4.890641054878086
 30
0.0
 10
33.6098306929135
 20
4.483425015772429
 30
0.0
 10
33.20179483837552
 20
4.188566421124081
 30
0.0
 10
33.16107072057492
 20
4.159137987300353
 30
0.0
  0
SPLINE
  5
BE
330
1F
100
AcDbEntity
  8
0
  6
Continuous
 62
     1
370
    15
100
AcDbSpline
210
0.0
220
0.0
230
1.0
 70
     8
 71
     3
 72
    16
 73
    12
 74
     0
 42
0.000000001
 43
0.00000001
 40
0.0
 40
0.0
 40
0.0
 40
0.0
 40
0.0768941011369973
 40
0.1900288458395219
 40
0.303157920601456
 40
0.4164294325714543
 40
0.5297409330893915
 40
0.6472585569838233
 40
0.7647454231078898
 40
0.8823026739737847
 40
1.0
 40
1.0
 40
1.0
 40
1.0
 10
19.72239083629491
 20
-5.532490468840816
 30
0.0
 10
19.47308352021319
 20
-5.532222148088072
 30
0.0
 10
18.85696887898794
 20
-5.531559045428637
 30
0.0
 10
17.87507963299677
 20
-5.281287626018379
 30
0.0
 10
16.7753077232128
 20
-4.825116446147196
 30
0.0
 10
15.67401916968268
 20
-4.172125206927031
 30
0.0
 10
14.55817768887736
 20
-3.348064927237138
 30
0.0
 10
13.42978248151038
 20
-2.374691454150157
 30
0.0
 10
12.28763998281804
 20
-1.290289005141418
 30
0.0
 10
11.14463639515028
 20
-0.1481226304240378
 30
0.0
 10
10.38169688806763
 20
0.6097084941682966
 30
0.0
 10
9.999999999999996
 20
0.9888496701755243
 30
0.0
  0
SPLINE
  5
BF
330
1F
100
AcDbEntity
  8
0
  6
Continuous
 62
     1
370
    15
100
AcDbSpline
210
0.0
220
0.0
230
1.0
 70
     8
 71
     3
 72
    28
 73
    24
 74
     0
 42
0.000000001
 43
0.00000001
 40
0.0
 40
0.0
 40
0.0
 40
0.0
 40
0.0170082797621031
 40
0.0682333458920352
 40
0.1195279947868848
 40
0.1708260253830295
 40
0.2220523186302827
 40
0.2732738318830066
 40
0.3245576420020188
 40
0.3758654119109619
 40
0.4270963007379724
 40
0.4783150633325715
 40
0.529588824048625
 40
0.5809038538280034
 40
0.632140138516046
 40
0.6833569532404311
 40
0.7346214559939456
 40
0.7859412643648586
 40
0.8371837440806732
 40
0.8883994141256475
 40
0.9396554522633688
 40
0.9909775567378157
 40
1.0
 40
1.0
 40
1.0
 40
1.0
 10
17.50998559165429
 20
5.532115773692195
 30
0.0
 10
17.63167649168728
 20
5.538788028975919
 30
0.0
 10
18.11987267554626
 20
5.565555598008315
 30
0.0
 10
18.97486967591548
 20
5.389540515812498
 30
0.0
 10
20.07635331943125
 20
5.008953520019399
 30
0.0
 10
21.1778893525621
 20
4.417456603805037
 30
0.0
 10
22.27773686355272
 20
3.656851737048393
 30
0.0
 10
23.37747664214448
 20
2.752137614076694
 30
0.0
 10
24.47867924674627
 20
1.740314437492202
 30
0.0
 10
25.58045354524518
 20
0.6607909738079439
 30
0.0
 10
26.68040483172732
 20
-0.4454178550391359
 30
0.0
 10
27.78008627896472
 20
-1.533998813666408
 30
0.0
 10
28.88104879514031
 20
-2.562483500693256
 30
0.0
 10
29.98299640268623
 20
-3.490170626187952
 30
0.0
 10
31.08307278714938
 20
-4.282180304105498
 30
0.0
 10
32.18271272207966
 20
-4.906472663525157
 30
0.0
 10
33.28345440619264
 20
-5.33876572609535
 30
0.0
 10
34.38551741952614
 20
-5.562360638262335
 30
0.0
 10
35.48573361270645
 20
-5.567560955253994
 30
0.0
 10
36.5853680387952
 20
-5.358762599002281
 30
0.0
 10
37.68583802101634
 20
-4.925925893131399
 30
0.0
 10
38.48560669171363
 20
-4.511344072665181
 30
0.0
 10
38.91743450090741
 20
-4.201655316504493
 30
0.0
 10
38.9819994376518
 20
-4.155352057366797
 30
0.0
  0
SPLINE
  5
C0
330
1F
100
AcDbEntity
  8
0
  6
Continuous
 62
     1
370
    15
100
AcDbSpline
210
0.0
220
0.0
230
1.0
 70
     8
 71
     3
 72
    15
 73
    11
 74
     0
 42
0.000000001
 43
0.00000001
 40
0.0
 40
0.0
 40
0.0
 40
0.0
 40
0.080642325414762
 40
0.2118871586793583
 40
0.3431602300657262
 40
0.4746288555668773
 40
0.6060434910554741
 40
0.7372956823112925
 40
0.8685572869230396
 40
1.0
 40
1.0
 40
1.0
 40
1.0
 10
52.42074753438837
 20
5.530424405764506
 30
0.0
 10
52.64605363567224
 20
5.5326460937396
 30
0.0
 10
53.238043876388
 20
5.53848356370458
 30
0.0
 10
54.19597774900285
 20
5.303699548722268
 30
0.0
 10
55.29593785353567
 20
4.861269134821932
 30
0.0
 10
56.39767399632829
 20
4.219829253757784
 30
0.0
 10
57.49891617485608
 20
3.415760959056811
 30
0.0
 10
58.598666215882
 20
2.476884880555473
 30
0.0
 10
59.69849810490204
 20
1.442177224541366
 30
0.0
 10
60.4326639902124
 20
0.7128590441441409
 30
0.0
 10
60.8
 20
0.3479485578179997
 30
0.0
  0
SPLINE
  5
C1
330
1F
100
AcDbEntity
  8
0
  6
Continuous
 62
     1
370
    15
100
AcDbSpline
210
0.0
220
0.0
230
1.0
 70
     8
 71
     3
 72
    11
 73
     7
 74
     0
 42
0.000000001
 43
0.00000001
 40
0.0
 40
0.0
 40
0.0
 40
0.0
 40
0.2524159990844206
 40
0.504484206548297
 40
0.7565343370751878
 40
0.9999999999999999
 40
0.9999999999999999
 40
0.9999999999999999
 40
0.9999999999999999
 10
60.8
 20
5.545344521633672
 30
0.0
 10
60.43266449605746
 20
5.547499209829745
 30
0.0
 10
59.69849962174019
 20
5.551805617382742
 30
0.0
 10
58.59866015846216
 20
5.279806226349284
 30
0.0
 10
57.51187192512289
 20
4.834717207272961
 30
0.0
 10
56.79084806212497
 20
4.3852526110361
 30
0.0
 10
56.43658174991206
 20
4.164413644185477
 30
0.0
  0
SPLINE
  5
C2
330
1F
100
AcDbEntity
  8
0
  6
Continuous
 62
     1
370
    15
100
AcDbSpline
210
0.0
220
0.0
230
1.0
 70
     8
 71
     3
 72
    27
 73
    23
 74
     0
 42
0.000000001
 43
0.00000001
 40
0.0
 40
0.0
 40
0.0
 40
0.0
 40
0.0423106613675776
 40
0.0935612964031997
 40
0.1447788901578244
 40
0.1960306292606394
 40
0.2473550034186263
 40
0.2986133083181509
 40
0.3498312433396782
 40
0.4010759892176848
 40
0.4523980671705943
 40
0.5036648370602536
 40
0.5548839168118144
 40
0.6061224673880783
 40
0.6574397665381231
 40
0.7087157947997478
 40
0.7599368225076661
 40
0.8111699769842694
 40
0.8624800159428166
 40
0.9137660940518282
 40
0.9649898725395168
 40
1.0
 40
1.0
 40
1.0
 40
1.0
 10
42.9970759244126
 20
-5.540477463819109
 30
0.0
 10
42.69403127248272
 20
-5.532547757906214
 30
0.0
 10
42.02391056091324
 20
-5.515012849650799
 30
0.0
 10
40.9879940469262
 20
-5.227635384793507
 30
0.0
 10
39.88839931938029
 20
-4.741083886903096
 30
0.0
 10
38.78800984201019
 20
-4.062678705049279
 30
0.0
 10
37.6858943653634
 20
-3.227870742780602
 30
0.0
 10
36.58535296313523
 20
-2.265562352020193
 30
0.0
 10
35.48573765304157
 20
-1.21490803730754
 30
0.0
 10
34.38551633479182
 20
-0.1164020749743637
 30
0.0
 10
33.28345469680277
 20
0.9855367265292259
 30
0.0
 10
32.18271264391308
 20
2.049861901030914
 30
0.0
 10
31.08307280964167
 20
3.033913820076881
 30
0.0
 10
29.98299639086421
 20
3.899471892875316
 30
0.0
 10
28.88104881992586
 20
4.611820670399791
 30
0.0
 10
27.78008619177402
 20
5.144267323334947
 30
0.0
 10
26.68040515539245
 20
5.475614720383282
 30
0.0
 10
25.58045233655254
 20
5.592295315213716
 30
0.0
 10
24.47868376416985
 20
5.491932089955951
 30
0.0
 10
23.37745980117956
 20
5.170618567314128
 30
0.0
 10
22.39380683133106
 20
4.722847769520361
 30
0.0
 10
21.77681220961517
 20
4.315079648093385
 30
0.0
 10
21.52631839153753
 20
4.149529755061051
 30
0.0
  0
LINE
  5
C3
330
1F
100
AcDbEntity
  8
0
  6
Continuous
 62
     1
370
    15
100
AcDbLine
 10
60.8
 20
3.597693903288119
 30
0.0
 11
60.8
 21
5.54534452163368
 31
0.0
  0
SPLINE
  5
C4
330
1F
100
AcDbEntity
  8
0
  6
Continuous
 62
     1
370
    15
100
AcDbSpline
210
0.0
220
0.0
230
1.0
 70
     8
 71
     3
 72
    12
 73
     8
 74
     0
 42
0.000000001
 43
0.00000001
 40
0.0
 40
0.0
 40
0.0
 40
0.0
 40
0.1456423812038192
 40
0.2948223857503146
 40
0.5426332957046514
 40
0.7907308901895472
 40
1.0
 40
1.0
 40
1.0
 40
1.0
 10
60.8
 20
3.597693903290386
 30
0.0
 10
60.75007098762617
 20
3.470090518078774
 30
0.0
 10
60.64900019748566
 20
3.211784287797792
 30
0.0
 10
60.3908809672898
 20
2.786167471895536
 30
0.0
 10
59.98805895355908
 20
2.384641605616462
 30
0.0
 10
59.44719659525671
 20
2.141978402674721
 30
0.0
 10
59.08193122217296
 20
2.157998172217062
 30
0.0
 10
58.9148032726481
 20
2.165328051895688
 30
0.0
  0
SPLINE
  5
C5
330
1F
100
AcDbEntity
  8
0
  6
Continuous
 62
     1
370
    15
100
AcDbSpline
210
0.0
220
0.0
230
1.0
 70
     8
 71
     3
 72
     9
 73
     5
 74
     0
 42
0.000000001
 43
0.00000001
 40
0.0
 40
0.0
 40
0.0
 40
0.0
 40
0.6349250169479531
 40
1.0
 40
1.0
 40
1.0
 40
1.0
 10
60.8
 20
1.071802915337751
 30
0.0
 10
60.41620886147454
 20
1.307627642874447
 30
0.0
 10
59.81174199014176
 20
1.67904902530838
 30
0.0
 10
59.23037819929156
 20
1.96449653975058
 30
0.0
 10
59.01813682319984
 20
2.068706286247815
 30
0.0
  0
LINE
  5
C6
330
1F
100
AcDbEntity
  8
0
  6
Continuous
 62
     1
370
    15
100
AcDbLine
 10
60.8
 20
0.3479485578179984
 30
0.0
 11
60.8
 21
1.071802915337751
 31
0.0
  0
LINE
  5
C7
102
{ACAD_REACTORS
102
}
330
1F
100
AcDbEntity
  8
0
  6
Continuous
 62
     1
370
    15
100
AcDbLine
 10
60.8
 20
5.54534452163368
 30
0.0
 11
60.8
 21
5.55625000000002
 31
0.0
  0
LINE
  5
C8
330
1F
100
AcDbEntity
  8
0
  6
Continuous
 62
     4
370
    15
100
AcDbLine
 10
10.0
 20
-5.556249999999991
 30
0.0
 11
10.0
 21
-5.301059239890679
 31
0.0
  0
LINE
  5
C9
330
1F
100
AcDbEntity
  8
0
  6
Continuous
 62
     1
370
    15
100
AcDbLine
 10
60.79999999999999
 20
-3.074004551097354
 30
0.0
 11
60.8
 21
0.3479485578179984
 31
0.0
  0
LINE
  5
CA
330
1F
100
AcDbEntity
  8
0
  6
Continuous
 62
     1
370
    15
100
AcDbLine
 10
60.8
 20
1.071802915337751
 30
0.0
 11
60.8
 21
3.597693903288119
 31
0.0
  0
LINE
  5
CB
330
1F
100
AcDbEntity
  8
0
  6
Continuous
 62
     1
370
    15
100
AcDbLine
 10
60.8
 20
-3.074004551097355
 30
0.0
 11
60.8
 21
-3.248229169717993
 31
0.0
  0
LINE
  5
CC
330
1F
100
AcDbEntity
  8
중심선
100
AcDbLine
 10
-43.30000000000001
 20
-0.0000000000000006
 30
0.0
 11
28.16254243902304
 21
-0.000000000000001
 31
0.0
  0
CIRCLE
  5
CD
330
1F
100
AcDbEntity
  8
외형선
100
AcDbCircle
 10
0.0
 20
0.0
 30
0.0
 40
3.000000000000008
  0
INSERT
  5
CE
330
1F
100
AcDbEntity
  8
0
  6
Continuous
 62
     7
100
AcDbBlockReference
 66
     1
  2
블럭10
 10
-3.343296060148127
 20
-35.3495107463265
 30
0.0
  0
ATTRIB
  5
CF
330
CE
100
AcDbEntity
  8
FORMAT
 62
     2
100
AcDbText
 10
-12.52459134888941
 20
-33.27414383349431
 30
0.0
 40
4.233333333333333
  1
E5982028 [ 3 FLUTE ]
 41
0.75
  7
SLDTEXTSTYLE0
 11
-12.52459134888941
 21
-35.39081050016098
 31
0.0
100
AcDbAttribute
  2
AUTOATTR0
 70
     0
 74
     1
  0
SEQEND
  5
D0
330
CE
100
AcDbEntity
  8
0
  6
Continuous
 62
     7
  0
HATCH
  5
D1
330
1F
100
AcDbEntity
  8
중심선
100
AcDbHatch
 10
0.0
 20
0.0
 30
0.0
210
0.0
220
0.0
230
1.0
  2
SOLID
 70
     1
 71
     0
 91
        1
 92
        0
 93
        4
 72
     1
 10
2.371613244232725
 20
-19.10233644468256
 11
-1.074661999604558
 21
-19.10233644468256
 72
     1
 10
-1.074661999604558
 20
-19.10233644468256
 11
-3.202891858808581
 21
-21.63866202525517
 72
     1
 10
-3.202891858808581
 20
-21.63866202525517
 11
0.2434164701418524
 21
-21.63862259595268
 72
     1
 10
0.2434164701418524
 20
-21.63862259595268
 11
2.371613244232725
 21
-19.10233644468256
 97
        0
 75
     0
 76
     1
 98
        1
 10
16.4315634102984
 20
16.69658862659354
  0
HATCH
  5
D2
330
1F
100
AcDbEntity
  8
중심선
100
AcDbHatch
 10
0.0
 20
0.0
 30
0.0
210
0.0
220
0.0
230
1.0
  2
SOLID
 70
     1
 71
     0
 91
        1
 92
        0
 93
        4
 72
     1
 10
7.384377235268676
 20
-19.10233644468256
 11
3.938101991431394
 21
-19.10233644468256
 72
     1
 10
3.938101991431394
 20
-19.10233644468256
 11
-0.5930360169259927
 21
-24.50233644468258
 72
     1
 10
-0.5930360169259927
 20
-24.50233644468258
 11
2.853239226911288
 21
-24.50233644468258
 72
     1
 10
2.853239226911288
 20
-24.50233644468258
 11
7.384377235268676
 21
-19.10233644468256
 97
        0
 75
     0
 76
     1
 98
        1
 10
16.4315634102984
 20
16.69658862659354
  0
HATCH
  5
D3
330
1F
100
AcDbEntity
  8
중심선
100
AcDbHatch
 10
0.0
 20
0.0
 30
0.0
210
0.0
220
0.0
230
1.0
  2
SOLID
 70
     1
 71
     0
 91
        1
 92
        0
 93
        4
 72
     1
 10
12.39714122630457
 20
-19.10233644468259
 11
8.950865982467457
 21
-19.10233644468256
 72
     1
 10
8.950865982467455
 20
-19.10233644468256
 11
1.902429080578206
 21
-27.50233644468258
 72
     1
 10
1.902429080578207
 20
-27.50233644468258
 11
5.34870432441549
 21
-27.50233644468258
 72
     1
 10
5.34870432441549
 20
-27.50233644468258
 11
12.39714122630457
 21
-19.10233644468259
 97
        0
 75
     0
 76
     1
 98
        1
 10
16.4315634102984
 20
16.69658862659354
  0
HATCH
  5
D4
330
1F
100
AcDbEntity
  8
중심선
100
AcDbHatch
 10
0.0
 20
0.0
 30
0.0
210
0.0
220
0.0
230
1.0
  2
SOLID
 70
     1
 71
     0
 91
        1
 92
        0
 93
        6
 72
     3
 10
17.19703165731677
 20
-23.30233644473384
 11
3.960054785062283
 21
1.540882976769353E-10
 40
0.3939339440162628
 50
17.09539180608437
 51
320.0019657685081
 73
     0
 72
     1
 10
18.88003131301737
 20
-21.89023044932087
 11
21.1853331867184
 21
-19.95590373927295
 72
     3
 10
17.19703165726392
 20
-23.30233644468272
 11
6.600054785286829
 21
-1.278976924368180E-13
 40
0.636358354079598
 50
39.99873849337411
 51
368.4976242363725
 73
     1
 72
     1
 10
23.62236414916453
 20
-22.34233644461259
 11
15.87709896409985
 21
-22.34233644461256
 72
     1
 10
15.87709896409985
 20
-22.34233644461256
 11
15.87707391965391
 21
-24.26233644461248
 72
     1
 10
15.87707391965391
 20
-24.26233644461248
 11
20.31845368912595
 21
-24.26233644461245
 97
        0
 75
     0
 76
     1
 98
        1
 10
16.4315634102984
 20
16.69658862659354
  0
POINT
  5
D5
330
1F
100
AcDbEntity
  8
치수문자_일반주서
100
AcDbPoint
 10
-40.80000000000001
 20
-0.0000000000000011
 30
0.0
  0
DIMENSION
  5
E1
330
1F
100
AcDbEntity
  8
치수문자_일반주서
100
AcDbDimension
  2
_D_1
 10
9.999999999999996
 20
26.1696684523305
 30
0.0
 11
35.39999999999998
 21
26.1696684523305
 31
0.0
 70
   160
  1
<>
 71
     2
 42
50.8
  3
SLDDIMSTYLE1
100
AcDbAlignedDimension
 13
60.8
 23
5.55625000000002
 33
0.0
 14
9.999999999999996
 24
4.240611362685222
 34
0.0
 50
0.0000000000000481
100
AcDbRotatedDimension
1001
ACAD
1000
DSTYLE
1002
{
1070
   171
1070
     6
1070
   273
1070
     5
1002
}
  0
DIMENSION
  5
F5
330
1F
100
AcDbEntity
  8
치수문자_일반주서
100
AcDbDimension
  2
_D_2
 10
-40.8
 20
44.19235365728746
 30
0.0
 11
9.999999999999998
 21
44.19235365728746
 31
0.0
 70
   160
  1
<>
 71
     2
 42
101.6
  3
SLDDIMSTYLE1
100
AcDbAlignedDimension
 13
60.8
 23
5.55625000000002
 33
0.0
 14
-40.8
 24
5.056250000000009
 34
0.0
100
AcDbRotatedDimension
1001
ACAD
1000
DSTYLE
1002
{
1070
   171
1070
     6
1070
   273
1070
     5
1002
}
  0
DIMENSION
  5
108
330
1F
100
AcDbEntity
  8
치수문자_일반주서
100
AcDbDimension
  2
_D_3
 10
-50.35802688928076
 20
-5.556250000000027
 30
0.0
 11
-50.35802688928086
 21
25.72274999999998
 31
0.0
 70
   160
  1
%%c<>
 71
     2
 42
11.1125
 52
-270.0
  3
SLDDIMSTYLE2
100
AcDbAlignedDimension
 13
-40.3
 23
5.556250000000012
 33
0.0
 14
-40.3
 24
-5.556249999999989
 34
0.0
 50
90.0000000000002
100
AcDbRotatedDimension
1001
ACAD
1000
DSTYLE
1002
{
1070
   171
1070
     6
1070
   273
1070
     5
1002
}
  0
INSERT
  5
123
330
1F
100
AcDbEntity
  8
외형선
100
AcDbBlockReference
  2
SW_DOWELSYMBOL_0
 10
0.0
 20
0.0
 30
0.0
  0
DIMENSION
  5
14B
102
{ACAD_REACTORS
102
}
102
{ACAD_XDICTIONARY
360
14C
102
}
330
1F
100
AcDbEntity
  8
치수문자_일반주서
100
AcDbDimension
  2
*D7
 10
67.89313135400907
 20
5.55625000000002
 30
0.0
 11
65.26813135400907
 21
25.72275000000002
 31
0.0
 70
    32
  1
{Ø<>[]}
 71
     5
 42
11.11250000000001
  3
SLDDIMSTYLE2
100
AcDbAlignedDimension
 13
60.8
 23
-5.556249999999986
 33
0.0
 14
60.8
 24
5.55625000000002
 34
0.0
 50
90.0
100
AcDbRotatedDimension
1001
ACAD
1000
DSTYLE
1002
{
1070
   283
1070
     1
1070
   170
1070
     1
1070
   171
1070
     6
1070
   273
1070
     5
1002
}
  0
ENDSEC
  0
SECTION
  2
OBJECTS
  0
DICTIONARY
  5
C
330
0
100
AcDbDictionary
281
     1
  3
ACAD_GROUP
350
D
  3
ACAD_IMAGE_VARS
350
147
  3
ACAD_LAYOUT
350
1A
  3
ACAD_MLINESTYLE
350
17
  3
ACAD_PLOTSETTINGS
350
19
  3
ACAD_PLOTSTYLENAME
350
E
  3
ACAD_SCALELIST
350
47
  3
APPDATA
350
145
  3
DWGPROPS
350
162
  0
DICTIONARY
  5
14C
330
14B
100
AcDbDictionary
280
     1
281
     1
  0
DICTIONARY
  5
D
102
{ACAD_REACTORS
330
C
102
}
330
C
100
AcDbDictionary
281
     1
  0
RASTERVARIABLES
  5
147
102
{ACAD_REACTORS
330
C
102
}
330
C
100
AcDbRasterVariables
 90
        0
 70
     1
 71
     1
 72
     1
  0
DICTIONARY
  5
1A
102
{ACAD_REACTORS
330
C
102
}
330
C
100
AcDbDictionary
281
     1
  3
Layout1
350
1E
  3
Layout2
350
26
  3
Model
350
22
  0
DICTIONARY
  5
17
102
{ACAD_REACTORS
330
C
102
}
330
C
100
AcDbDictionary
281
     1
  3
Standard
350
18
  0
DICTIONARY
  5
19
102
{ACAD_REACTORS
330
C
102
}
330
C
100
AcDbDictionary
281
     1
  0
ACDBDICTIONARYWDFLT
  5
E
102
{ACAD_REACTORS
330
C
102
}
330
C
100
AcDbDictionary
281
     1
  3
Normal
350
F
100
AcDbDictionaryWithDefault
340
F
  0
DICTIONARY
  5
47
102
{ACAD_REACTORS
330
C
102
}
330
C
100
AcDbDictionary
281
     1
  3
A0
350
48
  3
A1
350
49
  3
A2
350
4A
  3
A3
350
4B
  3
A4
350
4C
  3
A5
350
4D
  3
A6
350
4E
  3
A7
350
4F
  3
A8
350
50
  3
A9
350
51
  3
B0
350
52
  3
B1
350
53
  3
B2
350
54
  3
B3
350
55
  3
B4
350
56
  3
B5
350
57
  3
B6
350
58
  3
B7
350
59
  3
B8
350
5A
  3
B9
350
5B
  3
C0
350
5C
  3
C1
350
5D
  3
C2
350
5E
  3
C3
350
5F
  3
C4
350
60
  3
C5
350
61
  3
C6
350
62
  3
C7
350
63
  3
C8
350
64
  3
C9
350
65
  3
D0
350
66
  3
D1
350
67
  3
D2
350
68
  0
DICTIONARY
  5
145
102
{ACAD_REACTORS
330
C
102
}
330
C
100
AcDbDictionary
281
     1
  0
XRECORD
  5
162
102
{ACAD_REACTORS
330
C
102
}
330
C
100
AcDbXrecord
280
     1
  1
DWGPROPS COOKIE
  2

  3

  4

  6

  7

  8
12014074
  9

300
=
301
=
302
=
303
=
304
=
305
=
306
=
307
=
308
=
309
=
 40
0.0
 41
2458269.021693634
 42
2458269.458678449
  1

 90
        0
  0
LAYOUT
  5
1E
102
{ACAD_REACTORS
330
1A
102
}
330
1A
100
AcDbPlotSettings
  1

  2
none_device
  4

  6

 40
0.0
 41
0.0
 42
0.0
 43
0.0
 44
0.0
 45
0.0
 46
0.0
 47
0.0
 48
0.0
 49
0.0
140
0.0
141
0.0
142
1.0
143
1.0
 70
   688
 72
     1
 73
     0
 74
     5
  7

 75
    16
147
1.0
148
0.0
149
0.0
100
AcDbLayout
  1
Layout1
 70
     1
 71
     1
 10
0.0
 20
0.0
 11
420.0
 21
297.0
 12
0.0
 22
0.0
 32
0.0
 14
1.000000000000000E+20
 24
1.000000000000000E+20
 34
1.000000000000000E+20
 15
-1.000000000000000E+20
 25
-1.000000000000000E+20
 35
-1.000000000000000E+20
146
0.0
 13
0.0
 23
0.0
 33
0.0
 16
1.0
 26
0.0
 36
0.0
 17
0.0
 27
1.0
 37
0.0
 76
     0
330
1B
  0
LAYOUT
  5
26
102
{ACAD_REACTORS
330
1A
102
}
330
1A
100
AcDbPlotSettings
  1

  2
none_device
  4

  6

 40
0.0
 41
0.0
 42
0.0
 43
0.0
 44
0.0
 45
0.0
 46
0.0
 47
0.0
 48
0.0
 49
0.0
140
0.0
141
0.0
142
1.0
143
1.0
 70
   688
 72
     1
 73
     0
 74
     5
  7

 75
    16
147
1.0
148
0.0
149
0.0
100
AcDbLayout
  1
Layout2
 70
     1
 71
     2
 10
0.0
 20
0.0
 11
0.0
 21
0.0
 12
0.0
 22
0.0
 32
0.0
 14
0.0
 24
0.0
 34
0.0
 15
0.0
 25
0.0
 35
0.0
146
0.0
 13
0.0
 23
0.0
 33
0.0
 16
1.0
 26
0.0
 36
0.0
 17
0.0
 27
1.0
 37
0.0
 76
     0
330
23
  0
LAYOUT
  5
22
102
{ACAD_REACTORS
330
1A
102
}
330
1A
100
AcDbPlotSettings
  1

  2
none_device
  4
ANSI_A_(11.00_x_8.50_Inches)
  6

 40
6.35
 41
19.05
 42
6.35000508
 43
19.05000254
 44
279.4
 45
215.9
 46
136.6787684122093
 47
84.56437776252994
 48
0.0
 49
0.0
140
0.0
141
0.0
142
0.0795983492865477
143
1.0
 70
  1696
 72
     0
 73
     0
 74
     0
  7

 75
     0
147
0.0235690232323232
148
0.0
149
0.0
100
AcDbLayout
  1
Model
 70
     1
 71
     0
 10
0.0
 20
0.0
 11
420.0
 21
297.0
 12
0.0
 22
0.0
 32
0.0
 14
-54.73302688928089
 24
-33.27414383349431
 34
0.0
 15
68.4434646873424
 25
48.56735365728746
 35
0.0
146
0.0
 13
0.0
 23
0.0
 33
0.0
 16
1.0
 26
0.0
 36
0.0
 17
0.0
 27
1.0
 37
0.0
 76
     0
330
1F
331
29
  0
MLINESTYLE
  5
18
102
{ACAD_REACTORS
330
17
102
}
330
17
100
AcDbMlineStyle
  2
Standard
 70
     0
  3

 62
   256
 51
90.0
 52
90.0
 71
     2
 49
0.5
 62
   256
  6
BYLAYER
 49
-0.5
 62
   256
  6
BYLAYER
  0
ACDBPLACEHOLDER
  5
F
102
{ACAD_REACTORS
330
E
102
}
330
E
  0
SCALE
  5
48
102
{ACAD_REACTORS
330
47
102
}
330
47
100
AcDbScale
 70
     0
300
1:1
140
1.0
141
1.0
290
     1
  0
SCALE
  5
49
102
{ACAD_REACTORS
330
47
102
}
330
47
100
AcDbScale
 70
     0
300
1:2
140
1.0
141
2.0
290
     0
  0
SCALE
  5
4A
102
{ACAD_REACTORS
330
47
102
}
330
47
100
AcDbScale
 70
     0
300
1:4
140
1.0
141
4.0
290
     0
  0
SCALE
  5
4B
102
{ACAD_REACTORS
330
47
102
}
330
47
100
AcDbScale
 70
     0
300
1:5
140
1.0
141
5.0
290
     0
  0
SCALE
  5
4C
102
{ACAD_REACTORS
330
47
102
}
330
47
100
AcDbScale
 70
     0
300
1:8
140
1.0
141
8.0
290
     0
  0
SCALE
  5
4D
102
{ACAD_REACTORS
330
47
102
}
330
47
100
AcDbScale
 70
     0
300
1:10
140
1.0
141
10.0
290
     0
  0
SCALE
  5
4E
102
{ACAD_REACTORS
330
47
102
}
330
47
100
AcDbScale
 70
     0
300
1:16
140
1.0
141
16.0
290
     0
  0
SCALE
  5
4F
102
{ACAD_REACTORS
330
47
102
}
330
47
100
AcDbScale
 70
     0
300
1:20
140
1.0
141
20.0
290
     0
  0
SCALE
  5
50
102
{ACAD_REACTORS
330
47
102
}
330
47
100
AcDbScale
 70
     0
300
1:30
140
1.0
141
30.0
290
     0
  0
SCALE
  5
51
102
{ACAD_REACTORS
330
47
102
}
330
47
100
AcDbScale
 70
     0
300
1:40
140
1.0
141
40.0
290
     0
  0
SCALE
  5
52
102
{ACAD_REACTORS
330
47
102
}
330
47
100
AcDbScale
 70
     0
300
1:50
140
1.0
141
50.0
290
     0
  0
SCALE
  5
53
102
{ACAD_REACTORS
330
47
102
}
330
47
100
AcDbScale
 70
     0
300
1:100
140
1.0
141
100.0
290
     0
  0
SCALE
  5
54
102
{ACAD_REACTORS
330
47
102
}
330
47
100
AcDbScale
 70
     0
300
2:1
140
2.0
141
1.0
290
     0
  0
SCALE
  5
55
102
{ACAD_REACTORS
330
47
102
}
330
47
100
AcDbScale
 70
     0
300
4:1
140
4.0
141
1.0
290
     0
  0
SCALE
  5
56
102
{ACAD_REACTORS
330
47
102
}
330
47
100
AcDbScale
 70
     0
300
8:1
140
8.0
141
1.0
290
     0
  0
SCALE
  5
57
102
{ACAD_REACTORS
330
47
102
}
330
47
100
AcDbScale
 70
     0
300
10:1
140
10.0
141
1.0
290
     0
  0
SCALE
  5
58
102
{ACAD_REACTORS
330
47
102
}
330
47
100
AcDbScale
 70
     0
300
100:1
140
100.0
141
1.0
290
     0
  0
SCALE
  5
59
102
{ACAD_REACTORS
330
47
102
}
330
47
100
AcDbScale
 70
     0
300
1/128" = 1'-0"
140
0.0078125
141
12.0
290
     0
  0
SCALE
  5
5A
102
{ACAD_REACTORS
330
47
102
}
330
47
100
AcDbScale
 70
     0
300
1/64" = 1'-0"
140
0.015625
141
12.0
290
     0
  0
SCALE
  5
5B
102
{ACAD_REACTORS
330
47
102
}
330
47
100
AcDbScale
 70
     0
300
1/32" = 1'-0"
140
0.03125
141
12.0
290
     0
  0
SCALE
  5
5C
102
{ACAD_REACTORS
330
47
102
}
330
47
100
AcDbScale
 70
     0
300
1/16" = 1'-0"
140
0.0625
141
12.0
290
     0
  0
SCALE
  5
5D
102
{ACAD_REACTORS
330
47
102
}
330
47
100
AcDbScale
 70
     0
300
3/32" = 1'-0"
140
0.09375
141
12.0
290
     0
  0
SCALE
  5
5E
102
{ACAD_REACTORS
330
47
102
}
330
47
100
AcDbScale
 70
     0
300
1/8" = 1'-0"
140
0.125
141
12.0
290
     0
  0
SCALE
  5
5F
102
{ACAD_REACTORS
330
47
102
}
330
47
100
AcDbScale
 70
     0
300
3/16" = 1'-0"
140
0.1875
141
12.0
290
     0
  0
SCALE
  5
60
102
{ACAD_REACTORS
330
47
102
}
330
47
100
AcDbScale
 70
     0
300
1/4" = 1'-0"
140
0.25
141
12.0
290
     0
  0
SCALE
  5
61
102
{ACAD_REACTORS
330
47
102
}
330
47
100
AcDbScale
 70
     0
300
3/8" = 1'-0"
140
0.375
141
12.0
290
     0
  0
SCALE
  5
62
102
{ACAD_REACTORS
330
47
102
}
330
47
100
AcDbScale
 70
     0
300
1/2" = 1'-0"
140
0.5
141
12.0
290
     0
  0
SCALE
  5
63
102
{ACAD_REACTORS
330
47
102
}
330
47
100
AcDbScale
 70
     0
300
3/4" = 1'-0"
140
0.75
141
12.0
290
     0
  0
SCALE
  5
64
102
{ACAD_REACTORS
330
47
102
}
330
47
100
AcDbScale
 70
     0
300
1" = 1'-0"
140
1.0
141
12.0
290
     0
  0
SCALE
  5
65
102
{ACAD_REACTORS
330
47
102
}
330
47
100
AcDbScale
 70
     0
300
1-1/2" = 1'-0"
140
1.5
141
12.0
290
     0
  0
SCALE
  5
66
102
{ACAD_REACTORS
330
47
102
}
330
47
100
AcDbScale
 70
     0
300
3" = 1'-0"
140
3.0
141
12.0
290
     0
  0
SCALE
  5
67
102
{ACAD_REACTORS
330
47
102
}
330
47
100
AcDbScale
 70
     0
300
6" = 1'-0"
140
6.0
141
12.0
290
     0
  0
SCALE
  5
68
102
{ACAD_REACTORS
330
47
102
}
330
47
100
AcDbScale
 70
     0
300
1'-0" = 1'-0"
140
12.0
141
12.0
290
     0
  0
ENDSEC
  0
EOF
