  0
SECTION
  2
HEADER
  9
$ACADVER
  1
AC1015
  9
$ACADMAINTVER
 70
     6
  9
$DWGCODEPAGE
  3
ANSI_949
  9
$INSBASE
 10
0.0
 20
0.0
 30
0.0
  9
$EXTMIN
 10
-53.11586086741846
 20
-31.17466724843822
 30
0.0
  9
$EXTMAX
 10
70.46390594745597
 20
49.36110365728746
 30
0.0
  9
$LIMMIN
 10
0.0
 20
0.0
  9
$LIMMAX
 10
420.0
 20
297.0
  9
$ORTHOMODE
 70
     0
  9
$REGENMODE
 70
     1
  9
$FILLMODE
 70
     1
  9
$QTEXTMODE
 70
     0
  9
$MIRRTEXT
 70
     1
  9
$LTSCALE
 40
1.0
  9
$ATTMODE
 70
     1
  9
$TEXTSIZE
 40
3.5
  9
$TRACEWID
 40
1.0
  9
$TEXTSTYLE
  7
Standard
  9
$CLAYER
  8
0
  9
$CELTYPE
  6
ByLayer
  9
$CECOLOR
 62
   256
  9
$CELTSCALE
 40
1.0
  9
$DISPSILH
 70
     0
  9
$DIMSCALE
 40
1.0
  9
$DIMASZ
 40
3.302
  9
$DIMEXO
 40
1.0
  9
$DIMDLI
 40
3.75
  9
$DIMRND
 40
0.0
  9
$DIMDLE
 40
0.0
  9
$DIMEXE
 40
1.0
  9
$DIMTP
 40
0.0
  9
$DIMTM
 40
0.0
  9
$DIMTXT
 40
3.5
  9
$DIMCEN
 40
2.5
  9
$DIMTSZ
 40
0.0
  9
$DIMTOL
 70
     0
  9
$DIMLIM
 70
     0
  9
$DIMTIH
 70
     1
  9
$DIMTOH
 70
     1
  9
$DIMSE1
 70
     0
  9
$DIMSE2
 70
     0
  9
$DIMTAD
 70
     1
  9
$DIMZIN
 70
     0
  9
$DIMBLK
  1

  9
$DIMASO
 70
     1
  9
$DIMSHO
 70
     1
  9
$DIMPOST
  1

  9
$DIMAPOST
  1

  9
$DIMALT
 70
     0
  9
$DIMALTD
 70
     3
  9
$DIMALTF
 40
0.0393700787401575
  9
$DIMLFAC
 40
1.0
  9
$DIMTOFL
 70
     1
  9
$DIMTVP
 40
0.0
  9
$DIMTIX
 70
     0
  9
$DIMSOXD
 70
     0
  9
$DIMSAH
 70
     0
  9
$DIMBLK1
  1

  9
$DIMBLK2
  1

  9
$DIMSTYLE
  2
ISO-25
  9
$DIMCLRD
 70
     0
  9
$DIMCLRE
 70
     0
  9
$DIMCLRT
 70
     0
  9
$DIMTFAC
 40
1.0
  9
$DIMGAP
 40
1.524
  9
$DIMJUST
 70
     0
  9
$DIMSD1
 70
     0
  9
$DIMSD2
 70
     0
  9
$DIMTOLJ
 70
     0
  9
$DIMTZIN
 70
     0
  9
$DIMALTZ
 70
     0
  9
$DIMALTTZ
 70
     0
  9
$DIMUPT
 70
     0
  9
$DIMDEC
 70
     2
  9
$DIMTDEC
 70
     2
  9
$DIMALTU
 70
     2
  9
$DIMALTTD
 70
     3
  9
$DIMTXSTY
  7
Standard
  9
$DIMAUNIT
 70
     0
  9
$DIMADEC
 70
     2
  9
$DIMALTRND
 40
0.0
  9
$DIMAZIN
 70
     0
  9
$DIMDSEP
 70
    44
  9
$DIMATFIT
 70
     3
  9
$DIMFRAC
 70
     0
  9
$DIMLDRBLK
  1

  9
$DIMLUNIT
 70
     2
  9
$DIMLWD
 70
    -2
  9
$DIMLWE
 70
    -2
  9
$DIMTMOVE
 70
     0
  9
$LUNITS
 70
     2
  9
$LUPREC
 70
     2
  9
$SKETCHINC
 40
1.0
  9
$FILLETRAD
 40
10.0
  9
$AUNITS
 70
     0
  9
$AUPREC
 70
     2
  9
$MENU
  1
.
  9
$ELEVATION
 40
0.0
  9
$PELEVATION
 40
0.0
  9
$THICKNESS
 40
0.0
  9
$LIMCHECK
 70
     0
  9
$CHAMFERA
 40
0.0
  9
$CHAMFERB
 40
0.0
  9
$CHAMFERC
 40
0.0
  9
$CHAMFERD
 40
0.0
  9
$SKPOLY
 70
     0
  9
$TDCREATE
 40
2458269.396797095
  9
$TDUCREATE
 40
2458269.021797095
  9
$TDUPDATE
 40
2458269.833447824
  9
$TDUUPDATE
 40
2458269.458447824
  9
$TDINDWG
 40
0.0012964583
  9
$TDUSRTIMER
 40
2458269.45715147
  9
$USRTIMER
 70
     1
  9
$ANGBASE
 50
0.0
  9
$ANGDIR
 70
     0
  9
$PDMODE
 70
     0
  9
$PDSIZE
 40
-1.0
  9
$PLINEWID
 40
0.0
  9
$SPLFRAME
 70
     0
  9
$SPLINETYPE
 70
     6
  9
$SPLINESEGS
 70
     8
  9
$HANDSEED
  5
15C
  9
$SURFTAB1
 70
     6
  9
$SURFTAB2
 70
     6
  9
$SURFTYPE
 70
     6
  9
$SURFU
 70
     6
  9
$SURFV
 70
     6
  9
$UCSBASE
  2

  9
$UCSNAME
  2

  9
$UCSORG
 10
0.0
 20
0.0
 30
0.0
  9
$UCSXDIR
 10
1.0
 20
0.0
 30
0.0
  9
$UCSYDIR
 10
0.0
 20
1.0
 30
0.0
  9
$UCSORTHOREF
  2

  9
$UCSORTHOVIEW
 70
     0
  9
$UCSORGTOP
 10
0.0
 20
0.0
 30
0.0
  9
$UCSORGBOTTOM
 10
0.0
 20
0.0
 30
0.0
  9
$UCSORGLEFT
 10
0.0
 20
0.0
 30
0.0
  9
$UCSORGRIGHT
 10
0.0
 20
0.0
 30
0.0
  9
$UCSORGFRONT
 10
0.0
 20
0.0
 30
0.0
  9
$UCSORGBACK
 10
0.0
 20
0.0
 30
0.0
  9
$PUCSBASE
  2

  9
$PUCSNAME
  2

  9
$PUCSORG
 10
0.0
 20
0.0
 30
0.0
  9
$PUCSXDIR
 10
1.0
 20
0.0
 30
0.0
  9
$PUCSYDIR
 10
0.0
 20
1.0
 30
0.0
  9
$PUCSORTHOREF
  2

  9
$PUCSORTHOVIEW
 70
     0
  9
$PUCSORGTOP
 10
0.0
 20
0.0
 30
0.0
  9
$PUCSORGBOTTOM
 10
0.0
 20
0.0
 30
0.0
  9
$PUCSORGLEFT
 10
0.0
 20
0.0
 30
0.0
  9
$PUCSORGRIGHT
 10
0.0
 20
0.0
 30
0.0
  9
$PUCSORGFRONT
 10
0.0
 20
0.0
 30
0.0
  9
$PUCSORGBACK
 10
0.0
 20
0.0
 30
0.0
  9
$USERI1
 70
     0
  9
$USERI2
 70
     0
  9
$USERI3
 70
     0
  9
$USERI4
 70
     0
  9
$USERI5
 70
     0
  9
$USERR1
 40
0.0
  9
$USERR2
 40
0.0
  9
$USERR3
 40
0.0
  9
$USERR4
 40
0.0
  9
$USERR5
 40
0.0
  9
$WORLDVIEW
 70
     1
  9
$SHADEDGE
 70
     3
  9
$SHADEDIF
 70
    70
  9
$TILEMODE
 70
     1
  9
$MAXACTVP
 70
    64
  9
$PINSBASE
 10
0.0
 20
0.0
 30
0.0
  9
$PLIMCHECK
 70
     0
  9
$PEXTMIN
 10
1.000000000000000E+20
 20
1.000000000000000E+20
 30
1.000000000000000E+20
  9
$PEXTMAX
 10
-1.000000000000000E+20
 20
-1.000000000000000E+20
 30
-1.000000000000000E+20
  9
$PLIMMIN
 10
0.0
 20
0.0
  9
$PLIMMAX
 10
0.0
 20
0.0
  9
$UNITMODE
 70
     0
  9
$VISRETAIN
 70
     1
  9
$PLINEGEN
 70
     0
  9
$PSLTSCALE
 70
     1
  9
$TREEDEPTH
 70
  3020
  9
$CMLSTYLE
  2
Standard
  9
$CMLJUST
 70
     0
  9
$CMLSCALE
 40
20.0
  9
$PROXYGRAPHICS
 70
     1
  9
$MEASUREMENT
 70
     1
  9
$CELWEIGHT
370
    -1
  9
$ENDCAPS
280
     0
  9
$JOINSTYLE
280
     0
  9
$LWDISPLAY
290
     1
  9
$INSUNITS
 70
     4
  9
$HYPERLINKBASE
  1

  9
$STYLESHEET
  1

  9
$XEDIT
290
     1
  9
$CEPSNTYPE
380
     0
  9
$PSTYLEMODE
290
     1
  9
$FINGERPRINTGUID
  2
{EA828058-6874-47C8-B32C-D0A7F7404165}
  9
$VERSIONGUID
  2
{FAEB1C32-E019-11D5-929B-00C0DF256EC4}
  9
$EXTNAMES
290
     1
  9
$PSVPSCALE
 40
0.0
  9
$OLESTARTUP
290
     0
  0
ENDSEC
  0
SECTION
  2
CLASSES
  0
CLASS
  1
ACDBDICTIONARYWDFLT
  2
AcDbDictionaryWithDefault
  3
ObjectDBX Classes
 90
        0
280
     0
281
     0
  0
CLASS
  1
VISUALSTYLE
  2
AcDbVisualStyle
  3
ObjectDBX Classes
 90
     4095
280
     0
281
     0
  0
CLASS
  1
MATERIAL
  2
AcDbMaterial
  3
ObjectDBX Classes
 90
     1153
280
     0
281
     0
  0
CLASS
  1
SCALE
  2
AcDbScale
  3
ObjectDBX Classes
 90
     1153
280
     0
281
     0
  0
CLASS
  1
SUN
  2
AcDbSun
  3
SCENEOE
 90
     1153
280
     0
281
     0
  0
CLASS
  1
ACDBPLACEHOLDER
  2
AcDbPlaceHolder
  3
ObjectDBX Classes
 90
        0
280
     0
281
     0
  0
CLASS
  1
LAYOUT
  2
AcDbLayout
  3
ObjectDBX Classes
 90
        0
280
     0
281
     0
  0
CLASS
  1
TABLESTYLE
  2
AcDbTableStyle
  3
ObjectDBX Classes
 90
     4095
280
     0
281
     0
  0
CLASS
  1
MLEADERSTYLE
  2
AcDbMLeaderStyle
  3
ACDB_MLEADERSTYLE_CLASS
 90
     4095
280
     0
281
     0
  0
CLASS
  1
RASTERVARIABLES
  2
AcDbRasterVariables
  3
ISM
 90
        0
280
     0
281
     0
  0
CLASS
  1
DIMASSOC
  2
AcDbDimAssoc
  3
"AcDbDimAssoc|Product Desc:     AcDim ARX App For Dimension|Company:          Autodesk, Inc.|WEB Address:      www.autodesk.com"
 90
        0
280
     0
281
     0
  0
ENDSEC
  0
SECTION
  2
TABLES
  0
TABLE
  2
VPORT
  5
8
330
0
100
AcDbSymbolTable
 70
     1
  0
VPORT
  5
29
330
8
100
AcDbSymbolTableRecord
100
AcDbViewportTableRecord
  2
*Active
 70
     0
 10
0.0
 20
0.0
 11
1.0
 21
1.0
 12
26.89668930528951
 22
0.0743689777211891
 13
0.0
 23
0.0
 14
10.0
 24
10.0
 15
10.0
 25
10.0
 16
0.0
 26
0.0
 36
1.0
 17
0.0
 27
0.0
 37
0.0
 40
110.0424181482033
 41
1.970186335403727
 42
50.0
 43
0.0
 44
0.0
 50
0.0
 51
0.0
 71
    16
 72
  2000
 73
     1
 74
     3
 75
     0
 76
     0
 77
     0
 78
     0
281
     0
 65
     1
110
0.0
120
0.0
130
0.0
111
1.0
121
0.0
131
0.0
112
0.0
122
1.0
132
0.0
 79
     0
146
0.0
  0
ENDTAB
  0
TABLE
  2
LTYPE
  5
5
330
0
100
AcDbSymbolTable
 70
     6
  0
LTYPE
  5
14
330
5
100
AcDbSymbolTableRecord
100
AcDbLinetypeTableRecord
  2
ByBlock
 70
     0
  3

 72
    65
 73
     0
 40
0.0
  0
LTYPE
  5
15
330
5
100
AcDbSymbolTableRecord
100
AcDbLinetypeTableRecord
  2
ByLayer
 70
     0
  3

 72
    65
 73
     0
 40
0.0
  0
LTYPE
  5
16
330
5
100
AcDbSymbolTableRecord
100
AcDbLinetypeTableRecord
  2
Continuous
 70
     0
  3
Solid line
 72
    65
 73
     0
 40
0.0
  0
LTYPE
  5
6A
330
5
100
AcDbSymbolTableRecord
100
AcDbLinetypeTableRecord
  2
HIDDEN
 70
     0
  3
Hidden __ __ __ __ __ __ __ __ __ __ __ __ __ __
 72
    65
 73
     2
 40
1.905
 49
1.27
 74
     0
 49
-0.635
 74
     0
  0
LTYPE
  5
6B
330
5
100
AcDbSymbolTableRecord
100
AcDbLinetypeTableRecord
  2
PHANTOM
 70
     0
  3
Phantom ______  __  __  ______  __  __  ______
 72
    65
 73
     6
 40
12.7
 49
6.35
 74
     0
 49
-1.27
 74
     0
 49
1.27
 74
     0
 49
-1.27
 74
     0
 49
1.27
 74
     0
 49
-1.27
 74
     0
  0
LTYPE
  5
6C
330
5
100
AcDbSymbolTableRecord
100
AcDbLinetypeTableRecord
  2
CENTER
 70
     0
  3
Center ____ _ ____ _ ____ _ ____ _ ____ _ ____
 72
    65
 73
     4
 40
10.16
 49
6.35
 74
     0
 49
-1.27
 74
     0
 49
1.27
 74
     0
 49
-1.27
 74
     0
  0
LTYPE
  5
6D
330
5
100
AcDbSymbolTableRecord
100
AcDbLinetypeTableRecord
  2
CENTERX2
 70
     0
  3
Center (2x) ________  __  ________  __  _____
 72
    65
 73
     4
 40
20.32
 49
12.7
 74
     0
 49
-2.54
 74
     0
 49
2.54
 74
     0
 49
-2.54
 74
     0
  0
LTYPE
  5
6E
330
5
100
AcDbSymbolTableRecord
100
AcDbLinetypeTableRecord
  2
DOT2
 70
     0
  3
Dot (.5x) ........................................
 72
    65
 73
     2
 40
0.635
 49
0.0
 74
     0
 49
-0.635
 74
     0
  0
ENDTAB
  0
TABLE
  2
LAYER
  5
2
330
0
100
AcDbSymbolTable
 70
    17
  0
LAYER
  5
10
330
2
100
AcDbSymbolTableRecord
100
AcDbLayerTableRecord
  2
0
 70
     0
 62
     7
  6
Continuous
370
    -3
390
F
  0
LAYER
  5
6F
330
2
100
AcDbSymbolTableRecord
100
AcDbLayerTableRecord
  2
FORMAT
 70
     0
 62
     2
  6
Continuous
370
    -3
390
F
  0
LAYER
  5
70
330
2
100
AcDbSymbolTableRecord
100
AcDbLayerTableRecord
  2
외형선
 70
     0
 62
   100
  6
Continuous
370
    30
390
F
  0
LAYER
  5
71
330
2
100
AcDbSymbolTableRecord
100
AcDbLayerTableRecord
  2
숨은선
 70
     0
 62
     2
  6
HIDDEN
370
    15
390
F
  0
LAYER
  5
72
330
2
100
AcDbSymbolTableRecord
100
AcDbLayerTableRecord
  2
중심선
 70
     0
 62
     1
  6
CENTERX2
370
    -3
390
F
  0
LAYER
  5
73
330
2
100
AcDbSymbolTableRecord
100
AcDbLayerTableRecord
  2
파단선
 70
     0
 62
     4
  6
Continuous
370
    -3
390
F
  0
LAYER
  5
74
330
2
100
AcDbSymbolTableRecord
100
AcDbLayerTableRecord
  2
해칭선
 70
     0
 62
     4
  6
Continuous
370
    -3
390
F
  0
LAYER
  5
75
330
2
100
AcDbSymbolTableRecord
100
AcDbLayerTableRecord
  2
가는실선
 70
     0
 62
     4
  6
Continuous
370
    -3
390
F
  0
LAYER
  5
76
330
2
100
AcDbSymbolTableRecord
100
AcDbLayerTableRecord
  2
치수_보조선
 70
     0
 62
     4
  6
Continuous
370
    -3
390
F
  0
LAYER
  5
77
330
2
100
AcDbSymbolTableRecord
100
AcDbLayerTableRecord
  2
치수문자_일반주서
 70
     0
 62
     7
  6
Continuous
370
    15
390
F
  0
LAYER
  5
78
330
2
100
AcDbSymbolTableRecord
100
AcDbLayerTableRecord
  2
개별주서
 70
     0
 62
   100
  6
Continuous
370
    30
390
F
  0
LAYER
  5
79
330
2
100
AcDbSymbolTableRecord
100
AcDbLayerTableRecord
  2
중간선
 70
     0
 62
     2
  6
Continuous
370
    15
390
F
  0
LAYER
  5
7A
330
2
100
AcDbSymbolTableRecord
100
AcDbLayerTableRecord
  2
윤곽선
 70
     0
 62
     3
  6
Continuous
370
    40
390
F
  0
LAYER
  5
7B
330
2
100
AcDbSymbolTableRecord
100
AcDbLayerTableRecord
  2
중심마크
 70
     0
 62
   100
  6
Continuous
370
    30
390
F
  0
LAYER
  5
7C
330
2
100
AcDbSymbolTableRecord
100
AcDbLayerTableRecord
  2
가상선
 70
     0
 62
     4
  6
PHANTOM
370
    -3
390
F
  0
LAYER
  5
7D
330
2
100
AcDbSymbolTableRecord
100
AcDbLayerTableRecord
  2
특수지정선
 70
     0
 62
     5
  6
CENTERX2
370
    60
390
F
  0
LAYER
  5
146
330
2
100
AcDbSymbolTableRecord
100
AcDbLayerTableRecord
  2
Defpoints
 70
     0
 62
     7
  6
Continuous
290
     0
370
    -3
390
F
  0
ENDTAB
  0
TABLE
  2
STYLE
  5
3
330
0
100
AcDbSymbolTable
 70
     2
  0
STYLE
  5
11
330
3
100
AcDbSymbolTableRecord
100
AcDbTextStyleTableRecord
  2
Standard
 70
     0
 40
0.0
 41
1.0
 50
0.0
 71
     0
 42
3.5
  3
txt
  4

  0
STYLE
  5
93
330
3
100
AcDbSymbolTableRecord
100
AcDbTextStyleTableRecord
  2
SLDTEXTSTYLE0
 70
     0
 40
0.0
 41
0.75
 50
0.0
 71
     0
 42
3.5
  3
TXT
  4

  0
ENDTAB
  0
TABLE
  2
VIEW
  5
6
330
0
100
AcDbSymbolTable
 70
     0
  0
ENDTAB
  0
TABLE
  2
UCS
  5
7
330
0
100
AcDbSymbolTable
 70
     0
  0
ENDTAB
  0
TABLE
  2
APPID
  5
9
330
0
100
AcDbSymbolTable
 70
     2
  0
APPID
  5
12
330
9
100
AcDbSymbolTableRecord
100
AcDbRegAppTableRecord
  2
ACAD
 70
     0
  0
APPID
  5
15A
330
9
100
AcDbSymbolTableRecord
100
AcDbRegAppTableRecord
  2
PE_DIMMEASUREMENT
 70
     0
  0
ENDTAB
  0
TABLE
  2
DIMSTYLE
  5
A
330
0
100
AcDbSymbolTable
 70
     4
100
AcDbDimStyleTable
  0
DIMSTYLE
105
27
330
A
100
AcDbSymbolTableRecord
100
AcDbDimStyleTableRecord
  2
ISO-25
 70
     0
 41
2.5
 42
0.625
 43
3.75
 44
1.25
 73
     0
 74
     0
 77
     1
 78
     8
140
2.5
141
2.5
143
0.03937007874016
147
0.625
171
     3
172
     1
178
     0
271
     2
272
     2
274
     3
278
    44
283
     0
284
     8
340
11
  0
DIMSTYLE
105
D3
330
A
100
AcDbSymbolTableRecord
100
AcDbDimStyleTableRecord
  2
SLDDIMSTYLE0
 70
     0
 41
3.302
 44
0.0
 45
0.000000001
 73
     0
 74
     0
 77
     1
 78
    12
 79
     3
140
3.5
147
0.875
173
     1
178
     0
271
     2
272
     2
276
     2
284
    12
340
93
  0
DIMSTYLE
105
DE
102
{ACAD_REACTORS
330
DD
330
F1
102
}
330
A
100
AcDbSymbolTableRecord
100
AcDbDimStyleTableRecord
  2
SLDDIMSTYLE1
 70
     0
 41
3.302
 44
0.0
 45
0.000000001
 73
     0
 74
     0
 77
     1
 78
     4
 79
     1
140
3.5
143
0.0393700787401575
147
0.875
148
0.000000001
170
     1
173
     1
178
     0
271
     2
272
     2
276
     2
284
    12
340
93
  0
DIMSTYLE
105
105
102
{ACAD_REACTORS
330
104
330
147
102
}
330
A
100
AcDbSymbolTableRecord
100
AcDbDimStyleTableRecord
  2
SLDDIMSTYLE2
 70
     0
 41
3.302
 44
0.0
 45
0.000000001
 73
     0
 74
     0
 77
     1
 78
     4
 79
     1
140
3.5
143
0.0393700787401575
147
0.875
148
0.000000001
170
     1
172
     1
173
     1
178
     0
271
     2
272
     2
276
     2
284
    12
289
     0
340
93
  0
ENDTAB
  0
TABLE
  2
BLOCK_RECORD
  5
1
330
0
100
AcDbSymbolTable
 70
     8
  0
BLOCK_RECORD
  5
1F
330
1
100
AcDbSymbolTableRecord
100
AcDbBlockTableRecord
  2
*Model_Space
340
22
  0
BLOCK_RECORD
  5
1B
330
1
100
AcDbSymbolTableRecord
100
AcDbBlockTableRecord
  2
*Paper_Space
340
1E
  0
BLOCK_RECORD
  5
23
330
1
100
AcDbSymbolTableRecord
100
AcDbBlockTableRecord
  2
*Paper_Space0
340
26
  0
BLOCK_RECORD
  5
7E
330
1
100
AcDbSymbolTableRecord
100
AcDbBlockTableRecord
  2
블럭10
340
0
102
{BLKREFS
331
CA
102
}
  0
BLOCK_RECORD
  5
D4
330
1
100
AcDbSymbolTableRecord
100
AcDbBlockTableRecord
  2
_D
340
0
  0
BLOCK_RECORD
  5
DF
330
1
100
AcDbSymbolTableRecord
100
AcDbBlockTableRecord
  2
_D_1
340
0
  0
BLOCK_RECORD
  5
F2
330
1
100
AcDbSymbolTableRecord
100
AcDbBlockTableRecord
  2
_D_2
340
0
  0
BLOCK_RECORD
  5
106
330
1
100
AcDbSymbolTableRecord
100
AcDbBlockTableRecord
  2
_D_3
340
0
  0
BLOCK_RECORD
  5
119
330
1
100
AcDbSymbolTableRecord
100
AcDbBlockTableRecord
  2
SW_DOWELSYMBOL_0
340
0
102
{BLKREFS
331
11F
102
}
  0
BLOCK_RECORD
  5
14A
330
1
100
AcDbSymbolTableRecord
100
AcDbBlockTableRecord
  2
*D7
340
0
  0
ENDTAB
  0
ENDSEC
  0
SECTION
  2
BLOCKS
  0
BLOCK
  5
20
330
1F
100
AcDbEntity
  8
0
100
AcDbBlockBegin
  2
*Model_Space
 70
     0
 10
0.0
 20
0.0
 30
0.0
  3
*Model_Space
  1
*Model_Space
  0
ENDBLK
  5
21
330
1F
100
AcDbEntity
  8
0
100
AcDbBlockEnd
  0
BLOCK
  5
1C
330
1B
100
AcDbEntity
 67
     1
  8
0
100
AcDbBlockBegin
  2
*Paper_Space
 70
     0
 10
0.0
 20
0.0
 30
0.0
  3
*Paper_Space
  1
*Paper_Space
  0
ENDBLK
  5
1D
330
1B
100
AcDbEntity
 67
     1
  8
0
100
AcDbBlockEnd
  0
BLOCK
  5
24
330
23
100
AcDbEntity
  8
0
100
AcDbBlockBegin
  2
*Paper_Space0
 70
     0
 10
0.0
 20
0.0
 30
0.0
  3
*Paper_Space0
  1
*Paper_Space0
  0
ENDBLK
  5
25
330
23
100
AcDbEntity
  8
0
100
AcDbBlockEnd
  0
BLOCK
  5
7F
330
7E
100
AcDbEntity
  8
0
100
AcDbBlockBegin
  2
블럭10
 70
     2
 10
0.0
 20
0.0
 30
0.0
  3
블럭10
  1
블럭10
  0
ELLIPSE
  5
81
330
7E
100
AcDbEntity
  8
중심선
100
AcDbEllipse
 10
20.54032771741204
 20
12.0471743016438
 30
0.0
 11
6.600054785286829
 21
-1.261213355974178E-13
 31
0.0
210
0.0
220
0.0
230
1.0
 40
0.636358354079598
 41
0.9219305317359503
 42
6.513795318482858
  0
ELLIPSE
  5
82
330
7E
100
AcDbEntity
  8
중심선
100
AcDbEllipse
 10
20.54032771746488
 20
12.04717430159265
 30
0.0
 11
3.960054785062283
 21
1.540847449632565E-10
 31
0.0
210
0.0
220
0.0
230
1.0
 40
0.3939339440162632
 41
1.131841032648279
 42
5.62031148352944
  0
LINE
  5
83
330
7E
100
AcDbEntity
  8
중심선
100
AcDbLine
 10
2.268634060543552
 20
16.24717430164393
 30
0.0
 11
5.714909304380834
 21
16.24717430164393
 31
0.0
  0
LINE
  5
84
330
7E
100
AcDbEntity
  8
중심선
100
AcDbLine
 10
5.245725140726316
 20
7.84717430164391
 30
0.0
 11
8.692000384563599
 21
7.84717430164391
 31
0.0
  0
LINE
  5
85
330
7E
100
AcDbEntity
  8
중심선
100
AcDbLine
 10
15.74043728645272
 20
16.24717430164393
 30
0.0
 11
8.692000384563599
 21
7.84717430164391
 31
0.0
  0
LINE
  5
86
330
7E
100
AcDbEntity
  8
중심선
100
AcDbLine
 10
0.1404042013395286
 20
13.71084872107135
 30
0.0
 11
3.58671253028996
 21
13.71088815037384
 31
0.0
  0
LINE
  5
87
330
7E
100
AcDbEntity
  8
중심선
100
AcDbLine
 10
2.750260043222114
 20
10.84717430164391
 30
0.0
 11
6.196535287059397
 21
10.84717430164391
 31
0.0
  0
LINE
  5
88
330
7E
100
AcDbEntity
  8
중심선
100
AcDbLine
 10
12.29416204261559
 20
16.24717430164393
 30
0.0
 11
5.245725140726316
 21
7.84717430164391
 31
0.0
  0
LINE
  5
89
330
7E
100
AcDbEntity
  8
중심선
100
AcDbLine
 10
10.72767329541681
 20
16.24717430164393
 30
0.0
 11
6.196535287059397
 21
10.84717430164391
 31
0.0
  0
LINE
  5
8A
330
7E
100
AcDbEntity
  8
중심선
100
AcDbLine
 10
7.28139805157953
 20
16.24717430164393
 30
0.0
 11
2.750260043222114
 21
10.84717430164391
 31
0.0
  0
LINE
  5
8B
330
7E
100
AcDbEntity
  8
중심선
100
AcDbLine
 10
5.714909304380834
 20
16.24717430164393
 30
0.0
 11
3.58671253028996
 21
13.71088815037384
 31
0.0
  0
LINE
  5
8C
330
7E
100
AcDbEntity
  8
중심선
100
AcDbLine
 10
2.268634060543552
 20
16.24717430164393
 30
0.0
 11
0.1404042013395286
 21
13.71084872107135
 31
0.0
  0
LINE
  5
8D
330
7E
100
AcDbEntity
  8
중심선
100
AcDbLine
 10
7.28139805157953
 20
16.24717430164393
 30
0.0
 11
10.72767329541681
 21
16.24717430164393
 31
0.0
  0
LINE
  5
8E
330
7E
100
AcDbEntity
  8
중심선
100
AcDbLine
 10
12.29416204261559
 20
16.24717430164393
 30
0.0
 11
15.74043728645272
 21
16.24717430164393
 31
0.0
  0
LINE
  5
8F
330
7E
100
AcDbEntity
  8
중심선
100
AcDbLine
 10
19.22036997980202
 20
11.08717430171403
 30
0.0
 11
23.66174974927406
 21
11.08717430171406
 31
0.0
  0
LINE
  5
90
330
7E
100
AcDbEntity
  8
중심선
100
AcDbLine
 10
19.22039502424796
 20
13.00717430171391
 30
0.0
 11
19.22036997980202
 21
11.08717430171403
 31
0.0
  0
LINE
  5
91
330
7E
100
AcDbEntity
  8
중심선
100
AcDbLine
 10
19.22039502424796
 20
13.00717430171391
 30
0.0
 11
26.96566020931264
 21
13.00717430171391
 31
0.0
  0
LINE
  5
92
330
7E
100
AcDbEntity
  8
중심선
100
AcDbLine
 10
22.22332737316547
 20
13.45928029700563
 30
0.0
 11
24.52862924686651
 21
15.39360700705356
 31
0.0
  0
ATTDEF
  5
94
330
7E
100
AcDbEntity
  8
FORMAT
 62
     2
100
AcDbText
 10
-9.18129528874128
 20
2.075366912832191
 30
0.0
 40
4.233333333333333
  1
E5982032 [ 3 FLUTE ]
 41
0.75
  7
SLDTEXTSTYLE0
 11
-9.18129528874128
 21
-0.0412997538344756
 31
0.0
100
AcDbAttributeDefinition
  3

  2
AUTOATTR0
 70
     0
 74
     1
  0
ENDBLK
  5
80
330
7E
100
AcDbEntity
  8
0
100
AcDbBlockEnd
  0
BLOCK
  5
D5
330
D4
100
AcDbEntity
  8
0
100
AcDbBlockBegin
  2
_D
 70
     0
 10
0.0
 20
0.0
 30
0.0
  3
_D
  1
_D
  0
SOLID
  5
D7
330
D4
100
AcDbEntity
  8
치수문자_일반주서
100
AcDbTrace
 10
-43.3
 20
-0.4854796965059789
 30
0.0
 11
-39.998
 21
-0.9934796965059789
 31
0.0
 12
-39.998
 22
0.0225203034940211
 32
0.0
 13
-39.998
 23
0.0225203034940211
 33
0.0
  0
SOLID
  5
D8
330
D4
100
AcDbEntity
  8
치수문자_일반주서
100
AcDbTrace
 10
28.16254243902305
 20
-0.4854796965059746
 30
0.0
 11
24.86054243902305
 21
0.0225203034940255
 31
0.0
 12
24.86054243902305
 22
-0.9934796965059746
 32
0.0
 13
24.86054243902305
 23
-0.9934796965059746
 33
0.0
  0
LINE
  5
D9
330
D4
100
AcDbEntity
  8
치수문자_일반주서
100
AcDbLine
 10
-43.3
 20
-0.9816608253754013
 30
0.0
 11
-43.3
 21
-1.485479696505979
 31
0.0
  0
LINE
  5
DA
330
D4
100
AcDbEntity
  8
치수문자_일반주서
100
AcDbLine
 10
28.16254243902305
 20
-0.9816608253754013
 30
0.0
 11
28.16254243902305
 21
-1.485479696505974
 31
0.0
  0
LINE
  5
DB
330
D4
100
AcDbEntity
  8
치수문자_일반주서
100
AcDbLine
 10
-43.3
 20
-0.4854796965059789
 30
0.0
 11
28.16254243902305
 21
-0.4854796965059746
 31
0.0
  0
MTEXT
  5
DC
330
D4
100
AcDbEntity
  8
치수문자_일반주서
100
AcDbMText
 10
16.97950331063597
 20
4.02625721807292
 30
0.0
 40
3.5
 41
0.0
 71
     1
 72
     1
  1
71.46
  7
SLDTEXTSTYLE0
 73
     1
 44
1.0
  0
ENDBLK
  5
D6
330
D4
100
AcDbEntity
  8
0
100
AcDbBlockEnd
  0
BLOCK
  5
E0
330
DF
100
AcDbEntity
  8
0
100
AcDbBlockBegin
  2
_D_1
 70
     0
 10
0.0
 20
0.0
 30
0.0
  3
_D_1
  1
_D_1
  0
LINE
  5
E2
330
DF
100
AcDbEntity
  8
치수문자_일반주서
 62
     0
370
    -2
100
AcDbLine
 10
60.80000000000125
 20
6.412500000000019
 30
0.0
 11
60.80000000000125
 21
26.96341845233052
 31
0.0
  0
LINE
  5
E3
330
DF
100
AcDbEntity
  8
치수문자_일반주서
 62
     0
370
    -2
100
AcDbLine
 10
10.00000000000126
 20
6.412500000000014
 30
0.0
 11
10.00000000000126
 21
26.96341845233052
 31
0.0
  0
LINE
  5
E4
330
DF
100
AcDbEntity
  8
치수문자_일반주서
 62
     0
370
    -2
100
AcDbLine
 10
57.49800000000126
 20
26.96341845233052
 30
0.0
 11
13.30200000000126
 21
26.96341845233052
 31
0.0
  0
SOLID
  5
E5
330
DF
100
AcDbEntity
  8
치수문자_일반주서
 62
     0
100
AcDbTrace
 10
57.49800000000126
 20
26.41308511899718
 30
0.0
 11
57.49800000000126
 21
27.51375178566385
 31
0.0
 12
60.80000000000125
 22
26.96341845233052
 32
0.0
 13
60.80000000000125
 23
26.96341845233052
 33
0.0
  0
SOLID
  5
E6
330
DF
100
AcDbEntity
  8
치수문자_일반주서
 62
     0
100
AcDbTrace
 10
13.30200000000126
 20
27.51375178566385
 30
0.0
 11
13.30200000000126
 21
26.41308511899718
 31
0.0
 12
10.00000000000126
 22
26.96341845233052
 32
0.0
 13
10.00000000000126
 23
26.96341845233052
 33
0.0
  0
MTEXT
  5
E7
330
DF
100
AcDbEntity
  8
치수문자_일반주서
 62
     0
100
AcDbMText
 10
35.40000000000126
 20
31.33841845233052
 30
0.0
 40
3.5
 41
0.0
 71
     2
 72
     1
  1
\A1;50.80 [2]
  7
SLDTEXTSTYLE0
 73
     1
 44
1.0
  0
POINT
  5
E8
330
DF
100
AcDbEntity
  8
Defpoints
 62
     0
100
AcDbPoint
 10
60.80000000000125
 20
6.350000000000019
 30
0.0
  0
POINT
  5
E9
330
DF
100
AcDbEntity
  8
Defpoints
 62
     0
100
AcDbPoint
 10
10.00000000000126
 20
6.350000000000014
 30
0.0
  0
POINT
  5
EA
330
DF
100
AcDbEntity
  8
Defpoints
 62
     0
100
AcDbPoint
 10
10.00000000000126
 20
26.96341845233052
 30
0.0
  0
ENDBLK
  5
E1
330
DF
100
AcDbEntity
  8
0
100
AcDbBlockEnd
  0
BLOCK
  5
F3
330
F2
100
AcDbEntity
  8
0
100
AcDbBlockBegin
  2
_D_2
 70
     0
 10
0.0
 20
0.0
 30
0.0
  3
_D_2
  1
_D_2
  0
LINE
  5
F5
330
F2
100
AcDbEntity
  8
치수문자_일반주서
 62
     0
370
    -2
100
AcDbLine
 10
60.80000000000125
 20
6.412500000000019
 30
0.0
 11
60.80000000000125
 21
44.98610365728746
 31
0.0
  0
LINE
  5
F6
330
F2
100
AcDbEntity
  8
치수문자_일반주서
 62
     0
370
    -2
100
AcDbLine
 10
-40.79999999999874
 20
5.912500000000009
 30
0.0
 11
-40.79999999999874
 21
44.98610365728746
 31
0.0
  0
LINE
  5
F7
330
F2
100
AcDbEntity
  8
치수문자_일반주서
 62
     0
370
    -2
100
AcDbLine
 10
57.49800000000126
 20
44.98610365728746
 30
0.0
 11
-37.49799999999874
 21
44.98610365728746
 31
0.0
  0
SOLID
  5
F8
330
F2
100
AcDbEntity
  8
치수문자_일반주서
 62
     0
100
AcDbTrace
 10
57.49800000000126
 20
44.43577032395412
 30
0.0
 11
57.49800000000126
 21
45.53643699062079
 31
0.0
 12
60.80000000000125
 22
44.98610365728746
 32
0.0
 13
60.80000000000125
 23
44.98610365728746
 33
0.0
  0
SOLID
  5
F9
330
F2
100
AcDbEntity
  8
치수문자_일반주서
 62
     0
100
AcDbTrace
 10
-37.49799999999874
 20
45.53643699062079
 30
0.0
 11
-37.49799999999874
 21
44.43577032395412
 31
0.0
 12
-40.79999999999874
 22
44.98610365728746
 32
0.0
 13
-40.79999999999874
 23
44.98610365728746
 33
0.0
  0
MTEXT
  5
FA
330
F2
100
AcDbEntity
  8
치수문자_일반주서
 62
     0
100
AcDbMText
 10
10.00000000000126
 20
49.36110365728746
 30
0.0
 40
3.5
 41
0.0
 71
     2
 72
     1
  1
\A1;101.60 [4]
  7
SLDTEXTSTYLE0
 73
     1
 44
1.0
  0
POINT
  5
FB
330
F2
100
AcDbEntity
  8
Defpoints
 62
     0
100
AcDbPoint
 10
60.80000000000125
 20
6.350000000000019
 30
0.0
  0
POINT
  5
FC
330
F2
100
AcDbEntity
  8
Defpoints
 62
     0
100
AcDbPoint
 10
-40.79999999999874
 20
5.850000000000009
 30
0.0
  0
POINT
  5
FD
330
F2
100
AcDbEntity
  8
Defpoints
 62
     0
100
AcDbPoint
 10
-40.79999999999874
 20
44.98610365728746
 30
0.0
  0
ENDBLK
  5
F4
330
F2
100
AcDbEntity
  8
0
100
AcDbBlockEnd
  0
BLOCK
  5
107
330
106
100
AcDbEntity
  8
0
100
AcDbBlockBegin
  2
_D_3
 70
     0
 10
0.0
 20
0.0
 30
0.0
  3
_D_3
  1
_D_3
  0
LINE
  5
109
330
106
100
AcDbEntity
  8
치수문자_일반주서
 62
     0
370
    -2
100
AcDbLine
 10
-40.36249999999874
 20
6.350000000000011
 30
0.0
 11
-48.74086086741835
 21
6.34999999999998
 31
0.0
  0
LINE
  5
10A
330
106
100
AcDbEntity
  8
치수문자_일반주서
 62
     0
370
    -2
100
AcDbLine
 10
-40.36249999999874
 20
-6.349999999999988
 30
0.0
 11
-48.74086086741831
 21
-6.350000000000023
 31
0.0
  0
LINE
  5
10B
330
106
100
AcDbEntity
  8
치수문자_일반주서
 62
     0
370
    -2
100
AcDbLine
 10
-48.74086086741835
 20
6.34999999999998
 30
0.0
 11
-48.74086086741846
 21
40.07899999999998
 31
0.0
  0
LINE
  5
10C
330
106
100
AcDbEntity
  8
치수문자_일반주서
 62
     0
370
    -2
100
AcDbLine
 10
-48.74086086741835
 20
6.34999999999998
 30
0.0
 11
-48.74086086741831
 21
-6.350000000000023
 31
0.0
  0
LINE
  5
10D
330
106
100
AcDbEntity
  8
치수문자_일반주서
 62
     0
370
    -2
100
AcDbLine
 10
-48.74086086741836
 20
9.65199999999998
 30
0.0
 11
-48.74086086741838
 21
12.95399999999998
 31
0.0
  0
LINE
  5
10E
330
106
100
AcDbEntity
  8
치수문자_일반주서
 62
     0
370
    -2
100
AcDbLine
 10
-48.74086086741829
 20
-9.652000000000022
 30
0.0
 11
-48.74086086741828
 21
-12.95400000000002
 31
0.0
  0
SOLID
  5
10F
330
106
100
AcDbEntity
  8
치수문자_일반주서
 62
     0
100
AcDbTrace
 10
-49.2911942007517
 20
9.651999999999978
 30
0.0
 11
-48.19052753408503
 21
9.651999999999981
 31
0.0
 12
-48.74086086741835
 22
6.34999999999998
 32
0.0
 13
-48.74086086741835
 23
6.34999999999998
 33
0.0
  0
SOLID
  5
110
330
106
100
AcDbEntity
  8
치수문자_일반주서
 62
     0
100
AcDbTrace
 10
-48.19052753408496
 20
-9.65200000000002
 30
0.0
 11
-49.29119420075163
 21
-9.652000000000024
 31
0.0
 12
-48.74086086741831
 22
-6.350000000000023
 32
0.0
 13
-48.74086086741831
 23
-6.350000000000023
 33
0.0
  0
MTEXT
  5
111
330
106
100
AcDbEntity
  8
치수문자_일반주서
 62
     0
100
AcDbMText
 10
-53.11586086741842
 20
26.73524999999997
 30
0.0
 40
3.5
 41
0.0
 71
     2
 72
     1
  1
\A1;%%c12.70 [1/2]
  7
SLDTEXTSTYLE0
 11
-3.356894814614647E-15
 21
1.0
 31
0.0
 73
     1
 44
1.0
  0
POINT
  5
112
330
106
100
AcDbEntity
  8
Defpoints
 62
     0
100
AcDbPoint
 10
-40.29999999999874
 20
6.350000000000011
 30
0.0
  0
POINT
  5
113
330
106
100
AcDbEntity
  8
Defpoints
 62
     0
100
AcDbPoint
 10
-40.29999999999874
 20
-6.349999999999988
 30
0.0
  0
POINT
  5
114
330
106
100
AcDbEntity
  8
Defpoints
 62
     0
100
AcDbPoint
 10
-48.74086086741831
 20
-6.35000000000002
 30
0.0
  0
ENDBLK
  5
108
330
106
100
AcDbEntity
  8
0
100
AcDbBlockEnd
  0
BLOCK
  5
11A
330
119
100
AcDbEntity
  8
0
100
AcDbBlockBegin
  2
SW_DOWELSYMBOL_0
 70
     0
 10
0.0
 20
0.0
 30
0.0
  3
SW_DOWELSYMBOL_0
  1
SW_DOWELSYMBOL_0
  0
CIRCLE
  5
11C
330
119
100
AcDbEntity
  8
외형선
 62
     0
100
AcDbCircle
 10
0.0
 20
0.0
 30
0.0
 40
3.000000000000008
  0
HATCH
  5
11D
330
119
100
AcDbEntity
  8
0
  6
Continuous
 62
     0
370
    30
100
AcDbHatch
 10
0.0
 20
0.0
 30
0.0
210
0.0
220
0.0
230
1.0
  2
SOLID
 70
     1
 71
     0
 91
        1
 92
        0
 93
        3
 72
     2
 10
0.0000000000000087
 20
0.0
 40
3.000000000000008
 50
0.0
 51
90.0
 73
     1
 72
     1
 10
0.0000000000000087
 20
3.000000000000008
 11
0.0000000000000087
 21
0.0
 72
     1
 10
0.0000000000000087
 20
0.0
 11
3.000000000000017
 21
0.0
 97
        0
 75
     0
 76
     1
 98
        1
 10
0.0
 20
0.0
  0
HATCH
  5
11E
330
119
100
AcDbEntity
  8
0
  6
Continuous
 62
     0
370
    30
100
AcDbHatch
 10
0.0
 20
0.0
 30
0.0
210
0.0
220
0.0
230
1.0
  2
SOLID
 70
     1
 71
     0
 91
        1
 92
        0
 93
        3
 72
     2
 10
0.0000000000000087
 20
0.0
 40
3.000000000000008
 50
180.0
 51
270.0000000000008
 73
     1
 72
     1
 10
0.0000000000000087
 20
-3.000000000000008
 11
0.0000000000000087
 21
0.0
 72
     1
 10
0.0000000000000087
 20
0.0
 11
-3.0
 21
0.0
 97
        0
 75
     0
 76
     1
 98
        1
 10
0.0
 20
0.0
  0
ENDBLK
  5
11B
330
119
100
AcDbEntity
  8
0
100
AcDbBlockEnd
  0
BLOCK
  5
14B
330
14A
100
AcDbEntity
  8
0
100
AcDbBlockBegin
  2
*D7
 70
     1
 10
0.0
 20
0.0
 30
0.0
  3
*D7
  1
*D7
  0
LINE
  5
14D
330
14A
100
AcDbEntity
  8
치수문자_일반주서
 62
     0
370
    -2
100
AcDbLine
 10
60.86250000000126
 20
-6.349999999999985
 30
0.0
 11
69.91357261412264
 21
-6.349999999999985
 31
0.0
  0
LINE
  5
14E
330
14A
100
AcDbEntity
  8
치수문자_일반주서
 62
     0
370
    -2
100
AcDbLine
 10
60.86250000000126
 20
6.350000000000019
 30
0.0
 11
69.91357261412264
 21
6.350000000000018
 31
0.0
  0
LINE
  5
14F
330
14A
100
AcDbEntity
  8
치수문자_일반주서
 62
     0
370
    -2
100
AcDbLine
 10
69.91357261412264
 20
9.652000000000019
 30
0.0
 11
69.91357261412264
 21
39.64150000000002
 31
0.0
  0
LINE
  5
150
330
14A
100
AcDbEntity
  8
치수문자_일반주서
 62
     0
370
    -2
100
AcDbLine
 10
69.91357261412264
 20
-6.349999999999985
 30
0.0
 11
69.91357261412264
 21
6.350000000000018
 31
0.0
  0
LINE
  5
151
330
14A
100
AcDbEntity
  8
치수문자_일반주서
 62
     0
370
    -2
100
AcDbLine
 10
69.91357261412264
 20
-9.651999999999983
 30
0.0
 11
69.91357261412264
 21
-12.95399999999998
 31
0.0
  0
SOLID
  5
152
330
14A
100
AcDbEntity
  8
치수문자_일반주서
 62
     0
100
AcDbTrace
 10
70.46390594745597
 20
-9.651999999999983
 30
0.0
 11
69.36323928078932
 21
-9.651999999999983
 31
0.0
 12
69.91357261412264
 22
-6.349999999999985
 32
0.0
 13
69.91357261412264
 23
-6.349999999999985
 33
0.0
  0
SOLID
  5
153
330
14A
100
AcDbEntity
  8
치수문자_일반주서
 62
     0
100
AcDbTrace
 10
69.36323928078932
 20
9.652000000000019
 30
0.0
 11
70.46390594745597
 21
9.652000000000019
 31
0.0
 12
69.91357261412264
 22
6.350000000000018
 32
0.0
 13
69.91357261412264
 23
6.350000000000018
 33
0.0
  0
MTEXT
  5
154
330
14A
100
AcDbEntity
  8
치수문자_일반주서
 62
     0
100
AcDbMText
 10
67.28857261412264
 20
26.29775000000002
 30
0.0
 40
3.5
 41
0.0
 71
     5
 72
     1
  1
\A1;{Ø12.70 [1/2]}
  7
SLDTEXTSTYLE0
 11
0.0
 21
1.0
 31
0.0
 73
     1
 44
1.0
  0
POINT
  5
155
330
14A
100
AcDbEntity
  8
Defpoints
 62
     0
100
AcDbPoint
 10
60.80000000000126
 20
-6.349999999999985
 30
0.0
  0
POINT
  5
156
330
14A
100
AcDbEntity
  8
Defpoints
 62
     0
100
AcDbPoint
 10
60.80000000000126
 20
6.350000000000019
 30
0.0
  0
POINT
  5
157
330
14A
100
AcDbEntity
  8
Defpoints
 62
     0
100
AcDbPoint
 10
69.91357261412264
 20
6.350000000000018
 30
0.0
  0
ENDBLK
  5
14C
330
14A
100
AcDbEntity
  8
0
100
AcDbBlockEnd
  0
ENDSEC
  0
SECTION
  2
ENTITIES
  0
LINE
  5
95
330
1F
100
AcDbEntity
  8
0
  6
Continuous
 62
     4
370
    15
100
AcDbLine
 10
10.00000000000126
 20
6.350000000000014
 30
0.0
 11
-40.29999999999874
 21
6.350000000000011
 31
0.0
  0
LINE
  5
96
330
1F
100
AcDbEntity
  8
0
  6
Continuous
 62
     4
370
    15
100
AcDbLine
 10
-40.29999999999874
 20
-6.349999999999988
 30
0.0
 11
7.969515632490682
 21
-6.349999999999985
 31
0.0
  0
LINE
  5
97
330
1F
100
AcDbEntity
  8
0
  6
Continuous
 62
     4
370
    15
100
AcDbLine
 10
-40.29999999999874
 20
6.350000000000008
 30
0.0
 11
-40.79999999999874
 21
5.850000000000009
 31
0.0
  0
LINE
  5
98
330
1F
100
AcDbEntity
  8
0
  6
Continuous
 62
     4
370
    15
100
AcDbLine
 10
-40.79999999999874
 20
-5.849999999999987
 30
0.0
 11
-40.29999999999874
 21
-6.349999999999985
 31
0.0
  0
LINE
  5
99
330
1F
100
AcDbEntity
  8
0
  6
Continuous
 62
     1
370
    15
100
AcDbLine
 10
40.45250082517461
 20
-6.349999999999991
 30
0.0
 11
44.57322865827713
 21
-6.349999999999991
 31
0.0
  0
LINE
  5
9A
330
1F
100
AcDbEntity
  8
0
  6
Continuous
 62
     1
370
    15
100
AcDbLine
 10
24.62368608182882
 20
6.350000000000019
 30
0.0
 11
20.50338193219895
 21
6.350000000000019
 31
0.0
  0
LINE
  5
9B
330
1F
100
AcDbEntity
  8
0
  6
Continuous
 62
     1
370
    15
100
AcDbLine
 10
60.80000000000126
 20
6.350000000000019
 30
0.0
 11
60.40201122951498
 21
6.350000000000019
 31
0.0
  0
LINE
  5
9C
330
1F
100
AcDbEntity
  8
0
  6
Continuous
 62
     1
370
    15
100
AcDbLine
 10
53.75212485991921
 20
-6.349999999999991
 30
0.0
 11
57.8730325753225
 21
-6.349999999999991
 31
0.0
  0
LINE
  5
9D
330
1F
100
AcDbEntity
  8
0
  6
Continuous
 62
     1
370
    15
100
AcDbLine
 10
13.85364756664528
 20
-6.349999999999991
 30
0.0
 11
17.97391138354994
 21
-6.349999999999991
 31
0.0
  0
LINE
  5
9E
330
1F
100
AcDbEntity
  8
0
  6
Continuous
 62
     1
370
    15
100
AcDbLine
 10
37.92335203550291
 20
6.350000000000019
 30
0.0
 11
33.80275590672516
 21
6.350000000000019
 31
0.0
  0
LINE
  5
9F
330
1F
100
AcDbEntity
  8
0
  6
Continuous
 62
     1
370
    15
100
AcDbLine
 10
27.15305083930449
 20
-6.349999999999991
 30
0.0
 11
31.27350206987532
 21
-6.349999999999991
 31
0.0
  0
LINE
  5
A0
330
1F
100
AcDbEntity
  8
0
  6
Continuous
 62
     1
370
    15
100
AcDbLine
 10
11.3243224891226
 20
6.350000000000019
 30
0.0
 11
10.00000000000126
 21
6.350000000000019
 31
0.0
  0
LINE
  5
A1
330
1F
100
AcDbEntity
  8
0
  6
Continuous
 62
     1
370
    15
100
AcDbLine
 10
51.22312461335461
 20
6.350000000000019
 30
0.0
 11
47.10228926241837
 21
6.350000000000019
 31
0.0
  0
SPLINE
  5
A2
330
1F
100
AcDbEntity
  8
0
  6
Continuous
 62
     1
370
    15
100
AcDbSpline
210
0.0
220
0.0
230
1.0
 70
    24
 71
     3
 72
     8
 73
     4
 74
     0
 42
0.000000001
 43
0.00000001
 40
0.0
 40
0.0
 40
0.0
 40
0.0
 40
1.0
 40
1.0
 40
1.0
 40
1.0
 10
10.00000000000126
 20
5.737016111388307
 30
0.0
 10
10.00000000000126
 20
5.338408050779869
 30
0.0
 10
10.00000000000126
 20
4.929692231942568
 30
0.0
 10
10.00000000000126
 20
4.50982179711586
 30
0.0
  0
SPLINE
  5
A3
330
1F
100
AcDbEntity
  8
0
  6
Continuous
 62
     4
370
    15
100
AcDbSpline
210
0.0
220
0.0
230
1.0
 70
     8
 71
     3
 72
    12
 73
     8
 74
     0
 42
0.000000001
 43
0.00000001
 40
0.0
 40
0.0
 40
0.0
 40
0.0
 40
0.25
 40
0.25
 40
0.5
 40
0.5
 40
1.0
 40
1.0
 40
1.0
 40
1.0
 10
8.346279041223697
 20
-0.3460735948100426
 30
0.0
 10
8.285276496087588
 20
-0.2853298072964358
 30
0.0
 10
8.231506521515655
 20
-0.2194231986071344
 30
0.0
 10
8.137740337977055
 20
-0.0777502715521409
 30
0.0
 10
8.09743063056669
 20
-0.0010296266148397
 30
0.0
 10
8.001523643250712
 20
0.2364310321537023
 30
0.0
 10
7.969515632490677
 20
0.4065388283578307
 30
0.0
 10
7.969515632490676
 20
0.5780371147414757
 30
0.0
  0
SPLINE
  5
A4
330
1F
100
AcDbEntity
  8
0
  6
Continuous
 62
     4
370
    15
100
AcDbSpline
210
0.0
220
0.0
230
1.0
 70
     8
 71
     3
 72
    16
 73
    12
 74
     0
 42
0.000000001
 43
0.00000001
 40
0.0
 40
0.0
 40
0.0
 40
0.0
 40
0.1249999999999999
 40
0.1249999999999999
 40
0.2499999999999998
 40
0.2499999999999998
 40
0.4999999999999999
 40
0.4999999999999999
 40
0.75
 40
0.75
 40
1.0
 40
1.0
 40
1.0
 40
1.0
 10
7.969515632490682
 20
5.216319719683955
 30
0.0
 10
7.969515632490682
 20
5.284192090845925
 30
0.0
 10
7.984468177230431
 20
5.34786470405206
 30
0.0
 10
8.045447235033063
 20
5.4674005359666
 30
0.0
 10
8.091687001678554
 20
5.522517964444916
 30
0.0
 10
8.271432516617224
 20
5.6678660451164
 30
0.0
 10
8.45107509357906
 20
5.74044586307571
 30
0.0
 10
8.870202334710935
 20
5.82928408115153
 30
0.0
 10
9.10906405368035
 20
5.847234298583077
 30
0.0
 10
9.581930419089264
 20
5.831647166607411
 30
0.0
 10
9.809589187393609
 20
5.798379614745786
 30
0.0
 10
10.00000000000093
 20
5.737016111387663
 30
0.0
  0
SPLINE
  5
A5
330
1F
100
AcDbEntity
  8
0
  6
Continuous
 62
     4
370
    15
100
AcDbSpline
210
0.0
220
0.0
230
1.0
 70
     8
 71
     3
 72
    10
 73
     6
 74
     0
 42
0.000000001
 43
0.00000001
 40
0.0
 40
0.0
 40
0.0
 40
0.0
 40
0.5
 40
0.5
 40
1.0
 40
1.0
 40
1.0
 40
1.0
 10
10.00000000000126
 20
-1.96708742297642
 30
0.0
 10
9.723236968042107
 20
-1.704659655095602
 30
0.0
 10
9.448183360363268
 20
-1.437198283956622
 30
0.0
 10
8.90018520153471
 20
-0.8963979693883027
 30
0.0
 10
8.623050242253253
 20
-0.6216708012497635
 30
0.0
 10
8.3462790412237
 20
-0.3460735948100421
 30
0.0
  0
SPLINE
  5
A6
330
1F
100
AcDbEntity
  8
0
  6
Continuous
 62
     4
370
    15
100
AcDbSpline
210
0.0
220
0.0
230
1.0
 70
     8
 71
     3
 72
    16
 73
    12
 74
     0
 42
0.000000001
 43
0.00000001
 40
0.0
 40
0.0
 40
0.0
 40
0.0
 40
0.125
 40
0.125
 40
0.25
 40
0.25
 40
0.4999999999999999
 40
0.4999999999999999
 40
0.7499999999999999
 40
0.7499999999999999
 40
1.0
 40
1.0
 40
1.0
 40
1.0
 10
7.969515632490682
 20
-5.744141593928972
 30
0.0
 10
7.969515632490682
 20
-5.693404776412022
 30
0.0
 10
7.984468177230431
 20
-5.640728997348955
 30
0.0
 10
8.045447235033064
 20
-5.532320202668582
 30
0.0
 10
8.091687001678554
 20
-5.477113441822976
 30
0.0
 10
8.271432516617224
 20
-5.319676705390513
 30
0.0
 10
8.451075093579062
 20
-5.223101341209134
 30
0.0
 10
8.870202334710937
 20
-5.097566951515109
 30
0.0
 10
9.109064053680353
 20
-5.06827526862557
 30
0.0
 10
9.581930419089264
 20
-5.092079232089008
 30
0.0
 10
9.809589187393609
 20
-5.144482643872015
 30
0.0
 10
10.00000000000093
 20
-5.225807273709838
 30
0.0
  0
LINE
  5
A7
330
1F
100
AcDbEntity
  8
0
  6
Continuous
 62
     4
370
    15
100
AcDbLine
 10
7.969515632490682
 20
-5.744141593928973
 30
0.0
 11
7.969515632490682
 21
-6.349999999999985
 31
0.0
  0
LINE
  5
A8
330
1F
100
AcDbEntity
  8
0
  6
Continuous
 62
     4
370
    15
100
AcDbLine
 10
8.516828768959087
 20
-5.215911192835071
 30
0.0
 11
8.346279041223701
 21
-5.318051418989887
 31
0.0
  0
LINE
  5
A9
330
1F
100
AcDbEntity
  8
0
  6
Continuous
 62
     4
370
    15
100
AcDbLine
 10
-40.29999999999874
 20
6.350000000000008
 30
0.0
 11
-40.29999999999874
 21
-6.349999999999988
 31
0.0
  0
LINE
  5
AA
330
1F
100
AcDbEntity
  8
0
  6
Continuous
 62
     4
370
    15
100
AcDbLine
 10
10.00000000000126
 20
6.350000000000014
 30
0.0
 11
10.00000000000126
 21
5.737016111387959
 31
0.0
  0
LINE
  5
AB
330
1F
100
AcDbEntity
  8
0
  6
Continuous
 62
     4
370
    15
100
AcDbLine
 10
10.00000000000126
 20
-1.967087422981993
 30
0.0
 11
10.00000000000126
 21
-5.225807273709446
 31
0.0
  0
LINE
  5
AC
330
1F
100
AcDbEntity
  8
0
  6
Continuous
 62
     4
370
    15
100
AcDbLine
 10
7.969515632490682
 20
5.216319719683954
 30
0.0
 11
7.969515632490681
 21
0.5780371147414871
 31
0.0
  0
LINE
  5
AD
330
1F
100
AcDbEntity
  8
0
  6
Continuous
 62
     4
370
    15
100
AcDbLine
 10
-40.79999999999874
 20
5.850000000000009
 30
0.0
 11
-40.79999999999874
 21
-5.849999999999987
 31
0.0
  0
SPLINE
  5
AE
330
1F
100
AcDbEntity
  8
0
  6
Continuous
 62
     4
370
    15
100
AcDbSpline
210
0.0
220
0.0
230
1.0
 70
    24
 71
     3
 72
    14
 73
    10
 74
     0
 42
0.000000001
 43
0.00000001
 40
0.0
 40
0.0
 40
0.0
 40
0.0
 40
0.25
 40
0.25
 40
0.5
 40
0.5
 40
0.75
 40
0.75
 40
1.0
 40
1.0
 40
1.0
 40
1.0
 10
10.00000000000126
 20
4.509821797115487
 30
0.0
 10
10.00000000000126
 20
4.022868666268557
 30
0.0
 10
10.00000000000126
 20
3.484358668412605
 30
0.0
 10
10.00000000000126
 20
2.33309450814191
 30
0.0
 10
10.00000000000126
 20
1.719830578893057
 30
0.0
 10
10.00000000000126
 20
0.5007122495649533
 30
0.0
 10
10.00000000000126
 20
-0.1040440662533528
 30
0.0
 10
10.00000000000126
 20
-1.173624080846039
 30
0.0
 10
10.00000000000126
 20
-1.63551460231967
 30
0.0
 10
10.00000000000126
 20
-1.967087422981993
 30
0.0
  0
SPLINE
  5
AF
330
1F
100
AcDbEntity
  8
0
  6
Continuous
 62
     1
370
    15
100
AcDbSpline
210
0.0
220
0.0
230
1.0
 70
     8
 71
     3
 72
    30
 73
    26
 74
     0
 42
0.000000001
 43
0.00000001
 40
0.0
 40
0.0
 40
0.0
 40
0.0
 40
0.0191192278968408
 40
0.0640221014028809
 40
0.1088745259222679
 40
0.1536702481796071
 40
0.1985776653090321
 40
0.2434242413787732
 40
0.2882214763494317
 40
0.3331328473821845
 40
0.3779738746937733
 40
0.4227729247400352
 40
0.4676876596840692
 40
0.5125234382290331
 40
0.5573246056148224
 40
0.6022421142466539
 40
0.6470729443004076
 40
0.691876531174919
 40
0.7367962230802092
 40
0.781622405185879
 40
0.8264287135672204
 40
0.8713499981813883
 40
0.9161718331336105
 40
0.9609811648924572
 40
0.9999999999999999
 40
0.9999999999999999
 40
0.9999999999999999
 40
0.9999999999999999
 10
49.16346504512527
 20
-4.745032735607036
 30
0.0
 10
49.00720529215855
 20
-4.852640099000114
 30
0.0
 10
48.48395833869352
 20
-5.212971047928585
 30
0.0
 10
47.59223794049607
 20
-5.668558422525725
 30
0.0
 10
46.49162011028169
 20
-6.094137752090639
 30
0.0
 10
45.39235516379184
 20
-6.3287561342094
 30
0.0
 10
44.29035843435867
 20
-6.375630912098114
 30
0.0
 10
43.18985126345431
 20
-6.231131205443359
 30
0.0
 10
42.0905582762331
 20
-5.899430796038287
 30
0.0
 10
40.98846262085991
 20
-5.392033573704611
 30
0.0
 10
39.88809263485761
 20
-4.72242773483935
 30
0.0
 10
38.78875504433794
 20
-3.910287433419472
 30
0.0
 10
37.68657730604691
 20
-2.983306626458573
 30
0.0
 10
36.58633647868676
 20
-1.965354714901661
 30
0.0
 10
35.48694697558773
 20
-0.8875366537852284
 30
0.0
 10
34.38470151682043
 20
0.2139844690033751
 30
0.0
 10
33.28458248650939
 20
1.311245209070651
 30
0.0
 10
32.18513354719936
 20
2.369813671903513
 30
0.0
 10
31.08283494688307
 20
3.354705488422365
 30
0.0
 10
29.98282971174083
 20
4.241289619247954
 30
0.0
 10
28.88331612397346
 20
5.000507055733125
 30
0.0
 10
27.78097036533767
 20
5.609561965280684
 30
0.0
 10
26.68110294463476
 20
6.046979629453239
 30
0.0
 10
25.62964875611939
 20
6.309325121047228
 30
0.0
 10
24.94320134131244
 20
6.329651967740154
 30
0.0
 10
24.62368608182881
 20
6.339113344614012
 30
0.0
  0
SPLINE
  5
B0
330
1F
100
AcDbEntity
  8
0
  6
Continuous
 62
     1
370
    15
100
AcDbSpline
210
0.0
220
0.0
230
1.0
 70
     8
 71
     3
 72
    11
 73
     7
 74
     0
 42
0.000000001
 43
0.00000001
 40
0.0
 40
0.0
 40
0.0
 40
0.0
 40
0.2966012286281055
 40
0.5937791092859555
 40
0.8902909268730335
 40
1.0
 40
1.0
 40
1.0
 40
1.0
 10
10.0
 20
-5.215978182091322
 30
0.0
 10
10.38078318430819
 20
-5.417745871828507
 30
0.0
 10
11.14308987149013
 20
-5.821673527991554
 30
0.0
 10
12.28841635765295
 20
-6.180405686788001
 30
0.0
 10
13.19114524673335
 20
-6.355763470153025
 30
0.0
 10
13.71277085748713
 20
-6.332358405385781
 30
0.0
 10
13.85364756664528
 20
-6.326037342090444
 30
0.0
  0
SPLINE
  5
B1
330
1F
100
AcDbEntity
  8
0
  6
Continuous
 62
     1
370
    15
100
AcDbSpline
210
0.0
220
0.0
230
1.0
 70
     8
 71
     3
 72
    30
 73
    26
 74
     0
 42
0.000000001
 43
0.00000001
 40
0.0
 40
0.0
 40
0.0
 40
0.0
 40
0.0313062637523385
 40
0.0761355217047296
 40
0.1210582958731204
 40
0.1658649570439316
 40
0.2106988632633357
 40
0.2556194540084575
 40
0.300423695524528
 40
0.3452625505746937
 40
0.3901803674416957
 40
0.4349824914729528
 40
0.4798265956498988
 40
0.5247410483747975
 40
0.5695413572059062
 40
0.6143910105217448
 40
0.6593015090720097
 40
0.7041003050860005
 40
0.7489558072527899
 40
0.793861761867899
 40
0.8386593475297905
 40
0.8835209979434123
 40
0.9284218191753686
 40
0.9732184970157781
 40
1.0
 40
1.0
 40
1.0
 40
1.0
 10
29.21494953778559
 20
4.747467924010799
 30
0.0
 10
29.47089195149776
 20
4.916266991203167
 30
0.0
 10
30.09333317758909
 20
5.326779249888223
 30
0.0
 10
31.08279834161974
 20
5.802445573272874
 30
0.0
 10
32.18514333570629
 20
6.176176520723765
 30
0.0
 10
33.28457986493457
 20
6.360446691395719
 30
0.0
 10
34.3847022210248
 20
6.355034705071364
 30
0.0
 10
35.48694678728038
 20
6.159317300769233
 30
0.0
 10
36.58633652917471
 20
5.778474070888117
 30
0.0
 10
37.68657729231548
 20
5.224442880798156
 30
0.0
 10
38.78875504864873
 20
4.515251463128369
 30
0.0
 10
39.88809263132337
 20
3.668760718977521
 30
0.0
 10
40.98846263070578
 20
2.712982309970355
 30
0.0
 10
42.09055824036757
 20
1.677624007373641
 30
0.0
 10
43.18985139674187
 20
0.5892425302123645
 30
0.0
 10
44.29035793605147
 20
-0.5155735489832564
 30
0.0
 10
45.39235702427561
 20
-1.603467823983825
 30
0.0
 10
46.49161318271329
 20
-2.646043566310996
 30
0.0
 10
47.59226384533947
 20
-3.607818061305956
 30
0.0
 10
48.69415118703341
 20
-4.4608194621897
 30
0.0
 10
49.79338090626259
 20
-5.181474668016749
 30
0.0
 10
50.89417161001736
 20
-5.747896128187277
 30
0.0
 10
51.99597548905024
 20
-6.133580465394391
 30
0.0
 10
52.9473066836407
 20
-6.336019986925596
 30
0.0
 10
53.53298791727059
 20
-6.329498882441408
 30
0.0
 10
53.75212485991922
 20
-6.327058963220331
 30
0.0
  0
SPLINE
  5
B2
330
1F
100
AcDbEntity
  8
0
  6
Continuous
 62
     1
370
    15
100
AcDbSpline
210
0.0
220
0.0
230
1.0
 70
     8
 71
     3
 72
    28
 73
    24
 74
     0
 42
0.000000001
 43
0.00000001
 40
0.0
 40
0.0
 40
0.0
 40
0.0
 40
0.0481409902040229
 40
0.0961896087740292
 40
0.1443379994295409
 40
0.1924714337288442
 40
0.2405203769033151
 40
0.2886755370254091
 40
0.3368017354357316
 40
0.3848513278015366
 40
0.4330126259400161
 40
0.4811319088678959
 40
0.529182474976716
 40
0.5773492792593976
 40
0.6254619674849845
 40
0.6735138318357233
 40
0.7216855100117938
 40
0.7697919246716274
 40
0.8178454116928259
 40
0.866021331176253
 40
0.9141217937460071
 40
0.9621772277782658
 40
1.0
 40
1.0
 40
1.0
 40
1.0
 10
60.80000000000126
 20
-5.687295437006376
 30
0.0
 10
60.43266516813181
 20
-5.834015120652762
 30
0.0
 10
59.69870033656412
 20
-6.127172966172438
 30
0.0
 10
58.59951688492331
 20
-6.338302475806659
 30
0.0
 10
57.49804792316001
 20
-6.371266819397244
 30
0.0
 10
56.39692170528516
 20
-6.210394913257005
 30
0.0
 10
55.29773128964921
 20
-5.863593455986968
 30
0.0
 10
54.19610822753562
 20
-5.341733702121162
 30
0.0
 10
53.09514792441815
 20
-4.659815562068241
 30
0.0
 10
51.99594308605531
 20
-3.836786513579415
 30
0.0
 10
50.8941802928365
 20
-2.900848971011451
 30
0.0
 10
49.79337858438025
 20
-1.877290210398451
 30
0.0
 10
48.69415181074186
 20
-0.7958151761811184
 30
0.0
 10
47.59226367735899
 20
0.3068010399202609
 30
0.0
 10
46.49161323095292
 20
1.40148244168258
 30
0.0
 10
45.39235699894512
 20
2.455514904635487
 30
0.0
 10
44.29035798914337
 20
3.433343887927008
 30
0.0
 10
43.18985121011314
 20
4.309858089711799
 30
0.0
 10
42.09055893382337
 20
5.057477513302154
 30
0.0
 10
40.98846003776912
 20
5.653411215930031
 30
0.0
 10
39.88810228659749
 20
6.075146570265772
 30
0.0
 10
38.86760500921599
 20
6.317999234756997
 30
0.0
 10
38.21206652737294
 20
6.329038973941604
 30
0.0
 10
37.92335203550291
 20
6.333901133490343
 30
0.0
  0
SPLINE
  5
B3
330
1F
100
AcDbEntity
  8
0
  6
Continuous
 62
     1
370
    15
100
AcDbSpline
210
0.0
220
0.0
230
1.0
 70
     8
 71
     3
 72
    19
 73
    15
 74
     0
 42
0.000000001
 43
0.00000001
 40
0.0
 40
0.0
 40
0.0
 40
0.0
 40
0.0227123828867225
 40
0.1104483545327691
 40
0.1979721202451883
 40
0.2855002597987185
 40
0.373235880912686
 40
0.4607529214713751
 40
0.5482887324649223
 40
0.6360228492687195
 40
0.7269551563041046
 40
0.8178928716545336
 40
0.9090348630248133
 40
0.9999999999999999
 40
0.9999999999999999
 40
0.9999999999999999
 40
0.9999999999999999
 10
22.56535452707016
 20
-4.748779698300985
 30
0.0
 10
22.4702870541662
 20
-4.81570713996418
 30
0.0
 10
22.00798215184927
 20
-5.141169503013237
 30
0.0
 10
21.17720729374703
 20
-5.579540602070963
 30
0.0
 10
20.07759950297927
 20
-6.037073145690228
 30
0.0
 10
18.97781248721714
 20
-6.302180283753674
 30
0.0
 10
17.87545034962831
 20
-6.381231323505468
 30
0.0
 10
16.77583256122108
 20
-6.268422545446564
 30
0.0
 10
15.67595524475716
 20
-5.967612728376083
 30
0.0
 10
14.55932969054739
 20
-5.482724414158234
 30
0.0
 10
13.43103328970835
 20
-4.818682660815687
 30
0.0
 10
12.28837050285979
 20
-3.988918005644483
 30
0.0
 10
11.14310131993542
 20
-3.036651918201471
 30
0.0
 10
10.38078699798649
 20
-2.323378021356447
 30
0.0
 10
10.00000000000208
 20
-1.967087422977198
 30
0.0
  0
SPLINE
  5
B4
330
1F
100
AcDbEntity
  8
0
  6
Continuous
 62
     4
370
    15
100
AcDbSpline
210
0.0
220
0.0
230
1.0
 70
    24
 71
     3
 72
    18
 73
    14
 74
     0
 42
0.000000001
 43
0.00000001
 40
0.0
 40
0.0
 40
0.0
 40
0.0
 40
0.2500000000000001
 40
0.2500000000000001
 40
0.5000000000000001
 40
0.5000000000000001
 40
0.6250000000000001
 40
0.6250000000000001
 40
0.7500000000000001
 40
0.7500000000000001
 40
0.875
 40
0.875
 40
1.0
 40
1.0
 40
1.0
 40
1.0
 10
10.00000000000126
 20
5.744396861581412
 30
0.0
 10
10.00000000000126
 20
5.259004863711566
 30
0.0
 10
10.00000000000126
 20
4.697426374593948
 30
0.0
 10
10.00000000000126
 20
3.423784370750262
 30
0.0
 10
10.00000000000126
 20
2.709467737802852
 30
0.0
 10
10.00000000000126
 20
1.591494149822438
 30
0.0
 10
10.00000000000126
 20
1.212079087858011
 30
0.0
 10
10.00000000000126
 20
0.4638130431438675
 30
0.0
 10
10.00000000000126
 20
0.0950894376400056
 30
0.0
 10
10.00000000000126
 20
-0.6009732114632361
 30
0.0
 10
10.00000000000126
 20
-0.9280675482300857
 30
0.0
 10
10.00000000000126
 20
-1.508986033405304
 30
0.0
 10
10.00000000000126
 20
-1.762534282215139
 30
0.0
 10
10.00000000000126
 20
-1.967087422981984
 30
0.0
  0
SPLINE
  5
B5
330
1F
100
AcDbEntity
  8
0
  6
Continuous
 62
     1
370
    15
100
AcDbSpline
210
0.0
220
0.0
230
1.0
 70
     8
 71
     3
 72
    23
 73
    19
 74
     0
 42
0.000000001
 43
0.00000001
 40
0.0
 40
0.0
 40
0.0
 40
0.0
 40
0.0666328796650382
 40
0.1333953069569838
 40
0.2000081000055065
 40
0.2666169314087505
 40
0.33088305623301
 40
0.395003920052552
 40
0.4591110343393748
 40
0.5233782610859958
 40
0.5874935054984055
 40
0.651605546028118
 40
0.7158730295430193
 40
0.7799830856388412
 40
0.8441004836754672
 40
0.9083673787868956
 40
0.9724726779376139
 40
1.0
 40
1.0
 40
1.0
 40
1.0
 10
10.0
 20
5.744396861562853
 30
0.0
 10
10.38078699780322
 20
5.563922642175588
 30
0.0
 10
11.14310131938944
 20
5.202623325471769
 30
0.0
 10
12.28837050503934
 20
4.444216286704708
 30
0.0
 10
13.43103328155174
 20
3.553957904657735
 30
0.0
 10
14.55932972054412
 20
2.557383337712903
 30
0.0
 10
15.67595513728036
 20
1.498169266813582
 30
0.0
 10
16.77583296176253
 20
0.4050893510429617
 30
0.0
 10
17.87544885332537
 20
-0.7003513857098551
 30
0.0
 10
18.97781808153117
 20
-1.78207277596014
 30
0.0
 10
20.07757868181238
 20
-2.813003985944424
 30
0.0
 10
21.17728508037863
 20
-3.759432608255285
 30
0.0
 10
22.2796560055303
 20
-4.591378060831252
 30
0.0
 10
23.3793322967883
 20
-5.286988751958003
 30
0.0
 10
24.47911387545879
 20
-5.826728661854112
 30
0.0
 10
25.58153775731053
 20
-6.179778205859397
 30
0.0
 10
26.47189513902391
 20
-6.35043363079804
 30
0.0
 10
26.99569601165989
 20
-6.332153715063667
 30
0.0
 10
27.15305083930449
 20
-6.326662252296024
 30
0.0
  0
SPLINE
  5
B6
330
1F
100
AcDbEntity
  8
0
  6
Continuous
 62
     1
370
    15
100
AcDbSpline
210
0.0
220
0.0
230
1.0
 70
     8
 71
     3
 72
    24
 73
    20
 74
     0
 42
0.000000001
 43
0.00000001
 40
0.0
 40
0.0
 40
0.0
 40
0.0
 40
0.0369713539244216
 40
0.0971536627959679
 40
0.1574176179327774
 40
0.2175316830248985
 40
0.2777218402816255
 40
0.3379796980578356
 40
0.3980921390173604
 40
0.4582905464089834
 40
0.5185415158632638
 40
0.5786527386463081
 40
0.6388597974766903
 40
0.6991030881213853
 40
0.759213498750091
 40
0.8194296098556986
 40
0.879664431731071
 40
0.9397744362716013
 40
1.0
 40
1.0
 40
1.0
 40
1.0
 10
42.51399380195016
 20
4.745594590985773
 30
0.0
 10
42.73920160316763
 20
4.896242743233223
 30
0.0
 10
43.331004727912
 20
5.292117338851332
 30
0.0
 10
44.29032945697501
 20
5.762723980294548
 30
0.0
 10
45.3923646269802
 20
6.152327456217845
 30
0.0
 10
46.49161118636638
 20
6.352204579278849
 30
0.0
 10
47.59226422622576
 20
6.362880745181251
 30
0.0
 10
48.69415166400606
 20
6.182903783842267
 30
0.0
 10
49.79337862371943
 20
5.817056609665701
 30
0.0
 10
50.89418028227822
 20
5.277247034091436
 30
0.0
 10
51.99594308887797
 20
4.580156910135068
 30
0.0
 10
53.09514792366124
 20
3.74392367888242
 30
0.0
 10
54.1961082277387
 20
2.796824243128838
 30
0.0
 10
55.29773128959488
 20
1.766638876794328
 30
0.0
 10
56.3969217052997
 20
0.6812096354801278
 30
0.0
 10
57.49804792315611
 20
-0.4231957030254019
 30
0.0
 10
58.59951688492434
 20
-1.512579821210767
 30
0.0
 10
59.69870033656389
 20
-2.566442296025467
 30
0.0
 10
60.43266516813172
 20
-3.197377506933045
 30
0.0
 10
60.80000000000126
 20
-3.513148058396975
 30
0.0
  0
SPLINE
  5
B7
330
1F
100
AcDbEntity
  8
0
  6
Continuous
 62
     1
370
    15
100
AcDbSpline
210
0.0
220
0.0
230
1.0
 70
     8
 71
     3
 72
    11
 73
     7
 74
     0
 42
0.000000001
 43
0.00000001
 40
0.0
 40
0.0
 40
0.0
 40
0.0
 40
0.0775017354370192
 40
0.3070565947297909
 40
0.5434160370935026
 40
1.0
 40
1.0
 40
1.0
 40
1.0
 10
59.94532059871928
 20
-2.764330634200069
 30
0.0
 10
59.9146207338419
 20
-2.769658558364756
 30
0.0
 10
59.79298996112741
 20
-2.790767430853383
 30
0.0
 10
59.54655501039112
 20
-2.87892198832587
 30
0.0
 10
59.11310773033021
 20
-3.068270057639906
 30
0.0
 10
58.77423411474017
 20
-3.28311715690805
 30
0.0
 10
58.55094855180126
 20
-3.424681012277397
 30
0.0
  0
SPLINE
  5
B8
330
1F
100
AcDbEntity
  8
0
  6
Continuous
 62
     1
370
    15
100
AcDbSpline
210
0.0
220
0.0
230
1.0
 70
     8
 71
     3
 72
    10
 73
     6
 74
     0
 42
0.000000001
 43
0.00000001
 40
0.0
 40
0.0
 40
0.0
 40
0.0
 40
0.5
 40
0.5
 40
1.0
 40
1.0
 40
1.0
 40
1.0
 10
60.80000000000126
 20
-3.712261908249135
 30
0.0
 10
60.41495743820477
 20
-3.731963917863448
 30
0.0
 10
60.03468815358418
 20
-3.720018246049772
 30
0.0
 10
59.28433099874787
 20
-3.628622303862831
 30
0.0
 10
58.91411231525242
 20
-3.550039348931941
 30
0.0
 10
58.55094855179718
 20
-3.424681012285893
 30
0.0
  0
LINE
  5
B9
330
1F
100
AcDbEntity
  8
0
  6
Continuous
 62
     1
370
    15
100
AcDbLine
 10
60.80000000000126
 20
-5.687295437006382
 30
0.0
 11
60.80000000000126
 21
-3.712261908249135
 31
0.0
  0
SPLINE
  5
BA
330
1F
100
AcDbEntity
  8
0
  6
Continuous
 62
     1
370
    15
100
AcDbSpline
210
0.0
220
0.0
230
1.0
 70
     8
 71
     3
 72
    16
 73
    12
 74
     0
 42
0.000000001
 43
0.00000001
 40
0.0
 40
0.0
 40
0.0
 40
0.0
 40
0.1149953975247743
 40
0.2297701449813069
 40
0.3447832201204639
 40
0.4597605686964484
 40
0.5745360915425041
 40
0.6895653370491039
 40
0.8045254011046358
 40
0.9193024746877083
 40
1.0
 40
1.0
 40
1.0
 40
1.0
 10
60.80000000000126
 20
0.3976554946491396
 30
0.0
 10
60.43266516716618
 20
0.7626504036833077
 30
0.0
 10
59.69870033366917
 20
1.491939879361254
 30
0.0
 10
58.59951689648729
 20
2.540434775552393
 30
0.0
 10
57.49804787969746
 20
3.511377753794789
 30
0.0
 10
56.3969218673585
 20
4.37749900738468
 30
0.0
 10
55.29773068538286
 20
5.113305132171681
 30
0.0
 10
54.19611048780154
 20
5.696129147391986
 30
0.0
 10
53.09513950089226
 20
6.101965505569324
 30
0.0
 10
52.1054710670146
 20
6.326257533959969
 30
0.0
 10
51.48094634493855
 20
6.328922883673295
 30
0.0
 10
51.22312461335461
 20
6.330023216540956
 30
0.0
  0
SPLINE
  5
BB
330
1F
100
AcDbEntity
  8
0
  6
Continuous
 62
     1
370
    15
100
AcDbSpline
210
0.0
220
0.0
230
1.0
 70
     8
 71
     3
 72
    30
 73
    26
 74
     0
 42
0.000000001
 43
0.00000001
 40
0.0
 40
0.0
 40
0.0
 40
0.0
 40
0.0153746011098908
 40
0.0602918255696614
 40
0.1051223719997294
 40
0.1499256754229097
 40
0.1948450831423267
 40
0.2396709816537161
 40
0.2844770065665086
 40
0.3293980069847269
 40
0.3742195583701711
 40
0.4190286066413417
 40
0.4639506090879054
 40
0.5087681143754202
 40
0.5535804877099724
 40
0.598502901445462
 40
0.6433166618820974
 40
0.6881326618049584
 40
0.7330548960616461
 40
0.7778652130972153
 40
0.8226851409369379
 40
0.8676066049594493
 40
0.9141656005678397
 40
0.9607273653319305
 40
1.0
 40
1.0
 40
1.0
 40
1.0
 10
35.86449229871546
 20
-4.746406277617095
 30
0.0
 10
35.73882698876067
 20
-4.833945535258977
 30
0.0
 10
35.24602780042417
 20
-5.177232597766675
 30
0.0
 10
34.38464747168523
 20
-5.624667068914336
 30
0.0
 10
33.2845969368796
 20
-6.066231753060473
 30
0.0
 10
32.18512969537404
 20
-6.316144426150728
 30
0.0
 10
31.08283586329377
 20
-6.379104121241521
 30
0.0
 10
29.98282989234386
 20
-6.25043651953856
 30
0.0
 10
28.88331448542839
 20
-5.9341143466292
 30
0.0
 10
27.78097675179687
 20
-5.441130742650332
 30
0.0
 10
26.6810791044893
 20
-4.78405778446843
 30
0.0
 10
25.58148901548094
 20
-3.983069350206335
 30
0.0
 10
24.47912691584861
 20
-3.065042407913121
 30
0.0
 10
23.37932880665422
 20
-2.05301628170395
 30
0.0
 10
22.27965694375213
 20
-0.9791975152500143
 30
0.0
 10
21.17728482769348
 20
0.1212291978733542
 30
0.0
 10
20.07757875580313
 20
1.220723074679169
 30
0.0
 10
18.97781803790887
 20
2.28350000859897
 30
0.0
 10
17.87544895377479
 20
3.275447378486822
 30
0.0
 10
16.77583260458201
 20
4.171840825037129
 30
0.0
 10
15.67595646751447
 20
4.942345603057849
 30
0.0
 10
14.55932466805124
 20
5.572925213377666
 30
0.0
 10
13.43105290316371
 20
6.033057019316954
 30
0.0
 10
12.34874076057192
 20
6.309146607214178
 30
0.0
 10
11.64589996724979
 20
6.327757681477305
 30
0.0
 10
11.3243224891226
 20
6.336272984492777
 30
0.0
  0
SPLINE
  5
BC
330
1F
100
AcDbEntity
  8
0
  6
Continuous
 62
     1
370
    15
100
AcDbSpline
210
0.0
220
0.0
230
1.0
 70
     8
 71
     3
 72
    30
 73
    26
 74
     0
 42
0.000000001
 43
0.00000001
 40
0.0
 40
0.0
 40
0.0
 40
0.0
 40
0.0350674336287457
 40
0.0798816104159503
 40
0.1248077140643006
 40
0.1696275742282944
 40
0.2144451947131636
 40
0.259371477855775
 40
0.3041877111190826
 40
0.3490090767773952
 40
0.3939349485956543
 40
0.438747856509175
 40
0.4835732686139295
 40
0.5284981383175329
 40
0.5733080226122574
 40
0.6181377822173981
 40
0.6630610590850126
 40
0.7078682216557085
 40
0.7527026295798775
 40
0.79762372299979
 40
0.8424284658886686
 40
0.8872678226989783
 40
0.9321861422097304
 40
0.9769887675901004
 40
1.0
 40
1.0
 40
1.0
 40
1.0
 10
15.91569628148297
 20
4.750341808313191
 30
0.0
 10
16.20245505509057
 20
4.936669704382573
 30
0.0
 10
16.8556751589393
 20
5.361114006780485
 30
0.0
 10
17.87541444718361
 20
5.840845686843532
 30
0.0
 10
18.97782726927241
 20
6.198773133539144
 30
0.0
 10
20.07757628506301
 20
6.367347219790779
 30
0.0
 10
21.17728549156005
 20
6.3458578372719
 30
0.0
 10
22.27965676614886
 20
6.134403820366567
 30
0.0
 10
23.37932885429214
 20
5.738670947220751
 30
0.0
 10
24.47912690269068
 20
5.170594760601912
 30
0.0
 10
25.58148902034087
 20
4.44930749008277
 30
0.0
 10
26.68107909820027
 20
3.592812938339002
 30
0.0
 10
27.78097677212708
 20
2.628665371266397
 30
0.0
 10
28.88331441030267
 20
1.588105900809408
 30
0.0
 10
29.98283017172283
 20
0.4972259799452672
 30
0.0
 10
31.08283481918005
 20
-0.6080820329064739
 30
0.0
 10
32.18513359679057
 20
-1.692887827674847
 30
0.0
 10
33.28458241577481
 20
-2.729807019317029
 30
0.0
 10
34.38470175059808
 20
-3.68405791493903
 30
0.0
 10
35.48694611043368
 20
-4.526528255206061
 30
0.0
 10
36.58633969682768
 20
-5.234783249105896
 30
0.0
 10
37.6865652761099
 20
-5.787930914645276
 30
0.0
 10
38.78879997866945
 20
-6.15736351029053
 30
0.0
 10
39.70959134618585
 20
-6.34340565370919
 30
0.0
 10
40.26427901727052
 20
-6.330552726117744
 30
0.0
 10
40.45250082517461
 20
-6.326191350528862
 30
0.0
  0
SPLINE
  5
BD
330
1F
100
AcDbEntity
  8
0
  6
Continuous
 62
     1
370
    15
100
AcDbSpline
210
0.0
220
0.0
230
1.0
 70
     8
 71
     3
 72
    12
 73
     8
 74
     0
 42
0.000000001
 43
0.00000001
 40
0.0
 40
0.0
 40
0.0
 40
0.0
 40
0.1171149258382938
 40
0.3379076423869086
 40
0.5587689651873928
 40
0.7791726237859525
 40
1.0
 40
1.0
 40
1.0
 40
1.0
 10
55.81291702995111
 20
4.744720622545064
 30
0.0
 10
56.00745333495959
 20
4.87659042098305
 30
0.0
 10
56.56874220325331
 20
5.257069786642576
 30
0.0
 10
57.49803794124383
 20
5.722303952586511
 30
0.0
 10
58.59951954078715
 20
6.124953138229456
 30
0.0
 10
59.69869967168395
 20
6.351140152848104
 30
0.0
 10
60.43266494636323
 20
6.342074017144899
 30
0.0
 10
60.80000000000126
 20
6.337536596152767
 30
0.0
  0
LINE
  5
BE
330
1F
100
AcDbEntity
  8
0
  6
Continuous
 62
     1
370
    15
100
AcDbLine
 10
60.80000000000126
 20
4.111650175187044
 30
0.0
 11
60.80000000000126
 21
6.337536596152773
 31
0.0
  0
SPLINE
  5
BF
330
1F
100
AcDbEntity
  8
0
  6
Continuous
 62
     1
370
    15
100
AcDbSpline
210
0.0
220
0.0
230
1.0
 70
     8
 71
     3
 72
    14
 73
    10
 74
     0
 42
0.000000001
 43
0.00000001
 40
0.0
 40
0.0
 40
0.0
 40
0.0
 40
0.145872598789287
 40
0.2952884128588263
 40
0.4180997977149436
 40
0.5443702395486903
 40
0.6672422114687324
 40
0.79375641750482
 40
1.0
 40
1.0
 40
1.0
 40
1.0
 10
60.80000000000126
 20
4.111650175189009
 30
0.0
 10
60.74298821313134
 20
3.965789177407277
 30
0.0
 10
60.62757983486982
 20
3.670524248349639
 30
0.0
 10
60.39991953024997
 20
3.296744199275034
 30
0.0
 10
60.13963928203866
 20
2.989169522650093
 30
0.0
 10
59.85955849348343
 20
2.755875056475782
 30
0.0
 10
59.54792215481626
 20
2.58573193203994
 30
0.0
 10
59.14620164967953
 20
2.451134092012396
 30
0.0
 10
58.84271248000275
 20
2.465820149786777
 30
0.0
 10
58.65460961431506
 20
2.474922581863539
 30
0.0
  0
SPLINE
  5
C0
330
1F
100
AcDbEntity
  8
0
  6
Continuous
 62
     1
370
    15
100
AcDbSpline
210
0.0
220
0.0
230
1.0
 70
     8
 71
     3
 72
     9
 73
     5
 74
     0
 42
0.000000001
 43
0.00000001
 40
0.0
 40
0.0
 40
0.0
 40
0.0
 40
0.640227270426837
 40
0.9999999999999999
 40
0.9999999999999999
 40
0.9999999999999999
 40
0.9999999999999999
 10
60.80000000000126
 20
1.224917617528855
 30
0.0
 10
60.36135192652736
 20
1.494541852389421
 30
0.0
 10
59.67620761335019
 20
1.915680168913815
 30
0.0
 10
59.01724815125584
 20
2.239376374546754
 30
0.0
 10
58.78017250690012
 20
2.355833441999793
 30
0.0
  0
LINE
  5
C1
330
1F
100
AcDbEntity
  8
0
  6
Continuous
 62
     1
370
    15
100
AcDbLine
 10
60.80000000000126
 20
0.3976554946491386
 30
0.0
 11
60.80000000000126
 21
1.224917617528855
 31
0.0
  0
LINE
  5
C2
102
{ACAD_REACTORS
102
}
330
1F
100
AcDbEntity
  8
0
  6
Continuous
 62
     1
370
    15
100
AcDbLine
 10
60.80000000000126
 20
6.337536596152773
 30
0.0
 11
60.80000000000126
 21
6.350000000000019
 31
0.0
  0
LINE
  5
C3
330
1F
100
AcDbEntity
  8
0
  6
Continuous
 62
     4
370
    15
100
AcDbLine
 10
10.00000000000125
 20
-5.21597818210697
 30
0.0
 11
10.00000000000126
 21
-1.967087422981986
 31
0.0
  0
LINE
  5
C4
330
1F
100
AcDbEntity
  8
0
  6
Continuous
 62
     1
370
    15
100
AcDbLine
 10
60.80000000000126
 20
-3.513148058396978
 30
0.0
 11
60.80000000000126
 21
0.3976554946491386
 31
0.0
  0
LINE
  5
C5
330
1F
100
AcDbEntity
  8
0
  6
Continuous
 62
     4
370
    15
100
AcDbLine
 10
10.00000000000125
 20
5.744396861581415
 30
0.0
 11
10.00000000000126
 21
6.350000000000019
 31
0.0
  0
LINE
  5
C6
330
1F
100
AcDbEntity
  8
0
  6
Continuous
 62
     1
370
    15
100
AcDbLine
 10
60.80000000000126
 20
1.224917617528855
 30
0.0
 11
60.80000000000126
 21
4.111650175187044
 31
0.0
  0
LINE
  5
C7
330
1F
100
AcDbEntity
  8
0
  6
Continuous
 62
     1
370
    15
100
AcDbLine
 10
60.80000000000126
 20
-3.513148058396979
 30
0.0
 11
60.80000000000126
 21
-3.712261908249136
 31
0.0
  0
LINE
  5
C8
330
1F
100
AcDbEntity
  8
중심선
100
AcDbLine
 10
-43.29999999999875
 20
-0.0000000000000006
 30
0.0
 11
28.1625424390243
 21
-0.000000000000001
 31
0.0
  0
CIRCLE
  5
C9
330
1F
100
AcDbEntity
  8
외형선
100
AcDbCircle
 10
0.0
 20
0.0
 30
0.0
 40
3.000000000000008
  0
INSERT
  5
CA
330
1F
100
AcDbEntity
  8
0
  6
Continuous
 62
     7
100
AcDbBlockReference
 66
     1
  2
블럭10
 10
-4.182669010782632
 20
-33.25003416127041
 30
0.0
  0
ATTRIB
  5
CB
330
CA
100
AcDbEntity
  8
FORMAT
 62
     2
100
AcDbText
 10
-13.36396429952391
 20
-31.17466724843822
 30
0.0
 40
4.233333333333333
  1
E5982032 [ 3 FLUTE ]
 41
0.75
  7
SLDTEXTSTYLE0
 11
-13.36396429952391
 21
-33.29133391510489
 31
0.0
100
AcDbAttribute
  2
AUTOATTR0
 70
     0
 74
     1
  0
SEQEND
  5
CC
330
CA
100
AcDbEntity
  8
0
  6
Continuous
 62
     7
  0
HATCH
  5
CD
330
1F
100
AcDbEntity
  8
중심선
100
AcDbHatch
 10
0.0
 20
0.0
 30
0.0
210
0.0
220
0.0
230
1.0
  2
SOLID
 70
     1
 71
     0
 91
        1
 92
        0
 93
        4
 72
     1
 10
1.532240293598219
 20
-17.00285985962647
 11
-1.914034950239063
 21
-17.00285985962647
 72
     1
 10
-1.914034950239063
 20
-17.00285985962647
 11
-4.042264809443086
 21
-19.53918544019907
 72
     1
 10
-4.042264809443086
 20
-19.53918544019907
 11
-0.5959564804926529
 21
-19.53914601089658
 72
     1
 10
-0.5959564804926529
 20
-19.53914601089658
 11
1.532240293598219
 21
-17.00285985962647
 97
        0
 75
     0
 76
     1
 98
        1
 10
15.5921904596639
 20
18.79606521164964
  0
HATCH
  5
CE
330
1F
100
AcDbEntity
  8
중심선
100
AcDbHatch
 10
0.0
 20
0.0
 30
0.0
210
0.0
220
0.0
230
1.0
  2
SOLID
 70
     1
 71
     0
 91
        1
 92
        0
 93
        4
 72
     1
 10
6.545004284634171
 20
-17.00285985962647
 11
3.098729040796888
 21
-17.00285985962647
 72
     1
 10
3.098729040796888
 20
-17.00285985962647
 11
-1.432408967560498
 21
-22.40285985962648
 72
     1
 10
-1.432408967560498
 20
-22.40285985962648
 11
2.013866276276783
 21
-22.40285985962648
 72
     1
 10
2.013866276276783
 20
-22.40285985962648
 11
6.545004284634171
 21
-17.00285985962647
 97
        0
 75
     0
 76
     1
 98
        1
 10
15.5921904596639
 20
18.79606521164964
  0
HATCH
  5
CF
330
1F
100
AcDbEntity
  8
중심선
100
AcDbHatch
 10
0.0
 20
0.0
 30
0.0
210
0.0
220
0.0
230
1.0
  2
SOLID
 70
     1
 71
     0
 91
        1
 92
        0
 93
        4
 72
     1
 10
11.55776827567007
 20
-17.00285985962649
 11
8.111493031832952
 21
-17.00285985962647
 72
     1
 10
8.11149303183295
 20
-17.00285985962647
 11
1.063056129943701
 21
-25.40285985962648
 72
     1
 10
1.063056129943702
 20
-25.40285985962648
 11
4.509331373780984
 21
-25.40285985962648
 72
     1
 10
4.509331373780984
 20
-25.40285985962648
 11
11.55776827567007
 21
-17.00285985962649
 97
        0
 75
     0
 76
     1
 98
        1
 10
15.5921904596639
 20
18.79606521164964
  0
HATCH
  5
D0
330
1F
100
AcDbEntity
  8
중심선
100
AcDbHatch
 10
0.0
 20
0.0
 30
0.0
210
0.0
220
0.0
230
1.0
  2
SOLID
 70
     1
 71
     0
 91
        1
 92
        0
 93
        6
 72
     3
 10
16.35765870668227
 20
-21.20285985967774
 11
3.960054785062283
 21
1.540882976769353E-10
 40
0.3939339440162628
 50
17.09539180608437
 51
320.0019657685081
 73
     0
 72
     1
 10
18.04065836238286
 20
-19.79075386426477
 11
20.3459602360839
 21
-17.85642715421685
 72
     3
 10
16.35765870662942
 20
-21.20285985962662
 11
6.600054785286829
 21
-1.278976924368180E-13
 40
0.636358354079598
 50
39.99873849337411
 51
368.4976242363725
 73
     1
 72
     1
 10
22.78299119853003
 20
-20.24285985955649
 11
15.03772601346534
 21
-20.24285985955646
 72
     1
 10
15.03772601346534
 20
-20.24285985955646
 11
15.03770096901941
 21
-22.16285985955638
 72
     1
 10
15.03770096901941
 20
-22.16285985955638
 11
19.47908073849144
 21
-22.16285985955635
 97
        0
 75
     0
 76
     1
 98
        1
 10
15.5921904596639
 20
18.79606521164964
  0
POINT
  5
D1
330
1F
100
AcDbEntity
  8
치수문자_일반주서
100
AcDbPoint
 10
-40.79999999999875
 20
-0.0000000000000011
 30
0.0
  0
DIMENSION
  5
DD
330
1F
100
AcDbEntity
  8
치수문자_일반주서
100
AcDbDimension
  2
_D_1
 10
10.00000000000126
 20
26.96341845233052
 30
0.0
 11
35.40000000000126
 21
26.96341845233052
 31
0.0
 70
   160
  1
<>
 71
     2
 42
50.8
  3
SLDDIMSTYLE1
100
AcDbAlignedDimension
 13
60.80000000000125
 23
6.350000000000019
 33
0.0
 14
10.00000000000126
 24
6.350000000000014
 34
0.0
100
AcDbRotatedDimension
1001
ACAD
1000
DSTYLE
1002
{
1070
   171
1070
     6
1070
   273
1070
     5
1002
}
  0
DIMENSION
  5
F1
330
1F
100
AcDbEntity
  8
치수문자_일반주서
100
AcDbDimension
  2
_D_2
 10
-40.79999999999874
 20
44.98610365728746
 30
0.0
 11
10.00000000000126
 21
44.98610365728746
 31
0.0
 70
   160
  1
<>
 71
     2
 42
101.6
  3
SLDDIMSTYLE1
100
AcDbAlignedDimension
 13
60.80000000000125
 23
6.350000000000019
 33
0.0
 14
-40.79999999999874
 24
5.850000000000009
 34
0.0
100
AcDbRotatedDimension
1001
ACAD
1000
DSTYLE
1002
{
1070
   171
1070
     6
1070
   273
1070
     5
1002
}
  0
DIMENSION
  5
104
330
1F
100
AcDbEntity
  8
치수문자_일반주서
100
AcDbDimension
  2
_D_3
 10
-48.74086086741831
 20
-6.350000000000023
 30
0.0
 11
-48.74086086741842
 21
26.73524999999998
 31
0.0
 70
   160
  1
%%c<>
 71
     2
 42
12.7
 52
-270.0
  3
SLDDIMSTYLE2
100
AcDbAlignedDimension
 13
-40.29999999999874
 23
6.350000000000011
 33
0.0
 14
-40.29999999999874
 24
-6.349999999999988
 34
0.0
 50
90.0000000000002
100
AcDbRotatedDimension
1001
ACAD
1000
DSTYLE
1002
{
1070
   171
1070
     6
1070
   273
1070
     5
1002
}
  0
INSERT
  5
11F
330
1F
100
AcDbEntity
  8
외형선
100
AcDbBlockReference
  2
SW_DOWELSYMBOL_0
 10
0.0
 20
0.0
 30
0.0
  0
DIMENSION
  5
147
102
{ACAD_REACTORS
102
}
102
{ACAD_XDICTIONARY
360
148
102
}
330
1F
100
AcDbEntity
  8
치수문자_일반주서
100
AcDbDimension
  2
*D7
 10
69.91357261412264
 20
6.350000000000018
 30
0.0
 11
67.28857261412264
 21
26.29775000000002
 31
0.0
 70
    32
  1
{Ø<>[]}
 71
     5
 42
12.7
  3
SLDDIMSTYLE2
100
AcDbAlignedDimension
 13
60.80000000000126
 23
-6.349999999999985
 33
0.0
 14
60.80000000000126
 24
6.350000000000019
 34
0.0
 50
90.0
100
AcDbRotatedDimension
1001
ACAD
1000
DSTYLE
1002
{
1070
   283
1070
     1
1070
   170
1070
     1
1070
   171
1070
     6
1070
   273
1070
     5
1002
}
  0
ENDSEC
  0
SECTION
  2
OBJECTS
  0
DICTIONARY
  5
C
330
0
100
AcDbDictionary
281
     1
  3
ACAD_GROUP
350
D
  3
ACAD_IMAGE_VARS
350
143
  3
ACAD_LAYOUT
350
1A
  3
ACAD_MLINESTYLE
350
17
  3
ACAD_PLOTSETTINGS
350
19
  3
ACAD_PLOTSTYLENAME
350
E
  3
ACAD_SCALELIST
350
47
  3
APPDATA
350
141
  3
DWGPROPS
350
15B
  0
DICTIONARY
  5
148
330
147
100
AcDbDictionary
280
     1
281
     1
  0
DICTIONARY
  5
D
102
{ACAD_REACTORS
330
C
102
}
330
C
100
AcDbDictionary
281
     1
  0
RASTERVARIABLES
  5
143
102
{ACAD_REACTORS
330
C
102
}
330
C
100
AcDbRasterVariables
 90
        0
 70
     1
 71
     1
 72
     1
  0
DICTIONARY
  5
1A
102
{ACAD_REACTORS
330
C
102
}
330
C
100
AcDbDictionary
281
     1
  3
Layout1
350
1E
  3
Layout2
350
26
  3
Model
350
22
  0
DICTIONARY
  5
17
102
{ACAD_REACTORS
330
C
102
}
330
C
100
AcDbDictionary
281
     1
  3
Standard
350
18
  0
DICTIONARY
  5
19
102
{ACAD_REACTORS
330
C
102
}
330
C
100
AcDbDictionary
281
     1
  0
ACDBDICTIONARYWDFLT
  5
E
102
{ACAD_REACTORS
330
C
102
}
330
C
100
AcDbDictionary
281
     1
  3
Normal
350
F
100
AcDbDictionaryWithDefault
340
F
  0
DICTIONARY
  5
47
102
{ACAD_REACTORS
330
C
102
}
330
C
100
AcDbDictionary
281
     1
  3
A0
350
48
  3
A1
350
49
  3
A2
350
4A
  3
A3
350
4B
  3
A4
350
4C
  3
A5
350
4D
  3
A6
350
4E
  3
A7
350
4F
  3
A8
350
50
  3
A9
350
51
  3
B0
350
52
  3
B1
350
53
  3
B2
350
54
  3
B3
350
55
  3
B4
350
56
  3
B5
350
57
  3
B6
350
58
  3
B7
350
59
  3
B8
350
5A
  3
B9
350
5B
  3
C0
350
5C
  3
C1
350
5D
  3
C2
350
5E
  3
C3
350
5F
  3
C4
350
60
  3
C5
350
61
  3
C6
350
62
  3
C7
350
63
  3
C8
350
64
  3
C9
350
65
  3
D0
350
66
  3
D1
350
67
  3
D2
350
68
  0
DICTIONARY
  5
141
102
{ACAD_REACTORS
330
C
102
}
330
C
100
AcDbDictionary
281
     1
  0
XRECORD
  5
15B
102
{ACAD_REACTORS
330
C
102
}
330
C
100
AcDbXrecord
280
     1
  1
DWGPROPS COOKIE
  2

  3

  4

  6

  7

  8
12014074
  9

300
=
301
=
302
=
303
=
304
=
305
=
306
=
307
=
308
=
309
=
 40
0.0
 41
2458269.021797095
 42
2458269.458447824
  1

 90
        0
  0
LAYOUT
  5
1E
102
{ACAD_REACTORS
330
1A
102
}
330
1A
100
AcDbPlotSettings
  1

  2
none_device
  4

  6

 40
0.0
 41
0.0
 42
0.0
 43
0.0
 44
0.0
 45
0.0
 46
0.0
 47
0.0
 48
0.0
 49
0.0
140
0.0
141
0.0
142
1.0
143
1.0
 70
   688
 72
     1
 73
     0
 74
     5
  7

 75
    16
147
1.0
148
0.0
149
0.0
100
AcDbLayout
  1
Layout1
 70
     1
 71
     1
 10
0.0
 20
0.0
 11
420.0
 21
297.0
 12
0.0
 22
0.0
 32
0.0
 14
1.000000000000000E+20
 24
1.000000000000000E+20
 34
1.000000000000000E+20
 15
-1.000000000000000E+20
 25
-1.000000000000000E+20
 35
-1.000000000000000E+20
146
0.0
 13
0.0
 23
0.0
 33
0.0
 16
1.0
 26
0.0
 36
0.0
 17
0.0
 27
1.0
 37
0.0
 76
     0
330
1B
  0
LAYOUT
  5
26
102
{ACAD_REACTORS
330
1A
102
}
330
1A
100
AcDbPlotSettings
  1

  2
none_device
  4

  6

 40
0.0
 41
0.0
 42
0.0
 43
0.0
 44
0.0
 45
0.0
 46
0.0
 47
0.0
 48
0.0
 49
0.0
140
0.0
141
0.0
142
1.0
143
1.0
 70
   688
 72
     1
 73
     0
 74
     5
  7

 75
    16
147
1.0
148
0.0
149
0.0
100
AcDbLayout
  1
Layout2
 70
     1
 71
     2
 10
0.0
 20
0.0
 11
0.0
 21
0.0
 12
0.0
 22
0.0
 32
0.0
 14
0.0
 24
0.0
 34
0.0
 15
0.0
 25
0.0
 35
0.0
146
0.0
 13
0.0
 23
0.0
 33
0.0
 16
1.0
 26
0.0
 36
0.0
 17
0.0
 27
1.0
 37
0.0
 76
     0
330
23
  0
LAYOUT
  5
22
102
{ACAD_REACTORS
330
1A
102
}
330
1A
100
AcDbPlotSettings
  1

  2
none_device
  4
ANSI_A_(11.00_x_8.50_Inches)
  6

 40
6.35
 41
19.05
 42
6.35000508
 43
19.05000254
 44
279.4
 45
215.9
 46
136.6539617108135
 47
83.80026627413754
 48
0.0
 49
0.0
140
0.0
141
0.0
142
0.0790051656428861
143
1.0
 70
  1696
 72
     0
 73
     0
 74
     0
  7

 75
     0
147
0.0235690232323232
148
0.0
149
0.0
100
AcDbLayout
  1
Model
 70
     1
 71
     0
 10
0.0
 20
0.0
 11
420.0
 21
297.0
 12
0.0
 22
0.0
 32
0.0
 14
-53.11586086741846
 24
-31.17466724843822
 34
0.0
 15
70.46390594745597
 25
49.36110365728746
 35
0.0
146
0.0
 13
0.0
 23
0.0
 33
0.0
 16
1.0
 26
0.0
 36
0.0
 17
0.0
 27
1.0
 37
0.0
 76
     0
330
1F
331
29
  0
MLINESTYLE
  5
18
102
{ACAD_REACTORS
330
17
102
}
330
17
100
AcDbMlineStyle
  2
Standard
 70
     0
  3

 62
   256
 51
90.0
 52
90.0
 71
     2
 49
0.5
 62
   256
  6
BYLAYER
 49
-0.5
 62
   256
  6
BYLAYER
  0
ACDBPLACEHOLDER
  5
F
102
{ACAD_REACTORS
330
E
102
}
330
E
  0
SCALE
  5
48
102
{ACAD_REACTORS
330
47
102
}
330
47
100
AcDbScale
 70
     0
300
1:1
140
1.0
141
1.0
290
     1
  0
SCALE
  5
49
102
{ACAD_REACTORS
330
47
102
}
330
47
100
AcDbScale
 70
     0
300
1:2
140
1.0
141
2.0
290
     0
  0
SCALE
  5
4A
102
{ACAD_REACTORS
330
47
102
}
330
47
100
AcDbScale
 70
     0
300
1:4
140
1.0
141
4.0
290
     0
  0
SCALE
  5
4B
102
{ACAD_REACTORS
330
47
102
}
330
47
100
AcDbScale
 70
     0
300
1:5
140
1.0
141
5.0
290
     0
  0
SCALE
  5
4C
102
{ACAD_REACTORS
330
47
102
}
330
47
100
AcDbScale
 70
     0
300
1:8
140
1.0
141
8.0
290
     0
  0
SCALE
  5
4D
102
{ACAD_REACTORS
330
47
102
}
330
47
100
AcDbScale
 70
     0
300
1:10
140
1.0
141
10.0
290
     0
  0
SCALE
  5
4E
102
{ACAD_REACTORS
330
47
102
}
330
47
100
AcDbScale
 70
     0
300
1:16
140
1.0
141
16.0
290
     0
  0
SCALE
  5
4F
102
{ACAD_REACTORS
330
47
102
}
330
47
100
AcDbScale
 70
     0
300
1:20
140
1.0
141
20.0
290
     0
  0
SCALE
  5
50
102
{ACAD_REACTORS
330
47
102
}
330
47
100
AcDbScale
 70
     0
300
1:30
140
1.0
141
30.0
290
     0
  0
SCALE
  5
51
102
{ACAD_REACTORS
330
47
102
}
330
47
100
AcDbScale
 70
     0
300
1:40
140
1.0
141
40.0
290
     0
  0
SCALE
  5
52
102
{ACAD_REACTORS
330
47
102
}
330
47
100
AcDbScale
 70
     0
300
1:50
140
1.0
141
50.0
290
     0
  0
SCALE
  5
53
102
{ACAD_REACTORS
330
47
102
}
330
47
100
AcDbScale
 70
     0
300
1:100
140
1.0
141
100.0
290
     0
  0
SCALE
  5
54
102
{ACAD_REACTORS
330
47
102
}
330
47
100
AcDbScale
 70
     0
300
2:1
140
2.0
141
1.0
290
     0
  0
SCALE
  5
55
102
{ACAD_REACTORS
330
47
102
}
330
47
100
AcDbScale
 70
     0
300
4:1
140
4.0
141
1.0
290
     0
  0
SCALE
  5
56
102
{ACAD_REACTORS
330
47
102
}
330
47
100
AcDbScale
 70
     0
300
8:1
140
8.0
141
1.0
290
     0
  0
SCALE
  5
57
102
{ACAD_REACTORS
330
47
102
}
330
47
100
AcDbScale
 70
     0
300
10:1
140
10.0
141
1.0
290
     0
  0
SCALE
  5
58
102
{ACAD_REACTORS
330
47
102
}
330
47
100
AcDbScale
 70
     0
300
100:1
140
100.0
141
1.0
290
     0
  0
SCALE
  5
59
102
{ACAD_REACTORS
330
47
102
}
330
47
100
AcDbScale
 70
     0
300
1/128" = 1'-0"
140
0.0078125
141
12.0
290
     0
  0
SCALE
  5
5A
102
{ACAD_REACTORS
330
47
102
}
330
47
100
AcDbScale
 70
     0
300
1/64" = 1'-0"
140
0.015625
141
12.0
290
     0
  0
SCALE
  5
5B
102
{ACAD_REACTORS
330
47
102
}
330
47
100
AcDbScale
 70
     0
300
1/32" = 1'-0"
140
0.03125
141
12.0
290
     0
  0
SCALE
  5
5C
102
{ACAD_REACTORS
330
47
102
}
330
47
100
AcDbScale
 70
     0
300
1/16" = 1'-0"
140
0.0625
141
12.0
290
     0
  0
SCALE
  5
5D
102
{ACAD_REACTORS
330
47
102
}
330
47
100
AcDbScale
 70
     0
300
3/32" = 1'-0"
140
0.09375
141
12.0
290
     0
  0
SCALE
  5
5E
102
{ACAD_REACTORS
330
47
102
}
330
47
100
AcDbScale
 70
     0
300
1/8" = 1'-0"
140
0.125
141
12.0
290
     0
  0
SCALE
  5
5F
102
{ACAD_REACTORS
330
47
102
}
330
47
100
AcDbScale
 70
     0
300
3/16" = 1'-0"
140
0.1875
141
12.0
290
     0
  0
SCALE
  5
60
102
{ACAD_REACTORS
330
47
102
}
330
47
100
AcDbScale
 70
     0
300
1/4" = 1'-0"
140
0.25
141
12.0
290
     0
  0
SCALE
  5
61
102
{ACAD_REACTORS
330
47
102
}
330
47
100
AcDbScale
 70
     0
300
3/8" = 1'-0"
140
0.375
141
12.0
290
     0
  0
SCALE
  5
62
102
{ACAD_REACTORS
330
47
102
}
330
47
100
AcDbScale
 70
     0
300
1/2" = 1'-0"
140
0.5
141
12.0
290
     0
  0
SCALE
  5
63
102
{ACAD_REACTORS
330
47
102
}
330
47
100
AcDbScale
 70
     0
300
3/4" = 1'-0"
140
0.75
141
12.0
290
     0
  0
SCALE
  5
64
102
{ACAD_REACTORS
330
47
102
}
330
47
100
AcDbScale
 70
     0
300
1" = 1'-0"
140
1.0
141
12.0
290
     0
  0
SCALE
  5
65
102
{ACAD_REACTORS
330
47
102
}
330
47
100
AcDbScale
 70
     0
300
1-1/2" = 1'-0"
140
1.5
141
12.0
290
     0
  0
SCALE
  5
66
102
{ACAD_REACTORS
330
47
102
}
330
47
100
AcDbScale
 70
     0
300
3" = 1'-0"
140
3.0
141
12.0
290
     0
  0
SCALE
  5
67
102
{ACAD_REACTORS
330
47
102
}
330
47
100
AcDbScale
 70
     0
300
6" = 1'-0"
140
6.0
141
12.0
290
     0
  0
SCALE
  5
68
102
{ACAD_REACTORS
330
47
102
}
330
47
100
AcDbScale
 70
     0
300
1'-0" = 1'-0"
140
12.0
141
12.0
290
     0
  0
ENDSEC
  0
EOF
